  0
SECTION
  2
HEADER
  9
$ACADVER
  1
AC1024
  9
$ACADMAINTVER
 70
    63
  9
$DWGCODEPAGE
  3
ANSI_1252
  9
$AUTHOR
  1
PR
  9
$REVISIONNUMBER
  1
-
  9
$CUSTOMPROPERTYTAG
  1
Manager
  9
$CUSTOMPROPERTY
  1

  9
$CUSTOMPROPERTYTAG
  1
Company
  9
$CUSTOMPROPERTY
  1

  9
$CUSTOMPROPERTYTAG
  1
Category
  9
$CUSTOMPROPERTY
  1

  9
$CUSTOMPROPERTYTAG
  1
Part Number
  9
$CUSTOMPROPERTY
  1
HWDWA72P72F1
  9
$CUSTOMPROPERTYTAG
  1
Description
  9
$CUSTOMPROPERTY
  1
N1P PANEL MASTER VIEW
  9
$CUSTOMPROPERTYTAG
  1
Project
  9
$CUSTOMPROPERTY
  1

  9
$CUSTOMPROPERTYTAG
  1
Designer
  9
$CUSTOMPROPERTY
  1
PR
  9
$CUSTOMPROPERTYTAG
  1
Engineer
  9
$CUSTOMPROPERTY
  1

  9
$CUSTOMPROPERTYTAG
  1
Authority
  9
$CUSTOMPROPERTY
  1

  9
$CUSTOMPROPERTYTAG
  1
Cost Center
  9
$CUSTOMPROPERTY
  1

  9
$CUSTOMPROPERTYTAG
  1
Vendor
  9
$CUSTOMPROPERTY
  1

  9
$CUSTOMPROPERTYTAG
  1
User Status
  9
$CUSTOMPROPERTY
  1

  9
$CUSTOMPROPERTYTAG
  1
Design Status
  9
$CUSTOMPROPERTY
  1
WorkInProgress
  9
$CUSTOMPROPERTYTAG
  1
Checked by
  9
$CUSTOMPROPERTY
  1
NJ
  9
$CUSTOMPROPERTYTAG
  1
Engr Approved by
  9
$CUSTOMPROPERTY
  1

  9
$CUSTOMPROPERTYTAG
  1
Date Eng Approved
  9
$CUSTOMPROPERTY
  1
06/19/2013
  9
$CUSTOMPROPERTYTAG
  1
Mfg Approved by
  9
$CUSTOMPROPERTY
  1

  9
$CUSTOMPROPERTYTAG
  1
DWG. NO
  9
$CUSTOMPROPERTY
  1

  9
$CUSTOMPROPERTYTAG
  1
NUMBER OF SHEETS
  9
$CUSTOMPROPERTY
  1
1
  9
$CUSTOMPROPERTYTAG
  1
DRAWING #
  9
$CUSTOMPROPERTY
  1
1
  9
$INSBASE
 10
0.0
 20
0.0
 30
0.0
  9
$EXTMIN
 10
0.0
 20
0.0
 30
0.0
  9
$EXTMAX
 10
204.0
 20
132.0
 30
0.0
  9
$LIMMIN
 10
0.0
 20
0.0
  9
$LIMMAX
 10
204.0
 20
132.0
  9
$ORTHOMODE
 70
     0
  9
$REGENMODE
 70
     1
  9
$FILLMODE
 70
     1
  9
$QTEXTMODE
 70
     0
  9
$MIRRTEXT
 70
     0
  9
$LTSCALE
 40
12.0
  9
$ATTMODE
 70
     1
  9
$TEXTSIZE
 40
0.2
  9
$TRACEWID
 40
0.05
  9
$TEXTSTYLE
  7
Standard
  9
$CLAYER
  8
0
  9
$CELTYPE
  6
ByLayer
  9
$CECOLOR
 62
   256
  9
$CELTSCALE
 40
1.0
  9
$DISPSILH
 70
     0
  9
$DIMSCALE
 40
1.0
  9
$DIMASZ
 40
0.0708661417322835
  9
$DIMEXO
 40
0.0625
  9
$DIMDLI
 40
0.38
  9
$DIMRND
 40
0.0
  9
$DIMDLE
 40
0.0
  9
$DIMEXE
 40
0.18
  9
$DIMTP
 40
0.0
  9
$DIMTM
 40
0.0
  9
$DIMTXT
 40
0.0708661417322835
  9
$DIMCEN
 40
0.09
  9
$DIMTSZ
 40
0.0
  9
$DIMTOL
 70
     0
  9
$DIMLIM
 70
     0
  9
$DIMTIH
 70
     1
  9
$DIMTOH
 70
     1
  9
$DIMSE1
 70
     0
  9
$DIMSE2
 70
     0
  9
$DIMTAD
 70
     0
  9
$DIMZIN
 70
     0
  9
$DIMBLK
  1

  9
$DIMASO
 70
     1
  9
$DIMSHO
 70
     1
  9
$DIMPOST
  1

  9
$DIMAPOST
  1

  9
$DIMALT
 70
     0
  9
$DIMALTD
 70
     2
  9
$DIMALTF
 40
25.4
  9
$DIMLFAC
 40
1.0
  9
$DIMTOFL
 70
     0
  9
$DIMTVP
 40
0.0
  9
$DIMTIX
 70
     0
  9
$DIMSOXD
 70
     0
  9
$DIMSAH
 70
     0
  9
$DIMBLK1
  1

  9
$DIMBLK2
  1

  9
$DIMSTYLE
  2
STANDARD
  9
$DIMCLRD
 70
     0
  9
$DIMCLRE
 70
     0
  9
$DIMCLRT
 70
     0
  9
$DIMTFAC
 40
1.0
  9
$DIMGAP
 40
0.09
  9
$DIMJUST
 70
     0
  9
$DIMSD1
 70
     0
  9
$DIMSD2
 70
     0
  9
$DIMTOLJ
 70
     1
  9
$DIMTZIN
 70
     0
  9
$DIMALTZ
 70
     0
  9
$DIMALTTZ
 70
     0
  9
$DIMUPT
 70
     0
  9
$DIMDEC
 70
     4
  9
$DIMTDEC
 70
     4
  9
$DIMALTU
 70
     2
  9
$DIMALTTD
 70
     2
  9
$DIMTXSTY
  7
Standard
  9
$DIMAUNIT
 70
     0
  9
$DIMADEC
 70
     0
  9
$DIMALTRND
 40
0.0
  9
$DIMAZIN
 70
     0
  9
$DIMDSEP
 70
    46
  9
$DIMATFIT
 70
     3
  9
$DIMFRAC
 70
     0
  9
$DIMLDRBLK
  1

  9
$DIMLUNIT
 70
     2
  9
$DIMLWD
 70
    -2
  9
$DIMLWE
 70
    -2
  9
$DIMTMOVE
 70
     0
  9
$DIMFXL
 40
1.0
  9
$DIMFXLON
 70
     0
  9
$DIMJOGANG
 40
0.7853981633974483
  9
$DIMTFILL
 70
     0
  9
$DIMTFILLCLR
 70
     0
  9
$DIMARCSYM
 70
     0
  9
$DIMLTYPE
  6

  9
$DIMLTEX1
  6

  9
$DIMLTEX2
  6

  9
$DIMTXTDIRECTION
 70
     0
  9
$LUNITS
 70
     2
  9
$LUPREC
 70
     4
  9
$SKETCHINC
 40
0.1
  9
$FILLETRAD
 40
0.0
  9
$AUNITS
 70
     0
  9
$AUPREC
 70
     0
  9
$MENU
  1
.
  9
$ELEVATION
 40
0.0
  9
$PELEVATION
 40
0.0
  9
$THICKNESS
 40
0.0
  9
$LIMCHECK
 70
     0
  9
$CHAMFERA
 40
0.0
  9
$CHAMFERB
 40
0.0
  9
$CHAMFERC
 40
0.0
  9
$CHAMFERD
 40
0.0
  9
$SKPOLY
 70
     0
  9
$TDCREATE
 40
2456465.802614074
  9
$TDUCREATE
 40
2456465.573447407
  9
$TDUPDATE
 40
2456465.802614086
  9
$TDUUPDATE
 40
2456465.573447419
  9
$TDINDWG
 40
0.0000469560
  9
$TDUSRTIMER
 40
0.0000469560
  9
$USRTIMER
 70
     1
  9
$ANGBASE
 50
0.0
  9
$ANGDIR
 70
     0
  9
$PDMODE
 70
     0
  9
$PDSIZE
 40
0.0
  9
$PLINEWID
 40
0.0
  9
$SPLFRAME
 70
     0
  9
$SPLINETYPE
 70
     6
  9
$SPLINESEGS
 70
     8
  9
$HANDSEED
  5
F7F
  9
$SURFTAB1
 70
     6
  9
$SURFTAB2
 70
     6
  9
$SURFTYPE
 70
     6
  9
$SURFU
 70
     6
  9
$SURFV
 70
     6
  9
$UCSBASE
  2

  9
$UCSNAME
  2

  9
$UCSORG
 10
0.0
 20
0.0
 30
0.0
  9
$UCSXDIR
 10
1.0
 20
0.0
 30
0.0
  9
$UCSYDIR
 10
0.0
 20
1.0
 30
0.0
  9
$UCSORTHOREF
  2

  9
$UCSORTHOVIEW
 70
     0
  9
$UCSORGTOP
 10
0.0
 20
0.0
 30
0.0
  9
$UCSORGBOTTOM
 10
0.0
 20
0.0
 30
0.0
  9
$UCSORGLEFT
 10
0.0
 20
0.0
 30
0.0
  9
$UCSORGRIGHT
 10
0.0
 20
0.0
 30
0.0
  9
$UCSORGFRONT
 10
0.0
 20
0.0
 30
0.0
  9
$UCSORGBACK
 10
0.0
 20
0.0
 30
0.0
  9
$PUCSBASE
  2

  9
$PUCSNAME
  2

  9
$PUCSORG
 10
0.0
 20
0.0
 30
0.0
  9
$PUCSXDIR
 10
1.0
 20
0.0
 30
0.0
  9
$PUCSYDIR
 10
0.0
 20
1.0
 30
0.0
  9
$PUCSORTHOREF
  2

  9
$PUCSORTHOVIEW
 70
     0
  9
$PUCSORGTOP
 10
0.0
 20
0.0
 30
0.0
  9
$PUCSORGBOTTOM
 10
0.0
 20
0.0
 30
0.0
  9
$PUCSORGLEFT
 10
0.0
 20
0.0
 30
0.0
  9
$PUCSORGRIGHT
 10
0.0
 20
0.0
 30
0.0
  9
$PUCSORGFRONT
 10
0.0
 20
0.0
 30
0.0
  9
$PUCSORGBACK
 10
0.0
 20
0.0
 30
0.0
  9
$USERI1
 70
     0
  9
$USERI2
 70
     0
  9
$USERI3
 70
     0
  9
$USERI4
 70
     0
  9
$USERI5
 70
     0
  9
$USERR1
 40
0.0
  9
$USERR2
 40
0.0
  9
$USERR3
 40
0.0
  9
$USERR4
 40
0.0
  9
$USERR5
 40
0.0
  9
$WORLDVIEW
 70
     1
  9
$SHADEDGE
 70
     3
  9
$SHADEDIF
 70
    70
  9
$TILEMODE
 70
     1
  9
$MAXACTVP
 70
    64
  9
$PINSBASE
 10
0.0
 20
0.0
 30
0.0
  9
$PLIMCHECK
 70
     0
  9
$PEXTMIN
 10
0.0
 20
0.0
 30
0.0
  9
$PEXTMAX
 10
204.0
 20
132.0
 30
0.0
  9
$PLIMMIN
 10
0.0
 20
0.0
  9
$PLIMMAX
 10
204.0
 20
132.0
  9
$UNITMODE
 70
     0
  9
$VISRETAIN
 70
     1
  9
$PLINEGEN
 70
     0
  9
$PSLTSCALE
 70
     1
  9
$TREEDEPTH
 70
  3020
  9
$CMLSTYLE
  2
Standard
  9
$CMLJUST
 70
     0
  9
$CMLSCALE
 40
1.0
  9
$PROXYGRAPHICS
 70
     1
  9
$MEASUREMENT
 70
     0
  9
$CELWEIGHT
370
    -1
  9
$ENDCAPS
280
     0
  9
$JOINSTYLE
280
     0
  9
$LWDISPLAY
290
     0
  9
$INSUNITS
 70
     1
  9
$HYPERLINKBASE
  1

  9
$STYLESHEET
  1

  9
$XEDIT
290
     1
  9
$CEPSNTYPE
380
     0
  9
$PSTYLEMODE
290
     1
  9
$FINGERPRINTGUID
  2
{8417D692-5D48-4642-BE42-7459B03D0601}
  9
$VERSIONGUID
  2
{78CBF345-B289-4436-BF2D-A4B0612C9D45}
  9
$EXTNAMES
290
     1
  9
$PSVPSCALE
 40
0.0
  9
$OLESTARTUP
290
     0
  9
$SORTENTS
280
   127
  9
$INDEXCTL
280
     0
  9
$HIDETEXT
280
     1
  9
$XCLIPFRAME
280
     2
  9
$HALOGAP
280
     0
  9
$OBSCOLOR
 70
   257
  9
$OBSLTYPE
280
     0
  9
$INTERSECTIONDISPLAY
280
     0
  9
$INTERSECTIONCOLOR
 70
   257
  9
$DIMASSOC
280
     1
  9
$PROJECTNAME
  1

  9
$CAMERADISPLAY
290
     0
  9
$LENSLENGTH
 40
50.0
  9
$CAMERAHEIGHT
 40
0.0
  9
$STEPSPERSEC
 40
2.0
  9
$STEPSIZE
 40
6.0
  9
$3DDWFPREC
 40
2.0
  9
$PSOLWIDTH
 40
0.25
  9
$PSOLHEIGHT
 40
4.0
  9
$LOFTANG1
 40
1.570796326794896
  9
$LOFTANG2
 40
1.570796326794896
  9
$LOFTMAG1
 40
0.0
  9
$LOFTMAG2
 40
0.0
  9
$LOFTPARAM
 70
     7
  9
$LOFTNORMALS
280
     1
  9
$LATITUDE
 40
37.795
  9
$LONGITUDE
 40
-122.394
  9
$NORTHDIRECTION
 40
0.0
  9
$TIMEZONE
 70
 -8000
  9
$LIGHTGLYPHDISPLAY
280
     1
  9
$TILEMODELIGHTSYNCH
280
     1
  9
$CMATERIAL
347
11
  9
$SOLIDHIST
280
     0
  9
$SHOWHIST
280
     1
  9
$DWFFRAME
280
     2
  9
$DGNFRAME
280
     0
  9
$REALWORLDSCALE
290
     1
  9
$INTERFERECOLOR
 62
     1
  9
$INTERFEREOBJVS
345
33
  9
$INTERFEREVPVS
346
30
  9
$CSHADOW
280
     0
  9
$SHADOWPLANELOCATION
 40
0.0
  0
ENDSEC
  0
SECTION
  2
CLASSES
  0
CLASS
  1
ACDBDICTIONARYWDFLT
  2
AcDbDictionaryWithDefault
  3
ObjectDBX Classes
 90
        0
 91
        1
280
     0
281
     0
  0
CLASS
  1
MATERIAL
  2
AcDbMaterial
  3
ObjectDBX Classes
 90
     1153
 91
        3
280
     0
281
     0
  0
CLASS
  1
VISUALSTYLE
  2
AcDbVisualStyle
  3
ObjectDBX Classes
 90
     4095
 91
       24
280
     0
281
     0
  0
CLASS
  1
SCALE
  2
AcDbScale
  3
ObjectDBX Classes
 90
     1153
 91
       17
280
     0
281
     0
  0
CLASS
  1
TABLESTYLE
  2
AcDbTableStyle
  3
ObjectDBX Classes
 90
     4095
 91
        1
280
     0
281
     0
  0
CLASS
  1
MLEADERSTYLE
  2
AcDbMLeaderStyle
  3
ACDB_MLEADERSTYLE_CLASS
 90
     4095
 91
        1
280
     0
281
     0
  0
CLASS
  1
DICTIONARYVAR
  2
AcDbDictionaryVar
  3
ObjectDBX Classes
 90
        0
 91
        3
280
     0
281
     0
  0
CLASS
  1
CELLSTYLEMAP
  2
AcDbCellStyleMap
  3
ObjectDBX Classes
 90
     1152
 91
        1
280
     0
281
     0
  0
ENDSEC
  0
SECTION
  2
TABLES
  0
TABLE
  2
VPORT
  5
8
330
0
100
AcDbSymbolTable
 70
     1
  0
VPORT
  5
57
330
8
100
AcDbSymbolTableRecord
100
AcDbViewportTableRecord
  2
*Active
 70
     0
 10
0.0
 20
0.0
 11
1.0
 21
1.0
 12
102.0
 22
66.0
 13
0.0
 23
0.0
 14
1.0
 24
1.0
 15
0.0
 25
0.0
 16
0.0
 26
0.0
 36
1.0
 17
0.0
 27
0.0
 37
0.0
 40
132.0
 41
1.545454545454545
 42
50.0
 43
0.0
 44
0.0
 50
0.0
 51
0.0
 71
     0
 72
   100
 73
     1
 74
     1
 75
     0
 76
     0
 77
     0
 78
     0
281
     0
 65
     1
110
0.0
120
0.0
130
0.0
111
1.0
121
0.0
131
0.0
112
0.0
122
1.0
132
0.0
 79
     0
146
0.0
 60
     3
 61
     5
292
     1
282
     1
141
0.0
142
0.0
 63
   250
421
  3355443
  0
ENDTAB
  0
TABLE
  2
LTYPE
  5
5
330
0
100
AcDbSymbolTable
 70
    59
  0
LTYPE
  5
5B
330
5
100
AcDbSymbolTableRecord
100
AcDbLinetypeTableRecord
  2
ByBlock
 70
     0
  3

 72
    65
 73
     0
 40
0.0
  0
LTYPE
  5
5C
330
5
100
AcDbSymbolTableRecord
100
AcDbLinetypeTableRecord
  2
ByLayer
 70
     0
  3

 72
    65
 73
     0
 40
0.0
  0
LTYPE
  5
5D
330
5
100
AcDbSymbolTableRecord
100
AcDbLinetypeTableRecord
  2
Continuous
 70
     0
  3
Solid line
 72
    65
 73
     0
 40
0.0
  0
LTYPE
  5
7C
330
5
100
AcDbSymbolTableRecord
100
AcDbLinetypeTableRecord
  2
BY_STANDARD
 70
     0
  3
By Standard ____________    ____    ____   _
 72
    65
 73
     6
 40
1.240299999999999
 49
0.6614
 74
     0
 49
-0.0827
 74
     0
 49
0.1654
 74
     0
 49
-0.0827
 74
     0
 49
0.1654
 74
     0
 49
-0.0827
 74
     0
  0
LTYPE
  5
7D
330
5
100
AcDbSymbolTableRecord
100
AcDbLinetypeTableRecord
  2
CHAIN
 70
     0
  3
Chain ____ _ ____ _ ____ _ ____ _ ____ _ ____
 72
    65
 73
     4
 40
0.7087
 49
0.4724000000000001
 74
     0
 49
-0.0591
 74
     0
 49
0.1181
 74
     0
 49
-0.0591
 74
     0
  0
LTYPE
  5
7E
330
5
100
AcDbSymbolTableRecord
100
AcDbLinetypeTableRecord
  2
DASH_DOT
 70
     0
  3
Dash dot __ . __ . __ . __ . __ . __ . __ . __
 72
    65
 73
     4
 40
0.37
 49
0.24
 74
     0
 49
-0.06
 74
     0
 49
0.01
 74
     0
 49
-0.06
 74
     0
  0
LTYPE
  5
7F
330
5
100
AcDbSymbolTableRecord
100
AcDbLinetypeTableRecord
  2
DOUBLE_DASH_DOT
 70
     0
  3
Double-Dash Dot __ __ . __ __ . __ __ . __ _
 72
    65
 73
     6
 40
0.4398
 49
0.24
 74
     0
 49
-0.06
 74
     0
 49
0.0098
 74
     0
 49
-0.06
 74
     0
 49
0.01
 74
     0
 49
-0.06
 74
     0
  0
LTYPE
  5
80
330
5
100
AcDbSymbolTableRecord
100
AcDbLinetypeTableRecord
  2
DASH_TRIPLE_DOT
 70
     0
  3
Dash Triple-Dot _ . . . _ . . . _ . . . _
 72
    65
 73
     8
 40
0.51
 49
0.24
 74
     0
 49
-0.06
 74
     0
 49
0.01
 74
     0
 49
-0.06
 74
     0
 49
0.01
 74
     0
 49
-0.06
 74
     0
 49
0.01
 74
     0
 49
-0.06
 74
     0
  0
LTYPE
  5
81
330
5
100
AcDbSymbolTableRecord
100
AcDbLinetypeTableRecord
  2
DASHED
 70
     0
  3
Dashed __ __ __ __ __ __ __ __ __ __ __ __ __ _
 72
    65
 73
     2
 40
0.2067
 49
0.1654
 74
     0
 49
-0.0413
 74
     0
  0
LTYPE
  5
82
330
5
100
AcDbSymbolTableRecord
100
AcDbLinetypeTableRecord
  2
DASH_DOUBLE_DOT
 70
     0
  3
Dash Double-Dot __ . . __ . . __ . . __ . .
 72
    65
 73
     6
 40
0.4398
 49
0.24
 74
     0
 49
-0.06
 74
     0
 49
0.0098
 74
     0
 49
-0.06
 74
     0
 49
0.01
 74
     0
 49
-0.06
 74
     0
  0
LTYPE
  5
83
330
5
100
AcDbSymbolTableRecord
100
AcDbLinetypeTableRecord
  2
DASHED_SPACE
 70
     0
  3
Dashed Space __ __ __ __ __ __ __ __ __ __ __ _
 72
    65
 73
     2
 40
0.2067
 49
0.1654
 74
     0
 49
-0.0413
 74
     0
  0
LTYPE
  5
84
330
5
100
AcDbSymbolTableRecord
100
AcDbLinetypeTableRecord
  2
DOTTED
 70
     0
  3
Dotted . . . . . . . . . . . . . . . . . . . . 
 72
    65
 73
     2
 40
0.0482
 49
0.0069
 74
     0
 49
-0.0413
 74
     0
  0
LTYPE
  5
85
330
5
100
AcDbSymbolTableRecord
100
AcDbLinetypeTableRecord
  2
DOUBLE_DASH_CHAIN
 70
     0
  3
Double-Dash Chain ______  __  __  ______  __  _
 72
    65
 73
     6
 40
1.240299999999999
 49
0.6614
 74
     0
 49
-0.0827
 74
     0
 49
0.1654
 74
     0
 49
-0.0827
 74
     0
 49
0.1654
 74
     0
 49
-0.0827
 74
     0
  0
LTYPE
  5
87
330
5
100
AcDbSymbolTableRecord
100
AcDbLinetypeTableRecord
  2
DOUBLE_DASH_DOUBLE_DOT
 70
     0
  3
Double-Dash Double-dot _ _ . . _ _ . . _
 72
    65
 73
     8
 40
0.7400000000000001
 49
0.24
 74
     0
 49
-0.06
 74
     0
 49
0.24
 74
     0
 49
-0.06
 74
     0
 49
0.01
 74
     0
 49
-0.06
 74
     0
 49
0.01
 74
     0
 49
-0.06
 74
     0
  0
LTYPE
  5
88
330
5
100
AcDbSymbolTableRecord
100
AcDbLinetypeTableRecord
  2
DOUBLE_DASH_TRIPLE_DOT
 70
     0
  3
Double Dash Triple Dot __ __ . . . __ __ . .
 72
    65
 73
    10
 40
0.8100000000000001
 49
0.24
 74
     0
 49
-0.06
 74
     0
 49
0.24
 74
     0
 49
-0.06
 74
     0
 49
0.01
 74
     0
 49
-0.06
 74
     0
 49
0.01
 74
     0
 49
-0.06
 74
     0
 49
0.01
 74
     0
 49
-0.06
 74
     0
  0
LTYPE
  5
89
330
5
100
AcDbSymbolTableRecord
100
AcDbLinetypeTableRecord
  2
LONG_DASH_DOTTED
 70
     0
  3
Long Dash Dotted ____ . ____ . ____ . ____ . _
 72
    65
 73
     4
 40
0.3543
 49
0.2362
 74
     0
 49
-0.0295
 74
     0
 49
0.0591
 74
     0
 49
-0.0295
 74
     0
  0
LTYPE
  5
8A
330
5
100
AcDbSymbolTableRecord
100
AcDbLinetypeTableRecord
  2
LONG_DASH_DOUBLE_DOT
 70
     0
  3
Long Dash Double Dot ________  .  .  ________  
 72
    65
 73
     6
 40
0.6799999999999999
 49
0.48
 74
     0
 49
-0.06
 74
     0
 49
0.01
 74
     0
 49
-0.06
 74
     0
 49
0.01
 74
     0
 49
-0.06
 74
     0
  0
LTYPE
  5
8B
330
5
100
AcDbSymbolTableRecord
100
AcDbLinetypeTableRecord
  2
LONG_DASH_TRIPLE_DOT
 70
     0
  3
Long Dash Triple Dot ____ ... ____ ... ____
 72
    65
 73
     8
 40
0.3689
 49
0.2362
 74
     0
 49
-0.0295
 74
     0
 49
0.0049
 74
     0
 49
-0.0295
 74
     0
 49
0.0049
 74
     0
 49
-0.0295
 74
     0
 49
0.0049
 74
     0
 49
-0.0295
 74
     0
  0
LTYPE
  5
8C
330
5
100
AcDbSymbolTableRecord
100
AcDbLinetypeTableRecord
  2
BORDER
 70
     0
  3
Border __ __ . __ __ . __ __ . __ __ . __ __ .
 72
    65
 73
     6
 40
1.75
 49
0.5
 74
     0
 49
-0.25
 74
     0
 49
0.5
 74
     0
 49
-0.25
 74
     0
 49
0.0
 74
     0
 49
-0.25
 74
     0
  0
LTYPE
  5
8D
330
5
100
AcDbSymbolTableRecord
100
AcDbLinetypeTableRecord
  2
BORDER2
 70
     0
  3
Border (.5x) __.__.__.__.__.__.__.__.__.__.__.
 72
    65
 73
     6
 40
0.875
 49
0.25
 74
     0
 49
-0.125
 74
     0
 49
0.25
 74
     0
 49
-0.125
 74
     0
 49
0.0
 74
     0
 49
-0.125
 74
     0
  0
LTYPE
  5
8E
330
5
100
AcDbSymbolTableRecord
100
AcDbLinetypeTableRecord
  2
BORDERX2
 70
     0
  3
Border (2x) ____  ____  .  ____  ____  .  ___
 72
    65
 73
     6
 40
3.5
 49
1.0
 74
     0
 49
-0.5
 74
     0
 49
1.0
 74
     0
 49
-0.5
 74
     0
 49
0.0
 74
     0
 49
-0.5
 74
     0
  0
LTYPE
  5
8F
330
5
100
AcDbSymbolTableRecord
100
AcDbLinetypeTableRecord
  2
CENTER
 70
     0
  3
Center ____ _ ____ _ ____ _ ____ _ ____ _ ____
 72
    65
 73
     4
 40
2.0
 49
1.25
 74
     0
 49
-0.25
 74
     0
 49
0.25
 74
     0
 49
-0.25
 74
     0
  0
LTYPE
  5
90
330
5
100
AcDbSymbolTableRecord
100
AcDbLinetypeTableRecord
  2
CENTER2
 70
     0
  3
Center (.5x) ___ _ ___ _ ___ _ ___ _ ___ _ ___
 72
    65
 73
     4
 40
1.125
 49
0.75
 74
     0
 49
-0.125
 74
     0
 49
0.125
 74
     0
 49
-0.125
 74
     0
  0
LTYPE
  5
91
330
5
100
AcDbSymbolTableRecord
100
AcDbLinetypeTableRecord
  2
CENTERX2
 70
     0
  3
Center (2x) ________  __  ________  __  _____
 72
    65
 73
     4
 40
4.0
 49
2.5
 74
     0
 49
-0.5
 74
     0
 49
0.5
 74
     0
 49
-0.5
 74
     0
  0
LTYPE
  5
92
330
5
100
AcDbSymbolTableRecord
100
AcDbLinetypeTableRecord
  2
DASHDOT2
 70
     0
  3
Dash dot (.5x) _._._._._._._._._._._._._._._.
 72
    65
 73
     4
 40
0.5
 49
0.25
 74
     0
 49
-0.125
 74
     0
 49
0.0
 74
     0
 49
-0.125
 74
     0
  0
LTYPE
  5
93
330
5
100
AcDbSymbolTableRecord
100
AcDbLinetypeTableRecord
  2
DASHDOTX2
 70
     0
  3
Dash dot (2x) ____  .  ____  .  ____  .  ___
 72
    65
 73
     4
 40
2.0
 49
1.0
 74
     0
 49
-0.5
 74
     0
 49
0.0
 74
     0
 49
-0.5
 74
     0
  0
LTYPE
  5
95
330
5
100
AcDbSymbolTableRecord
100
AcDbLinetypeTableRecord
  2
DASHED2
 70
     0
  3
Dashed (.5x) _ _ _ _ _ _ _ _ _ _ _ _ _ _ _ _ _
 72
    65
 73
     2
 40
0.375
 49
0.25
 74
     0
 49
-0.125
 74
     0
  0
LTYPE
  5
96
330
5
100
AcDbSymbolTableRecord
100
AcDbLinetypeTableRecord
  2
DASHEDX2
 70
     0
  3
Dashed (2x) ____  ____  ____  ____  ____  ___
 72
    65
 73
     2
 40
1.5
 49
1.0
 74
     0
 49
-0.5
 74
     0
  0
LTYPE
  5
97
330
5
100
AcDbSymbolTableRecord
100
AcDbLinetypeTableRecord
  2
DIVIDE
 70
     0
  3
Divide ____ . . ____ . . ____ . . ____ . . ____
 72
    65
 73
     6
 40
1.25
 49
0.5
 74
     0
 49
-0.25
 74
     0
 49
0.0
 74
     0
 49
-0.25
 74
     0
 49
0.0
 74
     0
 49
-0.25
 74
     0
  0
LTYPE
  5
98
330
5
100
AcDbSymbolTableRecord
100
AcDbLinetypeTableRecord
  2
DIVIDE2
 70
     0
  3
Divide (.5x) __..__..__..__..__..__..__..__.._
 72
    65
 73
     6
 40
0.625
 49
0.25
 74
     0
 49
-0.125
 74
     0
 49
0.0
 74
     0
 49
-0.125
 74
     0
 49
0.0
 74
     0
 49
-0.125
 74
     0
  0
LTYPE
  5
99
330
5
100
AcDbSymbolTableRecord
100
AcDbLinetypeTableRecord
  2
DIVIDEX2
 70
     0
  3
Divide (2x) ________  .  .  ________  .  .  _
 72
    65
 73
     6
 40
2.5
 49
1.0
 74
     0
 49
-0.5
 74
     0
 49
0.0
 74
     0
 49
-0.5
 74
     0
 49
0.0
 74
     0
 49
-0.5
 74
     0
  0
LTYPE
  5
9A
330
5
100
AcDbSymbolTableRecord
100
AcDbLinetypeTableRecord
  2
DOT
 70
     0
  3
Dot . . . . . . . . . . . . . . . . . . . . . .
 72
    65
 73
     2
 40
0.25
 49
0.0
 74
     0
 49
-0.25
 74
     0
  0
LTYPE
  5
9B
330
5
100
AcDbSymbolTableRecord
100
AcDbLinetypeTableRecord
  2
DOT2
 70
     0
  3
Dot (.5x) .....................................
 72
    65
 73
     2
 40
0.125
 49
0.0
 74
     0
 49
-0.125
 74
     0
  0
LTYPE
  5
9C
330
5
100
AcDbSymbolTableRecord
100
AcDbLinetypeTableRecord
  2
DOTX2
 70
     0
  3
Dot (2x) .  .  .  .  .  .  .  .  .  .  .  .  . 
 72
    65
 73
     2
 40
0.5
 49
0.0
 74
     0
 49
-0.5
 74
     0
  0
LTYPE
  5
9D
330
5
100
AcDbSymbolTableRecord
100
AcDbLinetypeTableRecord
  2
HIDDEN
 70
     0
  3
Hidden __ __ __ __ __ __ __ __ __ __ __ __ __ _
 72
    65
 73
     2
 40
0.375
 49
0.25
 74
     0
 49
-0.125
 74
     0
  0
LTYPE
  5
9E
330
5
100
AcDbSymbolTableRecord
100
AcDbLinetypeTableRecord
  2
HIDDEN2
 70
     0
  3
Hidden (.5x) _ _ _ _ _ _ _ _ _ _ _ _ _ _ _ _ _
 72
    65
 73
     2
 40
0.1875
 49
0.125
 74
     0
 49
-0.0625
 74
     0
  0
LTYPE
  5
9F
330
5
100
AcDbSymbolTableRecord
100
AcDbLinetypeTableRecord
  2
HIDDENX2
 70
     0
  3
Hidden (2x) ____ ____ ____ ____ ____ ____ ____
 72
    65
 73
     2
 40
0.75
 49
0.5
 74
     0
 49
-0.25
 74
     0
  0
LTYPE
  5
A0
330
5
100
AcDbSymbolTableRecord
100
AcDbLinetypeTableRecord
  2
PHANTOM
 70
     0
  3
Phantom ______  __  __  ______  __  __  ______
 72
    65
 73
     6
 40
2.5
 49
1.25
 74
     0
 49
-0.25
 74
     0
 49
0.25
 74
     0
 49
-0.25
 74
     0
 49
0.25
 74
     0
 49
-0.25
 74
     0
  0
LTYPE
  5
A1
330
5
100
AcDbSymbolTableRecord
100
AcDbLinetypeTableRecord
  2
PHANTOM2
 70
     0
  3
Phantom (.5x) ___ _ _ ___ _ _ ___ _ _ ___ _ _
 72
    65
 73
     6
 40
1.25
 49
0.625
 74
     0
 49
-0.125
 74
     0
 49
0.125
 74
     0
 49
-0.125
 74
     0
 49
0.125
 74
     0
 49
-0.125
 74
     0
  0
LTYPE
  5
A2
330
5
100
AcDbSymbolTableRecord
100
AcDbLinetypeTableRecord
  2
PHANTOMX2
 70
     0
  3
Phantom (2x) ____________    ____    ____   _
 72
    65
 73
     6
 40
5.0
 49
2.5
 74
     0
 49
-0.5
 74
     0
 49
0.5
 74
     0
 49
-0.5
 74
     0
 49
0.5
 74
     0
 49
-0.5
 74
     0
  0
LTYPE
  5
A3
330
5
100
AcDbSymbolTableRecord
100
AcDbLinetypeTableRecord
  2
ACAD_ISO02W100
 70
     0
  3
ISO dash __ __ __ __ __ __ __ __ __ __ __ __ __
 72
    65
 73
     2
 40
0.59
 49
0.47
 74
     0
 49
-0.12
 74
     0
  0
LTYPE
  5
A4
330
5
100
AcDbSymbolTableRecord
100
AcDbLinetypeTableRecord
  2
ACAD_ISO03W100
 70
     0
  3
ISO dash space __    __    __    __    __    __
 72
    65
 73
     2
 40
1.179999999999999
 49
0.47
 74
     0
 49
-0.71
 74
     0
  0
LTYPE
  5
A5
330
5
100
AcDbSymbolTableRecord
100
AcDbLinetypeTableRecord
  2
ACAD_ISO04W100
 70
     0
  3
ISO long-dash dot ____ . ____ . ____ . ____ . _
 72
    65
 73
     4
 40
1.179999999999999
 49
0.9399999999999998
 74
     0
 49
-0.12
 74
     0
 49
0.0
 74
     0
 49
-0.12
 74
     0
  0
LTYPE
  5
A6
330
5
100
AcDbSymbolTableRecord
100
AcDbLinetypeTableRecord
  2
ACAD_ISO05W100
 70
     0
  3
ISO long-dash double-dot ____ .. ____ .. ____ .
 72
    65
 73
     6
 40
1.299999999999999
 49
0.9399999999999998
 74
     0
 49
-0.12
 74
     0
 49
0.0
 74
     0
 49
-0.12
 74
     0
 49
0.0
 74
     0
 49
-0.12
 74
     0
  0
LTYPE
  5
A7
330
5
100
AcDbSymbolTableRecord
100
AcDbLinetypeTableRecord
  2
ACAD_ISO06W100
 70
     0
  3
ISO long-dash triple-dot ____ ... ____ ... ____
 72
    65
 73
     8
 40
1.419999999999999
 49
0.9399999999999998
 74
     0
 49
-0.12
 74
     0
 49
0.0
 74
     0
 49
-0.12
 74
     0
 49
0.0
 74
     0
 49
-0.12
 74
     0
 49
0.0
 74
     0
 49
-0.12
 74
     0
  0
LTYPE
  5
A8
330
5
100
AcDbSymbolTableRecord
100
AcDbLinetypeTableRecord
  2
ACAD_ISO07W100
 70
     0
  3
ISO dot . . . . . . . . . . . . . . . . . . . .
 72
    65
 73
     2
 40
0.12
 49
0.0
 74
     0
 49
-0.12
 74
     0
  0
LTYPE
  5
A9
330
5
100
AcDbSymbolTableRecord
100
AcDbLinetypeTableRecord
  2
ACAD_ISO08W100
 70
     0
  3
ISO long-dash short-dash ____ __ ____ __ ____ _
 72
    65
 73
     4
 40
0.95
 49
0.47
 74
     0
 49
-0.12
 74
     0
 49
0.24
 74
     0
 49
-0.12
 74
     0
  0
LTYPE
  5
AA
330
5
100
AcDbSymbolTableRecord
100
AcDbLinetypeTableRecord
  2
ACAD_ISO09W100
 70
     0
  3
ISO long-dash double-short-dash ____ __ __ ____
 72
    65
 73
     6
 40
1.31
 49
0.47
 74
     0
 49
-0.12
 74
     0
 49
0.24
 74
     0
 49
-0.12
 74
     0
 49
0.24
 74
     0
 49
-0.12
 74
     0
  0
LTYPE
  5
AB
330
5
100
AcDbSymbolTableRecord
100
AcDbLinetypeTableRecord
  2
ACAD_ISO10W100
 70
     0
  3
ISO dash dot __ . __ . __ . __ . __ . __ . __ .
 72
    65
 73
     4
 40
0.71
 49
0.47
 74
     0
 49
-0.12
 74
     0
 49
0.0
 74
     0
 49
-0.12
 74
     0
  0
LTYPE
  5
AC
330
5
100
AcDbSymbolTableRecord
100
AcDbLinetypeTableRecord
  2
ACAD_ISO11W100
 70
     0
  3
ISO double-dash dot __ __ . __ __ . __ __ . __ 
 72
    65
 73
     6
 40
1.299999999999999
 49
0.47
 74
     0
 49
-0.12
 74
     0
 49
0.47
 74
     0
 49
-0.12
 74
     0
 49
0.0
 74
     0
 49
-0.12
 74
     0
  0
LTYPE
  5
AD
330
5
100
AcDbSymbolTableRecord
100
AcDbLinetypeTableRecord
  2
ACAD_ISO12W100
 70
     0
  3
ISO dash double-dot __ . . __ . . __ . . __ . .
 72
    65
 73
     6
 40
0.8299999999999998
 49
0.47
 74
     0
 49
-0.12
 74
     0
 49
0.0
 74
     0
 49
-0.12
 74
     0
 49
0.0
 74
     0
 49
-0.12
 74
     0
  0
LTYPE
  5
AE
330
5
100
AcDbSymbolTableRecord
100
AcDbLinetypeTableRecord
  2
ACAD_ISO13W100
 70
     0
  3
ISO double-dash double-dot __ __ . . __ __ . . 
 72
    65
 73
     8
 40
1.419999999999999
 49
0.47
 74
     0
 49
-0.12
 74
     0
 49
0.47
 74
     0
 49
-0.12
 74
     0
 49
0.0
 74
     0
 49
-0.12
 74
     0
 49
0.0
 74
     0
 49
-0.12
 74
     0
  0
LTYPE
  5
AF
330
5
100
AcDbSymbolTableRecord
100
AcDbLinetypeTableRecord
  2
ACAD_ISO14W100
 70
     0
  3
ISO dash triple-dot __ . . . __ . . . __ . . . 
 72
    65
 73
     8
 40
0.95
 49
0.47
 74
     0
 49
-0.12
 74
     0
 49
0.0
 74
     0
 49
-0.12
 74
     0
 49
0.0
 74
     0
 49
-0.12
 74
     0
 49
0.0
 74
     0
 49
-0.12
 74
     0
  0
LTYPE
  5
B0
330
5
100
AcDbSymbolTableRecord
100
AcDbLinetypeTableRecord
  2
ACAD_ISO15W100
 70
     0
  3
ISO double-dash triple-dot __ __ . . . __ __ . 
 72
    65
 73
    10
 40
1.539999999999999
 49
0.47
 74
     0
 49
-0.12
 74
     0
 49
0.47
 74
     0
 49
-0.12
 74
     0
 49
0.0
 74
     0
 49
-0.12
 74
     0
 49
0.0
 74
     0
 49
-0.12
 74
     0
 49
0.0
 74
     0
 49
-0.12
 74
     0
  0
LTYPE
  5
B3
330
5
100
AcDbSymbolTableRecord
100
AcDbLinetypeTableRecord
  2
FENCELINE1
 70
     0
  3
Fenceline circle ----0-----0----0-----0----0---
 72
    65
 73
     4
 40
1.45
 49
0.25
 74
     0
 49
-0.1
 74
     4
 75
   133
340
B2
 46
0.1
 50
0.0
 44
-0.1
 45
0.0
 49
-0.1
 74
     0
 49
1.0
 74
     0
  0
LTYPE
  5
B4
330
5
100
AcDbSymbolTableRecord
100
AcDbLinetypeTableRecord
  2
FENCELINE2
 70
     0
  3
Fenceline square ----[]-----[]----[]-----[]----
 72
    65
 73
     4
 40
1.45
 49
0.25
 74
     0
 49
-0.1
 74
     4
 75
   132
340
B2
 46
0.1
 50
0.0
 44
-0.1
 45
0.0
 49
-0.1
 74
     0
 49
1.0
 74
     0
  0
LTYPE
  5
B5
330
5
100
AcDbSymbolTableRecord
100
AcDbLinetypeTableRecord
  2
TRACKS
 70
     0
  3
Tracks -|-|-|-|-|-|-|-|-|-|-|-|-|-|-|-|-|-|-|-|
 72
    65
 73
     2
 40
0.3
 49
0.15
 74
     4
 75
   130
340
B2
 46
0.25
 50
0.0
 44
0.0
 45
0.0
 49
0.15
 74
     0
  0
LTYPE
  5
B6
330
5
100
AcDbSymbolTableRecord
100
AcDbLinetypeTableRecord
  2
BATTING
 70
     0
  3
Batting SSSSSSSSSSSSSSSSSSSSSSSSSSSSSSSSSSSSSSS
 72
    65
 73
     4
 40
0.4001000000000001
 49
0.0001
 74
     0
 49
-0.1
 74
     4
 75
   134
340
B2
 46
0.1
 50
0.0
 44
-0.1
 45
0.0
 49
-0.2
 74
     4
 75
   134
340
B2
 46
0.1
 50
180.0
 44
0.1
 45
0.0
 49
-0.1
 74
     0
  0
LTYPE
  5
B7
330
5
100
AcDbSymbolTableRecord
100
AcDbLinetypeTableRecord
  2
HOT_WATER_SUPPLY
 70
     0
  3
Hot water supply ---- HW ---- HW ---- HW ----
 72
    65
 73
     3
 40
0.9
 49
0.5
 74
     0
 49
-0.2
 74
     2
 75
     0
340
55
 46
0.1
 50
0.0
 44
-0.1
 45
-0.05
  9
HW
 49
-0.2
 74
     0
  0
LTYPE
  5
B8
330
5
100
AcDbSymbolTableRecord
100
AcDbLinetypeTableRecord
  2
GAS_LINE
 70
     0
  3
Gas line ----GAS----GAS----GAS----GAS----GAS---
 72
    65
 73
     3
 40
0.95
 49
0.5
 74
     0
 49
-0.2
 74
     2
 75
     0
340
55
 46
0.1
 50
0.0
 44
-0.1
 45
-0.05
  9
GAS
 49
-0.25
 74
     0
  0
LTYPE
  5
B9
330
5
100
AcDbSymbolTableRecord
100
AcDbLinetypeTableRecord
  2
ZIGZAG
 70
     0
  3
Zig zag /\/\/\/\/\/\/\/\/\/\/\/\/\/\/\/\/\/\/\/
 72
    65
 73
     4
 40
0.8001000000000001
 49
0.0001
 74
     0
 49
-0.2
 74
     4
 75
   131
340
B2
 46
0.2
 50
0.0
 44
-0.2
 45
0.0
 49
-0.4
 74
     4
 75
   131
340
B2
 46
0.2
 50
180.0
 44
0.2
 45
0.0
 49
-0.2
 74
     0
  0
ENDTAB
  0
TABLE
  2
LAYER
  5
2
330
0
100
AcDbSymbolTable
 70
    27
  0
LAYER
  5
54
330
2
100
AcDbSymbolTableRecord
100
AcDbLayerTableRecord
  2
0
 70
     0
 62
     7
  6
Continuous
370
    18
390
F
347
21
  0
LAYER
  5
C0
330
2
100
AcDbSymbolTableRecord
100
AcDbLayerTableRecord
  2
Center Mark (ANSI)
 70
     0
 62
     7
  6
Continuous
370
    15
390
F
347
21
  0
LAYER
  5
C1
330
2
100
AcDbSymbolTableRecord
100
AcDbLayerTableRecord
  2
Centerline (ANSI)
 70
     0
 62
     7
  6
Continuous
370
    15
390
F
347
21
  0
LAYER
  5
C3
330
2
100
AcDbSymbolTableRecord
100
AcDbLayerTableRecord
  2
Dimension (ANSI)
 70
     0
 62
     7
  6
Continuous
370
    13
390
F
347
21
  0
LAYER
  5
C5
330
2
100
AcDbSymbolTableRecord
100
AcDbLayerTableRecord
  2
Hidden (ANSI)
 70
     0
 62
     7
  6
DASHED
370
    15
390
F
347
21
  0
LAYER
  5
CC
330
2
100
AcDbSymbolTableRecord
100
AcDbLayerTableRecord
  2
Symbol (ANSI)
 70
     0
 62
     7
  6
Continuous
370
    18
390
F
347
21
  0
LAYER
  5
CF
330
2
100
AcDbSymbolTableRecord
100
AcDbLayerTableRecord
  2
Visible (ANSI)
 70
     0
 62
     7
  6
Continuous
370
    13
390
F
347
21
  0
LAYER
  5
D0
330
2
100
AcDbSymbolTableRecord
100
AcDbLayerTableRecord
  2
Visible Narrow (ANSI)
 70
     0
 62
     7
  6
Continuous
370
    18
390
F
347
21
  0
LAYER
  5
55A
330
2
100
AcDbSymbolTableRecord
100
AcDbLayerTableRecord
  2
Defpoints
 70
     0
 62
     7
  6
Continuous
290
     0
370
    -3
390
F
347
21
  0
ENDTAB
  0
TABLE
  2
STYLE
  5
3
330
0
100
AcDbSymbolTable
 70
    18
  0
STYLE
  5
55
330
3
100
AcDbSymbolTableRecord
100
AcDbTextStyleTableRecord
  2
Standard
 70
     0
 40
0.0
 41
1.0
 50
0.0
 71
     0
 42
0.2
  3
txt
  4

  0
STYLE
  5
5A
330
3
100
AcDbSymbolTableRecord
100
AcDbTextStyleTableRecord
  2
Annotative
 70
     0
 40
0.0
 41
1.0
 50
0.0
 71
     0
 42
0.2
  3
txt
  4

1001
AcadAnnotative
1000
AnnotativeData
1002
{
1070
     1
1070
     1
1002
}
  0
STYLE
  5
B2
330
3
100
AcDbSymbolTableRecord
100
AcDbTextStyleTableRecord
  2

 70
     1
 40
0.0
 41
1.0
 50
0.0
 71
     0
 42
0.2
  3
ltypeshp.shx
  4

  0
STYLE
  5
D4
330
3
100
AcDbSymbolTableRecord
100
AcDbTextStyleTableRecord
  2
ITALICC_120
 70
     0
 40
0.0
 41
1.0
 50
0.0
 71
     0
 42
0.2
  3
italicc.shx
  4

  0
STYLE
  5
D5
330
3
100
AcDbSymbolTableRecord
100
AcDbTextStyleTableRecord
  2
Label Text (ANSI)
 70
     0
 40
0.0
 41
1.0
 50
0.0
 71
     0
 42
0.2
  3
tahoma.ttf
  4

1001
ACAD
1000
Tahoma
1071
      256
  0
STYLE
  5
D6
330
3
100
AcDbSymbolTableRecord
100
AcDbTextStyleTableRecord
  2
Note Text (ANSI)
 70
     0
 40
0.0
 41
1.0
 50
0.0
 71
     0
 42
0.2
  3
tahoma.ttf
  4

1001
ACAD
1000
Tahoma
1071
      256
  0
STYLE
  5
D7
330
3
100
AcDbSymbolTableRecord
100
AcDbTextStyleTableRecord
  2
ROMANS
 70
     0
 40
0.0
 41
1.0
 50
0.0
 71
     0
 42
0.2
  3
romans.shx
  4

  0
STYLE
  5
D8
330
3
100
AcDbSymbolTableRecord
100
AcDbTextStyleTableRecord
  2
SANSSERIF_114
 70
     0
 40
0.0
 41
1.0
 50
0.0
 71
     0
 42
0.2
  3
tahoma.ttf
  4

1001
ACAD
1000
Tahoma
1071
      256
  0
STYLE
  5
D9
330
3
100
AcDbSymbolTableRecord
100
AcDbTextStyleTableRecord
  2
SANSSERIF_117
 70
     0
 40
0.0
 41
1.0
 50
0.0
 71
     0
 42
0.2
  3
tahoma.ttf
  4

1001
ACAD
1000
Tahoma
1071
      256
  0
STYLE
  5
DA
330
3
100
AcDbSymbolTableRecord
100
AcDbTextStyleTableRecord
  2
STANDARDAM_ANSI
 70
     0
 40
0.0
 41
1.0
 50
0.0
 71
     0
 42
0.2
  3
txt.shx
  4

  0
STYLE
  5
DB
330
3
100
AcDbSymbolTableRecord
100
AcDbTextStyleTableRecord
  2
StandardAM_ANSI$0
 70
     0
 40
0.0
 41
1.0
 50
0.0
 71
     0
 42
0.2
  3
txt.shx
  4

  0
STYLE
  5
DC
330
3
100
AcDbSymbolTableRecord
100
AcDbTextStyleTableRecord
  2
STANDARDAM_ANSI$3
 70
     0
 40
0.0
 41
1.0
 50
0.0
 71
     0
 42
0.2
  3
txt.shx
  4

  0
STYLE
  5
DD
330
3
100
AcDbSymbolTableRecord
100
AcDbTextStyleTableRecord
  2
STANDARDAM_ANSI$4
 70
     0
 40
0.0
 41
1.0
 50
0.0
 71
     0
 42
0.2
  3
txt.shx
  4

  0
STYLE
  5
DE
330
3
100
AcDbSymbolTableRecord
100
AcDbTextStyleTableRecord
  2
STANDARDAM_ANSI$7
 70
     0
 40
0.0
 41
1.0
 50
0.0
 71
     0
 42
0.2
  3
txt.shx
  4

  0
STYLE
  5
DF
330
3
100
AcDbSymbolTableRecord
100
AcDbTextStyleTableRecord
  2
STANDARDAM_ANSI$SF
 70
     0
 40
0.0
 41
1.0
 50
0.0
 71
     0
 42
0.2
  3
txt.shx
  4

  0
STYLE
  5
E0
330
3
100
AcDbSymbolTableRecord
100
AcDbTextStyleTableRecord
  2
STANDARDAM_ANSI$SH
 70
     0
 40
0.0
 41
1.0
 50
0.0
 71
     0
 42
0.2
  3
txt.shx
  4

  0
STYLE
  5
E1
330
3
100
AcDbSymbolTableRecord
100
AcDbTextStyleTableRecord
  2
STANDARDSTANDARD
 70
     0
 40
0.0
 41
1.0
 50
0.0
 71
     0
 42
0.2
  3
txt.shx
  4

  0
STYLE
  5
2E3
330
3
100
AcDbSymbolTableRecord
100
AcDbTextStyleTableRecord
  2
Text Style153
 70
     0
 40
0.0
 41
1.0
 50
0.0
 71
     0
 42
0.2
  3
tahoma.ttf
  4

1001
ACAD
1000
Tahoma
1071
      256
  0
ENDTAB
  0
TABLE
  2
VIEW
  5
6
330
0
100
AcDbSymbolTable
 70
     0
  0
ENDTAB
  0
TABLE
  2
UCS
  5
7
330
0
100
AcDbSymbolTable
 70
     0
  0
ENDTAB
  0
TABLE
  2
APPID
  5
9
330
0
100
AcDbSymbolTable
 70
     3
  0
APPID
  5
56
330
9
100
AcDbSymbolTableRecord
100
AcDbRegAppTableRecord
  2
ACAD
 70
     0
  0
APPID
  5
5E
330
9
100
AcDbSymbolTableRecord
100
AcDbRegAppTableRecord
  2
AcadAnnotative
 70
     0
  0
APPID
  5
C6F
330
9
100
AcDbSymbolTableRecord
100
AcDbRegAppTableRecord
  2
ACAD_DSTYLE_DIMRADIAL_EXTENSION
 70
     0
  0
ENDTAB
  0
TABLE
  2
DIMSTYLE
  5
A
330
0
100
AcDbSymbolTable
 70
    27
100
AcDbDimStyleTable
 71
     2
340
F6
340
58
  0
DIMSTYLE
105
58
330
A
100
AcDbSymbolTableRecord
100
AcDbDimStyleTableRecord
  2
STANDARD
 70
     0
 41
0.1800000071525573
 42
0.0625
140
0.1800000071525574
144
1.0
147
0.0900000035762787
176
   256
177
   256
178
   256
274
     3
340
55
371
    -1
372
    -1
  0
DIMSTYLE
105
59
330
A
100
AcDbSymbolTableRecord
100
AcDbDimStyleTableRecord
  2
Annotative
 70
     0
340
55
1001
AcadAnnotative
1000
AnnotativeData
1002
{
1070
     1
1070
     1
1002
}
  0
DIMSTYLE
105
E2
330
A
100
AcDbSymbolTableRecord
100
AcDbDimStyleTableRecord
  2
AM_ANSI
 70
     0
  4
 mm
 40
12.0
 41
0.119999997317791
 42
0.05
 43
0.5
 44
0.1
 45
0.00000001
 78
     4
 79
     2
140
0.1200000047683716
146
0.7099999189376831
147
0.0599999986588955
176
   256
177
   256
178
     2
284
     4
340
DA
371
    -1
372
    -1
  0
DIMSTYLE
105
E3
330
A
100
AcDbSymbolTableRecord
100
AcDbDimStyleTableRecord
  2
AM_ANSI$7
 70
     0
  4
 mm
 40
12.0
 41
0.119999997317791
 42
0.05
 43
0.5
 44
0.1
 45
0.00000001
 78
     4
 79
     2
140
0.1200000047683716
146
0.7099999189376831
147
0.0599999986588955
176
   256
177
   256
178
     2
284
     4
340
DA
371
    -1
372
    -1
  0
DIMSTYLE
105
E4
330
A
100
AcDbSymbolTableRecord
100
AcDbDimStyleTableRecord
  2
AM_ANSI$0
 70
     0
  4
 mm
 40
12.0
 41
0.119999997317791
 42
0.05
 43
0.5
 44
0.1
 45
0.00000001
 78
     4
 79
     2
140
0.1200000047683716
146
0.7099999189376831
147
0.0599999986588955
176
   256
177
   256
178
     2
284
     4
340
DB
371
    -1
372
    -1
  0
DIMSTYLE
105
E5
330
A
100
AcDbSymbolTableRecord
100
AcDbDimStyleTableRecord
  2
AM_ANSI$0$7
 70
     0
  4
 mm
 40
12.0
 41
0.119999997317791
 42
0.05
 43
0.5
 44
0.1
 45
0.00000001
 78
     4
 79
     2
140
0.1200000047683716
146
0.7099999189376831
147
0.0599999986588955
176
   256
177
   256
178
     2
284
     4
340
DB
371
    -1
372
    -1
  0
DIMSTYLE
105
E6
330
A
100
AcDbSymbolTableRecord
100
AcDbDimStyleTableRecord
  2
AM_ANSI$3
 70
     0
  4
 mm
 40
12.0
 41
0.119999997317791
 42
0.05
 43
0.5
 44
0.1
 45
0.00000001
 78
     4
 79
     2
140
0.1200000047683716
146
0.7099999189376831
147
0.0599999986588955
176
   256
177
   256
178
     2
284
     4
340
DC
371
    -1
372
    -1
  0
DIMSTYLE
105
E7
330
A
100
AcDbSymbolTableRecord
100
AcDbDimStyleTableRecord
  2
AM_ANSI$3$7
 70
     0
  4
 mm
 40
12.0
 41
0.119999997317791
 42
0.05
 43
0.5
 44
0.1
 45
0.00000001
 78
     4
 79
     2
140
0.1200000047683716
146
0.7099999189376831
147
0.0599999986588955
176
   256
177
   256
178
     2
284
     4
340
DC
371
    -1
372
    -1
  0
DIMSTYLE
105
E8
330
A
100
AcDbSymbolTableRecord
100
AcDbDimStyleTableRecord
  2
AM_ANSI$4
 70
     0
  4
 mm
 40
12.0
 41
0.119999997317791
 42
0.05
 43
0.5
 44
0.1
 45
0.00000001
 78
     4
 79
     2
140
0.1200000047683716
146
0.7099999189376831
147
0.0599999986588955
176
   256
177
   256
178
     2
284
     4
340
DD
371
    -1
372
    -1
  0
DIMSTYLE
105
E9
330
A
100
AcDbSymbolTableRecord
100
AcDbDimStyleTableRecord
  2
AM_ANSI$4$7
 70
     0
  4
 mm
 40
12.0
 41
0.119999997317791
 42
0.05
 43
0.5
 44
0.1
 45
0.00000001
 78
     4
 79
     2
140
0.1200000047683716
146
0.7099999189376831
147
0.0599999986588955
176
   256
177
   256
178
     2
284
     4
340
DD
371
    -1
372
    -1
  0
DIMSTYLE
105
EA
330
A
100
AcDbSymbolTableRecord
100
AcDbDimStyleTableRecord
  2
AM_ANSI$SF
 70
     0
  4
 mm
 40
12.0
 41
0.119999997317791
 42
0.05
 43
0.5
 44
0.1
 45
0.00000001
 75
     1
 76
     1
 78
     4
 79
     2
140
0.1200000047683716
146
0.7099999189376831
147
0.0599999986588955
176
   256
177
   256
178
     2
284
     4
340
DF
371
    -1
372
    -1
  0
DIMSTYLE
105
EB
330
A
100
AcDbSymbolTableRecord
100
AcDbDimStyleTableRecord
  2
AM_ANSI$SF$7
 70
     0
  4
 mm
 40
12.0
 41
0.119999997317791
 42
0.05
 43
0.5
 44
0.1
 45
0.00000001
 75
     1
 76
     1
 78
     4
 79
     2
140
0.1200000047683716
146
0.7099999189376831
147
0.0599999986588955
176
   256
177
   256
178
     2
284
     4
340
DF
371
    -1
372
    -1
  0
DIMSTYLE
105
EC
330
A
100
AcDbSymbolTableRecord
100
AcDbDimStyleTableRecord
  2
AM_ANSI$SH
 70
     0
  4
 mm
 40
12.0
 41
0.119999997317791
 42
0.05
 43
0.5
 44
0.1
 45
0.00000001
 75
     1
 76
     1
 78
     4
 79
     2
140
0.1200000047683716
146
0.7099999189376831
147
0.0599999986588955
176
   256
177
   256
178
     2
284
     4
340
E0
371
    -1
372
    -1
  0
DIMSTYLE
105
ED
330
A
100
AcDbSymbolTableRecord
100
AcDbDimStyleTableRecord
  2
AM_ANSI$SH$7
 70
     0
  4
 mm
 40
12.0
 41
0.119999997317791
 42
0.05
 43
0.5
 44
0.1
 45
0.00000001
 75
     1
 76
     1
 78
     4
 79
     2
140
0.1200000047683716
146
0.7099999189376831
147
0.0599999986588955
176
   256
177
   256
178
     2
284
     4
340
E0
371
    -1
372
    -1
  0
DIMSTYLE
105
EE
330
A
100
AcDbSymbolTableRecord
100
AcDbDimStyleTableRecord
  2
Architectural (ANSI)
 70
     0
 40
12.0
 41
0.0984251946210861
 43
0.2362204724409449
 44
0.125
 45
0.00000001
 46
0.3937007874015748
 78
     3
 79
     3
140
0.1200000047683716
147
0.031496062992126
171
     1
176
   256
177
   256
178
   256
272
     2
274
     1
276
     2
277
     4
284
    12
285
     4
286
    12
340
D6
371
    -1
372
    -1
  0
DIMSTYLE
105
EF
330
A
100
AcDbSymbolTableRecord
100
AcDbDimStyleTableRecord
  2
Architectural (ANSI)$7
 70
     0
 40
12.0
 41
0.0984251946210861
 43
0.2362204724409449
 44
0.125
 45
0.00000001
 46
0.3937007874015748
 78
     3
 79
     3
140
0.1200000047683716
147
0.031496062992126
171
     1
176
   256
177
   256
178
   256
272
     2
274
     1
276
     2
277
     4
284
    12
285
     4
286
    12
340
D6
371
    -1
372
    -1
  0
DIMSTYLE
105
F0
330
A
100
AcDbSymbolTableRecord
100
AcDbDimStyleTableRecord
  2
Default - Fraction (ANSI)
 70
     0
 40
12.0
 41
0.0984251946210861
 43
0.2362204724409449
 44
0.125
 45
0.00000001
 46
0.3937007874015748
 79
     3
140
0.1200000047683716
147
0.031496062992126
171
     1
176
   256
177
   256
178
   256
272
     2
274
     1
276
     2
277
     5
284
    12
285
     4
286
    12
340
D6
371
    -1
372
    -1
  0
DIMSTYLE
105
F1
330
A
100
AcDbSymbolTableRecord
100
AcDbDimStyleTableRecord
  2
Default - Fraction (ANSI)$7
 70
     0
 40
12.0
 41
0.0984251946210861
 43
0.2362204724409449
 44
0.125
 45
0.00000001
 46
0.3937007874015748
 79
     3
140
0.1200000047683716
147
0.031496062992126
171
     1
176
   256
177
   256
178
   256
272
     2
274
     1
276
     2
277
     5
284
    12
285
     4
286
    12
340
D6
371
    -1
372
    -1
  0
DIMSTYLE
105
F2
330
A
100
AcDbSymbolTableRecord
100
AcDbDimStyleTableRecord
  2
Default - mm (ANSI)
 70
     0
 40
12.0
 41
0.0984251946210861
 42
0.063
 43
0.2362204724409449
 44
0.125
 45
0.00000001
 46
0.3937007874015748
 73
     0
 78
     4
 79
     1
140
0.1200000047683716
143
1.0
144
25.4
147
0.031496062992126
171
     1
176
   256
177
   256
178
   256
179
     1
271
     2
272
     2
274
     1
284
     4
285
     4
340
D6
371
    -1
372
    -1
  0
DIMSTYLE
105
F3
330
A
100
AcDbSymbolTableRecord
100
AcDbDimStyleTableRecord
  2
Default - mm (ANSI)$7
 70
     0
 40
12.0
 41
0.0984251946210861
 42
0.063
 43
0.2362204724409449
 44
0.125
 45
0.00000001
 46
0.3937007874015748
 73
     0
 78
     4
 79
     1
140
0.1200000047683716
143
1.0
144
25.4
147
0.031496062992126
171
     1
176
   256
177
   256
178
   256
179
     1
271
     2
272
     2
274
     1
284
     4
285
     4
340
D6
371
    -1
372
    -1
  0
DIMSTYLE
105
F4
330
A
100
AcDbSymbolTableRecord
100
AcDbDimStyleTableRecord
  2
Default - mm [in] (ANSI)
 70
     0
  4
 in
 40
12.0
 41
0.0984251946210861
 42
0.063
 43
0.25
 44
0.125
 45
0.00000001
 46
0.3937007874015748
 73
     0
 78
     4
 79
     1
140
0.1200000047683716
143
0.03937
144
25.4
147
0.031496062992126
170
     1
171
     3
176
   256
177
   256
178
   256
179
     1
271
     2
272
     2
274
     3
284
     4
285
     4
286
     4
340
D6
371
    -1
372
    -1
  0
DIMSTYLE
105
F5
330
A
100
AcDbSymbolTableRecord
100
AcDbDimStyleTableRecord
  2
Default - mm [in] (ANSI)$7
 70
     0
  4
 in
 40
12.0
 41
0.0984251946210861
 42
0.063
 43
0.25
 44
0.125
 45
0.00000001
 46
0.3937007874015748
 73
     0
 78
     4
 79
     1
140
0.1200000047683716
143
0.03937
144
25.4
147
0.031496062992126
170
     1
171
     3
176
   256
177
   256
178
   256
179
     1
271
     2
272
     2
274
     3
284
     4
285
     4
286
     4
340
D6
371
    -1
372
    -1
  0
DIMSTYLE
105
F6
102
{ACAD_REACTORS
330
558
330
644
330
72E
330
818
330
918
330
A02
330
AEC
330
BD6
330
C90
330
D99
330
E8B
102
}
330
A
100
AcDbSymbolTableRecord
100
AcDbDimStyleTableRecord
  2
Default (ANSI)
 70
     0
 40
12.0
 41
0.0984251946210861
 43
0.2362204724409449
 44
0.125
 45
0.00000001
 46
0.3937007874015748
 79
     1
140
0.1200000047683716
147
0.031496062992126
171
     1
176
   256
177
   256
178
   256
271
     2
272
     2
274
     1
284
     4
285
     4
340
D6
371
    -1
372
    -1
  0
DIMSTYLE
105
F7
330
A
100
AcDbSymbolTableRecord
100
AcDbDimStyleTableRecord
  2
Default (ANSI)$7
 70
     0
 40
12.0
 41
0.0984251946210861
 43
0.2362204724409449
 44
0.125
 45
0.00000001
 46
0.3937007874015748
 79
     1
140
0.1200000047683716
147
0.031496062992126
171
     1
176
   256
177
   256
178
   256
271
     2
272
     2
274
     1
284
     4
285
     4
340
D6
371
    -1
372
    -1
  0
DIMSTYLE
105
F8
330
A
100
AcDbSymbolTableRecord
100
AcDbDimStyleTableRecord
  2
Alternate (ANSI)
 70
     0
 40
12.0
 41
0.0979999974370003
340
55
342
F9
  0
DIMSTYLE
105
10B
330
A
100
AcDbSymbolTableRecord
100
AcDbDimStyleTableRecord
  2
Datum (ANSI)
 70
     0
 40
12.0
 41
0.0979999974370003
340
55
342
F9
  0
DIMSTYLE
105
11A
330
A
100
AcDbSymbolTableRecord
100
AcDbDimStyleTableRecord
  2
Large (ANSI)
 70
     0
 40
12.0
 41
0.1959999948740005
340
55
342
F9
  0
ENDTAB
  0
TABLE
  2
BLOCK_RECORD
  5
1
330
0
100
AcDbSymbolTable
 70
    15
  0
BLOCK_RECORD
  5
6C
330
1
100
AcDbSymbolTableRecord
100
AcDbBlockTableRecord
  2
*Model_Space
340
6F
 70
     0
280
     1
281
     0
  0
BLOCK_RECORD
  5
68
330
1
100
AcDbSymbolTableRecord
100
AcDbBlockTableRecord
  2
*Paper_Space
340
6B
 70
     0
280
     1
281
     0
  0
BLOCK_RECORD
  5
70
330
1
100
AcDbSymbolTableRecord
100
AcDbBlockTableRecord
  2
*Paper_Space0
340
73
 70
     0
280
     1
281
     0
  0
BLOCK_RECORD
  5
F9
330
1
100
AcDbSymbolTableRecord
100
AcDbBlockTableRecord
  2
_Closed
340
0
 70
     0
280
     1
281
     0
  0
BLOCK_RECORD
  5
100
330
1
100
AcDbSymbolTableRecord
100
AcDbBlockTableRecord
  2
DatumFilled45
340
0
 70
     0
280
     1
281
     0
  0
BLOCK_RECORD
  5
10C
330
1
100
AcDbSymbolTableRecord
100
AcDbBlockTableRecord
  2
Filled-1
340
0
 70
     0
280
     1
281
     0
  0
BLOCK_RECORD
  5
55B
330
1
100
AcDbSymbolTableRecord
100
AcDbBlockTableRecord
  2
*D4
340
0
 70
     0
280
     1
281
     0
  0
BLOCK_RECORD
  5
645
330
1
100
AcDbSymbolTableRecord
100
AcDbBlockTableRecord
  2
*D5
340
0
 70
     0
280
     1
281
     0
  0
BLOCK_RECORD
  5
72F
330
1
100
AcDbSymbolTableRecord
100
AcDbBlockTableRecord
  2
*D6
340
0
 70
     0
280
     1
281
     0
  0
BLOCK_RECORD
  5
819
330
1
100
AcDbSymbolTableRecord
100
AcDbBlockTableRecord
  2
*D7
340
0
 70
     0
280
     1
281
     0
  0
BLOCK_RECORD
  5
919
330
1
100
AcDbSymbolTableRecord
100
AcDbBlockTableRecord
  2
*D8
340
0
 70
     0
280
     1
281
     0
  0
BLOCK_RECORD
  5
A03
330
1
100
AcDbSymbolTableRecord
100
AcDbBlockTableRecord
  2
*D9
340
0
 70
     0
280
     1
281
     0
  0
BLOCK_RECORD
  5
AED
330
1
100
AcDbSymbolTableRecord
100
AcDbBlockTableRecord
  2
*D10
340
0
 70
     0
280
     1
281
     0
  0
BLOCK_RECORD
  5
BD7
330
1
100
AcDbSymbolTableRecord
100
AcDbBlockTableRecord
  2
*D11
340
0
 70
     0
280
     1
281
     0
  0
BLOCK_RECORD
  5
C91
330
1
100
AcDbSymbolTableRecord
100
AcDbBlockTableRecord
  2
*D12
340
0
 70
     0
280
     1
281
     0
  0
BLOCK_RECORD
  5
D9A
330
1
100
AcDbSymbolTableRecord
100
AcDbBlockTableRecord
  2
*D13
340
0
 70
     0
280
     1
281
     0
  0
BLOCK_RECORD
  5
E8C
330
1
100
AcDbSymbolTableRecord
100
AcDbBlockTableRecord
  2
*D14
340
0
 70
     0
280
     1
281
     0
  0
ENDTAB
  0
ENDSEC
  0
SECTION
  2
BLOCKS
  0
BLOCK
  5
6D
330
6C
100
AcDbEntity
  8
0
100
AcDbBlockBegin
  2
*Model_Space
 70
     0
 10
0.0
 20
0.0
 30
0.0
  3
*Model_Space
  1

  0
ENDBLK
  5
6E
330
6C
100
AcDbEntity
  8
0
100
AcDbBlockEnd
  0
BLOCK
  5
69
330
68
100
AcDbEntity
 67
     1
  8
0
100
AcDbBlockBegin
  2
*Paper_Space
 70
     0
 10
0.0
 20
0.0
 30
0.0
  3
*Paper_Space
  1

  0
ENDBLK
  5
6A
330
68
100
AcDbEntity
 67
     1
  8
0
100
AcDbBlockEnd
  0
BLOCK
  5
71
330
70
100
AcDbEntity
 67
     1
  8
0
100
AcDbBlockBegin
  2
*Paper_Space0
 70
     0
 10
0.0
 20
0.0
 30
0.0
  3
*Paper_Space0
  1

  0
ENDBLK
  5
72
330
70
100
AcDbEntity
 67
     1
  8
0
100
AcDbBlockEnd
  0
BLOCK
  5
FE
330
F9
100
AcDbEntity
  8
0
100
AcDbBlockBegin
  2
_Closed
 70
     0
 10
0.0
 20
0.0
 30
0.0
  3
_Closed
  1

  0
LINE
  5
FA
330
F9
100
AcDbEntity
  8
0
  6
ByBlock
 62
     0
370
    -2
100
AcDbLine
 10
-1.0
 20
0.1666666666666666
 30
0.0
 11
0.0
 21
0.0
 31
0.0
  0
LINE
  5
FB
330
F9
100
AcDbEntity
  8
0
  6
ByBlock
 62
     0
370
    -2
100
AcDbLine
 10
0.0
 20
0.0
 30
0.0
 11
-1.0
 21
-0.1666666666666666
 31
0.0
  0
LINE
  5
FC
330
F9
100
AcDbEntity
  8
0
  6
ByBlock
 62
     0
370
    -2
100
AcDbLine
 10
-1.0
 20
0.1666666666666666
 30
0.0
 11
-1.0
 21
-0.1666666666666666
 31
0.0
  0
LINE
  5
FD
330
F9
100
AcDbEntity
  8
0
  6
ByBlock
 62
     0
370
    -2
100
AcDbLine
 10
0.0
 20
0.0
 30
0.0
 11
-1.0
 21
0.0
 31
0.0
  0
ENDBLK
  5
FF
330
F9
100
AcDbEntity
  8
0
100
AcDbBlockEnd
  0
BLOCK
  5
101
330
100
100
AcDbEntity
  8
0
100
AcDbBlockBegin
  2
DatumFilled45
 70
     0
 10
0.0
 20
0.0
 30
0.0
  3
DatumFilled45
  1

  0
POLYLINE
  5
103
330
100
100
AcDbEntity
  8
0
 62
     0
100
AcDb2dPolyline
 66
     1
 10
0.0
 20
0.0
 30
0.0
 70
   128
  0
VERTEX
  5
104
330
103
100
AcDbEntity
  8
0
 62
     0
100
AcDbVertex
100
AcDb2dVertex
 10
0.0
 20
0.9999999999999998
 30
0.0
  0
VERTEX
  5
105
330
103
100
AcDbEntity
  8
0
 62
     0
100
AcDbVertex
100
AcDb2dVertex
 10
0.0
 20
-0.9999999999999998
 30
0.0
  0
VERTEX
  5
107
330
103
100
AcDbEntity
  8
0
 62
     0
100
AcDbVertex
100
AcDb2dVertex
 10
-0.9999999999999998
 20
0.0
 30
0.0
  0
VERTEX
  5
108
330
103
100
AcDbEntity
  8
0
 62
     0
100
AcDbVertex
100
AcDb2dVertex
 10
0.0
 20
0.9999999999999998
 30
0.0
  0
SEQEND
  5
106
330
103
100
AcDbEntity
  8
0
 62
     0
  0
SOLID
  5
10A
330
100
100
AcDbEntity
  8
0
 62
     0
100
AcDbTrace
 10
0.0
 20
0.9999999999999998
 30
0.0
 11
0.0
 21
-0.9999999999999998
 31
0.0
 12
-0.9999999999999998
 22
0.0
 32
0.0
 13
0.0
 23
0.9999999999999998
 33
0.0
  0
ENDBLK
  5
102
330
100
100
AcDbEntity
  8
0
100
AcDbBlockEnd
  0
BLOCK
  5
10D
330
10C
100
AcDbEntity
  8
0
100
AcDbBlockBegin
  2
Filled-1
 70
     0
 10
0.0
 20
0.0
 30
0.0
  3
Filled-1
  1

  0
LINE
  5
10F
330
10C
100
AcDbEntity
  8
0
 62
     0
100
AcDbLine
 10
-0.9999999999999998
 20
0.0
 30
0.0
 11
0.0
 21
0.0
 31
0.0
  0
POLYLINE
  5
110
330
10C
100
AcDbEntity
  8
0
 62
     0
100
AcDb2dPolyline
 66
     1
 10
0.0
 20
0.0
 30
0.0
 70
   128
  0
VERTEX
  5
111
330
110
100
AcDbEntity
  8
0
 62
     0
100
AcDbVertex
100
AcDb2dVertex
 10
-0.9999999999999998
 20
-0.0994897959183674
 30
0.0
  0
VERTEX
  5
112
330
110
100
AcDbEntity
  8
0
 62
     0
100
AcDbVertex
100
AcDb2dVertex
 10
0.0
 20
0.0
 30
0.0
  0
VERTEX
  5
114
330
110
100
AcDbEntity
  8
0
 62
     0
100
AcDbVertex
100
AcDb2dVertex
 10
-0.9999999999999998
 20
0.0994897959183674
 30
0.0
  0
VERTEX
  5
115
330
110
100
AcDbEntity
  8
0
 62
     0
100
AcDbVertex
100
AcDb2dVertex
 10
-0.9999999999999998
 20
-0.0994897959183674
 30
0.0
  0
SEQEND
  5
113
330
110
100
AcDbEntity
  8
0
 62
     0
  0
SOLID
  5
116
330
10C
100
AcDbEntity
  8
0
 62
     0
100
AcDbTrace
 10
-0.9999999999999998
 20
-0.0994897959183674
 30
0.0
 11
0.0
 21
0.0
 31
0.0
 12
-0.9999999999999998
 22
0.0994897959183674
 32
0.0
 13
-0.9999999999999998
 23
-0.0994897959183674
 33
0.0
  0
LINE
  5
117
330
10C
100
AcDbEntity
  8
0
 62
     0
100
AcDbLine
 10
-0.9999999999999998
 20
-0.0994897959183674
 30
0.0
 11
0.0
 21
0.0
 31
0.0
  0
LINE
  5
118
330
10C
100
AcDbEntity
  8
0
 62
     0
100
AcDbLine
 10
0.0
 20
0.0
 30
0.0
 11
-0.9999999999999998
 21
0.0994897959183674
 31
0.0
  0
LINE
  5
119
330
10C
100
AcDbEntity
  8
0
 62
     0
100
AcDbLine
 10
-0.9999999999999998
 20
0.0994897959183674
 30
0.0
 11
-0.9999999999999998
 21
-0.0994897959183674
 31
0.0
  0
ENDBLK
  5
10E
330
10C
100
AcDbEntity
  8
0
100
AcDbBlockEnd
  0
BLOCK
  5
55C
330
55B
100
AcDbEntity
  8
0
100
AcDbBlockBegin
  2
*D4
 70
     1
 10
0.0
 20
0.0
 30
0.0
  3
*D4
  1

  0
LINE
  5
63A
330
55B
100
AcDbEntity
  8
Dimension (ANSI)
440
 16777216
100
AcDbLine
 10
27.90382482119309
 20
91.80768119755642
 30
0.0
 11
27.90382482119309
 21
106.0224498521162
 31
0.0
  0
LINE
  5
63B
330
55B
100
AcDbEntity
  8
Dimension (ANSI)
440
 16777216
100
AcDbLine
 10
95.90382482119306
 20
91.80768119755642
 30
0.0
 11
95.90382482119306
 21
106.0224498521162
 31
0.0
  0
LINE
  5
63C
330
55B
100
AcDbEntity
  8
Dimension (ANSI)
440
 16777216
100
AcDbLine
 10
29.08492715664612
 20
104.5224498521162
 30
0.0
 11
59.14489146221803
 21
104.5224498521162
 31
0.0
  0
LINE
  5
63D
330
55B
100
AcDbEntity
  8
Dimension (ANSI)
440
 16777216
100
AcDbLine
 10
94.72272248574002
 20
104.5224498521162
 30
0.0
 11
64.66275818016811
 21
104.5224498521162
 31
0.0
  0
SOLID
  5
63E
330
55B
100
AcDbEntity
  8
Dimension (ANSI)
440
 16777216
100
AcDbTrace
 10
29.08492715664612
 20
104.7193002413584
 30
0.0
 11
29.08492715664612
 21
104.3255994628741
 31
0.0
 12
27.90382482119309
 22
104.5224498521162
 32
0.0
 13
27.90382482119309
 23
104.5224498521162
 33
0.0
  0
SOLID
  5
63F
330
55B
100
AcDbEntity
  8
Dimension (ANSI)
440
 16777216
100
AcDbTrace
 10
94.72272248574002
 20
104.7193002413584
 30
0.0
 11
94.72272248574002
 21
104.3255994628741
 31
0.0
 12
95.90382482119306
 22
104.5224498521162
 32
0.0
 13
95.90382482119306
 23
104.5224498521162
 33
0.0
  0
MTEXT
  5
640
330
55B
100
AcDbEntity
  8
Dimension (ANSI)
440
 16777216
100
AcDbMText
 10
59.52284421812354
 20
105.2753310054427
 30
0.0
 40
1.440000057220458
 41
0.0
 46
0.0
 71
     1
 72
     1
  1
\A1;68.00
  7
Note Text (ANSI)
 73
     1
 44
1.0
  0
POINT
  5
641
330
55B
100
AcDbEntity
  8
Defpoints
 62
     0
440
 16777216
100
AcDbPoint
 10
27.90382482119309
 20
91.05768119755643
 30
0.0
  0
POINT
  5
642
330
55B
100
AcDbEntity
  8
Defpoints
 62
     0
440
 16777216
100
AcDbPoint
 10
95.90382482119306
 20
91.05768119755643
 30
0.0
  0
POINT
  5
643
330
55B
100
AcDbEntity
  8
Defpoints
 62
     0
440
 16777216
100
AcDbPoint
 10
95.90382482119306
 20
104.5224498521162
 30
0.0
  0
ENDBLK
  5
55D
330
55B
100
AcDbEntity
  8
0
100
AcDbBlockEnd
  0
BLOCK
  5
646
330
645
100
AcDbEntity
  8
0
100
AcDbBlockBegin
  2
*D5
 70
     1
 10
0.0
 20
0.0
 30
0.0
  3
*D5
  1

  0
LINE
  5
724
330
645
100
AcDbEntity
  8
Dimension (ANSI)
440
 16777216
100
AcDbLine
 10
27.90382482119309
 20
91.80768119755642
 30
0.0
 11
27.90382482119309
 21
97.79184061545507
 31
0.0
  0
LINE
  5
725
330
645
100
AcDbEntity
  8
Dimension (ANSI)
440
 16777216
100
AcDbLine
 10
28.77882482119309
 20
92.9275695452047
 30
0.0
 11
28.77882482119309
 21
97.79184061545507
 31
0.0
  0
LINE
  5
726
330
645
100
AcDbEntity
  8
Dimension (ANSI)
440
 16777216
100
AcDbLine
 10
29.95992715664612
 20
96.29184061545506
 30
0.0
 11
31.14102949209915
 21
96.29184061545506
 31
0.0
  0
LINE
  5
727
330
645
100
AcDbEntity
  8
Dimension (ANSI)
440
 16777216
100
AcDbLine
 10
26.72272248574005
 20
96.29184061545506
 30
0.0
 11
24.93134527425943
 21
96.29184061545506
 31
0.0
  0
SOLID
  5
728
330
645
100
AcDbEntity
  8
Dimension (ANSI)
440
 16777216
100
AcDbTrace
 10
29.95992715664612
 20
96.48869100469724
 30
0.0
 11
29.95992715664612
 21
96.09499022621289
 31
0.0
 12
28.77882482119309
 22
96.29184061545506
 32
0.0
 13
28.77882482119309
 23
96.29184061545506
 33
0.0
  0
SOLID
  5
729
330
645
100
AcDbEntity
  8
Dimension (ANSI)
440
 16777216
100
AcDbTrace
 10
26.72272248574005
 20
96.48869100469724
 30
0.0
 11
26.72272248574005
 21
96.09499022621289
 31
0.0
 12
27.90382482119309
 22
96.29184061545506
 32
0.0
 13
27.90382482119309
 23
96.29184061545506
 33
0.0
  0
MTEXT
  5
72A
330
645
100
AcDbEntity
  8
Dimension (ANSI)
440
 16777216
100
AcDbMText
 10
20.86200220075993
 20
97.04472176878148
 30
0.0
 40
1.440000057220458
 41
0.0
 46
0.0
 71
     1
 72
     1
  1
\A1;0.88
  7
Note Text (ANSI)
 73
     1
 44
1.0
  0
POINT
  5
72B
330
645
100
AcDbEntity
  8
Defpoints
 62
     0
440
 16777216
100
AcDbPoint
 10
27.90382482119309
 20
91.05768119755643
 30
0.0
  0
POINT
  5
72C
330
645
100
AcDbEntity
  8
Defpoints
 62
     0
440
 16777216
100
AcDbPoint
 10
28.77882482119309
 20
92.17756954520471
 30
0.0
  0
POINT
  5
72D
330
645
100
AcDbEntity
  8
Defpoints
 62
     0
440
 16777216
100
AcDbPoint
 10
28.77882482119309
 20
96.29184061545506
 30
0.0
  0
ENDBLK
  5
647
330
645
100
AcDbEntity
  8
0
100
AcDbBlockEnd
  0
BLOCK
  5
730
330
72F
100
AcDbEntity
  8
0
100
AcDbBlockBegin
  2
*D6
 70
     1
 10
0.0
 20
0.0
 30
0.0
  3
*D6
  1

  0
LINE
  5
80E
330
72F
100
AcDbEntity
  8
Dimension (ANSI)
440
 16777216
100
AcDbLine
 10
28.77882482119309
 20
92.9275695452047
 30
0.0
 11
28.77882482119309
 21
97.79184061545507
 31
0.0
  0
LINE
  5
80F
330
72F
100
AcDbEntity
  8
Dimension (ANSI)
440
 16777216
100
AcDbLine
 10
61.90382482119309
 20
92.9275695452047
 30
0.0
 11
61.90382482119309
 21
97.79184061545507
 31
0.0
  0
LINE
  5
810
330
72F
100
AcDbEntity
  8
Dimension (ANSI)
440
 16777216
100
AcDbLine
 10
29.95992715664612
 20
96.29184061545506
 30
0.0
 11
42.60415103312342
 21
96.29184061545506
 31
0.0
  0
LINE
  5
811
330
72F
100
AcDbEntity
  8
Dimension (ANSI)
440
 16777216
100
AcDbLine
 10
60.72272248574005
 20
96.29184061545506
 30
0.0
 11
48.07849860926275
 21
96.29184061545506
 31
0.0
  0
SOLID
  5
812
330
72F
100
AcDbEntity
  8
Dimension (ANSI)
440
 16777216
100
AcDbTrace
 10
29.95992715664612
 20
96.48869100469724
 30
0.0
 11
29.95992715664612
 21
96.09499022621289
 31
0.0
 12
28.77882482119309
 22
96.29184061545506
 32
0.0
 13
28.77882482119309
 23
96.29184061545506
 33
0.0
  0
SOLID
  5
813
330
72F
100
AcDbEntity
  8
Dimension (ANSI)
440
 16777216
100
AcDbTrace
 10
60.72272248574005
 20
96.48869100469724
 30
0.0
 11
60.72272248574005
 21
96.09499022621289
 31
0.0
 12
61.90382482119309
 22
96.29184061545506
 32
0.0
 13
61.90382482119309
 23
96.29184061545506
 33
0.0
  0
MTEXT
  5
814
330
72F
100
AcDbEntity
  8
Dimension (ANSI)
440
 16777216
100
AcDbMText
 10
42.98210378902894
 20
97.04182049266075
 30
0.0
 40
1.440000057220458
 41
0.0
 46
0.0
 71
     1
 72
     1
  1
\A1;33.13
  7
Note Text (ANSI)
 73
     1
 44
1.0
  0
POINT
  5
815
330
72F
100
AcDbEntity
  8
Defpoints
 62
     0
440
 16777216
100
AcDbPoint
 10
28.77882482119309
 20
92.17756954520471
 30
0.0
  0
POINT
  5
816
330
72F
100
AcDbEntity
  8
Defpoints
 62
     0
440
 16777216
100
AcDbPoint
 10
61.90382482119309
 20
92.17756954520471
 30
0.0
  0
POINT
  5
817
330
72F
100
AcDbEntity
  8
Defpoints
 62
     0
440
 16777216
100
AcDbPoint
 10
61.90382482119309
 20
96.29184061545506
 30
0.0
  0
ENDBLK
  5
731
330
72F
100
AcDbEntity
  8
0
100
AcDbBlockEnd
  0
BLOCK
  5
81A
330
819
100
AcDbEntity
  8
0
100
AcDbBlockBegin
  2
*D7
 70
     1
 10
0.0
 20
0.0
 30
0.0
  3
*D7
  1

  0
LINE
  5
90D
330
819
100
AcDbEntity
  8
Dimension (ANSI)
440
 16777216
100
AcDbLine
 10
27.36721316884143
 20
31.27106954520474
 30
0.0
 11
25.22207336916397
 21
31.27106954520474
 31
0.0
  0
LINE
  5
90E
330
819
100
AcDbEntity
  8
Dimension (ANSI)
440
 16777216
100
AcDbLine
 10
26.24732482119308
 20
32.14606954520474
 30
0.0
 11
25.22207336916397
 21
32.14606954520474
 31
0.0
  0
LINE
  5
90F
330
819
100
AcDbEntity
  8
Dimension (ANSI)
440
 16777216
100
AcDbLine
 10
26.72207336916397
 20
33.32717188065777
 30
0.0
 11
26.72207336916397
 21
34.50827421611081
 31
0.0
  0
LINE
  5
910
330
819
100
AcDbEntity
  8
Dimension (ANSI)
440
 16777216
100
AcDbLine
 10
26.72207336916397
 20
30.08996720975171
 30
0.0
 11
26.72207336916397
 21
27.82709755461905
 31
0.0
  0
LINE
  5
911
330
819
100
AcDbEntity
  8
Dimension (ANSI)
440
 16777216
100
AcDbLine
 10
26.72207336916397
 20
27.82709755461905
 30
0.0
 11
25.54097103371094
 21
27.82709755461905
 31
0.0
  0
SOLID
  5
912
330
819
100
AcDbEntity
  8
Dimension (ANSI)
440
 16777216
100
AcDbTrace
 10
26.5252229799218
 20
33.32717188065777
 30
0.0
 11
26.91892375840615
 21
33.32717188065777
 31
0.0
 12
26.72207336916397
 22
32.14606954520474
 32
0.0
 13
26.72207336916397
 23
32.14606954520474
 33
0.0
  0
SOLID
  5
913
330
819
100
AcDbEntity
  8
Dimension (ANSI)
440
 16777216
100
AcDbTrace
 10
26.5252229799218
 20
30.08996720975171
 30
0.0
 11
26.91892375840615
 21
30.08996720975171
 31
0.0
 12
26.72207336916397
 22
31.27106954520474
 32
0.0
 13
26.72207336916397
 23
31.27106954520474
 33
0.0
  0
MTEXT
  5
914
330
819
100
AcDbEntity
  8
Dimension (ANSI)
440
 16777216
100
AcDbMText
 10
21.47162796021143
 20
28.57997870794547
 30
0.0
 40
1.440000057220458
 41
0.0
 46
0.0
 71
     1
 72
     1
  1
\A1;0.88
  7
Note Text (ANSI)
 73
     1
 44
1.0
  0
POINT
  5
915
330
819
100
AcDbEntity
  8
Defpoints
 62
     0
440
 16777216
100
AcDbPoint
 10
28.11721316884142
 20
31.27106954520474
 30
0.0
  0
POINT
  5
916
330
819
100
AcDbEntity
  8
Defpoints
 62
     0
440
 16777216
100
AcDbPoint
 10
26.99732482119308
 20
32.14606954520474
 30
0.0
  0
POINT
  5
917
330
819
100
AcDbEntity
  8
Defpoints
 62
     0
440
 16777216
100
AcDbPoint
 10
26.72207336916397
 20
32.14606954520474
 30
0.0
  0
ENDBLK
  5
81B
330
819
100
AcDbEntity
  8
0
100
AcDbBlockEnd
  0
BLOCK
  5
91A
330
919
100
AcDbEntity
  8
0
100
AcDbBlockBegin
  2
*D8
 70
     1
 10
0.0
 20
0.0
 30
0.0
  3
*D8
  1

  0
LINE
  5
9F8
330
919
100
AcDbEntity
  8
Dimension (ANSI)
440
 16777216
100
AcDbLine
 10
26.24732482119308
 20
32.14606954520474
 30
0.0
 11
21.81732311900844
 21
32.14606954520474
 31
0.0
  0
LINE
  5
9F9
330
919
100
AcDbEntity
  8
Dimension (ANSI)
440
 16777216
100
AcDbLine
 10
26.2473248211931
 20
61.27106954520473
 30
0.0
 11
21.81732311900844
 21
61.27106954520473
 31
0.0
  0
LINE
  5
9FA
330
919
100
AcDbEntity
  8
Dimension (ANSI)
440
 16777216
100
AcDbLine
 10
23.31732311900844
 20
33.32717188065777
 30
0.0
 11
23.31732311900844
 21
45.58063691209352
 31
0.0
  0
LINE
  5
9FB
330
919
100
AcDbEntity
  8
Dimension (ANSI)
440
 16777216
100
AcDbLine
 10
23.31732311900845
 20
60.0899672097517
 30
0.0
 11
23.31732311900844
 21
47.83650217831594
 31
0.0
  0
SOLID
  5
9FC
330
919
100
AcDbEntity
  8
Dimension (ANSI)
440
 16777216
100
AcDbTrace
 10
23.12047272976627
 20
33.32717188065777
 30
0.0
 11
23.51417350825061
 21
33.32717188065777
 31
0.0
 12
23.31732311900844
 22
32.14606954520474
 32
0.0
 13
23.31732311900844
 23
32.14606954520474
 33
0.0
  0
SOLID
  5
9FD
330
919
100
AcDbEntity
  8
Dimension (ANSI)
440
 16777216
100
AcDbTrace
 10
23.12047272976627
 20
60.0899672097517
 30
0.0
 11
23.51417350825062
 21
60.0899672097517
 31
0.0
 12
23.31732311900845
 22
61.27106954520473
 32
0.0
 13
23.31732311900845
 23
61.27106954520473
 33
0.0
  0
MTEXT
  5
9FE
330
919
100
AcDbEntity
  8
Dimension (ANSI)
440
 16777216
100
AcDbMText
 10
20.96390463908573
 20
47.45854942241043
 30
0.0
 40
1.440000057220458
 41
0.0
 46
0.0
 71
     1
 72
     1
  1
\A1;29.13
  7
Note Text (ANSI)
 73
     1
 44
1.0
  0
POINT
  5
9FF
330
919
100
AcDbEntity
  8
Defpoints
 62
     0
440
 16777216
100
AcDbPoint
 10
26.99732482119308
 20
32.14606954520474
 30
0.0
  0
POINT
  5
A00
330
919
100
AcDbEntity
  8
Defpoints
 62
     0
440
 16777216
100
AcDbPoint
 10
26.9973248211931
 20
61.27106954520473
 30
0.0
  0
POINT
  5
A01
330
919
100
AcDbEntity
  8
Defpoints
 62
     0
440
 16777216
100
AcDbPoint
 10
23.31732311900845
 20
61.27106954520473
 30
0.0
  0
ENDBLK
  5
91B
330
919
100
AcDbEntity
  8
0
100
AcDbBlockEnd
  0
BLOCK
  5
A04
330
A03
100
AcDbEntity
  8
0
100
AcDbBlockBegin
  2
*D9
 70
     1
 10
0.0
 20
0.0
 30
0.0
  3
*D9
  1

  0
LINE
  5
AE2
330
A03
100
AcDbEntity
  8
Dimension (ANSI)
440
 16777216
100
AcDbLine
 10
26.24732482119308
 20
32.14606954520474
 30
0.0
 11
14.473702773949
 21
32.14606954520475
 31
0.0
  0
LINE
  5
AE3
330
A03
100
AcDbEntity
  8
Dimension (ANSI)
440
 16777216
100
AcDbLine
 10
26.24732482119309
 20
90.3960695452047
 30
0.0
 11
14.47370277394901
 21
90.3960695452047
 31
0.0
  0
LINE
  5
AE4
330
A03
100
AcDbEntity
  8
Dimension (ANSI)
440
 16777216
100
AcDbLine
 10
15.973702773949
 20
33.32717188065778
 30
0.0
 11
15.97370277394901
 21
60.1402356359728
 31
0.0
  0
LINE
  5
AE5
330
A03
100
AcDbEntity
  8
Dimension (ANSI)
440
 16777216
100
AcDbLine
 10
15.97370277394901
 20
89.21496720975168
 30
0.0
 11
15.97370277394901
 21
62.40190345443665
 31
0.0
  0
SOLID
  5
AE6
330
A03
100
AcDbEntity
  8
Dimension (ANSI)
440
 16777216
100
AcDbTrace
 10
15.77685238470683
 20
33.32717188065778
 30
0.0
 11
16.17055316319117
 21
33.32717188065777
 31
0.0
 12
15.973702773949
 22
32.14606954520475
 32
0.0
 13
15.973702773949
 23
32.14606954520475
 33
0.0
  0
SOLID
  5
AE7
330
A03
100
AcDbEntity
  8
Dimension (ANSI)
440
 16777216
100
AcDbTrace
 10
15.77685238470684
 20
89.21496720975168
 30
0.0
 11
16.17055316319119
 21
89.21496720975168
 31
0.0
 12
15.97370277394901
 22
90.3960695452047
 32
0.0
 13
15.97370277394901
 23
90.3960695452047
 33
0.0
  0
MTEXT
  5
AE8
330
A03
100
AcDbEntity
  8
Dimension (ANSI)
440
 16777216
100
AcDbMText
 10
13.62318557014701
 20
62.02395069853114
 30
0.0
 40
1.440000057220458
 41
0.0
 46
0.0
 71
     1
 72
     1
  1
\A1;58.25
  7
Note Text (ANSI)
 73
     1
 44
1.0
  0
POINT
  5
AE9
330
A03
100
AcDbEntity
  8
Defpoints
 62
     0
440
 16777216
100
AcDbPoint
 10
26.99732482119308
 20
32.14606954520474
 30
0.0
  0
POINT
  5
AEA
330
A03
100
AcDbEntity
  8
Defpoints
 62
     0
440
 16777216
100
AcDbPoint
 10
26.99732482119309
 20
90.3960695452047
 30
0.0
  0
POINT
  5
AEB
330
A03
100
AcDbEntity
  8
Defpoints
 62
     0
440
 16777216
100
AcDbPoint
 10
15.97370277394901
 20
90.3960695452047
 30
0.0
  0
ENDBLK
  5
A05
330
A03
100
AcDbEntity
  8
0
100
AcDbBlockEnd
  0
BLOCK
  5
AEE
330
AED
100
AcDbEntity
  8
0
100
AcDbBlockBegin
  2
*D10
 70
     1
 10
0.0
 20
0.0
 30
0.0
  3
*D10
  1

  0
LINE
  5
BCC
330
AED
100
AcDbEntity
  8
Dimension (ANSI)
440
 16777216
100
AcDbLine
 10
27.36721316884143
 20
31.27106954520474
 30
0.0
 11
7.496404198925169
 21
31.27106954520475
 31
0.0
  0
LINE
  5
BCD
330
AED
100
AcDbEntity
  8
Dimension (ANSI)
440
 16777216
100
AcDbLine
 10
27.36721316884142
 20
91.27106954520471
 30
0.0
 11
7.496404198925179
 21
91.27106954520471
 31
0.0
  0
LINE
  5
BCE
330
AED
100
AcDbEntity
  8
Dimension (ANSI)
440
 16777216
100
AcDbLine
 10
8.996404198925167
 20
32.45217188065778
 30
0.0
 11
8.996404198925175
 21
60.14362045811364
 31
0.0
  0
LINE
  5
BCF
330
AED
100
AcDbEntity
  8
Dimension (ANSI)
440
 16777216
100
AcDbLine
 10
8.99640419892518
 20
90.08996720975167
 30
0.0
 11
8.996404198925175
 21
62.39851863229581
 31
0.0
  0
SOLID
  5
BD0
330
AED
100
AcDbEntity
  8
Dimension (ANSI)
440
 16777216
100
AcDbTrace
 10
8.799553809682995
 20
32.45217188065778
 30
0.0
 11
9.19325458816734
 21
32.45217188065778
 31
0.0
 12
8.996404198925167
 22
31.27106954520475
 32
0.0
 13
8.996404198925167
 23
31.27106954520475
 33
0.0
  0
SOLID
  5
BD1
330
AED
100
AcDbEntity
  8
Dimension (ANSI)
440
 16777216
100
AcDbTrace
 10
8.799553809683008
 20
90.08996720975167
 30
0.0
 11
9.193254588167352
 21
90.08996720975167
 31
0.0
 12
8.99640419892518
 22
91.27106954520471
 32
0.0
 13
8.99640419892518
 23
91.27106954520471
 33
0.0
  0
MTEXT
  5
BD2
330
AED
100
AcDbEntity
  8
Dimension (ANSI)
440
 16777216
100
AcDbMText
 10
6.61542359585563
 20
62.02056587639031
 30
0.0
 40
1.440000057220458
 41
0.0
 46
0.0
 71
     1
 72
     1
  1
\A1;60.00
  7
Note Text (ANSI)
 73
     1
 44
1.0
  0
POINT
  5
BD3
330
AED
100
AcDbEntity
  8
Defpoints
 62
     0
440
 16777216
100
AcDbPoint
 10
28.11721316884142
 20
31.27106954520474
 30
0.0
  0
POINT
  5
BD4
330
AED
100
AcDbEntity
  8
Defpoints
 62
     0
440
 16777216
100
AcDbPoint
 10
28.11721316884142
 20
91.27106954520471
 30
0.0
  0
POINT
  5
BD5
330
AED
100
AcDbEntity
  8
Defpoints
 62
     0
440
 16777216
100
AcDbPoint
 10
8.99640419892518
 20
91.27106954520471
 30
0.0
  0
ENDBLK
  5
AEF
330
AED
100
AcDbEntity
  8
0
100
AcDbBlockEnd
  0
BLOCK
  5
BD8
330
BD7
100
AcDbEntity
  8
0
100
AcDbBlockBegin
  2
*D11
 70
     1
 10
0.0
 20
0.0
 30
0.0
  3
*D11
  1

  0
LINE
  5
C88
330
BD7
100
AcDbEntity
  8
Dimension (ANSI)
440
 16777216
100
AcDbLine
 10
98.94519443815827
 20
29.15874917505653
 30
0.0
 11
97.33479845860196
 21
29.15874917505652
 31
0.0
  0
LINE
  5
C89
330
BD7
100
AcDbEntity
  8
Dimension (ANSI)
440
 16777216
100
AcDbLine
 10
97.33479845860196
 20
29.15874917505652
 30
0.0
 11
95.9225443506698
 21
30.98828243424494
 31
0.0
  0
MTEXT
  5
C8A
330
BD7
100
AcDbEntity
  8
Dimension (ANSI)
440
 16777216
100
AcDbMText
 10
99.32314719406377
 20
29.15874917505652
 30
0.0
 40
1.440000057220458
 41
0.0
 46
0.0
 71
     4
 72
     1
  1
\A1;∅0.563{\P(8 PL.)}
  7
Note Text (ANSI)
 73
     1
 44
1.0
  0
SOLID
  5
C8B
330
BD7
100
AcDbEntity
  8
Dimension (ANSI)
440
 16777216
100
AcDbTrace
 10
96.07836992124868
 20
31.10856737635557
 30
0.0
 11
95.76671878009088
 21
30.86799749213433
 31
0.0
 12
95.20083469800608
 22
31.92323585771835
 32
0.0
 13
95.20083469800608
 23
31.92323585771835
 33
0.0
  0
LINE
  5
C8C
330
BD7
100
AcDbEntity
  8
Dimension (ANSI)
440
 16777216
100
AcDbLine
 10
93.94882482119305
 20
32.14606954520473
 30
0.0
 11
96.10882482119304
 21
32.14606954520473
 31
0.0
  0
LINE
  5
C8D
330
BD7
100
AcDbEntity
  8
Dimension (ANSI)
440
 16777216
100
AcDbLine
 10
95.02882482119304
 20
31.06606954520473
 30
0.0
 11
95.02882482119304
 21
33.22606954520472
 31
0.0
  0
POINT
  5
C8E
330
BD7
100
AcDbEntity
  8
Defpoints
 62
     0
440
 16777216
100
AcDbPoint
 10
95.20083469800608
 20
31.92323585771835
 30
0.0
  0
POINT
  5
C8F
330
BD7
100
AcDbEntity
  8
Defpoints
 62
     0
440
 16777216
100
AcDbPoint
 10
94.85681494438004
 20
32.36890323269111
 30
0.0
  0
ENDBLK
  5
BD9
330
BD7
100
AcDbEntity
  8
0
100
AcDbBlockEnd
  0
BLOCK
  5
C92
330
C91
100
AcDbEntity
  8
0
100
AcDbBlockBegin
  2
*D12
 70
     1
 10
0.0
 20
0.0
 30
0.0
  3
*D12
  1

  0
LINE
  5
D90
330
C91
100
AcDbEntity
  8
Dimension (ANSI)
440
 16777216
100
AcDbLine
 10
84.12424769063576
 20
113.8977707683813
 30
0.0
 11
84.12424769063576
 21
112.7166684329282
 31
0.0
  0
LINE
  5
D91
330
C91
100
AcDbEntity
  8
Dimension (ANSI)
440
 16777216
100
AcDbLine
 10
84.12424769063576
 20
117.1349754392874
 30
0.0
 11
84.12424769063576
 21
121.0178451144416
 31
0.0
  0
LINE
  5
D92
330
C91
100
AcDbEntity
  8
Dimension (ANSI)
440
 16777216
100
AcDbLine
 10
84.12424769063576
 20
121.0178451144416
 30
0.0
 11
85.3053500260888
 21
121.0178451144416
 31
0.0
  0
SOLID
  5
D93
330
C91
100
AcDbEntity
  8
Dimension (ANSI)
440
 16777216
100
AcDbTrace
 10
83.92739730139359
 20
113.8977707683813
 30
0.0
 11
84.32109807987794
 21
113.8977707683813
 31
0.0
 12
84.12424769063576
 22
115.0788731038343
 32
0.0
 13
84.12424769063576
 23
115.0788731038343
 33
0.0
  0
SOLID
  5
D94
330
C91
100
AcDbEntity
  8
Dimension (ANSI)
440
 16777216
100
AcDbTrace
 10
83.92739730139359
 20
117.1349754392874
 30
0.0
 11
84.32109807987794
 21
117.1349754392874
 31
0.0
 12
84.12424769063576
 22
115.9538731038344
 32
0.0
 13
84.12424769063576
 23
115.9538731038344
 33
0.0
  0
MTEXT
  5
D95
330
C91
100
AcDbEntity
  8
Dimension (ANSI)
440
 16777216
100
AcDbMText
 10
87.5855728251453
 20
121.0178451144416
 30
0.0
 40
1.440000057220458
 41
0.0
 46
0.0
 71
     5
 72
     1
  1
\A1;0.88{\PTYP.}
  7
Note Text (ANSI)
 73
     1
 44
1.0
  0
POINT
  5
D96
330
C91
100
AcDbEntity
  8
Defpoints
 62
     0
440
 16777216
100
AcDbPoint
 10
87.5855728251453
 20
115.9538731038344
 30
0.0
  0
POINT
  5
D97
330
C91
100
AcDbEntity
  8
Defpoints
 62
     0
440
 16777216
100
AcDbPoint
 10
87.54957286914125
 20
115.0788731038343
 30
0.0
  0
POINT
  5
D98
330
C91
100
AcDbEntity
  8
Defpoints
 62
     0
440
 16777216
100
AcDbPoint
 10
84.12424769063576
 20
115.0788731038343
 30
0.0
  0
ENDBLK
  5
C93
330
C91
100
AcDbEntity
  8
0
100
AcDbBlockEnd
  0
BLOCK
  5
D9B
330
D9A
100
AcDbEntity
  8
0
100
AcDbBlockBegin
  2
*D13
 70
     1
 10
0.0
 20
0.0
 30
0.0
  3
*D13
  1

  0
LINE
  5
E80
330
D9A
100
AcDbEntity
  8
Dimension (ANSI)
440
 16777216
100
AcDbLine
 10
113.8614619325424
 20
88.24808455786248
 30
0.0
 11
112.6803595970894
 21
88.24808455786248
 31
0.0
  0
LINE
  5
E81
330
D9A
100
AcDbEntity
  8
Dimension (ANSI)
440
 16777216
100
AcDbLine
 10
117.0986666034484
 20
88.24808455786248
 30
0.0
 11
118.9446196721522
 21
88.24808455786248
 31
0.0
  0
SOLID
  5
E82
330
D9A
100
AcDbEntity
  8
Dimension (ANSI)
440
 16777216
100
AcDbTrace
 10
113.8614619325424
 20
88.44493494710466
 30
0.0
 11
113.8614619325424
 21
88.05123416862031
 31
0.0
 12
115.0425642679955
 22
88.24808455786248
 32
0.0
 13
115.0425642679955
 23
88.24808455786248
 33
0.0
  0
SOLID
  5
E83
330
D9A
100
AcDbEntity
  8
Dimension (ANSI)
440
 16777216
100
AcDbTrace
 10
117.0986666034484
 20
88.44493494710466
 30
0.0
 11
117.0986666034484
 21
88.05123416862031
 31
0.0
 12
115.9175642679954
 22
88.24808455786248
 32
0.0
 13
115.9175642679954
 23
88.24808455786248
 33
0.0
  0
MTEXT
  5
E84
330
D9A
100
AcDbEntity
  8
Dimension (ANSI)
440
 16777216
100
AcDbMText
 10
119.3225724280577
 20
88.24808455786248
 30
0.0
 40
1.440000057220458
 41
0.0
 46
0.0
 71
     4
 72
     1
  1
\A1;0.88{\PTYP.}
  7
Note Text (ANSI)
 73
     1
 44
1.0
  0
POINT
  5
E85
330
D9A
100
AcDbEntity
  8
Defpoints
 62
     0
440
 16777216
100
AcDbPoint
 10
115.9175642679954
 20
88.24808455786248
 30
0.0
  0
POINT
  5
E86
330
D9A
100
AcDbEntity
  8
Defpoints
 62
     0
440
 16777216
100
AcDbPoint
 10
115.0425642679955
 20
88.27431637428624
 30
0.0
  0
POINT
  5
E87
330
D9A
100
AcDbEntity
  8
Defpoints
 62
     0
440
 16777216
100
AcDbPoint
 10
115.0425642679955
 20
88.24808455786248
 30
0.0
  0
ENDBLK
  5
D9C
330
D9A
100
AcDbEntity
  8
0
100
AcDbBlockEnd
  0
BLOCK
  5
E8D
330
E8C
100
AcDbEntity
  8
0
100
AcDbBlockBegin
  2
*D14
 70
     1
 10
0.0
 20
0.0
 30
0.0
  3
*D14
  1

  0
LINE
  5
F6B
330
E8C
100
AcDbEntity
  8
Dimension (ANSI)
440
 16777216
100
AcDbLine
 10
28.77882482119309
 20
92.9275695452047
 30
0.0
 11
28.77882482119309
 21
101.4428579116549
 31
0.0
  0
LINE
  5
F6C
330
E8C
100
AcDbEntity
  8
Dimension (ANSI)
440
 16777216
100
AcDbLine
 10
95.02882482119307
 20
92.9275695452047
 30
0.0
 11
95.02882482119307
 21
101.4428579116549
 31
0.0
  0
LINE
  5
F6D
330
E8C
100
AcDbEntity
  8
Dimension (ANSI)
440
 16777216
100
AcDbLine
 10
29.95992715664612
 20
99.94285791165488
 30
0.0
 11
59.1564965667009
 21
99.94285791165488
 31
0.0
  0
LINE
  5
F6E
330
E8C
100
AcDbEntity
  8
Dimension (ANSI)
440
 16777216
100
AcDbLine
 10
93.84772248574003
 20
99.94285791165488
 30
0.0
 11
64.65115307568524
 21
99.94285791165488
 31
0.0
  0
SOLID
  5
F6F
330
E8C
100
AcDbEntity
  8
Dimension (ANSI)
440
 16777216
100
AcDbTrace
 10
29.95992715664612
 20
100.139708300897
 30
0.0
 11
29.95992715664612
 21
99.74600752241272
 31
0.0
 12
28.77882482119309
 22
99.94285791165488
 32
0.0
 13
28.77882482119309
 23
99.94285791165488
 33
0.0
  0
SOLID
  5
F70
330
E8C
100
AcDbEntity
  8
Dimension (ANSI)
440
 16777216
100
AcDbTrace
 10
93.84772248574003
 20
100.139708300897
 30
0.0
 11
93.84772248574003
 21
99.74600752241272
 31
0.0
 12
95.02882482119307
 22
99.94285791165488
 32
0.0
 13
95.02882482119307
 23
99.94285791165488
 33
0.0
  0
MTEXT
  5
F71
330
E8C
100
AcDbEntity
  8
Dimension (ANSI)
440
 16777216
100
AcDbMText
 10
59.53444932260641
 20
100.6928377888606
 30
0.0
 40
1.440000057220458
 41
0.0
 46
0.0
 71
     1
 72
     1
  1
\A1;66.25
  7
Note Text (ANSI)
 73
     1
 44
1.0
  0
POINT
  5
F72
330
E8C
100
AcDbEntity
  8
Defpoints
 62
     0
440
 16777216
100
AcDbPoint
 10
28.77882482119309
 20
92.17756954520471
 30
0.0
  0
POINT
  5
F73
330
E8C
100
AcDbEntity
  8
Defpoints
 62
     0
440
 16777216
100
AcDbPoint
 10
95.02882482119307
 20
92.17756954520471
 30
0.0
  0
POINT
  5
F74
330
E8C
100
AcDbEntity
  8
Defpoints
 62
     0
440
 16777216
100
AcDbPoint
 10
95.02882482119307
 20
99.94285791165488
 30
0.0
  0
ENDBLK
  5
E8E
330
E8C
100
AcDbEntity
  8
0
100
AcDbBlockEnd
  0
ENDSEC
  0
SECTION
  2
ENTITIES
  0
CIRCLE
  5
11B
330
6C
100
AcDbEntity
  8
Visible (ANSI)
100
AcDbCircle
 10
61.90382482119313
 20
32.14606954520475
 30
0.0
 40
0.2814999999999999
  0
CIRCLE
  5
11C
330
6C
100
AcDbEntity
  8
Visible (ANSI)
100
AcDbCircle
 10
61.90382482119309
 20
90.3960695452047
 30
0.0
 40
0.2814999999999999
  0
CIRCLE
  5
11D
330
6C
100
AcDbEntity
  8
Visible (ANSI)
100
AcDbCircle
 10
95.02882482119309
 20
61.27106954520476
 30
0.0
 40
0.2814999999999999
  0
CIRCLE
  5
11E
330
6C
100
AcDbEntity
  8
Visible (ANSI)
100
AcDbCircle
 10
28.77882482119309
 20
61.27106954520473
 30
0.0
 40
0.2814999999999999
  0
CIRCLE
  5
11F
330
6C
100
AcDbEntity
  8
Visible (ANSI)
100
AcDbCircle
 10
95.02882482119305
 20
90.3960695452047
 30
0.0
 40
0.2814999999999999
  0
CIRCLE
  5
120
330
6C
100
AcDbEntity
  8
Visible (ANSI)
100
AcDbCircle
 10
28.77882482119308
 20
90.3960695452047
 30
0.0
 40
0.2814999999999999
  0
CIRCLE
  5
121
330
6C
100
AcDbEntity
  8
Visible (ANSI)
100
AcDbCircle
 10
28.77882482119307
 20
32.14606954520474
 30
0.0
 40
0.2814999999999999
  0
CIRCLE
  5
122
330
6C
100
AcDbEntity
  8
Visible (ANSI)
100
AcDbCircle
 10
95.02882482119305
 20
32.14606954520474
 30
0.0
 40
0.2814999999999999
  0
LINE
  5
123
330
6C
100
AcDbEntity
  8
Visible (ANSI)
100
AcDbLine
 10
95.90382482119306
 20
91.05768119755643
 30
0.0
 11
95.90382482119313
 21
31.48445789285306
 31
0.0
  0
LINE
  5
124
330
6C
100
AcDbEntity
  8
Visible (ANSI)
100
AcDbLine
 10
28.1172131688414
 20
91.27106954520469
 30
0.0
 11
95.69043647354476
 21
91.27106954520476
 31
0.0
  0
LINE
  5
125
330
6C
100
AcDbEntity
  8
Visible (ANSI)
100
AcDbLine
 10
27.9038248211931
 20
31.48445789285306
 30
0.0
 11
27.90382482119309
 21
91.05768119755643
 31
0.0
  0
LINE
  5
126
330
6C
100
AcDbEntity
  8
Visible (ANSI)
100
AcDbLine
 10
95.69043647354476
 20
31.27106954520474
 30
0.0
 11
28.11721316884142
 21
31.27106954520474
 31
0.0
  0
LINE
  5
127
330
6C
100
AcDbEntity
  8
Hidden (ANSI)
 48
1.091708540916442
100
AcDbLine
 10
95.77882482119314
 20
31.48445789285306
 30
0.0
 11
95.77882482119305
 21
91.05768119755643
 31
0.0
  0
LINE
  5
128
330
6C
100
AcDbEntity
  8
Hidden (ANSI)
 48
1.089714884757995
100
AcDbLine
 10
95.69043647354476
 20
91.14606954520477
 30
0.0
 11
28.1172131688414
 21
91.14606954520469
 31
0.0
  0
LINE
  5
129
330
6C
100
AcDbEntity
  8
Hidden (ANSI)
 48
1.091708540916442
100
AcDbLine
 10
28.02882482119308
 20
91.05768119755643
 30
0.0
 11
28.0288248211931
 21
31.48445789285306
 31
0.0
  0
LINE
  5
12A
330
6C
100
AcDbEntity
  8
Hidden (ANSI)
 48
1.089714884757995
100
AcDbLine
 10
28.11721316884142
 20
31.39606954520474
 30
0.0
 11
95.69043647354476
 21
31.39606954520474
 31
0.0
  0
POLYLINE
  5
12B
330
6C
100
AcDbEntity
  8
Visible (ANSI)
100
AcDb2dPolyline
 66
     1
 10
0.0
 20
0.0
 30
0.0
 70
   128
  0
VERTEX
  5
12C
330
12B
100
AcDbEntity
  8
Visible (ANSI)
100
AcDbVertex
100
AcDb2dVertex
 10
95.76322216871092
 20
91.13047001656914
 30
0.0
  0
VERTEX
  5
12D
330
12B
100
AcDbEntity
  8
Visible (ANSI)
100
AcDbVertex
100
AcDb2dVertex
 10
95.77241949392933
 20
91.12743628094847
 30
0.0
  0
VERTEX
  5
12F
330
12B
100
AcDbEntity
  8
Visible (ANSI)
100
AcDbVertex
100
AcDb2dVertex
 10
95.78157476736683
 20
91.12440254532776
 30
0.0
  0
VERTEX
  5
130
330
12B
100
AcDbEntity
  8
Visible (ANSI)
100
AcDbVertex
100
AcDb2dVertex
 10
95.7906519446398
 20
91.12136880970705
 30
0.0
  0
VERTEX
  5
131
330
12B
100
AcDbEntity
  8
Visible (ANSI)
100
AcDbVertex
100
AcDb2dVertex
 10
95.79961498136473
 20
91.11834108148363
 30
0.0
  0
VERTEX
  5
132
330
12B
100
AcDbEntity
  8
Visible (ANSI)
100
AcDbVertex
100
AcDb2dVertex
 10
95.80842182576063
 20
91.11530734586295
 30
0.0
  0
VERTEX
  5
133
330
12B
100
AcDbEntity
  8
Visible (ANSI)
100
AcDbVertex
100
AcDb2dVertex
 10
95.8170304260467
 20
91.11227361024225
 30
0.0
  0
VERTEX
  5
134
330
12B
100
AcDbEntity
  8
Visible (ANSI)
100
AcDbVertex
100
AcDb2dVertex
 10
95.82541074523653
 20
91.10923987462156
 30
0.0
  0
VERTEX
  5
135
330
12B
100
AcDbEntity
  8
Visible (ANSI)
100
AcDbVertex
100
AcDb2dVertex
 10
95.83352673894653
 20
91.10620613900087
 30
0.0
  0
VERTEX
  5
136
330
12B
100
AcDbEntity
  8
Visible (ANSI)
100
AcDbVertex
100
AcDb2dVertex
 10
95.84133635539584
 20
91.10317240338018
 30
0.0
  0
VERTEX
  5
137
330
12B
100
AcDbEntity
  8
Visible (ANSI)
100
AcDbVertex
100
AcDb2dVertex
 10
95.84881556499537
 20
91.10013866775947
 30
0.0
  0
VERTEX
  5
138
330
12B
100
AcDbEntity
  8
Visible (ANSI)
100
AcDbVertex
100
AcDb2dVertex
 10
95.85592832336152
 20
91.09711093953604
 30
0.0
  0
VERTEX
  5
139
330
12B
100
AcDbEntity
  8
Visible (ANSI)
100
AcDbVertex
100
AcDb2dVertex
 10
95.86264459350793
 20
91.09407720391537
 30
0.0
  0
VERTEX
  5
13A
330
12B
100
AcDbEntity
  8
Visible (ANSI)
100
AcDbVertex
100
AcDb2dVertex
 10
95.86893433844826
 20
91.09104346829466
 30
0.0
  0
VERTEX
  5
13B
330
12B
100
AcDbEntity
  8
Visible (ANSI)
100
AcDbVertex
100
AcDb2dVertex
 10
95.87476752119616
 20
91.08800973267397
 30
0.0
  0
VERTEX
  5
13C
330
12B
100
AcDbEntity
  8
Visible (ANSI)
100
AcDbVertex
100
AcDb2dVertex
 10
95.88013212695711
 20
91.08497599705328
 30
0.0
  0
VERTEX
  5
13D
330
12B
100
AcDbEntity
  8
Visible (ANSI)
100
AcDbVertex
100
AcDb2dVertex
 10
95.88498610395022
 20
91.08194226143259
 30
0.0
  0
VERTEX
  5
13E
330
12B
100
AcDbEntity
  8
Visible (ANSI)
100
AcDbVertex
100
AcDb2dVertex
 10
95.88932344477822
 20
91.07890852581189
 30
0.0
  0
VERTEX
  5
13F
330
12B
100
AcDbEntity
  8
Visible (ANSI)
100
AcDbVertex
100
AcDb2dVertex
 10
95.89312011985205
 20
91.07588079758846
 30
0.0
  0
VERTEX
  5
140
330
12B
100
AcDbEntity
  8
Visible (ANSI)
100
AcDbVertex
100
AcDb2dVertex
 10
95.89636411437716
 20
91.07284706196777
 30
0.0
  0
VERTEX
  5
141
330
12B
100
AcDbEntity
  8
Visible (ANSI)
100
AcDbVertex
100
AcDb2dVertex
 10
95.89903139876446
 20
91.06981332634708
 30
0.0
  0
VERTEX
  5
142
330
12B
100
AcDbEntity
  8
Visible (ANSI)
100
AcDbVertex
100
AcDb2dVertex
 10
95.90112197301397
 20
91.06677959072637
 30
0.0
  0
VERTEX
  5
143
330
12B
100
AcDbEntity
  8
Visible (ANSI)
100
AcDbVertex
100
AcDb2dVertex
 10
95.90262382233111
 20
91.0637458551057
 30
0.0
  0
VERTEX
  5
144
330
12B
100
AcDbEntity
  8
Visible (ANSI)
100
AcDbVertex
100
AcDb2dVertex
 10
95.90352493192142
 20
91.06071211948499
 30
0.0
  0
VERTEX
  5
145
330
12B
100
AcDbEntity
  8
Visible (ANSI)
100
AcDbVertex
100
AcDb2dVertex
 10
95.90382530178489
 20
91.05767838386428
 30
0.0
  0
SEQEND
  5
12E
330
12B
100
AcDbEntity
  8
Visible (ANSI)
  0
POLYLINE
  5
146
330
6C
100
AcDbEntity
  8
Visible (ANSI)
100
AcDb2dPolyline
 66
     1
 10
0.0
 20
0.0
 30
0.0
 70
   128
  0
VERTEX
  5
147
330
146
100
AcDbEntity
  8
Visible (ANSI)
100
AcDbVertex
100
AcDb2dVertex
 10
95.90382530178489
 20
31.48445788119114
 30
0.0
  0
VERTEX
  5
148
330
146
100
AcDbEntity
  8
Visible (ANSI)
100
AcDbVertex
100
AcDb2dVertex
 10
95.90352493192142
 20
31.48142503729348
 30
0.0
  0
VERTEX
  5
14A
330
146
100
AcDbEntity
  8
Visible (ANSI)
100
AcDbVertex
100
AcDb2dVertex
 10
95.90262382233111
 20
31.47839219339582
 30
0.0
  0
VERTEX
  5
14B
330
146
100
AcDbEntity
  8
Visible (ANSI)
100
AcDbVertex
100
AcDb2dVertex
 10
95.90112197301397
 20
31.47535934949815
 30
0.0
  0
VERTEX
  5
14C
330
146
100
AcDbEntity
  8
Visible (ANSI)
100
AcDbVertex
100
AcDb2dVertex
 10
95.89903139876446
 20
31.47232650560049
 30
0.0
  0
VERTEX
  5
14D
330
146
100
AcDbEntity
  8
Visible (ANSI)
100
AcDbVertex
100
AcDb2dVertex
 10
95.89636411437716
 20
31.46929366170283
 30
0.0
  0
VERTEX
  5
14E
330
146
100
AcDbEntity
  8
Visible (ANSI)
100
AcDbVertex
100
AcDb2dVertex
 10
95.89312011985205
 20
31.46626080607197
 30
0.0
  0
VERTEX
  5
14F
330
146
100
AcDbEntity
  8
Visible (ANSI)
100
AcDbVertex
100
AcDb2dVertex
 10
95.88932344477822
 20
31.46322796217431
 30
0.0
  0
VERTEX
  5
150
330
146
100
AcDbEntity
  8
Visible (ANSI)
100
AcDbVertex
100
AcDb2dVertex
 10
95.88498610395022
 20
31.46019510654345
 30
0.0
  0
VERTEX
  5
151
330
146
100
AcDbEntity
  8
Visible (ANSI)
100
AcDbVertex
100
AcDb2dVertex
 10
95.88013212695711
 20
31.45716226264579
 30
0.0
  0
VERTEX
  5
152
330
146
100
AcDbEntity
  8
Visible (ANSI)
100
AcDbVertex
100
AcDb2dVertex
 10
95.87476752119616
 20
31.45412941874813
 30
0.0
  0
VERTEX
  5
153
330
146
100
AcDbEntity
  8
Visible (ANSI)
100
AcDbVertex
100
AcDb2dVertex
 10
95.86893433844826
 20
31.45109656311726
 30
0.0
  0
VERTEX
  5
154
330
146
100
AcDbEntity
  8
Visible (ANSI)
100
AcDbVertex
100
AcDb2dVertex
 10
95.86264459350793
 20
31.4480637192196
 30
0.0
  0
VERTEX
  5
155
330
146
100
AcDbEntity
  8
Visible (ANSI)
100
AcDbVertex
100
AcDb2dVertex
 10
95.85592832336152
 20
31.44503087532195
 30
0.0
  0
VERTEX
  5
156
330
146
100
AcDbEntity
  8
Visible (ANSI)
100
AcDbVertex
100
AcDb2dVertex
 10
95.84881556499537
 20
31.44199801969108
 30
0.0
  0
VERTEX
  5
157
330
146
100
AcDbEntity
  8
Visible (ANSI)
100
AcDbVertex
100
AcDb2dVertex
 10
95.84133635539584
 20
31.43896517579342
 30
0.0
  0
VERTEX
  5
158
330
146
100
AcDbEntity
  8
Visible (ANSI)
100
AcDbVertex
100
AcDb2dVertex
 10
95.83352673894653
 20
31.43593233189576
 30
0.0
  0
VERTEX
  5
159
330
146
100
AcDbEntity
  8
Visible (ANSI)
100
AcDbVertex
100
AcDb2dVertex
 10
95.82541074523653
 20
31.4328994762649
 30
0.0
  0
VERTEX
  5
15A
330
146
100
AcDbEntity
  8
Visible (ANSI)
100
AcDbVertex
100
AcDb2dVertex
 10
95.8170304260467
 20
31.42986663236724
 30
0.0
  0
VERTEX
  5
15B
330
146
100
AcDbEntity
  8
Visible (ANSI)
100
AcDbVertex
100
AcDb2dVertex
 10
95.80842182576063
 20
31.42683378846957
 30
0.0
  0
VERTEX
  5
15C
330
146
100
AcDbEntity
  8
Visible (ANSI)
100
AcDbVertex
100
AcDb2dVertex
 10
95.79961498136473
 20
31.42380093283872
 30
0.0
  0
VERTEX
  5
15D
330
146
100
AcDbEntity
  8
Visible (ANSI)
100
AcDbVertex
100
AcDb2dVertex
 10
95.7906519446398
 20
31.42076808894105
 30
0.0
  0
VERTEX
  5
15E
330
146
100
AcDbEntity
  8
Visible (ANSI)
100
AcDbVertex
100
AcDb2dVertex
 10
95.78157476736683
 20
31.41773524504339
 30
0.0
  0
VERTEX
  5
15F
330
146
100
AcDbEntity
  8
Visible (ANSI)
100
AcDbVertex
100
AcDb2dVertex
 10
95.77241949392933
 20
31.41470238941253
 30
0.0
  0
VERTEX
  5
160
330
146
100
AcDbEntity
  8
Visible (ANSI)
100
AcDbVertex
100
AcDb2dVertex
 10
95.76322216871092
 20
31.41166954551487
 30
0.0
  0
SEQEND
  5
149
330
146
100
AcDbEntity
  8
Visible (ANSI)
  0
POLYLINE
  5
161
330
6C
100
AcDbEntity
  8
Visible (ANSI)
100
AcDb2dPolyline
 66
     1
 10
0.0
 20
0.0
 30
0.0
 70
   128
  0
VERTEX
  5
162
330
161
100
AcDbEntity
  8
Visible (ANSI)
100
AcDbVertex
100
AcDb2dVertex
 10
28.04442482150323
 20
91.13047001656914
 30
0.0
  0
VERTEX
  5
163
330
161
100
AcDbEntity
  8
Visible (ANSI)
100
AcDbVertex
100
AcDb2dVertex
 10
28.04745766540089
 20
91.13966734178752
 30
0.0
  0
VERTEX
  5
165
330
161
100
AcDbEntity
  8
Visible (ANSI)
100
AcDbVertex
100
AcDb2dVertex
 10
28.05049052103175
 20
91.14882261522502
 30
0.0
  0
VERTEX
  5
166
330
161
100
AcDbEntity
  8
Visible (ANSI)
100
AcDbVertex
100
AcDb2dVertex
 10
28.05352336492942
 20
91.15789979249802
 30
0.0
  0
VERTEX
  5
167
330
161
100
AcDbEntity
  8
Visible (ANSI)
100
AcDbVertex
100
AcDb2dVertex
 10
28.05655620882708
 20
91.16685682182566
 30
0.0
  0
VERTEX
  5
168
330
161
100
AcDbEntity
  8
Visible (ANSI)
100
AcDbVertex
100
AcDb2dVertex
 10
28.05958906445793
 20
91.1756636662216
 30
0.0
  0
VERTEX
  5
169
330
161
100
AcDbEntity
  8
Visible (ANSI)
100
AcDbVertex
100
AcDb2dVertex
 10
28.0626219083556
 20
91.18427226650764
 30
0.0
  0
VERTEX
  5
16A
330
161
100
AcDbEntity
  8
Visible (ANSI)
100
AcDbVertex
100
AcDb2dVertex
 10
28.06565475225326
 20
91.19265258569747
 30
0.0
  0
VERTEX
  5
16B
330
161
100
AcDbEntity
  8
Visible (ANSI)
100
AcDbVertex
100
AcDb2dVertex
 10
28.06868760788412
 20
91.2007685794075
 30
0.0
  0
VERTEX
  5
16C
330
161
100
AcDbEntity
  8
Visible (ANSI)
100
AcDbVertex
100
AcDb2dVertex
 10
28.07172045178178
 20
91.20858420325406
 30
0.0
  0
VERTEX
  5
16D
330
161
100
AcDbEntity
  8
Visible (ANSI)
100
AcDbVertex
100
AcDb2dVertex
 10
28.07475329567945
 20
91.2160634128536
 30
0.0
  0
VERTEX
  5
16E
330
161
100
AcDbEntity
  8
Visible (ANSI)
100
AcDbVertex
100
AcDb2dVertex
 10
28.07778615131031
 20
91.22317617121973
 30
0.0
  0
VERTEX
  5
16F
330
161
100
AcDbEntity
  8
Visible (ANSI)
100
AcDbVertex
100
AcDb2dVertex
 10
28.08081899520797
 20
91.22988643396888
 30
0.0
  0
VERTEX
  5
170
330
161
100
AcDbEntity
  8
Visible (ANSI)
100
AcDbVertex
100
AcDb2dVertex
 10
28.08385183910563
 20
91.2361761789092
 30
0.0
  0
VERTEX
  5
171
330
161
100
AcDbEntity
  8
Visible (ANSI)
100
AcDbVertex
100
AcDb2dVertex
 10
28.08688469473649
 20
91.24201536905438
 30
0.0
  0
VERTEX
  5
172
330
161
100
AcDbEntity
  8
Visible (ANSI)
100
AcDbVertex
100
AcDb2dVertex
 10
28.08991753863415
 20
91.24737396741808
 30
0.0
  0
VERTEX
  5
173
330
161
100
AcDbEntity
  8
Visible (ANSI)
100
AcDbVertex
100
AcDb2dVertex
 10
28.09295038253181
 20
91.25223395180844
 30
0.0
  0
VERTEX
  5
174
330
161
100
AcDbEntity
  8
Visible (ANSI)
100
AcDbVertex
100
AcDb2dVertex
 10
28.09598323816267
 20
91.25657129263643
 30
0.0
  0
VERTEX
  5
175
330
161
100
AcDbEntity
  8
Visible (ANSI)
100
AcDbVertex
100
AcDb2dVertex
 10
28.09901608206033
 20
91.26036796771028
 30
0.0
  0
VERTEX
  5
176
330
161
100
AcDbEntity
  8
Visible (ANSI)
100
AcDbVertex
100
AcDb2dVertex
 10
28.10204893769119
 20
91.26360595483809
 30
0.0
  0
VERTEX
  5
177
330
161
100
AcDbEntity
  8
Visible (ANSI)
100
AcDbVertex
100
AcDb2dVertex
 10
28.10508178158885
 20
91.26627924662267
 30
0.0
  0
VERTEX
  5
178
330
161
100
AcDbEntity
  8
Visible (ANSI)
100
AcDbVertex
100
AcDb2dVertex
 10
28.10811462548651
 20
91.26836982087217
 30
0.0
  0
VERTEX
  5
179
330
161
100
AcDbEntity
  8
Visible (ANSI)
100
AcDbVertex
100
AcDb2dVertex
 10
28.11114746938418
 20
91.2698656627921
 30
0.0
  0
VERTEX
  5
17A
330
161
100
AcDbEntity
  8
Visible (ANSI)
100
AcDbVertex
100
AcDb2dVertex
 10
28.11418031328184
 20
91.27076677238241
 30
0.0
  0
VERTEX
  5
17B
330
161
100
AcDbEntity
  8
Visible (ANSI)
100
AcDbVertex
100
AcDb2dVertex
 10
28.1172131571795
 20
91.27106714224582
 30
0.0
  0
SEQEND
  5
164
330
161
100
AcDbEntity
  8
Visible (ANSI)
  0
POLYLINE
  5
17C
330
6C
100
AcDbEntity
  8
Visible (ANSI)
100
AcDb2dPolyline
 66
     1
 10
0.0
 20
0.0
 30
0.0
 70
   128
  0
VERTEX
  5
17D
330
17C
100
AcDbEntity
  8
Visible (ANSI)
100
AcDbVertex
100
AcDb2dVertex
 10
95.69043654340335
 20
91.27106714224582
 30
0.0
  0
VERTEX
  5
17E
330
17C
100
AcDbEntity
  8
Visible (ANSI)
100
AcDbVertex
100
AcDb2dVertex
 10
95.69347027902406
 20
91.27076677238241
 30
0.0
  0
VERTEX
  5
180
330
17C
100
AcDbEntity
  8
Visible (ANSI)
100
AcDbVertex
100
AcDb2dVertex
 10
95.69650401464473
 20
91.2698656627921
 30
0.0
  0
VERTEX
  5
181
330
17C
100
AcDbEntity
  8
Visible (ANSI)
100
AcDbVertex
100
AcDb2dVertex
 10
95.69953775026544
 20
91.26836982087217
 30
0.0
  0
VERTEX
  5
182
330
17C
100
AcDbEntity
  8
Visible (ANSI)
100
AcDbVertex
100
AcDb2dVertex
 10
95.70256547848886
 20
91.26627924662267
 30
0.0
  0
VERTEX
  5
183
330
17C
100
AcDbEntity
  8
Visible (ANSI)
100
AcDbVertex
100
AcDb2dVertex
 10
95.70559921410957
 20
91.26360595483809
 30
0.0
  0
VERTEX
  5
184
330
17C
100
AcDbEntity
  8
Visible (ANSI)
100
AcDbVertex
100
AcDb2dVertex
 10
95.70863294973023
 20
91.26036796771028
 30
0.0
  0
VERTEX
  5
185
330
17C
100
AcDbEntity
  8
Visible (ANSI)
100
AcDbVertex
100
AcDb2dVertex
 10
95.71166668535095
 20
91.25657129263643
 30
0.0
  0
VERTEX
  5
186
330
17C
100
AcDbEntity
  8
Visible (ANSI)
100
AcDbVertex
100
AcDb2dVertex
 10
95.71470042097166
 20
91.25223395180844
 30
0.0
  0
VERTEX
  5
187
330
17C
100
AcDbEntity
  8
Visible (ANSI)
100
AcDbVertex
100
AcDb2dVertex
 10
95.71773415659231
 20
91.24737396741808
 30
0.0
  0
VERTEX
  5
188
330
17C
100
AcDbEntity
  8
Visible (ANSI)
100
AcDbVertex
100
AcDb2dVertex
 10
95.72076789221302
 20
91.24201536905438
 30
0.0
  0
VERTEX
  5
189
330
17C
100
AcDbEntity
  8
Visible (ANSI)
100
AcDbVertex
100
AcDb2dVertex
 10
95.72379562043645
 20
91.2361761789092
 30
0.0
  0
VERTEX
  5
18A
330
17C
100
AcDbEntity
  8
Visible (ANSI)
100
AcDbVertex
100
AcDb2dVertex
 10
95.72682935605715
 20
91.22988643396888
 30
0.0
  0
VERTEX
  5
18B
330
17C
100
AcDbEntity
  8
Visible (ANSI)
100
AcDbVertex
100
AcDb2dVertex
 10
95.72986309167783
 20
91.22317617121973
 30
0.0
  0
VERTEX
  5
18C
330
17C
100
AcDbEntity
  8
Visible (ANSI)
100
AcDbVertex
100
AcDb2dVertex
 10
95.73289682729853
 20
91.2160634128536
 30
0.0
  0
VERTEX
  5
18D
330
17C
100
AcDbEntity
  8
Visible (ANSI)
100
AcDbVertex
100
AcDb2dVertex
 10
95.73593056291924
 20
91.20858420325406
 30
0.0
  0
VERTEX
  5
18E
330
17C
100
AcDbEntity
  8
Visible (ANSI)
100
AcDbVertex
100
AcDb2dVertex
 10
95.73896429853991
 20
91.2007685794075
 30
0.0
  0
VERTEX
  5
18F
330
17C
100
AcDbEntity
  8
Visible (ANSI)
100
AcDbVertex
100
AcDb2dVertex
 10
95.74199202676332
 20
91.19265258569747
 30
0.0
  0
VERTEX
  5
190
330
17C
100
AcDbEntity
  8
Visible (ANSI)
100
AcDbVertex
100
AcDb2dVertex
 10
95.74502576238403
 20
91.18427226650764
 30
0.0
  0
VERTEX
  5
191
330
17C
100
AcDbEntity
  8
Visible (ANSI)
100
AcDbVertex
100
AcDb2dVertex
 10
95.74805949800474
 20
91.1756636662216
 30
0.0
  0
VERTEX
  5
192
330
17C
100
AcDbEntity
  8
Visible (ANSI)
100
AcDbVertex
100
AcDb2dVertex
 10
95.75109323362541
 20
91.16685682182566
 30
0.0
  0
VERTEX
  5
193
330
17C
100
AcDbEntity
  8
Visible (ANSI)
100
AcDbVertex
100
AcDb2dVertex
 10
95.75412696924612
 20
91.15789979249802
 30
0.0
  0
VERTEX
  5
194
330
17C
100
AcDbEntity
  8
Visible (ANSI)
100
AcDbVertex
100
AcDb2dVertex
 10
95.75716070486683
 20
91.14882261522502
 30
0.0
  0
VERTEX
  5
195
330
17C
100
AcDbEntity
  8
Visible (ANSI)
100
AcDbVertex
100
AcDb2dVertex
 10
95.7601944404875
 20
91.13966734178752
 30
0.0
  0
VERTEX
  5
196
330
17C
100
AcDbEntity
  8
Visible (ANSI)
100
AcDbVertex
100
AcDb2dVertex
 10
95.76322216871092
 20
91.13047001656914
 30
0.0
  0
SEQEND
  5
17F
330
17C
100
AcDbEntity
  8
Visible (ANSI)
  0
POLYLINE
  5
197
330
6C
100
AcDbEntity
  8
Visible (ANSI)
100
AcDb2dPolyline
 66
     1
 10
0.0
 20
0.0
 30
0.0
 70
   128
  0
VERTEX
  5
198
330
197
100
AcDbEntity
  8
Visible (ANSI)
100
AcDbVertex
100
AcDb2dVertex
 10
28.04442482150323
 20
31.41166954551487
 30
0.0
  0
VERTEX
  5
199
330
197
100
AcDbEntity
  8
Visible (ANSI)
100
AcDbVertex
100
AcDb2dVertex
 10
28.03522913893255
 20
31.41470238941253
 30
0.0
  0
VERTEX
  5
19B
330
197
100
AcDbEntity
  8
Visible (ANSI)
100
AcDbVertex
100
AcDb2dVertex
 10
28.02607283297364
 20
31.41773524504339
 30
0.0
  0
VERTEX
  5
19C
330
197
100
AcDbEntity
  8
Visible (ANSI)
100
AcDbVertex
100
AcDb2dVertex
 10
28.01699512770673
 20
31.42076808894105
 30
0.0
  0
VERTEX
  5
19D
330
197
100
AcDbEntity
  8
Visible (ANSI)
100
AcDbVertex
100
AcDb2dVertex
 10
28.00803486001651
 20
31.42380093283872
 30
0.0
  0
VERTEX
  5
19E
330
197
100
AcDbEntity
  8
Visible (ANSI)
100
AcDbVertex
100
AcDb2dVertex
 10
27.99923043265934
 20
31.42683378846957
 30
0.0
  0
VERTEX
  5
19F
330
197
100
AcDbEntity
  8
Visible (ANSI)
100
AcDbVertex
100
AcDb2dVertex
 10
27.99061953266652
 20
31.42986663236724
 30
0.0
  0
VERTEX
  5
1A0
330
197
100
AcDbEntity
  8
Visible (ANSI)
100
AcDbVertex
100
AcDb2dVertex
 10
27.98223903161212
 20
31.4328994762649
 30
0.0
  0
VERTEX
  5
1A1
330
197
100
AcDbEntity
  8
Visible (ANSI)
100
AcDbVertex
100
AcDb2dVertex
 10
27.97412482134817
 20
31.43593233189576
 30
0.0
  0
VERTEX
  5
1A2
330
197
100
AcDbEntity
  8
Visible (ANSI)
100
AcDbVertex
100
AcDb2dVertex
 10
27.96631164387333
 20
31.43896517579342
 30
0.0
  0
VERTEX
  5
1A3
330
197
100
AcDbEntity
  8
Visible (ANSI)
100
AcDbVertex
100
AcDb2dVertex
 10
27.9588329622677
 20
31.44199801969108
 30
0.0
  0
VERTEX
  5
1A4
330
197
100
AcDbEntity
  8
Visible (ANSI)
100
AcDbVertex
100
AcDb2dVertex
 10
27.95172079936134
 20
31.44503087532195
 30
0.0
  0
VERTEX
  5
1A5
330
197
100
AcDbEntity
  8
Visible (ANSI)
100
AcDbVertex
100
AcDb2dVertex
 10
27.94500560866913
 20
31.4480637192196
 30
0.0
  0
VERTEX
  5
1A6
330
197
100
AcDbEntity
  8
Visible (ANSI)
100
AcDbVertex
100
AcDb2dVertex
 10
27.93871614532555
 20
31.45109656311726
 30
0.0
  0
VERTEX
  5
1A7
330
197
100
AcDbEntity
  8
Visible (ANSI)
100
AcDbVertex
100
AcDb2dVertex
 10
27.93287934288612
 20
31.45412941874813
 30
0.0
  0
VERTEX
  5
1A8
330
197
100
AcDbEntity
  8
Visible (ANSI)
100
AcDbVertex
100
AcDb2dVertex
 10
27.92752019306214
 20
31.45716226264579
 30
0.0
  0
VERTEX
  5
1A9
330
197
100
AcDbEntity
  8
Visible (ANSI)
100
AcDbVertex
100
AcDb2dVertex
 10
27.9226616489218
 20
31.46019510654345
 30
0.0
  0
VERTEX
  5
1AA
330
197
100
AcDbEntity
  8
Visible (ANSI)
100
AcDbVertex
100
AcDb2dVertex
 10
27.91832451342476
 20
31.46322796217431
 30
0.0
  0
VERTEX
  5
1AB
330
197
100
AcDbEntity
  8
Visible (ANSI)
100
AcDbVertex
100
AcDb2dVertex
 10
27.91452735875648
 20
31.46626080607197
 30
0.0
  0
VERTEX
  5
1AC
330
197
100
AcDbEntity
  8
Visible (ANSI)
100
AcDbVertex
100
AcDb2dVertex
 10
27.91128644492912
 20
31.46929366170283
 30
0.0
  0
VERTEX
  5
1AD
330
197
100
AcDbEntity
  8
Visible (ANSI)
100
AcDbVertex
100
AcDb2dVertex
 10
27.9086156501157
 20
31.47232650560049
 30
0.0
  0
VERTEX
  5
1AE
330
197
100
AcDbEntity
  8
Visible (ANSI)
100
AcDbVertex
100
AcDb2dVertex
 10
27.90652641070078
 20
31.47535934949815
 30
0.0
  0
VERTEX
  5
1AF
330
197
100
AcDbEntity
  8
Visible (ANSI)
100
AcDbVertex
100
AcDb2dVertex
 10
27.90502767370598
 20
31.47839219339582
 30
0.0
  0
VERTEX
  5
1B0
330
197
100
AcDbEntity
  8
Visible (ANSI)
100
AcDbVertex
100
AcDb2dVertex
 10
27.90412585659468
 20
31.48142503729348
 30
0.0
  0
VERTEX
  5
1B1
330
197
100
AcDbEntity
  8
Visible (ANSI)
100
AcDbVertex
100
AcDb2dVertex
 10
27.9038248211931
 20
31.48445788119114
 30
0.0
  0
SEQEND
  5
19A
330
197
100
AcDbEntity
  8
Visible (ANSI)
  0
POLYLINE
  5
1B2
330
6C
100
AcDbEntity
  8
Visible (ANSI)
100
AcDb2dPolyline
 66
     1
 10
0.0
 20
0.0
 30
0.0
 70
   128
  0
VERTEX
  5
1B3
330
1B2
100
AcDbEntity
  8
Visible (ANSI)
100
AcDbVertex
100
AcDb2dVertex
 10
27.90382482119309
 20
91.05767838386428
 30
0.0
  0
VERTEX
  5
1B4
330
1B2
100
AcDbEntity
  8
Visible (ANSI)
100
AcDbVertex
100
AcDb2dVertex
 10
27.90412585659468
 20
91.06071211948499
 30
0.0
  0
VERTEX
  5
1B6
330
1B2
100
AcDbEntity
  8
Visible (ANSI)
100
AcDbVertex
100
AcDb2dVertex
 10
27.90502767370598
 20
91.0637458551057
 30
0.0
  0
VERTEX
  5
1B7
330
1B2
100
AcDbEntity
  8
Visible (ANSI)
100
AcDbVertex
100
AcDb2dVertex
 10
27.90652641070078
 20
91.06677959072637
 30
0.0
  0
VERTEX
  5
1B8
330
1B2
100
AcDbEntity
  8
Visible (ANSI)
100
AcDbVertex
100
AcDb2dVertex
 10
27.9086156501157
 20
91.06981332634708
 30
0.0
  0
VERTEX
  5
1B9
330
1B2
100
AcDbEntity
  8
Visible (ANSI)
100
AcDbVertex
100
AcDb2dVertex
 10
27.91128644492912
 20
91.07284706196777
 30
0.0
  0
VERTEX
  5
1BA
330
1B2
100
AcDbEntity
  8
Visible (ANSI)
100
AcDbVertex
100
AcDb2dVertex
 10
27.91452735875648
 20
91.07588079758846
 30
0.0
  0
VERTEX
  5
1BB
330
1B2
100
AcDbEntity
  8
Visible (ANSI)
100
AcDbVertex
100
AcDb2dVertex
 10
27.91832451342476
 20
91.07890852581189
 30
0.0
  0
VERTEX
  5
1BC
330
1B2
100
AcDbEntity
  8
Visible (ANSI)
100
AcDbVertex
100
AcDb2dVertex
 10
27.9226616489218
 20
91.08194226143259
 30
0.0
  0
VERTEX
  5
1BD
330
1B2
100
AcDbEntity
  8
Visible (ANSI)
100
AcDbVertex
100
AcDb2dVertex
 10
27.92752019306214
 20
91.08497599705328
 30
0.0
  0
VERTEX
  5
1BE
330
1B2
100
AcDbEntity
  8
Visible (ANSI)
100
AcDbVertex
100
AcDb2dVertex
 10
27.93287934288612
 20
91.08800973267397
 30
0.0
  0
VERTEX
  5
1BF
330
1B2
100
AcDbEntity
  8
Visible (ANSI)
100
AcDbVertex
100
AcDb2dVertex
 10
27.93871614532555
 20
91.09104346829466
 30
0.0
  0
VERTEX
  5
1C0
330
1B2
100
AcDbEntity
  8
Visible (ANSI)
100
AcDbVertex
100
AcDb2dVertex
 10
27.94500560866913
 20
91.09407720391537
 30
0.0
  0
VERTEX
  5
1C1
330
1B2
100
AcDbEntity
  8
Visible (ANSI)
100
AcDbVertex
100
AcDb2dVertex
 10
27.95172079936134
 20
91.09711093953604
 30
0.0
  0
VERTEX
  5
1C2
330
1B2
100
AcDbEntity
  8
Visible (ANSI)
100
AcDbVertex
100
AcDb2dVertex
 10
27.9588329622677
 20
91.10013866775947
 30
0.0
  0
VERTEX
  5
1C3
330
1B2
100
AcDbEntity
  8
Visible (ANSI)
100
AcDbVertex
100
AcDb2dVertex
 10
27.96631164387333
 20
91.10317240338018
 30
0.0
  0
VERTEX
  5
1C4
330
1B2
100
AcDbEntity
  8
Visible (ANSI)
100
AcDbVertex
100
AcDb2dVertex
 10
27.97412482134817
 20
91.10620613900087
 30
0.0
  0
VERTEX
  5
1C5
330
1B2
100
AcDbEntity
  8
Visible (ANSI)
100
AcDbVertex
100
AcDb2dVertex
 10
27.98223903161212
 20
91.10923987462156
 30
0.0
  0
VERTEX
  5
1C6
330
1B2
100
AcDbEntity
  8
Visible (ANSI)
100
AcDbVertex
100
AcDb2dVertex
 10
27.99061953266652
 20
91.11227361024225
 30
0.0
  0
VERTEX
  5
1C7
330
1B2
100
AcDbEntity
  8
Visible (ANSI)
100
AcDbVertex
100
AcDb2dVertex
 10
27.99923043265934
 20
91.11530734586295
 30
0.0
  0
VERTEX
  5
1C8
330
1B2
100
AcDbEntity
  8
Visible (ANSI)
100
AcDbVertex
100
AcDb2dVertex
 10
28.00803486001651
 20
91.11834108148363
 30
0.0
  0
VERTEX
  5
1C9
330
1B2
100
AcDbEntity
  8
Visible (ANSI)
100
AcDbVertex
100
AcDb2dVertex
 10
28.01699512770673
 20
91.12136880970705
 30
0.0
  0
VERTEX
  5
1CA
330
1B2
100
AcDbEntity
  8
Visible (ANSI)
100
AcDbVertex
100
AcDb2dVertex
 10
28.02607283297364
 20
91.12440254532776
 30
0.0
  0
VERTEX
  5
1CB
330
1B2
100
AcDbEntity
  8
Visible (ANSI)
100
AcDbVertex
100
AcDb2dVertex
 10
28.03522913893255
 20
91.12743628094847
 30
0.0
  0
VERTEX
  5
1CC
330
1B2
100
AcDbEntity
  8
Visible (ANSI)
100
AcDbVertex
100
AcDb2dVertex
 10
28.04442482150323
 20
91.13047001656914
 30
0.0
  0
SEQEND
  5
1B5
330
1B2
100
AcDbEntity
  8
Visible (ANSI)
  0
POLYLINE
  5
1CD
330
6C
100
AcDbEntity
  8
Visible (ANSI)
100
AcDb2dPolyline
 66
     1
 10
0.0
 20
0.0
 30
0.0
 70
   128
  0
VERTEX
  5
1CE
330
1CD
100
AcDbEntity
  8
Visible (ANSI)
100
AcDbVertex
100
AcDb2dVertex
 10
95.76322216871092
 20
31.41166954551487
 30
0.0
  0
VERTEX
  5
1CF
330
1CD
100
AcDbEntity
  8
Visible (ANSI)
100
AcDbVertex
100
AcDb2dVertex
 10
95.7601944404875
 20
31.40247386294418
 30
0.0
  0
VERTEX
  5
1D1
330
1CD
100
AcDbEntity
  8
Visible (ANSI)
100
AcDbVertex
100
AcDb2dVertex
 10
95.75716070486683
 20
31.39331755698528
 30
0.0
  0
VERTEX
  5
1D2
330
1CD
100
AcDbEntity
  8
Visible (ANSI)
100
AcDbVertex
100
AcDb2dVertex
 10
95.75412696924612
 20
31.38423985171837
 30
0.0
  0
VERTEX
  5
1D3
330
1CD
100
AcDbEntity
  8
Visible (ANSI)
100
AcDbVertex
100
AcDb2dVertex
 10
95.75109323362541
 20
31.37527958402814
 30
0.0
  0
VERTEX
  5
1D4
330
1CD
100
AcDbEntity
  8
Visible (ANSI)
100
AcDbVertex
100
AcDb2dVertex
 10
95.74805949800474
 20
31.36647515667097
 30
0.0
  0
VERTEX
  5
1D5
330
1CD
100
AcDbEntity
  8
Visible (ANSI)
100
AcDbVertex
100
AcDb2dVertex
 10
95.74502576238403
 20
31.35786425667816
 30
0.0
  0
VERTEX
  5
1D6
330
1CD
100
AcDbEntity
  8
Visible (ANSI)
100
AcDbVertex
100
AcDb2dVertex
 10
95.74199202676332
 20
31.34948375562375
 30
0.0
  0
VERTEX
  5
1D7
330
1CD
100
AcDbEntity
  8
Visible (ANSI)
100
AcDbVertex
100
AcDb2dVertex
 10
95.73896429853991
 20
31.34136954535981
 30
0.0
  0
VERTEX
  5
1D8
330
1CD
100
AcDbEntity
  8
Visible (ANSI)
100
AcDbVertex
100
AcDb2dVertex
 10
95.73593056291924
 20
31.33355636788497
 30
0.0
  0
VERTEX
  5
1D9
330
1CD
100
AcDbEntity
  8
Visible (ANSI)
100
AcDbVertex
100
AcDb2dVertex
 10
95.73289682729853
 20
31.32607768627933
 30
0.0
  0
VERTEX
  5
1DA
330
1CD
100
AcDbEntity
  8
Visible (ANSI)
100
AcDbVertex
100
AcDb2dVertex
 10
95.72986309167783
 20
31.31896552337298
 30
0.0
  0
VERTEX
  5
1DB
330
1CD
100
AcDbEntity
  8
Visible (ANSI)
100
AcDbVertex
100
AcDb2dVertex
 10
95.72682935605715
 20
31.31225033268077
 30
0.0
  0
VERTEX
  5
1DC
330
1CD
100
AcDbEntity
  8
Visible (ANSI)
100
AcDbVertex
100
AcDb2dVertex
 10
95.72379562043645
 20
31.30596086933719
 30
0.0
  0
VERTEX
  5
1DD
330
1CD
100
AcDbEntity
  8
Visible (ANSI)
100
AcDbVertex
100
AcDb2dVertex
 10
95.72076789221302
 20
31.30012406689776
 30
0.0
  0
VERTEX
  5
1DE
330
1CD
100
AcDbEntity
  8
Visible (ANSI)
100
AcDbVertex
100
AcDb2dVertex
 10
95.71773415659231
 20
31.29476491707378
 30
0.0
  0
VERTEX
  5
1DF
330
1CD
100
AcDbEntity
  8
Visible (ANSI)
100
AcDbVertex
100
AcDb2dVertex
 10
95.71470042097166
 20
31.28990637293343
 30
0.0
  0
VERTEX
  5
1E0
330
1CD
100
AcDbEntity
  8
Visible (ANSI)
100
AcDbVertex
100
AcDb2dVertex
 10
95.71166668535095
 20
31.28556923743639
 30
0.0
  0
VERTEX
  5
1E1
330
1CD
100
AcDbEntity
  8
Visible (ANSI)
100
AcDbVertex
100
AcDb2dVertex
 10
95.70863294973023
 20
31.28177208276811
 30
0.0
  0
VERTEX
  5
1E2
330
1CD
100
AcDbEntity
  8
Visible (ANSI)
100
AcDbVertex
100
AcDb2dVertex
 10
95.70559921410957
 20
31.27853116894076
 30
0.0
  0
VERTEX
  5
1E3
330
1CD
100
AcDbEntity
  8
Visible (ANSI)
100
AcDbVertex
100
AcDb2dVertex
 10
95.70256547848886
 20
31.27586037412734
 30
0.0
  0
VERTEX
  5
1E4
330
1CD
100
AcDbEntity
  8
Visible (ANSI)
100
AcDbVertex
100
AcDb2dVertex
 10
95.69953775026544
 20
31.27377113471241
 30
0.0
  0
VERTEX
  5
1E5
330
1CD
100
AcDbEntity
  8
Visible (ANSI)
100
AcDbVertex
100
AcDb2dVertex
 10
95.69650401464473
 20
31.27227239771762
 30
0.0
  0
VERTEX
  5
1E6
330
1CD
100
AcDbEntity
  8
Visible (ANSI)
100
AcDbVertex
100
AcDb2dVertex
 10
95.69347027902406
 20
31.27137058060632
 30
0.0
  0
VERTEX
  5
1E7
330
1CD
100
AcDbEntity
  8
Visible (ANSI)
100
AcDbVertex
100
AcDb2dVertex
 10
95.69043654340335
 20
31.27106954520474
 30
0.0
  0
SEQEND
  5
1D0
330
1CD
100
AcDbEntity
  8
Visible (ANSI)
  0
POLYLINE
  5
1E8
330
6C
100
AcDbEntity
  8
Visible (ANSI)
100
AcDb2dPolyline
 66
     1
 10
0.0
 20
0.0
 30
0.0
 70
   128
  0
VERTEX
  5
1E9
330
1E8
100
AcDbEntity
  8
Visible (ANSI)
100
AcDbVertex
100
AcDb2dVertex
 10
28.1172131571795
 20
31.27106954520474
 30
0.0
  0
VERTEX
  5
1EA
330
1E8
100
AcDbEntity
  8
Visible (ANSI)
100
AcDbVertex
100
AcDb2dVertex
 10
28.11418031328184
 20
31.27137058060632
 30
0.0
  0
VERTEX
  5
1EC
330
1E8
100
AcDbEntity
  8
Visible (ANSI)
100
AcDbVertex
100
AcDb2dVertex
 10
28.11114746938418
 20
31.27227239771762
 30
0.0
  0
VERTEX
  5
1ED
330
1E8
100
AcDbEntity
  8
Visible (ANSI)
100
AcDbVertex
100
AcDb2dVertex
 10
28.10811462548651
 20
31.27377113471241
 30
0.0
  0
VERTEX
  5
1EE
330
1E8
100
AcDbEntity
  8
Visible (ANSI)
100
AcDbVertex
100
AcDb2dVertex
 10
28.10508178158885
 20
31.27586037412734
 30
0.0
  0
VERTEX
  5
1EF
330
1E8
100
AcDbEntity
  8
Visible (ANSI)
100
AcDbVertex
100
AcDb2dVertex
 10
28.10204893769119
 20
31.27853116894076
 30
0.0
  0
VERTEX
  5
1F0
330
1E8
100
AcDbEntity
  8
Visible (ANSI)
100
AcDbVertex
100
AcDb2dVertex
 10
28.09901608206033
 20
31.28177208276811
 30
0.0
  0
VERTEX
  5
1F1
330
1E8
100
AcDbEntity
  8
Visible (ANSI)
100
AcDbVertex
100
AcDb2dVertex
 10
28.09598323816267
 20
31.28556923743639
 30
0.0
  0
VERTEX
  5
1F2
330
1E8
100
AcDbEntity
  8
Visible (ANSI)
100
AcDbVertex
100
AcDb2dVertex
 10
28.09295038253181
 20
31.28990637293343
 30
0.0
  0
VERTEX
  5
1F3
330
1E8
100
AcDbEntity
  8
Visible (ANSI)
100
AcDbVertex
100
AcDb2dVertex
 10
28.08991753863415
 20
31.29476491707378
 30
0.0
  0
VERTEX
  5
1F4
330
1E8
100
AcDbEntity
  8
Visible (ANSI)
100
AcDbVertex
100
AcDb2dVertex
 10
28.08688469473649
 20
31.30012406689776
 30
0.0
  0
VERTEX
  5
1F5
330
1E8
100
AcDbEntity
  8
Visible (ANSI)
100
AcDbVertex
100
AcDb2dVertex
 10
28.08385183910563
 20
31.30596086933719
 30
0.0
  0
VERTEX
  5
1F6
330
1E8
100
AcDbEntity
  8
Visible (ANSI)
100
AcDbVertex
100
AcDb2dVertex
 10
28.08081899520797
 20
31.31225033268077
 30
0.0
  0
VERTEX
  5
1F7
330
1E8
100
AcDbEntity
  8
Visible (ANSI)
100
AcDbVertex
100
AcDb2dVertex
 10
28.07778615131031
 20
31.31896552337298
 30
0.0
  0
VERTEX
  5
1F8
330
1E8
100
AcDbEntity
  8
Visible (ANSI)
100
AcDbVertex
100
AcDb2dVertex
 10
28.07475329567945
 20
31.32607768627933
 30
0.0
  0
VERTEX
  5
1F9
330
1E8
100
AcDbEntity
  8
Visible (ANSI)
100
AcDbVertex
100
AcDb2dVertex
 10
28.07172045178178
 20
31.33355636788497
 30
0.0
  0
VERTEX
  5
1FA
330
1E8
100
AcDbEntity
  8
Visible (ANSI)
100
AcDbVertex
100
AcDb2dVertex
 10
28.06868760788412
 20
31.34136954535981
 30
0.0
  0
VERTEX
  5
1FB
330
1E8
100
AcDbEntity
  8
Visible (ANSI)
100
AcDbVertex
100
AcDb2dVertex
 10
28.06565475225326
 20
31.34948375562375
 30
0.0
  0
VERTEX
  5
1FC
330
1E8
100
AcDbEntity
  8
Visible (ANSI)
100
AcDbVertex
100
AcDb2dVertex
 10
28.0626219083556
 20
31.35786425667816
 30
0.0
  0
VERTEX
  5
1FD
330
1E8
100
AcDbEntity
  8
Visible (ANSI)
100
AcDbVertex
100
AcDb2dVertex
 10
28.05958906445793
 20
31.36647515667097
 30
0.0
  0
VERTEX
  5
1FE
330
1E8
100
AcDbEntity
  8
Visible (ANSI)
100
AcDbVertex
100
AcDb2dVertex
 10
28.05655620882708
 20
31.37527958402814
 30
0.0
  0
VERTEX
  5
1FF
330
1E8
100
AcDbEntity
  8
Visible (ANSI)
100
AcDbVertex
100
AcDb2dVertex
 10
28.05352336492942
 20
31.38423985171837
 30
0.0
  0
VERTEX
  5
200
330
1E8
100
AcDbEntity
  8
Visible (ANSI)
100
AcDbVertex
100
AcDb2dVertex
 10
28.05049052103175
 20
31.39331755698528
 30
0.0
  0
VERTEX
  5
201
330
1E8
100
AcDbEntity
  8
Visible (ANSI)
100
AcDbVertex
100
AcDb2dVertex
 10
28.04745766540089
 20
31.40247386294418
 30
0.0
  0
VERTEX
  5
202
330
1E8
100
AcDbEntity
  8
Visible (ANSI)
100
AcDbVertex
100
AcDb2dVertex
 10
28.04442482150323
 20
31.41166954551487
 30
0.0
  0
SEQEND
  5
1EB
330
1E8
100
AcDbEntity
  8
Visible (ANSI)
  0
LINE
  5
203
330
6C
100
AcDbEntity
  8
Hidden (ANSI)
 48
0.0197405889630318
100
AcDbLine
 10
95.77882482119314
 20
31.48445789285306
 30
0.0
 11
95.90382482119313
 21
31.48445789285306
 31
0.0
  0
POLYLINE
  5
204
330
6C
100
AcDbEntity
  8
Hidden (ANSI)
 48
0.0120903635397554
100
AcDb2dPolyline
 66
     1
 10
0.0
 20
0.0
 30
0.0
 70
   128
  0
VERTEX
  5
205
330
204
100
AcDbEntity
  8
Hidden (ANSI)
 48
0.0120903635397554
100
AcDbVertex
100
AcDb2dVertex
 10
95.76322216871092
 20
31.41166954551487
 30
0.0
  0
VERTEX
  5
206
330
204
100
AcDbEntity
  8
Hidden (ANSI)
 48
0.0120903635397554
100
AcDbVertex
100
AcDb2dVertex
 10
95.76424342624662
 20
31.41470238941253
 30
0.0
  0
VERTEX
  5
208
330
204
100
AcDbEntity
  8
Hidden (ANSI)
 48
0.0120903635397554
100
AcDbVertex
100
AcDb2dVertex
 10
95.76525867638501
 20
31.41773524504339
 30
0.0
  0
VERTEX
  5
209
330
204
100
AcDbEntity
  8
Hidden (ANSI)
 48
0.0120903635397554
100
AcDbVertex
100
AcDb2dVertex
 10
95.76626791912614
 20
31.42076808894105
 30
0.0
  0
VERTEX
  5
20A
330
204
100
AcDbEntity
  8
Hidden (ANSI)
 48
0.0120903635397554
100
AcDbVertex
100
AcDb2dVertex
 10
95.76726514707276
 20
31.42380093283872
 30
0.0
  0
VERTEX
  5
20B
330
204
100
AcDbEntity
  8
Hidden (ANSI)
 48
0.0120903635397554
100
AcDbVertex
100
AcDb2dVertex
 10
95.76823834543029
 20
31.42683378846957
 30
0.0
  0
VERTEX
  5
20C
330
204
100
AcDbEntity
  8
Hidden (ANSI)
 48
0.0120903635397554
100
AcDbVertex
100
AcDb2dVertex
 10
95.76919352159602
 20
31.42986663236724
 30
0.0
  0
VERTEX
  5
20D
330
204
100
AcDbEntity
  8
Hidden (ANSI)
 48
0.0120903635397554
100
AcDbVertex
100
AcDb2dVertex
 10
95.77012466817265
 20
31.4328994762649
 30
0.0
  0
VERTEX
  5
20E
330
204
100
AcDbEntity
  8
Hidden (ANSI)
 48
0.0120903635397554
100
AcDbVertex
100
AcDb2dVertex
 10
95.77102577776296
 20
31.43593233189576
 30
0.0
  0
VERTEX
  5
20F
330
204
100
AcDbEntity
  8
Hidden (ANSI)
 48
0.0120903635397554
100
AcDbVertex
100
AcDb2dVertex
 10
95.77189084296966
 20
31.43896517579342
 30
0.0
  0
VERTEX
  5
210
330
204
100
AcDbEntity
  8
Hidden (ANSI)
 48
0.0120903635397554
100
AcDbVertex
100
AcDb2dVertex
 10
95.77271986379273
 20
31.44199801969108
 30
0.0
  0
VERTEX
  5
211
330
204
100
AcDbEntity
  8
Hidden (ANSI)
 48
0.0120903635397554
100
AcDbVertex
100
AcDb2dVertex
 10
95.77351284023221
 20
31.44503087532195
 30
0.0
  0
VERTEX
  5
212
330
204
100
AcDbEntity
  8
Hidden (ANSI)
 48
0.0120903635397554
100
AcDbVertex
100
AcDb2dVertex
 10
95.77425775749352
 20
31.4480637192196
 30
0.0
  0
VERTEX
  5
213
330
204
100
AcDbEntity
  8
Hidden (ANSI)
 48
0.0120903635397554
100
AcDbVertex
100
AcDb2dVertex
 10
95.77495461557669
 20
31.45109656311726
 30
0.0
  0
VERTEX
  5
214
330
204
100
AcDbEntity
  8
Hidden (ANSI)
 48
0.0120903635397554
100
AcDbVertex
100
AcDb2dVertex
 10
95.77560341448171
 20
31.45412941874813
 30
0.0
  0
VERTEX
  5
215
330
204
100
AcDbEntity
  8
Hidden (ANSI)
 48
0.0120903635397554
100
AcDbVertex
100
AcDb2dVertex
 10
95.77619814681131
 20
31.45716226264579
 30
0.0
  0
VERTEX
  5
216
330
204
100
AcDbEntity
  8
Hidden (ANSI)
 48
0.0120903635397554
100
AcDbVertex
100
AcDb2dVertex
 10
95.77673280516824
 20
31.46019510654345
 30
0.0
  0
VERTEX
  5
217
330
204
100
AcDbEntity
  8
Hidden (ANSI)
 48
0.0120903635397554
100
AcDbVertex
100
AcDb2dVertex
 10
95.77721339694972
 20
31.46322796217431
 30
0.0
  0
VERTEX
  5
218
330
204
100
AcDbEntity
  8
Hidden (ANSI)
 48
0.0120903635397554
100
AcDbVertex
100
AcDb2dVertex
 10
95.77763992215579
 20
31.46626080607197
 30
0.0
  0
VERTEX
  5
219
330
204
100
AcDbEntity
  8
Hidden (ANSI)
 48
0.0120903635397554
100
AcDbVertex
100
AcDb2dVertex
 10
95.77799435859468
 20
31.46929366170283
 30
0.0
  0
VERTEX
  5
21A
330
204
100
AcDbEntity
  8
Hidden (ANSI)
 48
0.0120903635397554
100
AcDbVertex
100
AcDb2dVertex
 10
95.77829472845811
 20
31.47232650560049
 30
0.0
  0
VERTEX
  5
21B
330
204
100
AcDbEntity
  8
Hidden (ANSI)
 48
0.0120903635397554
100
AcDbVertex
100
AcDb2dVertex
 10
95.77852300955431
 20
31.47535934949815
 30
0.0
  0
VERTEX
  5
21C
330
204
100
AcDbEntity
  8
Hidden (ANSI)
 48
0.0120903635397554
100
AcDbVertex
100
AcDb2dVertex
 10
95.77869121667784
 20
31.47839219339582
 30
0.0
  0
VERTEX
  5
21D
330
204
100
AcDbEntity
  8
Hidden (ANSI)
 48
0.0120903635397554
100
AcDbVertex
100
AcDb2dVertex
 10
95.7787933424314
 20
31.48142503729348
 30
0.0
  0
VERTEX
  5
21E
330
204
100
AcDbEntity
  8
Hidden (ANSI)
 48
0.0120903635397554
100
AcDbVertex
100
AcDb2dVertex
 10
95.77882337941776
 20
31.48445788119114
 30
0.0
  0
SEQEND
  5
207
330
204
100
AcDbEntity
  8
Hidden (ANSI)
 48
0.0120903635397554
  0
LINE
  5
21F
330
6C
100
AcDbEntity
  8
Hidden (ANSI)
 48
0.0197405889630318
100
AcDbLine
 10
95.77882482119305
 20
91.05768119755643
 30
0.0
 11
95.90382482119306
 21
91.05768119755643
 31
0.0
  0
POLYLINE
  5
220
330
6C
100
AcDbEntity
  8
Hidden (ANSI)
 48
0.0120908608660102
100
AcDb2dPolyline
 66
     1
 10
0.0
 20
0.0
 30
0.0
 70
   128
  0
VERTEX
  5
221
330
220
100
AcDbEntity
  8
Hidden (ANSI)
 48
0.0120908608660102
100
AcDbVertex
100
AcDb2dVertex
 10
95.76322216871092
 20
91.13047001656914
 30
0.0
  0
VERTEX
  5
222
330
220
100
AcDbEntity
  8
Hidden (ANSI)
 48
0.0120908608660102
100
AcDbVertex
100
AcDb2dVertex
 10
95.76424342624662
 20
91.12743628094847
 30
0.0
  0
VERTEX
  5
224
330
220
100
AcDbEntity
  8
Hidden (ANSI)
 48
0.0120908608660102
100
AcDbVertex
100
AcDb2dVertex
 10
95.76525867638501
 20
91.12440254532776
 30
0.0
  0
VERTEX
  5
225
330
220
100
AcDbEntity
  8
Hidden (ANSI)
 48
0.0120908608660102
100
AcDbVertex
100
AcDb2dVertex
 10
95.76626791912614
 20
91.12136880970705
 30
0.0
  0
VERTEX
  5
226
330
220
100
AcDbEntity
  8
Hidden (ANSI)
 48
0.0120908608660102
100
AcDbVertex
100
AcDb2dVertex
 10
95.76726514707276
 20
91.11834108148363
 30
0.0
  0
VERTEX
  5
227
330
220
100
AcDbEntity
  8
Hidden (ANSI)
 48
0.0120908608660102
100
AcDbVertex
100
AcDb2dVertex
 10
95.76823834543029
 20
91.11530734586295
 30
0.0
  0
VERTEX
  5
228
330
220
100
AcDbEntity
  8
Hidden (ANSI)
 48
0.0120908608660102
100
AcDbVertex
100
AcDb2dVertex
 10
95.76919352159602
 20
91.11227361024225
 30
0.0
  0
VERTEX
  5
229
330
220
100
AcDbEntity
  8
Hidden (ANSI)
 48
0.0120908608660102
100
AcDbVertex
100
AcDb2dVertex
 10
95.77012466817265
 20
91.10923987462156
 30
0.0
  0
VERTEX
  5
22A
330
220
100
AcDbEntity
  8
Hidden (ANSI)
 48
0.0120908608660102
100
AcDbVertex
100
AcDb2dVertex
 10
95.77102577776296
 20
91.10620613900087
 30
0.0
  0
VERTEX
  5
22B
330
220
100
AcDbEntity
  8
Hidden (ANSI)
 48
0.0120908608660102
100
AcDbVertex
100
AcDb2dVertex
 10
95.77189084296966
 20
91.10317240338018
 30
0.0
  0
VERTEX
  5
22C
330
220
100
AcDbEntity
  8
Hidden (ANSI)
 48
0.0120908608660102
100
AcDbVertex
100
AcDb2dVertex
 10
95.77271986379273
 20
91.10013866775947
 30
0.0
  0
VERTEX
  5
22D
330
220
100
AcDbEntity
  8
Hidden (ANSI)
 48
0.0120908608660102
100
AcDbVertex
100
AcDb2dVertex
 10
95.77351284023221
 20
91.09711093953604
 30
0.0
  0
VERTEX
  5
22E
330
220
100
AcDbEntity
  8
Hidden (ANSI)
 48
0.0120908608660102
100
AcDbVertex
100
AcDb2dVertex
 10
95.77425775749352
 20
91.09407720391537
 30
0.0
  0
VERTEX
  5
22F
330
220
100
AcDbEntity
  8
Hidden (ANSI)
 48
0.0120908608660102
100
AcDbVertex
100
AcDb2dVertex
 10
95.77495461557669
 20
91.09104346829466
 30
0.0
  0
VERTEX
  5
230
330
220
100
AcDbEntity
  8
Hidden (ANSI)
 48
0.0120908608660102
100
AcDbVertex
100
AcDb2dVertex
 10
95.77560341448171
 20
91.08800973267397
 30
0.0
  0
VERTEX
  5
231
330
220
100
AcDbEntity
  8
Hidden (ANSI)
 48
0.0120908608660102
100
AcDbVertex
100
AcDb2dVertex
 10
95.77619814681131
 20
91.08497599705328
 30
0.0
  0
VERTEX
  5
232
330
220
100
AcDbEntity
  8
Hidden (ANSI)
 48
0.0120908608660102
100
AcDbVertex
100
AcDb2dVertex
 10
95.77673280516824
 20
91.08194226143259
 30
0.0
  0
VERTEX
  5
233
330
220
100
AcDbEntity
  8
Hidden (ANSI)
 48
0.0120908608660102
100
AcDbVertex
100
AcDb2dVertex
 10
95.77721339694972
 20
91.07890852581189
 30
0.0
  0
VERTEX
  5
234
330
220
100
AcDbEntity
  8
Hidden (ANSI)
 48
0.0120908608660102
100
AcDbVertex
100
AcDb2dVertex
 10
95.77763992215579
 20
91.07588079758846
 30
0.0
  0
VERTEX
  5
235
330
220
100
AcDbEntity
  8
Hidden (ANSI)
 48
0.0120908608660102
100
AcDbVertex
100
AcDb2dVertex
 10
95.77799435859468
 20
91.07284706196777
 30
0.0
  0
VERTEX
  5
236
330
220
100
AcDbEntity
  8
Hidden (ANSI)
 48
0.0120908608660102
100
AcDbVertex
100
AcDb2dVertex
 10
95.77829472845811
 20
91.06981332634708
 30
0.0
  0
VERTEX
  5
237
330
220
100
AcDbEntity
  8
Hidden (ANSI)
 48
0.0120908608660102
100
AcDbVertex
100
AcDb2dVertex
 10
95.77852300955431
 20
91.06677959072637
 30
0.0
  0
VERTEX
  5
238
330
220
100
AcDbEntity
  8
Hidden (ANSI)
 48
0.0120908608660102
100
AcDbVertex
100
AcDb2dVertex
 10
95.77869121667784
 20
91.0637458551057
 30
0.0
  0
VERTEX
  5
239
330
220
100
AcDbEntity
  8
Hidden (ANSI)
 48
0.0120908608660102
100
AcDbVertex
100
AcDb2dVertex
 10
95.7787933424314
 20
91.06071211948499
 30
0.0
  0
VERTEX
  5
23A
330
220
100
AcDbEntity
  8
Hidden (ANSI)
 48
0.0120908608660102
100
AcDbVertex
100
AcDb2dVertex
 10
95.77882337941776
 20
91.05767838386428
 30
0.0
  0
SEQEND
  5
223
330
220
100
AcDbEntity
  8
Hidden (ANSI)
 48
0.0120908608660102
  0
LINE
  5
23B
330
6C
100
AcDbEntity
  8
Hidden (ANSI)
 48
0.0197405889630318
100
AcDbLine
 10
95.69043647354476
 20
91.14606954520477
 30
0.0
 11
95.69043647354476
 21
91.27106954520476
 31
0.0
  0
POLYLINE
  5
23C
330
6C
100
AcDbEntity
  8
Hidden (ANSI)
 48
0.0120897991582751
100
AcDb2dPolyline
 66
     1
 10
0.0
 20
0.0
 30
0.0
 70
   128
  0
VERTEX
  5
23D
330
23C
100
AcDbEntity
  8
Hidden (ANSI)
 48
0.0120897991582751
100
AcDbVertex
100
AcDb2dVertex
 10
95.76322216871092
 20
91.13047001656914
 30
0.0
  0
VERTEX
  5
23E
330
23C
100
AcDbEntity
  8
Hidden (ANSI)
 48
0.0120897991582751
100
AcDbVertex
100
AcDb2dVertex
 10
95.7601944404875
 20
91.13149127410485
 30
0.0
  0
VERTEX
  5
240
330
23C
100
AcDbEntity
  8
Hidden (ANSI)
 48
0.0120897991582751
100
AcDbVertex
100
AcDb2dVertex
 10
95.75716070486683
 20
91.13250652424323
 30
0.0
  0
VERTEX
  5
241
330
23C
100
AcDbEntity
  8
Hidden (ANSI)
 48
0.0120897991582751
100
AcDbVertex
100
AcDb2dVertex
 10
95.75412696924612
 20
91.13351576698438
 30
0.0
  0
VERTEX
  5
242
330
23C
100
AcDbEntity
  8
Hidden (ANSI)
 48
0.0120897991582751
100
AcDbVertex
100
AcDb2dVertex
 10
95.75109323362541
 20
91.13450698753371
 30
0.0
  0
VERTEX
  5
243
330
23C
100
AcDbEntity
  8
Hidden (ANSI)
 48
0.0120897991582751
100
AcDbVertex
100
AcDb2dVertex
 10
95.74805949800474
 20
91.13548619328851
 30
0.0
  0
VERTEX
  5
244
330
23C
100
AcDbEntity
  8
Hidden (ANSI)
 48
0.0120897991582751
100
AcDbVertex
100
AcDb2dVertex
 10
95.74502576238403
 20
91.13644136945422
 30
0.0
  0
VERTEX
  5
245
330
23C
100
AcDbEntity
  8
Hidden (ANSI)
 48
0.0120897991582751
100
AcDbVertex
100
AcDb2dVertex
 10
95.74199202676332
 20
91.13736650863364
 30
0.0
  0
VERTEX
  5
246
330
23C
100
AcDbEntity
  8
Hidden (ANSI)
 48
0.0120897991582751
100
AcDbVertex
100
AcDb2dVertex
 10
95.73896429853991
 20
91.13826761822393
 30
0.0
  0
VERTEX
  5
247
330
23C
100
AcDbEntity
  8
Hidden (ANSI)
 48
0.0120897991582751
100
AcDbVertex
100
AcDb2dVertex
 10
95.73593056291924
 20
91.13913869082788
 30
0.0
  0
VERTEX
  5
248
330
23C
100
AcDbEntity
  8
Hidden (ANSI)
 48
0.0120897991582751
100
AcDbVertex
100
AcDb2dVertex
 10
95.73289682729853
 20
91.13996771165096
 30
0.0
  0
VERTEX
  5
249
330
23C
100
AcDbEntity
  8
Hidden (ANSI)
 48
0.0120897991582751
100
AcDbVertex
100
AcDb2dVertex
 10
95.72986309167783
 20
91.14075468069318
 30
0.0
  0
VERTEX
  5
24A
330
23C
100
AcDbEntity
  8
Hidden (ANSI)
 48
0.0120897991582751
100
AcDbVertex
100
AcDb2dVertex
 10
95.72682935605715
 20
91.14149959795447
 30
0.0
  0
VERTEX
  5
24B
330
23C
100
AcDbEntity
  8
Hidden (ANSI)
 48
0.0120897991582751
100
AcDbVertex
100
AcDb2dVertex
 10
95.72379562043645
 20
91.14219645603766
 30
0.0
  0
VERTEX
  5
24C
330
23C
100
AcDbEntity
  8
Hidden (ANSI)
 48
0.0120897991582751
100
AcDbVertex
100
AcDb2dVertex
 10
95.72076789221302
 20
91.14284525494268
 30
0.0
  0
VERTEX
  5
24D
330
23C
100
AcDbEntity
  8
Hidden (ANSI)
 48
0.0120897991582751
100
AcDbVertex
100
AcDb2dVertex
 10
95.71773415659231
 20
91.14343998727228
 30
0.0
  0
VERTEX
  5
24E
330
23C
100
AcDbEntity
  8
Hidden (ANSI)
 48
0.0120897991582751
100
AcDbVertex
100
AcDb2dVertex
 10
95.71470042097166
 20
91.14398065302648
 30
0.0
  0
VERTEX
  5
24F
330
23C
100
AcDbEntity
  8
Hidden (ANSI)
 48
0.0120897991582751
100
AcDbVertex
100
AcDb2dVertex
 10
95.71166668535095
 20
91.14446124480796
 30
0.0
  0
VERTEX
  5
250
330
23C
100
AcDbEntity
  8
Hidden (ANSI)
 48
0.0120897991582751
100
AcDbVertex
100
AcDb2dVertex
 10
95.70863294973023
 20
91.14488176261678
 30
0.0
  0
VERTEX
  5
251
330
23C
100
AcDbEntity
  8
Hidden (ANSI)
 48
0.0120897991582751
100
AcDbVertex
100
AcDb2dVertex
 10
95.70559921410957
 20
91.14524220645289
 30
0.0
  0
VERTEX
  5
252
330
23C
100
AcDbEntity
  8
Hidden (ANSI)
 48
0.0120897991582751
100
AcDbVertex
100
AcDb2dVertex
 10
95.70256547848886
 20
91.14553656891905
 30
0.0
  0
VERTEX
  5
253
330
23C
100
AcDbEntity
  8
Hidden (ANSI)
 48
0.0120897991582751
100
AcDbVertex
100
AcDb2dVertex
 10
95.69953775026544
 20
91.14577085741251
 30
0.0
  0
VERTEX
  5
254
330
23C
100
AcDbEntity
  8
Hidden (ANSI)
 48
0.0120897991582751
100
AcDbVertex
100
AcDb2dVertex
 10
95.69650401464473
 20
91.14593906453604
 30
0.0
  0
VERTEX
  5
255
330
23C
100
AcDbEntity
  8
Hidden (ANSI)
 48
0.0120897991582751
100
AcDbVertex
100
AcDb2dVertex
 10
95.69347027902406
 20
91.14603518289236
 30
0.0
  0
VERTEX
  5
256
330
23C
100
AcDbEntity
  8
Hidden (ANSI)
 48
0.0120897991582751
100
AcDbVertex
100
AcDb2dVertex
 10
95.69043654340335
 20
91.14607122727598
 30
0.0
  0
SEQEND
  5
23F
330
23C
100
AcDbEntity
  8
Hidden (ANSI)
 48
0.0120897991582751
  0
LINE
  5
257
330
6C
100
AcDbEntity
  8
Hidden (ANSI)
 48
0.0197405889630318
100
AcDbLine
 10
28.1172131688414
 20
91.14606954520469
 30
0.0
 11
28.1172131688414
 21
91.27106954520469
 31
0.0
  0
POLYLINE
  5
258
330
6C
100
AcDbEntity
  8
Hidden (ANSI)
 48
0.0120902061462402
100
AcDb2dPolyline
 66
     1
 10
0.0
 20
0.0
 30
0.0
 70
   128
  0
VERTEX
  5
259
330
258
100
AcDbEntity
  8
Hidden (ANSI)
 48
0.0120902061462402
100
AcDbVertex
100
AcDb2dVertex
 10
28.04442482150323
 20
91.13047001656914
 30
0.0
  0
VERTEX
  5
25A
330
258
100
AcDbEntity
  8
Hidden (ANSI)
 48
0.0120902061462402
100
AcDbVertex
100
AcDb2dVertex
 10
28.04745766540089
 20
91.13149127410485
 30
0.0
  0
VERTEX
  5
25C
330
258
100
AcDbEntity
  8
Hidden (ANSI)
 48
0.0120902061462402
100
AcDbVertex
100
AcDb2dVertex
 10
28.05049052103175
 20
91.13250652424323
 30
0.0
  0
VERTEX
  5
25D
330
258
100
AcDbEntity
  8
Hidden (ANSI)
 48
0.0120902061462402
100
AcDbVertex
100
AcDb2dVertex
 10
28.05352336492942
 20
91.13351576698438
 30
0.0
  0
VERTEX
  5
25E
330
258
100
AcDbEntity
  8
Hidden (ANSI)
 48
0.0120902061462402
100
AcDbVertex
100
AcDb2dVertex
 10
28.05655620882708
 20
91.13450698753371
 30
0.0
  0
VERTEX
  5
25F
330
258
100
AcDbEntity
  8
Hidden (ANSI)
 48
0.0120902061462402
100
AcDbVertex
100
AcDb2dVertex
 10
28.05958906445793
 20
91.13548619328851
 30
0.0
  0
VERTEX
  5
260
330
258
100
AcDbEntity
  8
Hidden (ANSI)
 48
0.0120902061462402
100
AcDbVertex
100
AcDb2dVertex
 10
28.0626219083556
 20
91.13644136945422
 30
0.0
  0
VERTEX
  5
261
330
258
100
AcDbEntity
  8
Hidden (ANSI)
 48
0.0120902061462402
100
AcDbVertex
100
AcDb2dVertex
 10
28.06565475225326
 20
91.13736650863364
 30
0.0
  0
VERTEX
  5
262
330
258
100
AcDbEntity
  8
Hidden (ANSI)
 48
0.0120902061462402
100
AcDbVertex
100
AcDb2dVertex
 10
28.06868760788412
 20
91.13826761822393
 30
0.0
  0
VERTEX
  5
263
330
258
100
AcDbEntity
  8
Hidden (ANSI)
 48
0.0120902061462402
100
AcDbVertex
100
AcDb2dVertex
 10
28.07172045178178
 20
91.13913869082788
 30
0.0
  0
VERTEX
  5
264
330
258
100
AcDbEntity
  8
Hidden (ANSI)
 48
0.0120902061462402
100
AcDbVertex
100
AcDb2dVertex
 10
28.07475329567945
 20
91.13996771165096
 30
0.0
  0
VERTEX
  5
265
330
258
100
AcDbEntity
  8
Hidden (ANSI)
 48
0.0120902061462402
100
AcDbVertex
100
AcDb2dVertex
 10
28.07778615131031
 20
91.14075468069318
 30
0.0
  0
VERTEX
  5
266
330
258
100
AcDbEntity
  8
Hidden (ANSI)
 48
0.0120902061462402
100
AcDbVertex
100
AcDb2dVertex
 10
28.08081899520797
 20
91.14149959795447
 30
0.0
  0
VERTEX
  5
267
330
258
100
AcDbEntity
  8
Hidden (ANSI)
 48
0.0120902061462402
100
AcDbVertex
100
AcDb2dVertex
 10
28.08385183910563
 20
91.14219645603766
 30
0.0
  0
VERTEX
  5
268
330
258
100
AcDbEntity
  8
Hidden (ANSI)
 48
0.0120902061462402
100
AcDbVertex
100
AcDb2dVertex
 10
28.08688469473649
 20
91.14284525494268
 30
0.0
  0
VERTEX
  5
269
330
258
100
AcDbEntity
  8
Hidden (ANSI)
 48
0.0120902061462402
100
AcDbVertex
100
AcDb2dVertex
 10
28.08991753863415
 20
91.14343998727228
 30
0.0
  0
VERTEX
  5
26A
330
258
100
AcDbEntity
  8
Hidden (ANSI)
 48
0.0120902061462402
100
AcDbVertex
100
AcDb2dVertex
 10
28.09295038253181
 20
91.14398065302648
 30
0.0
  0
VERTEX
  5
26B
330
258
100
AcDbEntity
  8
Hidden (ANSI)
 48
0.0120902061462402
100
AcDbVertex
100
AcDb2dVertex
 10
28.09598323816267
 20
91.14446124480796
 30
0.0
  0
VERTEX
  5
26C
330
258
100
AcDbEntity
  8
Hidden (ANSI)
 48
0.0120902061462402
100
AcDbVertex
100
AcDb2dVertex
 10
28.09901608206033
 20
91.14488176261678
 30
0.0
  0
VERTEX
  5
26D
330
258
100
AcDbEntity
  8
Hidden (ANSI)
 48
0.0120902061462402
100
AcDbVertex
100
AcDb2dVertex
 10
28.10204893769119
 20
91.14524220645289
 30
0.0
  0
VERTEX
  5
26E
330
258
100
AcDbEntity
  8
Hidden (ANSI)
 48
0.0120902061462402
100
AcDbVertex
100
AcDb2dVertex
 10
28.10508178158885
 20
91.14553656891905
 30
0.0
  0
VERTEX
  5
26F
330
258
100
AcDbEntity
  8
Hidden (ANSI)
 48
0.0120902061462402
100
AcDbVertex
100
AcDb2dVertex
 10
28.10811462548651
 20
91.14577085741251
 30
0.0
  0
VERTEX
  5
270
330
258
100
AcDbEntity
  8
Hidden (ANSI)
 48
0.0120902061462402
100
AcDbVertex
100
AcDb2dVertex
 10
28.11114746938418
 20
91.14593906453604
 30
0.0
  0
VERTEX
  5
271
330
258
100
AcDbEntity
  8
Hidden (ANSI)
 48
0.0120902061462402
100
AcDbVertex
100
AcDb2dVertex
 10
28.11418031328184
 20
91.14603518289236
 30
0.0
  0
VERTEX
  5
272
330
258
100
AcDbEntity
  8
Hidden (ANSI)
 48
0.0120902061462402
100
AcDbVertex
100
AcDb2dVertex
 10
28.1172131571795
 20
91.14607122727598
 30
0.0
  0
SEQEND
  5
25B
330
258
100
AcDbEntity
  8
Hidden (ANSI)
 48
0.0120902061462402
  0
LINE
  5
273
330
6C
100
AcDbEntity
  8
Hidden (ANSI)
 48
0.0197405889630318
100
AcDbLine
 10
28.02882482119308
 20
91.05768119755643
 30
0.0
 11
27.90382482119309
 21
91.05768119755643
 31
0.0
  0
POLYLINE
  5
274
330
6C
100
AcDbEntity
  8
Hidden (ANSI)
 48
0.0120907137170434
100
AcDb2dPolyline
 66
     1
 10
0.0
 20
0.0
 30
0.0
 70
   128
  0
VERTEX
  5
275
330
274
100
AcDbEntity
  8
Hidden (ANSI)
 48
0.0120907137170434
100
AcDbVertex
100
AcDb2dVertex
 10
28.04442482150323
 20
91.13047001656914
 30
0.0
  0
VERTEX
  5
276
330
274
100
AcDbEntity
  8
Hidden (ANSI)
 48
0.0120907137170434
100
AcDbVertex
100
AcDb2dVertex
 10
28.04340453782297
 20
91.12743628094847
 30
0.0
  0
VERTEX
  5
278
330
274
100
AcDbEntity
  8
Hidden (ANSI)
 48
0.0120907137170434
100
AcDbVertex
100
AcDb2dVertex
 10
28.04238860715909
 20
91.12440254532776
 30
0.0
  0
VERTEX
  5
279
330
274
100
AcDbEntity
  8
Hidden (ANSI)
 48
0.0120907137170434
100
AcDbVertex
100
AcDb2dVertex
 10
28.04138141772756
 20
91.12136880970705
 30
0.0
  0
VERTEX
  5
27A
330
274
100
AcDbEntity
  8
Hidden (ANSI)
 48
0.0120907137170434
100
AcDbVertex
100
AcDb2dVertex
 10
28.04038724041238
 20
91.11834108148363
 30
0.0
  0
VERTEX
  5
27B
330
274
100
AcDbEntity
  8
Hidden (ANSI)
 48
0.0120907137170434
100
AcDbVertex
100
AcDb2dVertex
 10
28.03941036956394
 20
91.11530734586295
 30
0.0
  0
VERTEX
  5
27C
330
274
100
AcDbEntity
  8
Hidden (ANSI)
 48
0.0120907137170434
100
AcDbVertex
100
AcDb2dVertex
 10
28.03845495873427
 20
91.11227361024225
 30
0.0
  0
VERTEX
  5
27D
330
274
100
AcDbEntity
  8
Hidden (ANSI)
 48
0.0120907137170434
100
AcDbVertex
100
AcDb2dVertex
 10
28.03752511454257
 20
91.10923987462156
 30
0.0
  0
VERTEX
  5
27E
330
274
100
AcDbEntity
  8
Hidden (ANSI)
 48
0.0120907137170434
100
AcDbVertex
100
AcDb2dVertex
 10
28.03662482627611
 20
91.10620613900087
 30
0.0
  0
VERTEX
  5
27F
330
274
100
AcDbEntity
  8
Hidden (ANSI)
 48
0.0120907137170434
100
AcDbVertex
100
AcDb2dVertex
 10
28.03575793069056
 20
91.10317240338018
 30
0.0
  0
VERTEX
  5
280
330
274
100
AcDbEntity
  8
Hidden (ANSI)
 48
0.0120907137170434
100
AcDbVertex
100
AcDb2dVertex
 10
28.03492814720963
 20
91.10013866775947
 30
0.0
  0
VERTEX
  5
281
330
274
100
AcDbEntity
  8
Hidden (ANSI)
 48
0.0120907137170434
100
AcDbVertex
100
AcDb2dVertex
 10
28.03413903099223
 20
91.09711093953604
 30
0.0
  0
VERTEX
  5
282
330
274
100
AcDbEntity
  8
Hidden (ANSI)
 48
0.0120907137170434
100
AcDbVertex
100
AcDb2dVertex
 10
28.03339396119934
 20
91.09407720391537
 30
0.0
  0
VERTEX
  5
283
330
274
100
AcDbEntity
  8
Hidden (ANSI)
 48
0.0120907137170434
100
AcDbVertex
100
AcDb2dVertex
 10
28.03269611752755
 20
91.09104346829466
 30
0.0
  0
VERTEX
  5
284
330
274
100
AcDbEntity
  8
Hidden (ANSI)
 48
0.0120907137170434
100
AcDbVertex
100
AcDb2dVertex
 10
28.03204850367551
 20
91.08800973267397
 30
0.0
  0
VERTEX
  5
285
330
274
100
AcDbEntity
  8
Hidden (ANSI)
 48
0.0120907137170434
100
AcDbVertex
100
AcDb2dVertex
 10
28.03145390041109
 20
91.08497599705328
 30
0.0
  0
VERTEX
  5
286
330
274
100
AcDbEntity
  8
Hidden (ANSI)
 48
0.0120907137170434
100
AcDbVertex
100
AcDb2dVertex
 10
28.03091483037181
 20
91.08194226143259
 30
0.0
  0
VERTEX
  5
287
330
274
100
AcDbEntity
  8
Hidden (ANSI)
 48
0.0120907137170434
100
AcDbVertex
100
AcDb2dVertex
 10
28.03043360499763
 20
91.07890852581189
 30
0.0
  0
VERTEX
  5
288
330
274
100
AcDbEntity
  8
Hidden (ANSI)
 48
0.0120907137170434
100
AcDbVertex
100
AcDb2dVertex
 10
28.03001230106456
 20
91.07588079758846
 30
0.0
  0
VERTEX
  5
289
330
274
100
AcDbEntity
  8
Hidden (ANSI)
 48
0.0120907137170434
100
AcDbVertex
100
AcDb2dVertex
 10
28.02965271375189
 20
91.07284706196777
 30
0.0
  0
VERTEX
  5
28A
330
274
100
AcDbEntity
  8
Hidden (ANSI)
 48
0.0120907137170434
100
AcDbVertex
100
AcDb2dVertex
 10
28.02935638010849
 20
91.06981332634708
 30
0.0
  0
VERTEX
  5
28B
330
274
100
AcDbEntity
  8
Hidden (ANSI)
 48
0.0120907137170434
100
AcDbVertex
100
AcDb2dVertex
 10
28.02912456731974
 20
91.06677959072637
 30
0.0
  0
VERTEX
  5
28C
330
274
100
AcDbEntity
  8
Hidden (ANSI)
 48
0.0120907137170434
100
AcDbVertex
100
AcDb2dVertex
 10
28.02895828444066
 20
91.0637458551057
 30
0.0
  0
VERTEX
  5
28D
330
274
100
AcDbEntity
  8
Hidden (ANSI)
 48
0.0120907137170434
100
AcDbVertex
100
AcDb2dVertex
 10
28.0288582237299
 20
91.06071211948499
 30
0.0
  0
VERTEX
  5
28E
330
274
100
AcDbEntity
  8
Hidden (ANSI)
 48
0.0120907137170434
100
AcDbVertex
100
AcDb2dVertex
 10
28.02882481931579
 20
91.05767838386428
 30
0.0
  0
SEQEND
  5
277
330
274
100
AcDbEntity
  8
Hidden (ANSI)
 48
0.0120907137170434
  0
LINE
  5
28F
330
6C
100
AcDbEntity
  8
Hidden (ANSI)
 48
0.0197405889630318
100
AcDbLine
 10
28.0288248211931
 20
31.48445789285306
 30
0.0
 11
27.9038248211931
 21
31.48445789285306
 31
0.0
  0
POLYLINE
  5
290
330
6C
100
AcDbEntity
  8
Hidden (ANSI)
 48
0.0120902173221111
100
AcDb2dPolyline
 66
     1
 10
0.0
 20
0.0
 30
0.0
 70
   128
  0
VERTEX
  5
291
330
290
100
AcDbEntity
  8
Hidden (ANSI)
 48
0.0120902173221111
100
AcDbVertex
100
AcDb2dVertex
 10
28.04442482150323
 20
31.41166954551487
 30
0.0
  0
VERTEX
  5
292
330
290
100
AcDbEntity
  8
Hidden (ANSI)
 48
0.0120902173221111
100
AcDbVertex
100
AcDb2dVertex
 10
28.04340453782297
 20
31.41470238941253
 30
0.0
  0
VERTEX
  5
294
330
290
100
AcDbEntity
  8
Hidden (ANSI)
 48
0.0120902173221111
100
AcDbVertex
100
AcDb2dVertex
 10
28.04238860715909
 20
31.41773524504339
 30
0.0
  0
VERTEX
  5
295
330
290
100
AcDbEntity
  8
Hidden (ANSI)
 48
0.0120902173221111
100
AcDbVertex
100
AcDb2dVertex
 10
28.04138141772756
 20
31.42076808894105
 30
0.0
  0
VERTEX
  5
296
330
290
100
AcDbEntity
  8
Hidden (ANSI)
 48
0.0120902173221111
100
AcDbVertex
100
AcDb2dVertex
 10
28.04038724041238
 20
31.42380093283872
 30
0.0
  0
VERTEX
  5
297
330
290
100
AcDbEntity
  8
Hidden (ANSI)
 48
0.0120902173221111
100
AcDbVertex
100
AcDb2dVertex
 10
28.03941036956394
 20
31.42683378846957
 30
0.0
  0
VERTEX
  5
298
330
290
100
AcDbEntity
  8
Hidden (ANSI)
 48
0.0120902173221111
100
AcDbVertex
100
AcDb2dVertex
 10
28.03845495873427
 20
31.42986663236724
 30
0.0
  0
VERTEX
  5
299
330
290
100
AcDbEntity
  8
Hidden (ANSI)
 48
0.0120902173221111
100
AcDbVertex
100
AcDb2dVertex
 10
28.03752511454257
 20
31.4328994762649
 30
0.0
  0
VERTEX
  5
29A
330
290
100
AcDbEntity
  8
Hidden (ANSI)
 48
0.0120902173221111
100
AcDbVertex
100
AcDb2dVertex
 10
28.03662482627611
 20
31.43593233189576
 30
0.0
  0
VERTEX
  5
29B
330
290
100
AcDbEntity
  8
Hidden (ANSI)
 48
0.0120902173221111
100
AcDbVertex
100
AcDb2dVertex
 10
28.03575793069056
 20
31.43896517579342
 30
0.0
  0
VERTEX
  5
29C
330
290
100
AcDbEntity
  8
Hidden (ANSI)
 48
0.0120902173221111
100
AcDbVertex
100
AcDb2dVertex
 10
28.03492814720963
 20
31.44199801969108
 30
0.0
  0
VERTEX
  5
29D
330
290
100
AcDbEntity
  8
Hidden (ANSI)
 48
0.0120902173221111
100
AcDbVertex
100
AcDb2dVertex
 10
28.03413903099223
 20
31.44503087532195
 30
0.0
  0
VERTEX
  5
29E
330
290
100
AcDbEntity
  8
Hidden (ANSI)
 48
0.0120902173221111
100
AcDbVertex
100
AcDb2dVertex
 10
28.03339396119934
 20
31.4480637192196
 30
0.0
  0
VERTEX
  5
29F
330
290
100
AcDbEntity
  8
Hidden (ANSI)
 48
0.0120902173221111
100
AcDbVertex
100
AcDb2dVertex
 10
28.03269611752755
 20
31.45109656311726
 30
0.0
  0
VERTEX
  5
2A0
330
290
100
AcDbEntity
  8
Hidden (ANSI)
 48
0.0120902173221111
100
AcDbVertex
100
AcDb2dVertex
 10
28.03204850367551
 20
31.45412941874813
 30
0.0
  0
VERTEX
  5
2A1
330
290
100
AcDbEntity
  8
Hidden (ANSI)
 48
0.0120902173221111
100
AcDbVertex
100
AcDb2dVertex
 10
28.03145390041109
 20
31.45716226264579
 30
0.0
  0
VERTEX
  5
2A2
330
290
100
AcDbEntity
  8
Hidden (ANSI)
 48
0.0120902173221111
100
AcDbVertex
100
AcDb2dVertex
 10
28.03091483037181
 20
31.46019510654345
 30
0.0
  0
VERTEX
  5
2A3
330
290
100
AcDbEntity
  8
Hidden (ANSI)
 48
0.0120902173221111
100
AcDbVertex
100
AcDb2dVertex
 10
28.03043360499763
 20
31.46322796217431
 30
0.0
  0
VERTEX
  5
2A4
330
290
100
AcDbEntity
  8
Hidden (ANSI)
 48
0.0120902173221111
100
AcDbVertex
100
AcDb2dVertex
 10
28.03001230106456
 20
31.46626080607197
 30
0.0
  0
VERTEX
  5
2A5
330
290
100
AcDbEntity
  8
Hidden (ANSI)
 48
0.0120902173221111
100
AcDbVertex
100
AcDb2dVertex
 10
28.02965271375189
 20
31.46929366170283
 30
0.0
  0
VERTEX
  5
2A6
330
290
100
AcDbEntity
  8
Hidden (ANSI)
 48
0.0120902173221111
100
AcDbVertex
100
AcDb2dVertex
 10
28.02935638010849
 20
31.47232650560049
 30
0.0
  0
VERTEX
  5
2A7
330
290
100
AcDbEntity
  8
Hidden (ANSI)
 48
0.0120902173221111
100
AcDbVertex
100
AcDb2dVertex
 10
28.02912456731974
 20
31.47535934949815
 30
0.0
  0
VERTEX
  5
2A8
330
290
100
AcDbEntity
  8
Hidden (ANSI)
 48
0.0120902173221111
100
AcDbVertex
100
AcDb2dVertex
 10
28.02895828444066
 20
31.47839219339582
 30
0.0
  0
VERTEX
  5
2A9
330
290
100
AcDbEntity
  8
Hidden (ANSI)
 48
0.0120902173221111
100
AcDbVertex
100
AcDb2dVertex
 10
28.0288582237299
 20
31.48142503729348
 30
0.0
  0
VERTEX
  5
2AA
330
290
100
AcDbEntity
  8
Hidden (ANSI)
 48
0.0120902173221111
100
AcDbVertex
100
AcDb2dVertex
 10
28.02882481931579
 20
31.48445788119114
 30
0.0
  0
SEQEND
  5
293
330
290
100
AcDbEntity
  8
Hidden (ANSI)
 48
0.0120902173221111
  0
LINE
  5
2AB
330
6C
100
AcDbEntity
  8
Hidden (ANSI)
 48
0.0197405889630318
100
AcDbLine
 10
28.11721316884142
 20
31.39606954520474
 30
0.0
 11
28.11721316884142
 21
31.27106954520474
 31
0.0
  0
POLYLINE
  5
2AC
330
6C
100
AcDbEntity
  8
Hidden (ANSI)
 48
0.0120902173221111
100
AcDb2dPolyline
 66
     1
 10
0.0
 20
0.0
 30
0.0
 70
   128
  0
VERTEX
  5
2AD
330
2AC
100
AcDbEntity
  8
Hidden (ANSI)
 48
0.0120902173221111
100
AcDbVertex
100
AcDb2dVertex
 10
28.04442482150323
 20
31.41166954551487
 30
0.0
  0
VERTEX
  5
2AE
330
2AC
100
AcDbEntity
  8
Hidden (ANSI)
 48
0.0120902173221111
100
AcDbVertex
100
AcDb2dVertex
 10
28.04745766540089
 20
31.41064926183461
 30
0.0
  0
VERTEX
  5
2B0
330
2AC
100
AcDbEntity
  8
Hidden (ANSI)
 48
0.0120902173221111
100
AcDbVertex
100
AcDb2dVertex
 10
28.05049052103175
 20
31.40963333117073
 30
0.0
  0
VERTEX
  5
2B1
330
2AC
100
AcDbEntity
  8
Hidden (ANSI)
 48
0.0120902173221111
100
AcDbVertex
100
AcDb2dVertex
 10
28.05352336492942
 20
31.4086261417392
 30
0.0
  0
VERTEX
  5
2B2
330
2AC
100
AcDbEntity
  8
Hidden (ANSI)
 48
0.0120902173221111
100
AcDbVertex
100
AcDb2dVertex
 10
28.05655620882708
 20
31.40763196442402
 30
0.0
  0
VERTEX
  5
2B3
330
2AC
100
AcDbEntity
  8
Hidden (ANSI)
 48
0.0120902173221111
100
AcDbVertex
100
AcDb2dVertex
 10
28.05958906445793
 20
31.40665509357558
 30
0.0
  0
VERTEX
  5
2B4
330
2AC
100
AcDbEntity
  8
Hidden (ANSI)
 48
0.0120902173221111
100
AcDbVertex
100
AcDb2dVertex
 10
28.0626219083556
 20
31.4056996827459
 30
0.0
  0
VERTEX
  5
2B5
330
2AC
100
AcDbEntity
  8
Hidden (ANSI)
 48
0.0120902173221111
100
AcDbVertex
100
AcDb2dVertex
 10
28.06565475225326
 20
31.40476983855421
 30
0.0
  0
VERTEX
  5
2B6
330
2AC
100
AcDbEntity
  8
Hidden (ANSI)
 48
0.0120902173221111
100
AcDbVertex
100
AcDb2dVertex
 10
28.06868760788412
 20
31.40386955028775
 30
0.0
  0
VERTEX
  5
2B7
330
2AC
100
AcDbEntity
  8
Hidden (ANSI)
 48
0.0120902173221111
100
AcDbVertex
100
AcDb2dVertex
 10
28.07172045178178
 20
31.4030026547022
 30
0.0
  0
VERTEX
  5
2B8
330
2AC
100
AcDbEntity
  8
Hidden (ANSI)
 48
0.0120902173221111
100
AcDbVertex
100
AcDb2dVertex
 10
28.07475329567945
 20
31.40217287122127
 30
0.0
  0
VERTEX
  5
2B9
330
2AC
100
AcDbEntity
  8
Hidden (ANSI)
 48
0.0120902173221111
100
AcDbVertex
100
AcDb2dVertex
 10
28.07778615131031
 20
31.40138375500387
 30
0.0
  0
VERTEX
  5
2BA
330
2AC
100
AcDbEntity
  8
Hidden (ANSI)
 48
0.0120902173221111
100
AcDbVertex
100
AcDb2dVertex
 10
28.08081899520797
 20
31.40063868521098
 30
0.0
  0
VERTEX
  5
2BB
330
2AC
100
AcDbEntity
  8
Hidden (ANSI)
 48
0.0120902173221111
100
AcDbVertex
100
AcDb2dVertex
 10
28.08385183910563
 20
31.39994084153919
 30
0.0
  0
VERTEX
  5
2BC
330
2AC
100
AcDbEntity
  8
Hidden (ANSI)
 48
0.0120902173221111
100
AcDbVertex
100
AcDb2dVertex
 10
28.08688469473649
 20
31.39929322768715
 30
0.0
  0
VERTEX
  5
2BD
330
2AC
100
AcDbEntity
  8
Hidden (ANSI)
 48
0.0120902173221111
100
AcDbVertex
100
AcDb2dVertex
 10
28.08991753863415
 20
31.39869862442273
 30
0.0
  0
VERTEX
  5
2BE
330
2AC
100
AcDbEntity
  8
Hidden (ANSI)
 48
0.0120902173221111
100
AcDbVertex
100
AcDb2dVertex
 10
28.09295038253181
 20
31.39815955438344
 30
0.0
  0
VERTEX
  5
2BF
330
2AC
100
AcDbEntity
  8
Hidden (ANSI)
 48
0.0120902173221111
100
AcDbVertex
100
AcDb2dVertex
 10
28.09598323816267
 20
31.39767832900926
 30
0.0
  0
VERTEX
  5
2C0
330
2AC
100
AcDbEntity
  8
Hidden (ANSI)
 48
0.0120902173221111
100
AcDbVertex
100
AcDb2dVertex
 10
28.09901608206033
 20
31.3972570250762
 30
0.0
  0
VERTEX
  5
2C1
330
2AC
100
AcDbEntity
  8
Hidden (ANSI)
 48
0.0120902173221111
100
AcDbVertex
100
AcDb2dVertex
 10
28.10204893769119
 20
31.39689743776352
 30
0.0
  0
VERTEX
  5
2C2
330
2AC
100
AcDbEntity
  8
Hidden (ANSI)
 48
0.0120902173221111
100
AcDbVertex
100
AcDb2dVertex
 10
28.10508178158885
 20
31.39660110412012
 30
0.0
  0
VERTEX
  5
2C3
330
2AC
100
AcDbEntity
  8
Hidden (ANSI)
 48
0.0120902173221111
100
AcDbVertex
100
AcDb2dVertex
 10
28.10811462548651
 20
31.39636929133138
 30
0.0
  0
VERTEX
  5
2C4
330
2AC
100
AcDbEntity
  8
Hidden (ANSI)
 48
0.0120902173221111
100
AcDbVertex
100
AcDb2dVertex
 10
28.11114746938418
 20
31.39620300845229
 30
0.0
  0
VERTEX
  5
2C5
330
2AC
100
AcDbEntity
  8
Hidden (ANSI)
 48
0.0120902173221111
100
AcDbVertex
100
AcDb2dVertex
 10
28.11418031328184
 20
31.39610294774154
 30
0.0
  0
VERTEX
  5
2C6
330
2AC
100
AcDbEntity
  8
Hidden (ANSI)
 48
0.0120902173221111
100
AcDbVertex
100
AcDb2dVertex
 10
28.1172131571795
 20
31.39606954332743
 30
0.0
  0
SEQEND
  5
2AF
330
2AC
100
AcDbEntity
  8
Hidden (ANSI)
 48
0.0120902173221111
  0
LINE
  5
2C7
330
6C
100
AcDbEntity
  8
Hidden (ANSI)
 48
0.0197405889630318
100
AcDbLine
 10
95.69043647354476
 20
31.39606954520474
 30
0.0
 11
95.69043647354476
 21
31.27106954520474
 31
0.0
  0
POLYLINE
  5
2C8
330
6C
100
AcDbEntity
  8
Hidden (ANSI)
 48
0.012089810334146
100
AcDb2dPolyline
 66
     1
 10
0.0
 20
0.0
 30
0.0
 70
   128
  0
VERTEX
  5
2C9
330
2C8
100
AcDbEntity
  8
Hidden (ANSI)
 48
0.012089810334146
100
AcDbVertex
100
AcDb2dVertex
 10
95.76322216871092
 20
31.41166954551487
 30
0.0
  0
VERTEX
  5
2CA
330
2C8
100
AcDbEntity
  8
Hidden (ANSI)
 48
0.012089810334146
100
AcDbVertex
100
AcDb2dVertex
 10
95.7601944404875
 20
31.41064926183461
 30
0.0
  0
VERTEX
  5
2CC
330
2C8
100
AcDbEntity
  8
Hidden (ANSI)
 48
0.012089810334146
100
AcDbVertex
100
AcDb2dVertex
 10
95.75716070486683
 20
31.40963333117073
 30
0.0
  0
VERTEX
  5
2CD
330
2C8
100
AcDbEntity
  8
Hidden (ANSI)
 48
0.012089810334146
100
AcDbVertex
100
AcDb2dVertex
 10
95.75412696924612
 20
31.4086261417392
 30
0.0
  0
VERTEX
  5
2CE
330
2C8
100
AcDbEntity
  8
Hidden (ANSI)
 48
0.012089810334146
100
AcDbVertex
100
AcDb2dVertex
 10
95.75109323362541
 20
31.40763196442402
 30
0.0
  0
VERTEX
  5
2CF
330
2C8
100
AcDbEntity
  8
Hidden (ANSI)
 48
0.012089810334146
100
AcDbVertex
100
AcDb2dVertex
 10
95.74805949800474
 20
31.40665509357558
 30
0.0
  0
VERTEX
  5
2D0
330
2C8
100
AcDbEntity
  8
Hidden (ANSI)
 48
0.012089810334146
100
AcDbVertex
100
AcDb2dVertex
 10
95.74502576238403
 20
31.4056996827459
 30
0.0
  0
VERTEX
  5
2D1
330
2C8
100
AcDbEntity
  8
Hidden (ANSI)
 48
0.012089810334146
100
AcDbVertex
100
AcDb2dVertex
 10
95.74199202676332
 20
31.40476983855421
 30
0.0
  0
VERTEX
  5
2D2
330
2C8
100
AcDbEntity
  8
Hidden (ANSI)
 48
0.012089810334146
100
AcDbVertex
100
AcDb2dVertex
 10
95.73896429853991
 20
31.40386955028775
 30
0.0
  0
VERTEX
  5
2D3
330
2C8
100
AcDbEntity
  8
Hidden (ANSI)
 48
0.012089810334146
100
AcDbVertex
100
AcDb2dVertex
 10
95.73593056291924
 20
31.4030026547022
 30
0.0
  0
VERTEX
  5
2D4
330
2C8
100
AcDbEntity
  8
Hidden (ANSI)
 48
0.012089810334146
100
AcDbVertex
100
AcDb2dVertex
 10
95.73289682729853
 20
31.40217287122127
 30
0.0
  0
VERTEX
  5
2D5
330
2C8
100
AcDbEntity
  8
Hidden (ANSI)
 48
0.012089810334146
100
AcDbVertex
100
AcDb2dVertex
 10
95.72986309167783
 20
31.40138375500387
 30
0.0
  0
VERTEX
  5
2D6
330
2C8
100
AcDbEntity
  8
Hidden (ANSI)
 48
0.012089810334146
100
AcDbVertex
100
AcDb2dVertex
 10
95.72682935605715
 20
31.40063868521098
 30
0.0
  0
VERTEX
  5
2D7
330
2C8
100
AcDbEntity
  8
Hidden (ANSI)
 48
0.012089810334146
100
AcDbVertex
100
AcDb2dVertex
 10
95.72379562043645
 20
31.39994084153919
 30
0.0
  0
VERTEX
  5
2D8
330
2C8
100
AcDbEntity
  8
Hidden (ANSI)
 48
0.012089810334146
100
AcDbVertex
100
AcDb2dVertex
 10
95.72076789221302
 20
31.39929322768715
 30
0.0
  0
VERTEX
  5
2D9
330
2C8
100
AcDbEntity
  8
Hidden (ANSI)
 48
0.012089810334146
100
AcDbVertex
100
AcDb2dVertex
 10
95.71773415659231
 20
31.39869862442273
 30
0.0
  0
VERTEX
  5
2DA
330
2C8
100
AcDbEntity
  8
Hidden (ANSI)
 48
0.012089810334146
100
AcDbVertex
100
AcDb2dVertex
 10
95.71470042097166
 20
31.39815955438344
 30
0.0
  0
VERTEX
  5
2DB
330
2C8
100
AcDbEntity
  8
Hidden (ANSI)
 48
0.012089810334146
100
AcDbVertex
100
AcDb2dVertex
 10
95.71166668535095
 20
31.39767832900926
 30
0.0
  0
VERTEX
  5
2DC
330
2C8
100
AcDbEntity
  8
Hidden (ANSI)
 48
0.012089810334146
100
AcDbVertex
100
AcDb2dVertex
 10
95.70863294973023
 20
31.3972570250762
 30
0.0
  0
VERTEX
  5
2DD
330
2C8
100
AcDbEntity
  8
Hidden (ANSI)
 48
0.012089810334146
100
AcDbVertex
100
AcDb2dVertex
 10
95.70559921410957
 20
31.39689743776352
 30
0.0
  0
VERTEX
  5
2DE
330
2C8
100
AcDbEntity
  8
Hidden (ANSI)
 48
0.012089810334146
100
AcDbVertex
100
AcDb2dVertex
 10
95.70256547848886
 20
31.39660110412012
 30
0.0
  0
VERTEX
  5
2DF
330
2C8
100
AcDbEntity
  8
Hidden (ANSI)
 48
0.012089810334146
100
AcDbVertex
100
AcDb2dVertex
 10
95.69953775026544
 20
31.39636929133138
 30
0.0
  0
VERTEX
  5
2E0
330
2C8
100
AcDbEntity
  8
Hidden (ANSI)
 48
0.012089810334146
100
AcDbVertex
100
AcDb2dVertex
 10
95.69650401464473
 20
31.39620300845229
 30
0.0
  0
VERTEX
  5
2E1
330
2C8
100
AcDbEntity
  8
Hidden (ANSI)
 48
0.012089810334146
100
AcDbVertex
100
AcDb2dVertex
 10
95.69347027902406
 20
31.39610294774154
 30
0.0
  0
VERTEX
  5
2E2
330
2C8
100
AcDbEntity
  8
Hidden (ANSI)
 48
0.012089810334146
100
AcDbVertex
100
AcDb2dVertex
 10
95.69043654340335
 20
31.39606954332743
 30
0.0
  0
SEQEND
  5
2CB
330
2C8
100
AcDbEntity
  8
Hidden (ANSI)
 48
0.012089810334146
  0
MTEXT
  5
2E4
330
6C
100
AcDbEntity
  8
Symbol (ANSI)
100
AcDbMText
 10
56.012296380941
 20
24.59260456983674
 30
0.0
 40
1.440000017796914
 41
0.0
 46
0.0
 71
     7
 72
     1
  1
FRONT VIEW
  7
Text Style153
 73
     1
 44
1.0
  0
LINE
  5
2E6
330
6C
100
AcDbEntity
  8
Symbol (ANSI)
370
    30
100
AcDbLine
 10
55.86829601052036
 20
24.29894492133807
 30
0.0
 11
67.44547606194848
 21
24.29894492133807
 31
0.0
  0
POLYLINE
  5
2E7
330
6C
100
AcDbEntity
  8
Visible (ANSI)
100
AcDb2dPolyline
 66
     1
 10
0.0
 20
0.0
 30
0.0
 70
   128
  0
VERTEX
  5
2E8
330
2E7
100
AcDbEntity
  8
Visible (ANSI)
100
AcDbVertex
100
AcDb2dVertex
 10
115.0425642698728
 20
91.13047001656914
 30
0.0
  0
VERTEX
  5
2E9
330
2E7
100
AcDbEntity
  8
Visible (ANSI)
100
AcDbVertex
100
AcDb2dVertex
 10
115.0428653085285
 20
91.12743628094845
 30
0.0
  0
VERTEX
  5
2EB
330
2E7
100
AcDbEntity
  8
Visible (ANSI)
100
AcDbVertex
100
AcDb2dVertex
 10
115.0437671221106
 20
91.12440254532776
 30
0.0
  0
VERTEX
  5
2EC
330
2E7
100
AcDbEntity
  8
Visible (ANSI)
100
AcDbVertex
100
AcDb2dVertex
 10
115.0452658621304
 20
91.12136880970705
 30
0.0
  0
VERTEX
  5
2ED
330
2E7
100
AcDbEntity
  8
Visible (ANSI)
100
AcDbVertex
100
AcDb2dVertex
 10
115.0473550987954
 20
91.11834108148363
 30
0.0
  0
VERTEX
  5
2EE
330
2E7
100
AcDbEntity
  8
Visible (ANSI)
100
AcDbVertex
100
AcDb2dVertex
 10
115.0500258914088
 20
91.11530734586294
 30
0.0
  0
VERTEX
  5
2EF
330
2E7
100
AcDbEntity
  8
Visible (ANSI)
100
AcDbVertex
100
AcDb2dVertex
 10
115.0532668001029
 20
91.11227361024225
 30
0.0
  0
VERTEX
  5
2F0
330
2E7
100
AcDbEntity
  8
Visible (ANSI)
100
AcDbVertex
100
AcDb2dVertex
 10
115.0570639562378
 20
91.10923987462156
 30
0.0
  0
VERTEX
  5
2F1
330
2E7
100
AcDbEntity
  8
Visible (ANSI)
100
AcDbVertex
100
AcDb2dVertex
 10
115.0614010976015
 20
91.10620613900087
 30
0.0
  0
VERTEX
  5
2F2
330
2E7
100
AcDbEntity
  8
Visible (ANSI)
100
AcDbVertex
100
AcDb2dVertex
 10
115.0662596388085
 20
91.10317240338018
 30
0.0
  0
VERTEX
  5
2F3
330
2E7
100
AcDbEntity
  8
Visible (ANSI)
100
AcDbVertex
100
AcDb2dVertex
 10
115.0716187886325
 20
91.10013866775947
 30
0.0
  0
VERTEX
  5
2F4
330
2E7
100
AcDbEntity
  8
Visible (ANSI)
100
AcDbVertex
100
AcDb2dVertex
 10
115.0774555910719
 20
91.09711093953604
 30
0.0
  0
VERTEX
  5
2F5
330
2E7
100
AcDbEntity
  8
Visible (ANSI)
100
AcDbVertex
100
AcDb2dVertex
 10
115.0837450544155
 20
91.09407720391535
 30
0.0
  0
VERTEX
  5
2F6
330
2E7
100
AcDbEntity
  8
Visible (ANSI)
100
AcDbVertex
100
AcDb2dVertex
 10
115.0904602451077
 20
91.09104346829466
 30
0.0
  0
VERTEX
  5
2F7
330
2E7
100
AcDbEntity
  8
Visible (ANSI)
100
AcDbVertex
100
AcDb2dVertex
 10
115.0975724109474
 20
91.08800973267397
 30
0.0
  0
VERTEX
  5
2F8
330
2E7
100
AcDbEntity
  8
Visible (ANSI)
100
AcDbVertex
100
AcDb2dVertex
 10
115.105051092553
 20
91.08497599705328
 30
0.0
  0
VERTEX
  5
2F9
330
2E7
100
AcDbEntity
  8
Visible (ANSI)
100
AcDbVertex
100
AcDb2dVertex
 10
115.1128642700278
 20
91.08194226143259
 30
0.0
  0
VERTEX
  5
2FA
330
2E7
100
AcDbEntity
  8
Visible (ANSI)
100
AcDbVertex
100
AcDb2dVertex
 10
115.1209784773585
 20
91.07890852581189
 30
0.0
  0
VERTEX
  5
2FB
330
2E7
100
AcDbEntity
  8
Visible (ANSI)
100
AcDbVertex
100
AcDb2dVertex
 10
115.1293589784129
 20
91.07588079758846
 30
0.0
  0
VERTEX
  5
2FC
330
2E7
100
AcDbEntity
  8
Visible (ANSI)
100
AcDbVertex
100
AcDb2dVertex
 10
115.1379698784057
 20
91.07284706196777
 30
0.0
  0
VERTEX
  5
2FD
330
2E7
100
AcDbEntity
  8
Visible (ANSI)
100
AcDbVertex
100
AcDb2dVertex
 10
115.1467743101629
 20
91.06981332634708
 30
0.0
  0
VERTEX
  5
2FE
330
2E7
100
AcDbEntity
  8
Visible (ANSI)
100
AcDbVertex
100
AcDb2dVertex
 10
115.1557345690532
 20
91.06677959072637
 30
0.0
  0
VERTEX
  5
2FF
330
2E7
100
AcDbEntity
  8
Visible (ANSI)
100
AcDbVertex
100
AcDb2dVertex
 10
115.16481228532
 20
91.06374585510568
 30
0.0
  0
VERTEX
  5
300
330
2E7
100
AcDbEntity
  8
Visible (ANSI)
100
AcDbVertex
100
AcDb2dVertex
 10
115.1739685883456
 20
91.06071211948499
 30
0.0
  0
VERTEX
  5
301
330
2E7
100
AcDbEntity
  8
Visible (ANSI)
100
AcDbVertex
100
AcDb2dVertex
 10
115.1831642687163
 20
91.05767838386428
 30
0.0
  0
SEQEND
  5
2EA
330
2E7
100
AcDbEntity
  8
Visible (ANSI)
  0
POLYLINE
  5
302
330
6C
100
AcDbEntity
  8
Visible (ANSI)
100
AcDb2dPolyline
 66
     1
 10
0.0
 20
0.0
 30
0.0
 70
   128
  0
VERTEX
  5
303
330
302
100
AcDbEntity
  8
Visible (ANSI)
100
AcDbVertex
100
AcDb2dVertex
 10
115.1831642687163
 20
31.48445788119113
 30
0.0
  0
VERTEX
  5
304
330
302
100
AcDbEntity
  8
Visible (ANSI)
100
AcDbVertex
100
AcDb2dVertex
 10
115.1739685883456
 20
31.48142503729347
 30
0.0
  0
VERTEX
  5
306
330
302
100
AcDbEntity
  8
Visible (ANSI)
100
AcDbVertex
100
AcDb2dVertex
 10
115.16481228532
 20
31.4783921933958
 30
0.0
  0
VERTEX
  5
307
330
302
100
AcDbEntity
  8
Visible (ANSI)
100
AcDbVertex
100
AcDb2dVertex
 10
115.1557345690532
 20
31.47535934949815
 30
0.0
  0
VERTEX
  5
308
330
302
100
AcDbEntity
  8
Visible (ANSI)
100
AcDbVertex
100
AcDb2dVertex
 10
115.1467743101629
 20
31.47232650560049
 30
0.0
  0
VERTEX
  5
309
330
302
100
AcDbEntity
  8
Visible (ANSI)
100
AcDbVertex
100
AcDb2dVertex
 10
115.1379698784057
 20
31.46929366170282
 30
0.0
  0
VERTEX
  5
30A
330
302
100
AcDbEntity
  8
Visible (ANSI)
100
AcDbVertex
100
AcDb2dVertex
 10
115.1293589784129
 20
31.46626080607197
 30
0.0
  0
VERTEX
  5
30B
330
302
100
AcDbEntity
  8
Visible (ANSI)
100
AcDbVertex
100
AcDb2dVertex
 10
115.1209784773585
 20
31.4632279621743
 30
0.0
  0
VERTEX
  5
30C
330
302
100
AcDbEntity
  8
Visible (ANSI)
100
AcDbVertex
100
AcDb2dVertex
 10
115.1128642700278
 20
31.46019510654344
 30
0.0
  0
VERTEX
  5
30D
330
302
100
AcDbEntity
  8
Visible (ANSI)
100
AcDbVertex
100
AcDb2dVertex
 10
115.105051092553
 20
31.45716226264578
 30
0.0
  0
VERTEX
  5
30E
330
302
100
AcDbEntity
  8
Visible (ANSI)
100
AcDbVertex
100
AcDb2dVertex
 10
115.0975724109474
 20
31.45412941874811
 30
0.0
  0
VERTEX
  5
30F
330
302
100
AcDbEntity
  8
Visible (ANSI)
100
AcDbVertex
100
AcDb2dVertex
 10
115.0904602451077
 20
31.45109656311726
 30
0.0
  0
VERTEX
  5
310
330
302
100
AcDbEntity
  8
Visible (ANSI)
100
AcDbVertex
100
AcDb2dVertex
 10
115.0837450544155
 20
31.44806371921959
 30
0.0
  0
VERTEX
  5
311
330
302
100
AcDbEntity
  8
Visible (ANSI)
100
AcDbVertex
100
AcDb2dVertex
 10
115.0774555910719
 20
31.44503087532193
 30
0.0
  0
VERTEX
  5
312
330
302
100
AcDbEntity
  8
Visible (ANSI)
100
AcDbVertex
100
AcDb2dVertex
 10
115.0716187886325
 20
31.44199801969107
 30
0.0
  0
VERTEX
  5
313
330
302
100
AcDbEntity
  8
Visible (ANSI)
100
AcDbVertex
100
AcDb2dVertex
 10
115.0662596388085
 20
31.43896517579341
 30
0.0
  0
VERTEX
  5
314
330
302
100
AcDbEntity
  8
Visible (ANSI)
100
AcDbVertex
100
AcDb2dVertex
 10
115.0614010976015
 20
31.43593233189575
 30
0.0
  0
VERTEX
  5
315
330
302
100
AcDbEntity
  8
Visible (ANSI)
100
AcDbVertex
100
AcDb2dVertex
 10
115.0570639562378
 20
31.43289947626489
 30
0.0
  0
VERTEX
  5
316
330
302
100
AcDbEntity
  8
Visible (ANSI)
100
AcDbVertex
100
AcDb2dVertex
 10
115.0532668001029
 20
31.42986663236723
 30
0.0
  0
VERTEX
  5
317
330
302
100
AcDbEntity
  8
Visible (ANSI)
100
AcDbVertex
100
AcDb2dVertex
 10
115.0500258914088
 20
31.42683378846957
 30
0.0
  0
VERTEX
  5
318
330
302
100
AcDbEntity
  8
Visible (ANSI)
100
AcDbVertex
100
AcDb2dVertex
 10
115.0473550987954
 20
31.42380093283871
 30
0.0
  0
VERTEX
  5
319
330
302
100
AcDbEntity
  8
Visible (ANSI)
100
AcDbVertex
100
AcDb2dVertex
 10
115.0452658621304
 20
31.42076808894105
 30
0.0
  0
VERTEX
  5
31A
330
302
100
AcDbEntity
  8
Visible (ANSI)
100
AcDbVertex
100
AcDb2dVertex
 10
115.0437671221106
 20
31.41773524504339
 30
0.0
  0
VERTEX
  5
31B
330
302
100
AcDbEntity
  8
Visible (ANSI)
100
AcDbVertex
100
AcDb2dVertex
 10
115.0428653085285
 20
31.41470238941252
 30
0.0
  0
VERTEX
  5
31C
330
302
100
AcDbEntity
  8
Visible (ANSI)
100
AcDbVertex
100
AcDb2dVertex
 10
115.0425642698728
 20
31.41166954551487
 30
0.0
  0
SEQEND
  5
305
330
302
100
AcDbEntity
  8
Visible (ANSI)
  0
LINE
  5
31D
330
6C
100
AcDbEntity
  8
Visible (ANSI)
100
AcDbLine
 10
115.9175642679955
 20
31.48445789285306
 30
0.0
 11
115.1831642679955
 21
31.48445789285306
 31
0.0
  0
LINE
  5
31E
330
6C
100
AcDbEntity
  8
Visible (ANSI)
100
AcDbLine
 10
115.1368257666846
 20
31.41166954520473
 30
0.0
 11
115.0425642679955
 21
31.41166954520473
 31
0.0
  0
LINE
  5
31F
330
6C
100
AcDbEntity
  8
Visible (ANSI)
100
AcDbLine
 10
115.1675642679955
 20
31.41166954520473
 30
0.0
 11
115.1368257666846
 21
31.41166954520473
 31
0.0
  0
POLYLINE
  5
320
330
6C
100
AcDbEntity
  8
Visible (ANSI)
100
AcDb2dPolyline
 66
     1
 10
0.0
 20
0.0
 30
0.0
 70
   128
  0
VERTEX
  5
321
330
320
100
AcDbEntity
  8
Visible (ANSI)
100
AcDbVertex
100
AcDb2dVertex
 10
115.1675642679955
 20
31.41166954551487
 30
0.0
  0
VERTEX
  5
322
330
320
100
AcDbEntity
  8
Visible (ANSI)
100
AcDbVertex
100
AcDb2dVertex
 10
115.1675976687916
 20
31.41470238941252
 30
0.0
  0
VERTEX
  5
324
330
320
100
AcDbEntity
  8
Visible (ANSI)
100
AcDbVertex
100
AcDb2dVertex
 10
115.1676977281589
 20
31.41773524504339
 30
0.0
  0
VERTEX
  5
325
330
320
100
AcDbEntity
  8
Visible (ANSI)
100
AcDbVertex
100
AcDb2dVertex
 10
115.1678640176265
 20
31.42076808894105
 30
0.0
  0
VERTEX
  5
326
330
320
100
AcDbEntity
  8
Visible (ANSI)
100
AcDbVertex
100
AcDb2dVertex
 10
115.1680958251215
 20
31.42380093283871
 30
0.0
  0
VERTEX
  5
327
330
320
100
AcDbEntity
  8
Visible (ANSI)
100
AcDbVertex
100
AcDb2dVertex
 10
115.1683921579399
 20
31.42683378846957
 30
0.0
  0
VERTEX
  5
328
330
320
100
AcDbEntity
  8
Visible (ANSI)
100
AcDbVertex
100
AcDb2dVertex
 10
115.1687517472693
 20
31.42986663236723
 30
0.0
  0
VERTEX
  5
329
330
320
100
AcDbEntity
  8
Visible (ANSI)
100
AcDbVertex
100
AcDb2dVertex
 10
115.1691730533106
 20
31.43289947626489
 30
0.0
  0
VERTEX
  5
32A
330
320
100
AcDbEntity
  8
Visible (ANSI)
100
AcDbVertex
100
AcDb2dVertex
 10
115.1696542717182
 20
31.43593233189575
 30
0.0
  0
VERTEX
  5
32B
330
320
100
AcDbEntity
  8
Visible (ANSI)
100
AcDbVertex
100
AcDb2dVertex
 10
115.1701933421242
 20
31.43896517579341
 30
0.0
  0
VERTEX
  5
32C
330
320
100
AcDbEntity
  8
Visible (ANSI)
100
AcDbVertex
100
AcDb2dVertex
 10
115.1707879560218
 20
31.44199801969107
 30
0.0
  0
VERTEX
  5
32D
330
320
100
AcDbEntity
  8
Visible (ANSI)
100
AcDbVertex
100
AcDb2dVertex
 10
115.1714355669405
 20
31.44503087532193
 30
0.0
  0
VERTEX
  5
32E
330
320
100
AcDbEntity
  8
Visible (ANSI)
100
AcDbVertex
100
AcDb2dVertex
 10
115.1721334021791
 20
31.44806371921959
 30
0.0
  0
VERTEX
  5
32F
330
320
100
AcDbEntity
  8
Visible (ANSI)
100
AcDbVertex
100
AcDb2dVertex
 10
115.1728784734386
 20
31.45109656311726
 30
0.0
  0
VERTEX
  5
330
330
320
100
AcDbEntity
  8
Visible (ANSI)
100
AcDbVertex
100
AcDb2dVertex
 10
115.173667589656
 20
31.45412941874811
 30
0.0
  0
VERTEX
  5
331
330
320
100
AcDbEntity
  8
Visible (ANSI)
100
AcDbVertex
100
AcDb2dVertex
 10
115.174497372037
 20
31.45716226264578
 30
0.0
  0
VERTEX
  5
332
330
320
100
AcDbEntity
  8
Visible (ANSI)
100
AcDbVertex
100
AcDb2dVertex
 10
115.1753642683558
 20
31.46019510654344
 30
0.0
  0
VERTEX
  5
333
330
320
100
AcDbEntity
  8
Visible (ANSI)
100
AcDbVertex
100
AcDb2dVertex
 10
115.1762645646889
 20
31.4632279621743
 30
0.0
  0
VERTEX
  5
334
330
320
100
AcDbEntity
  8
Visible (ANSI)
100
AcDbVertex
100
AcDb2dVertex
 10
115.1771944066806
 20
31.46626080607197
 30
0.0
  0
VERTEX
  5
335
330
320
100
AcDbEntity
  8
Visible (ANSI)
100
AcDbVertex
100
AcDb2dVertex
 10
115.178149812377
 20
31.46929366170282
 30
0.0
  0
VERTEX
  5
336
330
320
100
AcDbEntity
  8
Visible (ANSI)
100
AcDbVertex
100
AcDb2dVertex
 10
115.1791266905587
 20
31.47232650560049
 30
0.0
  0
VERTEX
  5
337
330
320
100
AcDbEntity
  8
Visible (ANSI)
100
AcDbVertex
100
AcDb2dVertex
 10
115.180120859074
 20
31.47535934949815
 30
0.0
  0
VERTEX
  5
338
330
320
100
AcDbEntity
  8
Visible (ANSI)
100
AcDbVertex
100
AcDb2dVertex
 10
115.181128058772
 20
31.4783921933958
 30
0.0
  0
VERTEX
  5
339
330
320
100
AcDbEntity
  8
Visible (ANSI)
100
AcDbVertex
100
AcDb2dVertex
 10
115.1821439791694
 20
31.48142503729347
 30
0.0
  0
VERTEX
  5
33A
330
320
100
AcDbEntity
  8
Visible (ANSI)
100
AcDbVertex
100
AcDb2dVertex
 10
115.1831642687163
 20
31.48445788119113
 30
0.0
  0
SEQEND
  5
323
330
320
100
AcDbEntity
  8
Visible (ANSI)
  0
POLYLINE
  5
33B
330
6C
100
AcDbEntity
  8
Visible (ANSI)
100
AcDb2dPolyline
 66
     1
 10
0.0
 20
0.0
 30
0.0
 70
   128
  0
VERTEX
  5
33C
330
33B
100
AcDbEntity
  8
Visible (ANSI)
100
AcDbVertex
100
AcDb2dVertex
 10
115.1675642679955
 20
91.13047001656914
 30
0.0
  0
VERTEX
  5
33D
330
33B
100
AcDbEntity
  8
Visible (ANSI)
100
AcDbVertex
100
AcDb2dVertex
 10
115.1675976687916
 20
91.12743628094845
 30
0.0
  0
VERTEX
  5
33F
330
33B
100
AcDbEntity
  8
Visible (ANSI)
100
AcDbVertex
100
AcDb2dVertex
 10
115.1676977281589
 20
91.12440254532776
 30
0.0
  0
VERTEX
  5
340
330
33B
100
AcDbEntity
  8
Visible (ANSI)
100
AcDbVertex
100
AcDb2dVertex
 10
115.1678640176265
 20
91.12136880970705
 30
0.0
  0
VERTEX
  5
341
330
33B
100
AcDbEntity
  8
Visible (ANSI)
100
AcDbVertex
100
AcDb2dVertex
 10
115.1680958251215
 20
91.11834108148363
 30
0.0
  0
VERTEX
  5
342
330
33B
100
AcDbEntity
  8
Visible (ANSI)
100
AcDbVertex
100
AcDb2dVertex
 10
115.1683921579399
 20
91.11530734586294
 30
0.0
  0
VERTEX
  5
343
330
33B
100
AcDbEntity
  8
Visible (ANSI)
100
AcDbVertex
100
AcDb2dVertex
 10
115.1687517472693
 20
91.11227361024225
 30
0.0
  0
VERTEX
  5
344
330
33B
100
AcDbEntity
  8
Visible (ANSI)
100
AcDbVertex
100
AcDb2dVertex
 10
115.1691730533106
 20
91.10923987462156
 30
0.0
  0
VERTEX
  5
345
330
33B
100
AcDbEntity
  8
Visible (ANSI)
100
AcDbVertex
100
AcDb2dVertex
 10
115.1696542717182
 20
91.10620613900087
 30
0.0
  0
VERTEX
  5
346
330
33B
100
AcDbEntity
  8
Visible (ANSI)
100
AcDbVertex
100
AcDb2dVertex
 10
115.1701933421242
 20
91.10317240338018
 30
0.0
  0
VERTEX
  5
347
330
33B
100
AcDbEntity
  8
Visible (ANSI)
100
AcDbVertex
100
AcDb2dVertex
 10
115.1707879560218
 20
91.10013866775947
 30
0.0
  0
VERTEX
  5
348
330
33B
100
AcDbEntity
  8
Visible (ANSI)
100
AcDbVertex
100
AcDb2dVertex
 10
115.1714355669405
 20
91.09711093953604
 30
0.0
  0
VERTEX
  5
349
330
33B
100
AcDbEntity
  8
Visible (ANSI)
100
AcDbVertex
100
AcDb2dVertex
 10
115.1721334021791
 20
91.09407720391535
 30
0.0
  0
VERTEX
  5
34A
330
33B
100
AcDbEntity
  8
Visible (ANSI)
100
AcDbVertex
100
AcDb2dVertex
 10
115.1728784734386
 20
91.09104346829466
 30
0.0
  0
VERTEX
  5
34B
330
33B
100
AcDbEntity
  8
Visible (ANSI)
100
AcDbVertex
100
AcDb2dVertex
 10
115.173667589656
 20
91.08800973267397
 30
0.0
  0
VERTEX
  5
34C
330
33B
100
AcDbEntity
  8
Visible (ANSI)
100
AcDbVertex
100
AcDb2dVertex
 10
115.174497372037
 20
91.08497599705328
 30
0.0
  0
VERTEX
  5
34D
330
33B
100
AcDbEntity
  8
Visible (ANSI)
100
AcDbVertex
100
AcDb2dVertex
 10
115.1753642683558
 20
91.08194226143259
 30
0.0
  0
VERTEX
  5
34E
330
33B
100
AcDbEntity
  8
Visible (ANSI)
100
AcDbVertex
100
AcDb2dVertex
 10
115.1762645646889
 20
91.07890852581189
 30
0.0
  0
VERTEX
  5
34F
330
33B
100
AcDbEntity
  8
Visible (ANSI)
100
AcDbVertex
100
AcDb2dVertex
 10
115.1771944066806
 20
91.07588079758846
 30
0.0
  0
VERTEX
  5
350
330
33B
100
AcDbEntity
  8
Visible (ANSI)
100
AcDbVertex
100
AcDb2dVertex
 10
115.178149812377
 20
91.07284706196777
 30
0.0
  0
VERTEX
  5
351
330
33B
100
AcDbEntity
  8
Visible (ANSI)
100
AcDbVertex
100
AcDb2dVertex
 10
115.1791266905587
 20
91.06981332634708
 30
0.0
  0
VERTEX
  5
352
330
33B
100
AcDbEntity
  8
Visible (ANSI)
100
AcDbVertex
100
AcDb2dVertex
 10
115.180120859074
 20
91.06677959072637
 30
0.0
  0
VERTEX
  5
353
330
33B
100
AcDbEntity
  8
Visible (ANSI)
100
AcDbVertex
100
AcDb2dVertex
 10
115.181128058772
 20
91.06374585510568
 30
0.0
  0
VERTEX
  5
354
330
33B
100
AcDbEntity
  8
Visible (ANSI)
100
AcDbVertex
100
AcDb2dVertex
 10
115.1821439791694
 20
91.06071211948499
 30
0.0
  0
VERTEX
  5
355
330
33B
100
AcDbEntity
  8
Visible (ANSI)
100
AcDbVertex
100
AcDb2dVertex
 10
115.1831642687163
 20
91.05767838386428
 30
0.0
  0
SEQEND
  5
33E
330
33B
100
AcDbEntity
  8
Visible (ANSI)
  0
LINE
  5
356
330
6C
100
AcDbEntity
  8
Visible (ANSI)
100
AcDbLine
 10
115.1675642679955
 20
91.13046954520473
 30
0.0
 11
115.1368257666846
 21
91.13046954520475
 31
0.0
  0
LINE
  5
357
330
6C
100
AcDbEntity
  8
Visible (ANSI)
100
AcDbLine
 10
115.1368257666846
 20
91.13046954520475
 30
0.0
 11
115.0425642679955
 21
91.13046954520473
 31
0.0
  0
LINE
  5
358
330
6C
100
AcDbEntity
  8
Visible (ANSI)
100
AcDbLine
 10
115.1831642679954
 20
91.05768119755643
 30
0.0
 11
115.9175642679954
 21
91.05768119755643
 31
0.0
  0
POLYLINE
  5
359
330
6C
100
AcDbEntity
  8
Visible (ANSI)
100
AcDb2dPolyline
 66
     1
 10
0.0
 20
0.0
 30
0.0
 70
   128
  0
VERTEX
  5
35A
330
359
100
AcDbEntity
  8
Visible (ANSI)
100
AcDbVertex
100
AcDb2dVertex
 10
115.1831642687162
 20
91.27106714224582
 30
0.0
  0
VERTEX
  5
35B
330
359
100
AcDbEntity
  8
Visible (ANSI)
100
AcDbVertex
100
AcDb2dVertex
 10
115.1739685883455
 20
91.27076677238239
 30
0.0
  0
VERTEX
  5
35D
330
359
100
AcDbEntity
  8
Visible (ANSI)
100
AcDbVertex
100
AcDb2dVertex
 10
115.1648122853199
 20
91.26986566279207
 30
0.0
  0
VERTEX
  5
35E
330
359
100
AcDbEntity
  8
Visible (ANSI)
100
AcDbVertex
100
AcDb2dVertex
 10
115.1557345690531
 20
91.26836982087217
 30
0.0
  0
VERTEX
  5
35F
330
359
100
AcDbEntity
  8
Visible (ANSI)
100
AcDbVertex
100
AcDb2dVertex
 10
115.1467743101628
 20
91.26627924662265
 30
0.0
  0
VERTEX
  5
360
330
359
100
AcDbEntity
  8
Visible (ANSI)
100
AcDbVertex
100
AcDb2dVertex
 10
115.1379698784057
 20
91.26360595483809
 30
0.0
  0
VERTEX
  5
361
330
359
100
AcDbEntity
  8
Visible (ANSI)
100
AcDbVertex
100
AcDb2dVertex
 10
115.1293589784128
 20
91.26036796771026
 30
0.0
  0
VERTEX
  5
362
330
359
100
AcDbEntity
  8
Visible (ANSI)
100
AcDbVertex
100
AcDb2dVertex
 10
115.1209784773585
 20
91.25657129263643
 30
0.0
  0
VERTEX
  5
363
330
359
100
AcDbEntity
  8
Visible (ANSI)
100
AcDbVertex
100
AcDb2dVertex
 10
115.1128642700278
 20
91.25223395180844
 30
0.0
  0
VERTEX
  5
364
330
359
100
AcDbEntity
  8
Visible (ANSI)
100
AcDbVertex
100
AcDb2dVertex
 10
115.105051092553
 20
91.24737396741805
 30
0.0
  0
VERTEX
  5
365
330
359
100
AcDbEntity
  8
Visible (ANSI)
100
AcDbVertex
100
AcDb2dVertex
 10
115.0975724109473
 20
91.24201536905438
 30
0.0
  0
VERTEX
  5
366
330
359
100
AcDbEntity
  8
Visible (ANSI)
100
AcDbVertex
100
AcDb2dVertex
 10
115.0904602451077
 20
91.2361761789092
 30
0.0
  0
VERTEX
  5
367
330
359
100
AcDbEntity
  8
Visible (ANSI)
100
AcDbVertex
100
AcDb2dVertex
 10
115.0837450544155
 20
91.22988643396888
 30
0.0
  0
VERTEX
  5
368
330
359
100
AcDbEntity
  8
Visible (ANSI)
100
AcDbVertex
100
AcDb2dVertex
 10
115.0774555910719
 20
91.22317617121973
 30
0.0
  0
VERTEX
  5
369
330
359
100
AcDbEntity
  8
Visible (ANSI)
100
AcDbVertex
100
AcDb2dVertex
 10
115.0716187886325
 20
91.2160634128536
 30
0.0
  0
VERTEX
  5
36A
330
359
100
AcDbEntity
  8
Visible (ANSI)
100
AcDbVertex
100
AcDb2dVertex
 10
115.0662596388085
 20
91.20858420325406
 30
0.0
  0
VERTEX
  5
36B
330
359
100
AcDbEntity
  8
Visible (ANSI)
100
AcDbVertex
100
AcDb2dVertex
 10
115.0614010976014
 20
91.20076857940748
 30
0.0
  0
VERTEX
  5
36C
330
359
100
AcDbEntity
  8
Visible (ANSI)
100
AcDbVertex
100
AcDb2dVertex
 10
115.0570639562378
 20
91.19265258569747
 30
0.0
  0
VERTEX
  5
36D
330
359
100
AcDbEntity
  8
Visible (ANSI)
100
AcDbVertex
100
AcDb2dVertex
 10
115.0532668001029
 20
91.18427226650764
 30
0.0
  0
VERTEX
  5
36E
330
359
100
AcDbEntity
  8
Visible (ANSI)
100
AcDbVertex
100
AcDb2dVertex
 10
115.0500258914088
 20
91.17566366622158
 30
0.0
  0
VERTEX
  5
36F
330
359
100
AcDbEntity
  8
Visible (ANSI)
100
AcDbVertex
100
AcDb2dVertex
 10
115.0473550987954
 20
91.16685682182566
 30
0.0
  0
VERTEX
  5
370
330
359
100
AcDbEntity
  8
Visible (ANSI)
100
AcDbVertex
100
AcDb2dVertex
 10
115.0452658621304
 20
91.15789979249802
 30
0.0
  0
VERTEX
  5
371
330
359
100
AcDbEntity
  8
Visible (ANSI)
100
AcDbVertex
100
AcDb2dVertex
 10
115.0437671221106
 20
91.14882261522502
 30
0.0
  0
VERTEX
  5
372
330
359
100
AcDbEntity
  8
Visible (ANSI)
100
AcDbVertex
100
AcDb2dVertex
 10
115.0428653085285
 20
91.13966734178752
 30
0.0
  0
VERTEX
  5
373
330
359
100
AcDbEntity
  8
Visible (ANSI)
100
AcDbVertex
100
AcDb2dVertex
 10
115.0425642698728
 20
91.13047001656914
 30
0.0
  0
SEQEND
  5
35C
330
359
100
AcDbEntity
  8
Visible (ANSI)
  0
LINE
  5
374
330
6C
100
AcDbEntity
  8
Visible (ANSI)
100
AcDbLine
 10
115.1831642679954
 20
91.14606954520475
 30
0.0
 11
115.9175642679955
 21
91.14606954520478
 31
0.0
  0
LINE
  5
375
330
6C
100
AcDbEntity
  8
Visible (ANSI)
100
AcDbLine
 10
115.9175642679954
 20
91.27106954520479
 30
0.0
 11
115.1831642679954
 21
91.27106954520474
 31
0.0
  0
LINE
  5
376
330
6C
100
AcDbEntity
  8
Visible (ANSI)
100
AcDbLine
 10
115.1831642679954
 20
91.14606954520475
 30
0.0
 11
115.1831642679954
 21
91.27106954520474
 31
0.0
  0
LINE
  5
377
330
6C
100
AcDbEntity
  8
Visible (ANSI)
100
AcDbLine
 10
115.9175642679955
 20
91.14606954520478
 30
0.0
 11
115.9175642679954
 21
91.27106954520479
 31
0.0
  0
POLYLINE
  5
378
330
6C
100
AcDbEntity
  8
Visible (ANSI)
100
AcDb2dPolyline
 66
     1
 10
0.0
 20
0.0
 30
0.0
 70
   128
  0
VERTEX
  5
379
330
378
100
AcDbEntity
  8
Visible (ANSI)
100
AcDbVertex
100
AcDb2dVertex
 10
115.1675642679955
 20
91.13047001656914
 30
0.0
  0
VERTEX
  5
37A
330
378
100
AcDbEntity
  8
Visible (ANSI)
100
AcDbVertex
100
AcDb2dVertex
 10
115.1675976687916
 20
91.13149127410482
 30
0.0
  0
VERTEX
  5
37C
330
378
100
AcDbEntity
  8
Visible (ANSI)
100
AcDbVertex
100
AcDb2dVertex
 10
115.1676977281589
 20
91.13250652424323
 30
0.0
  0
VERTEX
  5
37D
330
378
100
AcDbEntity
  8
Visible (ANSI)
100
AcDbVertex
100
AcDb2dVertex
 10
115.1678640176264
 20
91.13351576698438
 30
0.0
  0
VERTEX
  5
37E
330
378
100
AcDbEntity
  8
Visible (ANSI)
100
AcDbVertex
100
AcDb2dVertex
 10
115.1680958251215
 20
91.13450698753371
 30
0.0
  0
VERTEX
  5
37F
330
378
100
AcDbEntity
  8
Visible (ANSI)
100
AcDbVertex
100
AcDb2dVertex
 10
115.1683921579399
 20
91.13548619328851
 30
0.0
  0
VERTEX
  5
380
330
378
100
AcDbEntity
  8
Visible (ANSI)
100
AcDbVertex
100
AcDb2dVertex
 10
115.1687517472693
 20
91.13644136945422
 30
0.0
  0
VERTEX
  5
381
330
378
100
AcDbEntity
  8
Visible (ANSI)
100
AcDbVertex
100
AcDb2dVertex
 10
115.1691730533106
 20
91.13736650863362
 30
0.0
  0
VERTEX
  5
382
330
378
100
AcDbEntity
  8
Visible (ANSI)
100
AcDbVertex
100
AcDb2dVertex
 10
115.1696542717182
 20
91.13826761822393
 30
0.0
  0
VERTEX
  5
383
330
378
100
AcDbEntity
  8
Visible (ANSI)
100
AcDbVertex
100
AcDb2dVertex
 10
115.1701933421241
 20
91.13913869082788
 30
0.0
  0
VERTEX
  5
384
330
378
100
AcDbEntity
  8
Visible (ANSI)
100
AcDbVertex
100
AcDb2dVertex
 10
115.1707879560218
 20
91.13996771165096
 30
0.0
  0
VERTEX
  5
385
330
378
100
AcDbEntity
  8
Visible (ANSI)
100
AcDbVertex
100
AcDb2dVertex
 10
115.1714355669405
 20
91.14075468069316
 30
0.0
  0
VERTEX
  5
386
330
378
100
AcDbEntity
  8
Visible (ANSI)
100
AcDbVertex
100
AcDb2dVertex
 10
115.1721334021791
 20
91.14149959795447
 30
0.0
  0
VERTEX
  5
387
330
378
100
AcDbEntity
  8
Visible (ANSI)
100
AcDbVertex
100
AcDb2dVertex
 10
115.1728784734386
 20
91.14219645603766
 30
0.0
  0
VERTEX
  5
388
330
378
100
AcDbEntity
  8
Visible (ANSI)
100
AcDbVertex
100
AcDb2dVertex
 10
115.173667589656
 20
91.14284525494268
 30
0.0
  0
VERTEX
  5
389
330
378
100
AcDbEntity
  8
Visible (ANSI)
100
AcDbVertex
100
AcDb2dVertex
 10
115.174497372037
 20
91.14343998727227
 30
0.0
  0
VERTEX
  5
38A
330
378
100
AcDbEntity
  8
Visible (ANSI)
100
AcDbVertex
100
AcDb2dVertex
 10
115.1753642683558
 20
91.14398065302644
 30
0.0
  0
VERTEX
  5
38B
330
378
100
AcDbEntity
  8
Visible (ANSI)
100
AcDbVertex
100
AcDb2dVertex
 10
115.1762645646889
 20
91.14446124480796
 30
0.0
  0
VERTEX
  5
38C
330
378
100
AcDbEntity
  8
Visible (ANSI)
100
AcDbVertex
100
AcDb2dVertex
 10
115.1771944066806
 20
91.14488176261676
 30
0.0
  0
VERTEX
  5
38D
330
378
100
AcDbEntity
  8
Visible (ANSI)
100
AcDbVertex
100
AcDb2dVertex
 10
115.178149812377
 20
91.14524220645288
 30
0.0
  0
VERTEX
  5
38E
330
378
100
AcDbEntity
  8
Visible (ANSI)
100
AcDbVertex
100
AcDb2dVertex
 10
115.1791266905587
 20
91.14553656891905
 30
0.0
  0
VERTEX
  5
38F
330
378
100
AcDbEntity
  8
Visible (ANSI)
100
AcDbVertex
100
AcDb2dVertex
 10
115.1801208590739
 20
91.14577085741251
 30
0.0
  0
VERTEX
  5
390
330
378
100
AcDbEntity
  8
Visible (ANSI)
100
AcDbVertex
100
AcDb2dVertex
 10
115.181128058772
 20
91.14593906453604
 30
0.0
  0
VERTEX
  5
391
330
378
100
AcDbEntity
  8
Visible (ANSI)
100
AcDbVertex
100
AcDb2dVertex
 10
115.1821439791694
 20
91.14603518289234
 30
0.0
  0
VERTEX
  5
392
330
378
100
AcDbEntity
  8
Visible (ANSI)
100
AcDbVertex
100
AcDb2dVertex
 10
115.1831642687162
 20
91.14607122727596
 30
0.0
  0
SEQEND
  5
37B
330
378
100
AcDbEntity
  8
Visible (ANSI)
  0
POLYLINE
  5
393
330
6C
100
AcDbEntity
  8
Visible (ANSI)
100
AcDb2dPolyline
 66
     1
 10
0.0
 20
0.0
 30
0.0
 70
   128
  0
VERTEX
  5
394
330
393
100
AcDbEntity
  8
Visible (ANSI)
100
AcDbVertex
100
AcDb2dVertex
 10
115.0425642698728
 20
31.41166954551487
 30
0.0
  0
VERTEX
  5
395
330
393
100
AcDbEntity
  8
Visible (ANSI)
100
AcDbVertex
100
AcDb2dVertex
 10
115.0428653085285
 20
31.40247386294417
 30
0.0
  0
VERTEX
  5
397
330
393
100
AcDbEntity
  8
Visible (ANSI)
100
AcDbVertex
100
AcDb2dVertex
 10
115.0437671221106
 20
31.39331755698527
 30
0.0
  0
VERTEX
  5
398
330
393
100
AcDbEntity
  8
Visible (ANSI)
100
AcDbVertex
100
AcDb2dVertex
 10
115.0452658621304
 20
31.38423985171836
 30
0.0
  0
VERTEX
  5
399
330
393
100
AcDbEntity
  8
Visible (ANSI)
100
AcDbVertex
100
AcDb2dVertex
 10
115.0473550987954
 20
31.37527958402813
 30
0.0
  0
VERTEX
  5
39A
330
393
100
AcDbEntity
  8
Visible (ANSI)
100
AcDbVertex
100
AcDb2dVertex
 10
115.0500258914088
 20
31.36647515667096
 30
0.0
  0
VERTEX
  5
39B
330
393
100
AcDbEntity
  8
Visible (ANSI)
100
AcDbVertex
100
AcDb2dVertex
 10
115.0532668001029
 20
31.35786425667815
 30
0.0
  0
VERTEX
  5
39C
330
393
100
AcDbEntity
  8
Visible (ANSI)
100
AcDbVertex
100
AcDb2dVertex
 10
115.0570639562378
 20
31.34948375562375
 30
0.0
  0
VERTEX
  5
39D
330
393
100
AcDbEntity
  8
Visible (ANSI)
100
AcDbVertex
100
AcDb2dVertex
 10
115.0614010976014
 20
31.34136954535979
 30
0.0
  0
VERTEX
  5
39E
330
393
100
AcDbEntity
  8
Visible (ANSI)
100
AcDbVertex
100
AcDb2dVertex
 10
115.0662596388085
 20
31.33355636788496
 30
0.0
  0
VERTEX
  5
39F
330
393
100
AcDbEntity
  8
Visible (ANSI)
100
AcDbVertex
100
AcDb2dVertex
 10
115.0716187886325
 20
31.32607768627933
 30
0.0
  0
VERTEX
  5
3A0
330
393
100
AcDbEntity
  8
Visible (ANSI)
100
AcDbVertex
100
AcDb2dVertex
 10
115.0774555910719
 20
31.31896552337297
 30
0.0
  0
VERTEX
  5
3A1
330
393
100
AcDbEntity
  8
Visible (ANSI)
100
AcDbVertex
100
AcDb2dVertex
 10
115.0837450544155
 20
31.31225033268076
 30
0.0
  0
VERTEX
  5
3A2
330
393
100
AcDbEntity
  8
Visible (ANSI)
100
AcDbVertex
100
AcDb2dVertex
 10
115.0904602451077
 20
31.30596086933718
 30
0.0
  0
VERTEX
  5
3A3
330
393
100
AcDbEntity
  8
Visible (ANSI)
100
AcDbVertex
100
AcDb2dVertex
 10
115.0975724109473
 20
31.30012406689775
 30
0.0
  0
VERTEX
  5
3A4
330
393
100
AcDbEntity
  8
Visible (ANSI)
100
AcDbVertex
100
AcDb2dVertex
 10
115.105051092553
 20
31.29476491707377
 30
0.0
  0
VERTEX
  5
3A5
330
393
100
AcDbEntity
  8
Visible (ANSI)
100
AcDbVertex
100
AcDb2dVertex
 10
115.1128642700278
 20
31.28990637293342
 30
0.0
  0
VERTEX
  5
3A6
330
393
100
AcDbEntity
  8
Visible (ANSI)
100
AcDbVertex
100
AcDb2dVertex
 10
115.1209784773585
 20
31.28556923743639
 30
0.0
  0
VERTEX
  5
3A7
330
393
100
AcDbEntity
  8
Visible (ANSI)
100
AcDbVertex
100
AcDb2dVertex
 10
115.1293589784128
 20
31.2817720827681
 30
0.0
  0
VERTEX
  5
3A8
330
393
100
AcDbEntity
  8
Visible (ANSI)
100
AcDbVertex
100
AcDb2dVertex
 10
115.1379698784057
 20
31.27853116894075
 30
0.0
  0
VERTEX
  5
3A9
330
393
100
AcDbEntity
  8
Visible (ANSI)
100
AcDbVertex
100
AcDb2dVertex
 10
115.1467743101628
 20
31.27586037412733
 30
0.0
  0
VERTEX
  5
3AA
330
393
100
AcDbEntity
  8
Visible (ANSI)
100
AcDbVertex
100
AcDb2dVertex
 10
115.1557345690531
 20
31.2737711347124
 30
0.0
  0
VERTEX
  5
3AB
330
393
100
AcDbEntity
  8
Visible (ANSI)
100
AcDbVertex
100
AcDb2dVertex
 10
115.1648122853199
 20
31.27227239771761
 30
0.0
  0
VERTEX
  5
3AC
330
393
100
AcDbEntity
  8
Visible (ANSI)
100
AcDbVertex
100
AcDb2dVertex
 10
115.1739685883455
 20
31.27137058060631
 30
0.0
  0
VERTEX
  5
3AD
330
393
100
AcDbEntity
  8
Visible (ANSI)
100
AcDbVertex
100
AcDb2dVertex
 10
115.1831642687162
 20
31.27106954520473
 30
0.0
  0
SEQEND
  5
396
330
393
100
AcDbEntity
  8
Visible (ANSI)
  0
LINE
  5
3AE
330
6C
100
AcDbEntity
  8
Visible (ANSI)
100
AcDbLine
 10
115.1831642679954
 20
31.39606954520473
 30
0.0
 11
115.9175642679954
 21
31.39606954520473
 31
0.0
  0
LINE
  5
3AF
330
6C
100
AcDbEntity
  8
Visible (ANSI)
100
AcDbLine
 10
115.1831642679954
 20
31.39606954520473
 30
0.0
 11
115.1831642679954
 21
31.27106954520473
 31
0.0
  0
POLYLINE
  5
3B0
330
6C
100
AcDbEntity
  8
Visible (ANSI)
100
AcDb2dPolyline
 66
     1
 10
0.0
 20
0.0
 30
0.0
 70
   128
  0
VERTEX
  5
3B1
330
3B0
100
AcDbEntity
  8
Visible (ANSI)
100
AcDbVertex
100
AcDb2dVertex
 10
115.1675642679955
 20
31.41166954551487
 30
0.0
  0
VERTEX
  5
3B2
330
3B0
100
AcDbEntity
  8
Visible (ANSI)
100
AcDbVertex
100
AcDb2dVertex
 10
115.1675976687916
 20
31.4106492618346
 30
0.0
  0
VERTEX
  5
3B4
330
3B0
100
AcDbEntity
  8
Visible (ANSI)
100
AcDbVertex
100
AcDb2dVertex
 10
115.1676977281589
 20
31.40963333117072
 30
0.0
  0
VERTEX
  5
3B5
330
3B0
100
AcDbEntity
  8
Visible (ANSI)
100
AcDbVertex
100
AcDb2dVertex
 10
115.1678640176264
 20
31.40862614173919
 30
0.0
  0
VERTEX
  5
3B6
330
3B0
100
AcDbEntity
  8
Visible (ANSI)
100
AcDbVertex
100
AcDb2dVertex
 10
115.1680958251215
 20
31.40763196442401
 30
0.0
  0
VERTEX
  5
3B7
330
3B0
100
AcDbEntity
  8
Visible (ANSI)
100
AcDbVertex
100
AcDb2dVertex
 10
115.1683921579399
 20
31.40665509357557
 30
0.0
  0
VERTEX
  5
3B8
330
3B0
100
AcDbEntity
  8
Visible (ANSI)
100
AcDbVertex
100
AcDb2dVertex
 10
115.1687517472693
 20
31.4056996827459
 30
0.0
  0
VERTEX
  5
3B9
330
3B0
100
AcDbEntity
  8
Visible (ANSI)
100
AcDbVertex
100
AcDb2dVertex
 10
115.1691730533106
 20
31.4047698385542
 30
0.0
  0
VERTEX
  5
3BA
330
3B0
100
AcDbEntity
  8
Visible (ANSI)
100
AcDbVertex
100
AcDb2dVertex
 10
115.1696542717182
 20
31.40386955028774
 30
0.0
  0
VERTEX
  5
3BB
330
3B0
100
AcDbEntity
  8
Visible (ANSI)
100
AcDbVertex
100
AcDb2dVertex
 10
115.1701933421241
 20
31.40300265470219
 30
0.0
  0
VERTEX
  5
3BC
330
3B0
100
AcDbEntity
  8
Visible (ANSI)
100
AcDbVertex
100
AcDb2dVertex
 10
115.1707879560218
 20
31.40217287122125
 30
0.0
  0
VERTEX
  5
3BD
330
3B0
100
AcDbEntity
  8
Visible (ANSI)
100
AcDbVertex
100
AcDb2dVertex
 10
115.1714355669405
 20
31.40138375500386
 30
0.0
  0
VERTEX
  5
3BE
330
3B0
100
AcDbEntity
  8
Visible (ANSI)
100
AcDbVertex
100
AcDb2dVertex
 10
115.1721334021791
 20
31.40063868521097
 30
0.0
  0
VERTEX
  5
3BF
330
3B0
100
AcDbEntity
  8
Visible (ANSI)
100
AcDbVertex
100
AcDb2dVertex
 10
115.1728784734386
 20
31.39994084153919
 30
0.0
  0
VERTEX
  5
3C0
330
3B0
100
AcDbEntity
  8
Visible (ANSI)
100
AcDbVertex
100
AcDb2dVertex
 10
115.173667589656
 20
31.39929322768714
 30
0.0
  0
VERTEX
  5
3C1
330
3B0
100
AcDbEntity
  8
Visible (ANSI)
100
AcDbVertex
100
AcDb2dVertex
 10
115.174497372037
 20
31.39869862442272
 30
0.0
  0
VERTEX
  5
3C2
330
3B0
100
AcDbEntity
  8
Visible (ANSI)
100
AcDbVertex
100
AcDb2dVertex
 10
115.1753642683558
 20
31.39815955438344
 30
0.0
  0
VERTEX
  5
3C3
330
3B0
100
AcDbEntity
  8
Visible (ANSI)
100
AcDbVertex
100
AcDb2dVertex
 10
115.1762645646889
 20
31.39767832900926
 30
0.0
  0
VERTEX
  5
3C4
330
3B0
100
AcDbEntity
  8
Visible (ANSI)
100
AcDbVertex
100
AcDb2dVertex
 10
115.1771944066806
 20
31.39725702507619
 30
0.0
  0
VERTEX
  5
3C5
330
3B0
100
AcDbEntity
  8
Visible (ANSI)
100
AcDbVertex
100
AcDb2dVertex
 10
115.178149812377
 20
31.39689743776351
 30
0.0
  0
VERTEX
  5
3C6
330
3B0
100
AcDbEntity
  8
Visible (ANSI)
100
AcDbVertex
100
AcDb2dVertex
 10
115.1791266905587
 20
31.39660110412012
 30
0.0
  0
VERTEX
  5
3C7
330
3B0
100
AcDbEntity
  8
Visible (ANSI)
100
AcDbVertex
100
AcDb2dVertex
 10
115.1801208590739
 20
31.39636929133137
 30
0.0
  0
VERTEX
  5
3C8
330
3B0
100
AcDbEntity
  8
Visible (ANSI)
100
AcDbVertex
100
AcDb2dVertex
 10
115.181128058772
 20
31.39620300845229
 30
0.0
  0
VERTEX
  5
3C9
330
3B0
100
AcDbEntity
  8
Visible (ANSI)
100
AcDbVertex
100
AcDb2dVertex
 10
115.1821439791694
 20
31.39610294774153
 30
0.0
  0
VERTEX
  5
3CA
330
3B0
100
AcDbEntity
  8
Visible (ANSI)
100
AcDbVertex
100
AcDb2dVertex
 10
115.1831642687162
 20
31.39606954332742
 30
0.0
  0
SEQEND
  5
3B3
330
3B0
100
AcDbEntity
  8
Visible (ANSI)
  0
LINE
  5
3CB
330
6C
100
AcDbEntity
  8
Visible (ANSI)
100
AcDbLine
 10
115.1831642679954
 20
31.27106954520473
 30
0.0
 11
115.9175642679954
 21
31.27106954520473
 31
0.0
  0
LINE
  5
3CC
330
6C
100
AcDbEntity
  8
Visible (ANSI)
100
AcDbLine
 10
115.9175642679954
 20
31.39606954520473
 30
0.0
 11
115.9175642679954
 21
31.27106954520473
 31
0.0
  0
LINE
  5
3CD
330
6C
100
AcDbEntity
  8
Visible (ANSI)
100
AcDbLine
 10
115.0425642679955
 20
31.41166954520473
 30
0.0
 11
115.0425642679955
 21
91.13046954520473
 31
0.0
  0
LINE
  5
3CE
330
6C
100
AcDbEntity
  8
Hidden (ANSI)
 48
1.094376325607299
100
AcDbLine
 10
115.1675642679955
 20
91.13046954520473
 30
0.0
 11
115.1675642679955
 21
31.41166954520473
 31
0.0
  0
LINE
  5
3CF
330
6C
100
AcDbEntity
  8
Visible (ANSI)
100
AcDbLine
 10
115.9175642679954
 20
91.05768119755643
 30
0.0
 11
115.9175642679955
 21
31.48445789285304
 31
0.0
  0
LINE
  5
3D0
330
6C
100
AcDbEntity
  8
Hidden (ANSI)
 48
0.0197405889630318
100
AcDbLine
 10
115.1675642679952
 20
60.98956954520475
 30
0.0
 11
115.0425642679952
 21
60.98956954520475
 31
0.0
  0
LINE
  5
3D1
330
6C
100
AcDbEntity
  8
Hidden (ANSI)
 48
0.0197405889630318
100
AcDbLine
 10
115.1675642679952
 20
61.55256954520475
 30
0.0
 11
115.0425642679952
 21
61.55256954520475
 31
0.0
  0
LINE
  5
3D2
330
6C
100
AcDbEntity
  8
Hidden (ANSI)
 48
0.0197405889630318
100
AcDbLine
 10
115.1675642679952
 20
90.11456954520468
 30
0.0
 11
115.0425642679952
 21
90.11456954520468
 31
0.0
  0
LINE
  5
3D3
330
6C
100
AcDbEntity
  8
Hidden (ANSI)
 48
0.0197405889630318
100
AcDbLine
 10
115.1675642679952
 20
90.6775695452047
 30
0.0
 11
115.0425642679952
 21
90.6775695452047
 31
0.0
  0
LINE
  5
3D4
330
6C
100
AcDbEntity
  8
Hidden (ANSI)
 48
0.0197405889630318
100
AcDbLine
 10
115.1675642679952
 20
31.86456954520473
 30
0.0
 11
115.0425642679952
 21
31.86456954520473
 31
0.0
  0
LINE
  5
3D5
330
6C
100
AcDbEntity
  8
Hidden (ANSI)
 48
0.0197405889630318
100
AcDbLine
 10
115.1675642679952
 20
32.42756954520473
 30
0.0
 11
115.0425642679952
 21
32.42756954520473
 31
0.0
  0
MTEXT
  5
3D6
330
6C
100
AcDbEntity
  8
Symbol (ANSI)
100
AcDbMText
 10
111.1821190766443
 20
25.34275640630226
 30
0.0
 40
1.440000017796914
 41
0.0
 46
0.0
 71
     7
 72
     1
  1
SIDE VIEW
  7
Text Style153
 73
     1
 44
1.0
  0
LINE
  5
3D7
330
6C
100
AcDbEntity
  8
Symbol (ANSI)
370
    30
100
AcDbLine
 10
111.1083908869889
 20
25.04442901232577
 30
0.0
 11
120.8394767318549
 21
25.04442901232577
 31
0.0
  0
ELLIPSE
  5
3D8
330
6C
100
AcDbEntity
  8
Visible (ANSI)
100
AcDbEllipse
 10
159.8923513468319
 20
37.27553172038572
 30
0.0
 11
-0.1404775675610101
 21
0.2439432372748665
 31
0.0
210
0.0
220
0.0
230
0.9999999999999998
 40
0.5780931159158092
 41
0.0
 42
6.283185307179586
  0
ELLIPSE
  5
3D9
330
6C
100
AcDbEntity
  8
Visible (ANSI)
100
AcDbEllipse
 10
159.9807396944802
 20
37.32643118460977
 30
0.0
 11
-0.1404775675610103
 21
0.2439432372748667
 31
0.0
210
0.0
220
0.0
230
0.9999999999999998
 40
0.5780931159158092
 41
0.3187556839589368
 42
2.822836969631009
  0
ELLIPSE
  5
3DA
330
6C
100
AcDbEntity
  8
Visible (ANSI)
100
AcDbEllipse
 10
159.8923513468321
 20
84.89765174246349
 30
0.0
 11
-0.1404775675610101
 21
0.2439432372748665
 31
0.0
210
0.0
220
0.0
230
0.9999999999999998
 40
0.5780931159158092
 41
0.0
 42
6.283185307179586
  0
ELLIPSE
  5
3DB
330
6C
100
AcDbEntity
  8
Visible (ANSI)
100
AcDbEllipse
 10
159.9807396944804
 20
84.94855120668754
 30
0.0
 11
-0.1404775675610101
 21
0.2439432372748664
 31
0.0
210
0.0
220
0.0
230
0.9999999999999998
 40
0.578093115915809
 41
0.318755683958905
 42
2.822836969630805
  0
ELLIPSE
  5
3DC
330
6C
100
AcDbEntity
  8
Visible (ANSI)
100
AcDbEllipse
 10
183.3152634736398
 20
47.59823371205544
 30
0.0
 11
-0.1404775675610101
 21
0.2439432372748665
 31
0.0
210
0.0
220
0.0
230
0.9999999999999998
 40
0.5780931159158092
 41
0.0
 42
6.283185307179586
  0
ELLIPSE
  5
3DD
330
6C
100
AcDbEntity
  8
Visible (ANSI)
100
AcDbEllipse
 10
183.4036518212881
 20
47.64913317627948
 30
0.0
 11
-0.1404775675610101
 21
0.2439432372748664
 31
0.0
210
0.0
220
0.0
230
0.9999999999999998
 40
0.578093115915809
 41
0.3187556839589369
 42
2.822836969631026
  0
ELLIPSE
  5
3DE
330
6C
100
AcDbEntity
  8
Visible (ANSI)
100
AcDbEllipse
 10
136.4694392200241
 20
74.57494975079382
 30
0.0
 11
-0.1404775675610101
 21
0.2439432372748665
 31
0.0
210
0.0
220
0.0
230
0.9999999999999998
 40
0.5780931159158092
 41
0.0
 42
6.283185307179586
  0
ELLIPSE
  5
3DF
330
6C
100
AcDbEntity
  8
Visible (ANSI)
100
AcDbEllipse
 10
136.5578275676724
 20
74.62584921501788
 30
0.0
 11
-0.1404775675610101
 21
0.2439432372748663
 31
0.0
210
0.0
220
0.0
230
1.0
 40
0.5780931159158092
 41
0.3187556839589364
 42
2.822836969630821
  0
ELLIPSE
  5
3E0
330
6C
100
AcDbEntity
  8
Visible (ANSI)
100
AcDbEllipse
 10
183.3152634736399
 20
71.40929372309429
 30
0.0
 11
-0.1404775675610101
 21
0.2439432372748665
 31
0.0
210
0.0
220
0.0
230
0.9999999999999998
 40
0.5780931159158092
 41
0.0
 42
6.283185307179586
  0
ELLIPSE
  5
3E1
330
6C
100
AcDbEntity
  8
Visible (ANSI)
100
AcDbEllipse
 10
183.4036518212882
 20
71.46019318731834
 30
0.0
 11
-0.1404775675610101
 21
0.2439432372748664
 31
0.0
210
0.0
220
0.0
230
0.9999999999999998
 40
0.578093115915809
 41
0.3187556839589369
 42
2.822836969631026
  0
ELLIPSE
  5
3E2
330
6C
100
AcDbEntity
  8
Visible (ANSI)
100
AcDbEllipse
 10
136.4694392200242
 20
98.3860097618327
 30
0.0
 11
-0.1404775675610101
 21
0.2439432372748665
 31
0.0
210
0.0
220
0.0
230
0.9999999999999998
 40
0.5780931159158092
 41
0.0
 42
6.283185307179586
  0
ELLIPSE
  5
3E3
330
6C
100
AcDbEntity
  8
Visible (ANSI)
100
AcDbEllipse
 10
136.5578275676725
 20
98.43690922605674
 30
0.0
 11
-0.1404775675610082
 21
0.2439432372748632
 31
0.0
210
0.0
220
0.0
230
0.9999999999999998
 40
0.5780931159158092
 41
0.3187556839589693
 42
2.822836969630837
  0
ELLIPSE
  5
3E4
330
6C
100
AcDbEntity
  8
Visible (ANSI)
100
AcDbEllipse
 10
136.4694392200241
 20
50.76388973975494
 30
0.0
 11
-0.1404775675610101
 21
0.2439432372748665
 31
0.0
210
0.0
220
0.0
230
0.9999999999999998
 40
0.5780931159158092
 41
0.0
 42
6.283185307179586
  0
ELLIPSE
  5
3E5
330
6C
100
AcDbEntity
  8
Visible (ANSI)
100
AcDbEllipse
 10
136.5578275676724
 20
50.81478920397898
 30
0.0
 11
-0.1404775675610101
 21
0.2439432372748664
 31
0.0
210
0.0
220
0.0
230
1.0
 40
0.5780931159158093
 41
0.318755683958936
 42
2.82283696963082
  0
ELLIPSE
  5
3E6
330
6C
100
AcDbEntity
  8
Visible (ANSI)
100
AcDbEllipse
 10
183.3152634736397
 20
23.78717370101655
 30
0.0
 11
-0.1404775675610101
 21
0.2439432372748665
 31
0.0
210
0.0
220
0.0
230
0.9999999999999998
 40
0.5780931159158092
 41
0.0
 42
6.283185307179586
  0
ELLIPSE
  5
3E7
330
6C
100
AcDbEntity
  8
Visible (ANSI)
100
AcDbEllipse
 10
183.403651821288
 20
23.83807316524059
 30
0.0
 11
-0.1404775675610109
 21
0.2439432372748678
 31
0.0
210
0.0
220
0.0
230
0.9999999999999998
 40
0.5780931159158093
 41
0.3187556839589201
 42
2.822836969631008
  0
LINE
  5
3E8
330
6C
100
AcDbEntity
  8
Visible Narrow (ANSI)
100
AcDbLine
 10
184.033401120613
 20
71.6511478950277
 30
0.0
 11
184.0334011206129
 21
22.94723046466504
 31
0.0
  0
LINE
  5
3E9
330
6C
100
AcDbEntity
  8
Visible Narrow (ANSI)
100
AcDbLine
 10
183.8345626937432
 20
22.88772256032313
 30
0.0
 11
183.8345626937434
 21
71.71065579936962
 31
0.0
  0
LINE
  5
3EA
330
6C
100
AcDbEntity
  8
Visible Narrow (ANSI)
100
AcDbLine
 10
136.101028347569
 20
99.42802064246174
 30
0.0
 11
183.8825127729647
 21
71.91249374565813
 31
0.0
  0
LINE
  5
3EB
330
6C
100
AcDbEntity
  8
Visible Narrow (ANSI)
100
AcDbLine
 10
183.8345626937434
 20
71.71065579936962
 30
0.0
 11
135.9501399999207
 21
99.28546090252611
 31
0.0
  0
LINE
  5
3EC
330
6C
100
AcDbEntity
  8
Visible Narrow (ANSI)
100
AcDbLine
 10
135.9501399999207
 20
99.28546090252611
 30
0.0
 11
135.9501399999206
 21
50.46252766347962
 31
0.0
  0
LINE
  5
3ED
330
6C
100
AcDbEntity
  8
Visible Narrow (ANSI)
100
AcDbLine
 10
135.9501399999206
 20
50.46252766347962
 30
0.0
 11
183.8345626937432
 21
22.88772256032313
 31
0.0
  0
LINE
  5
3EE
330
6C
100
AcDbEntity
  8
Visible (ANSI)
100
AcDbLine
 10
135.9089592133555
 20
99.31295866771435
 30
0.0
 11
135.9089592133554
 21
50.54953333300979
 31
0.0
  0
LINE
  5
3EF
330
6C
100
AcDbEntity
  8
Visible (ANSI)
100
AcDbLine
 10
136.0051932119228
 20
50.38308171129545
 30
0.0
 11
183.8380200507131
 21
22.83798868498165
 31
0.0
  0
POLYLINE
  5
3F0
330
6C
100
AcDbEntity
  8
Visible (ANSI)
100
AcDb2dPolyline
 66
     1
 10
0.0
 20
0.0
 30
0.0
 70
   128
  0
VERTEX
  5
3F1
330
3F0
100
AcDbEntity
  8
Visible (ANSI)
100
AcDbVertex
100
AcDb2dVertex
 10
183.8345608194827
 20
71.71065726557604
 30
0.0
  0
VERTEX
  5
3F2
330
3F0
100
AcDbEntity
  8
Visible (ANSI)
100
AcDbVertex
100
AcDb2dVertex
 10
183.8412771769883
 20
71.70455451398483
 30
0.0
  0
VERTEX
  5
3F4
330
3F0
100
AcDbEntity
  8
Visible (ANSI)
100
AcDbVertex
100
AcDb2dVertex
 10
183.8483886114189
 20
71.69871351867354
 30
0.0
  0
VERTEX
  5
3F5
330
3F0
100
AcDbEntity
  8
Visible (ANSI)
100
AcDbVertex
100
AcDb2dVertex
 10
183.8558669142538
 20
71.69314738967256
 30
0.0
  0
VERTEX
  5
3F6
330
3F0
100
AcDbEntity
  8
Visible (ANSI)
100
AcDbVertex
100
AcDb2dVertex
 10
183.8636820517153
 20
71.68787309724681
 30
0.0
  0
VERTEX
  5
3F7
330
3F0
100
AcDbEntity
  8
Visible (ANSI)
100
AcDbVertex
100
AcDb2dVertex
 10
183.8717979666767
 20
71.68289430142714
 30
0.0
  0
VERTEX
  5
3F8
330
3F0
100
AcDbEntity
  8
Visible (ANSI)
100
AcDbVertex
100
AcDb2dVertex
 10
183.8801768348302
 20
71.67822837858371
 30
0.0
  0
VERTEX
  5
3F9
330
3F0
100
AcDbEntity
  8
Visible (ANSI)
100
AcDbVertex
100
AcDb2dVertex
 10
183.8887876102101
 20
71.67388191239791
 30
0.0
  0
VERTEX
  5
3FA
330
3F0
100
AcDbEntity
  8
Visible (ANSI)
100
AcDbVertex
100
AcDb2dVertex
 10
183.8975933064677
 20
71.66986295808519
 30
0.0
  0
VERTEX
  5
3FB
330
3F0
100
AcDbEntity
  8
Visible (ANSI)
100
AcDbVertex
100
AcDb2dVertex
 10
183.9065510466517
 20
71.66618107106123
 30
0.0
  0
VERTEX
  5
3FC
330
3F0
100
AcDbEntity
  8
Visible (ANSI)
100
AcDbVertex
100
AcDb2dVertex
 10
183.9156291376593
 20
71.66283756997342
 30
0.0
  0
VERTEX
  5
3FD
330
3F0
100
AcDbEntity
  8
Visible (ANSI)
100
AcDbVertex
100
AcDb2dVertex
 10
183.9247858599184
 20
71.6598426956852
 30
0.0
  0
VERTEX
  5
3FE
330
3F0
100
AcDbEntity
  8
Visible (ANSI)
100
AcDbVertex
100
AcDb2dVertex
 10
183.9339823022634
 20
71.65718867995024
 30
0.0
  0
VERTEX
  5
3FF
330
3F0
100
AcDbEntity
  8
Visible (ANSI)
100
AcDbVertex
100
AcDb2dVertex
 10
183.9431781804381
 20
71.6548816978026
 30
0.0
  0
VERTEX
  5
400
330
3F0
100
AcDbEntity
  8
Visible (ANSI)
100
AcDbVertex
100
AcDb2dVertex
 10
183.9523319242092
 20
71.65292227240136
 30
0.0
  0
VERTEX
  5
401
330
3F0
100
AcDbEntity
  8
Visible (ANSI)
100
AcDbVertex
100
AcDb2dVertex
 10
183.9614134997988
 20
71.65130289318972
 30
0.0
  0
VERTEX
  5
402
330
3F0
100
AcDbEntity
  8
Visible (ANSI)
100
AcDbVertex
100
AcDb2dVertex
 10
183.9703705306214
 20
71.65002764510791
 30
0.0
  0
VERTEX
  5
403
330
3F0
100
AcDbEntity
  8
Visible (ANSI)
100
AcDbVertex
100
AcDb2dVertex
 10
183.9791751047607
 20
71.64908534712512
 30
0.0
  0
VERTEX
  5
404
330
3F0
100
AcDbEntity
  8
Visible (ANSI)
100
AcDbVertex
100
AcDb2dVertex
 10
183.9877856685767
 20
71.64847655091332
 30
0.0
  0
VERTEX
  5
405
330
3F0
100
AcDbEntity
  8
Visible (ANSI)
100
AcDbVertex
100
AcDb2dVertex
 10
183.9961683448805
 20
71.64818170998187
 30
0.0
  0
VERTEX
  5
406
330
3F0
100
AcDbEntity
  8
Visible (ANSI)
100
AcDbVertex
100
AcDb2dVertex
 10
184.0042800731581
 20
71.64820050825155
 30
0.0
  0
VERTEX
  5
407
330
3F0
100
AcDbEntity
  8
Visible (ANSI)
100
AcDbVertex
100
AcDb2dVertex
 10
184.0120941922091
 20
71.64851759255815
 30
0.0
  0
VERTEX
  5
408
330
3F0
100
AcDbEntity
  8
Visible (ANSI)
100
AcDbVertex
100
AcDb2dVertex
 10
184.0195750747755
 20
71.64912223127408
 30
0.0
  0
VERTEX
  5
409
330
3F0
100
AcDbEntity
  8
Visible (ANSI)
100
AcDbVertex
100
AcDb2dVertex
 10
184.0266867394373
 20
71.65000348882322
 30
0.0
  0
VERTEX
  5
40A
330
3F0
100
AcDbEntity
  8
Visible (ANSI)
100
AcDbVertex
100
AcDb2dVertex
 10
184.0334014609524
 20
71.65114539930041
 30
0.0
  0
SEQEND
  5
3F3
330
3F0
100
AcDbEntity
  8
Visible (ANSI)
  0
POLYLINE
  5
40B
330
6C
100
AcDbEntity
  8
Visible (ANSI)
100
AcDb2dPolyline
 66
     1
 10
0.0
 20
0.0
 30
0.0
 70
   128
  0
VERTEX
  5
40C
330
40B
100
AcDbEntity
  8
Visible (ANSI)
100
AcDbVertex
100
AcDb2dVertex
 10
184.0334014609523
 20
22.94723025972949
 30
0.0
  0
VERTEX
  5
40D
330
40B
100
AcDbEntity
  8
Visible (ANSI)
100
AcDbVertex
100
AcDb2dVertex
 10
184.0266867394372
 20
22.94112863460944
 30
0.0
  0
VERTEX
  5
40F
330
40B
100
AcDbEntity
  8
Visible (ANSI)
100
AcDbVertex
100
AcDb2dVertex
 10
184.0195750747753
 20
22.93528766241743
 30
0.0
  0
VERTEX
  5
410
330
40B
100
AcDbEntity
  8
Visible (ANSI)
100
AcDbVertex
100
AcDb2dVertex
 10
184.0120941922089
 20
22.92972330905866
 30
0.0
  0
VERTEX
  5
411
330
40B
100
AcDbEntity
  8
Visible (ANSI)
100
AcDbVertex
100
AcDb2dVertex
 10
184.004280073158
 20
22.92444651010919
 30
0.0
  0
VERTEX
  5
412
330
40B
100
AcDbEntity
  8
Visible (ANSI)
100
AcDbVertex
100
AcDb2dVertex
 10
183.9961683448804
 20
22.91946799719665
 30
0.0
  0
VERTEX
  5
413
330
40B
100
AcDbEntity
  8
Visible (ANSI)
100
AcDbVertex
100
AcDb2dVertex
 10
183.9877856685765
 20
22.91480311389279
 30
0.0
  0
VERTEX
  5
414
330
40B
100
AcDbEntity
  8
Visible (ANSI)
100
AcDbVertex
100
AcDb2dVertex
 10
183.9791751047606
 20
22.9104571067921
 30
0.0
  0
VERTEX
  5
415
330
40B
100
AcDbEntity
  8
Visible (ANSI)
100
AcDbVertex
100
AcDb2dVertex
 10
183.9703705306213
 20
22.90643968053958
 30
0.0
  0
VERTEX
  5
416
330
40B
100
AcDbEntity
  8
Visible (ANSI)
100
AcDbVertex
100
AcDb2dVertex
 10
183.9614134997987
 20
22.90275521397854
 30
0.0
  0
VERTEX
  5
417
330
40B
100
AcDbEntity
  8
Visible (ANSI)
100
AcDbVertex
100
AcDb2dVertex
 10
183.952331924209
 20
22.89941487854732
 30
0.0
  0
VERTEX
  5
418
330
40B
100
AcDbEntity
  8
Visible (ANSI)
100
AcDbVertex
100
AcDb2dVertex
 10
183.9431781804379
 20
22.89641457971328
 30
0.0
  0
VERTEX
  5
419
330
40B
100
AcDbEntity
  8
Visible (ANSI)
100
AcDbVertex
100
AcDb2dVertex
 10
183.9339823022633
 20
22.89376184721803
 30
0.0
  0
VERTEX
  5
41A
330
40B
100
AcDbEntity
  8
Visible (ANSI)
100
AcDbVertex
100
AcDb2dVertex
 10
183.9247858599182
 20
22.89145614831013
 30
0.0
  0
VERTEX
  5
41B
330
40B
100
AcDbEntity
  8
Visible (ANSI)
100
AcDbVertex
100
AcDb2dVertex
 10
183.9156291376592
 20
22.8894962096934
 30
0.0
  0
VERTEX
  5
41C
330
40B
100
AcDbEntity
  8
Visible (ANSI)
100
AcDbVertex
100
AcDb2dVertex
 10
183.9065510466515
 20
22.88787999613836
 30
0.0
  0
VERTEX
  5
41D
330
40B
100
AcDbEntity
  8
Visible (ANSI)
100
AcDbVertex
100
AcDb2dVertex
 10
183.8975933064676
 20
22.88660216851946
 30
0.0
  0
VERTEX
  5
41E
330
40B
100
AcDbEntity
  8
Visible (ANSI)
100
AcDbVertex
100
AcDb2dVertex
 10
183.88878761021
 20
22.88566139859688
 30
0.0
  0
VERTEX
  5
41F
330
40B
100
AcDbEntity
  8
Visible (ANSI)
100
AcDbVertex
100
AcDb2dVertex
 10
183.8801768348301
 20
22.88504815013983
 30
0.0
  0
VERTEX
  5
420
330
40B
100
AcDbEntity
  8
Visible (ANSI)
100
AcDbVertex
100
AcDb2dVertex
 10
183.8717979666765
 20
22.8847543583404
 30
0.0
  0
VERTEX
  5
421
330
40B
100
AcDbEntity
  8
Visible (ANSI)
100
AcDbVertex
100
AcDb2dVertex
 10
183.8636820517152
 20
22.88477342992476
 30
0.0
  0
VERTEX
  5
422
330
40B
100
AcDbEntity
  8
Visible (ANSI)
100
AcDbVertex
100
AcDb2dVertex
 10
183.8558669142537
 20
22.885092919038
 30
0.0
  0
VERTEX
  5
423
330
40B
100
AcDbEntity
  8
Visible (ANSI)
100
AcDbVertex
100
AcDb2dVertex
 10
183.8483886114187
 20
22.88569933339614
 30
0.0
  0
VERTEX
  5
424
330
40B
100
AcDbEntity
  8
Visible (ANSI)
100
AcDbVertex
100
AcDb2dVertex
 10
183.8412771769881
 20
22.88658060447211
 30
0.0
  0
VERTEX
  5
425
330
40B
100
AcDbEntity
  8
Visible (ANSI)
100
AcDbVertex
100
AcDb2dVertex
 10
183.8345608194826
 20
22.88772364142047
 30
0.0
  0
SEQEND
  5
40E
330
40B
100
AcDbEntity
  8
Visible (ANSI)
  0
LINE
  5
426
330
6C
100
AcDbEntity
  8
Visible (ANSI)
100
AcDbLine
 10
183.948417804058
 20
71.70400818624911
 30
0.0
 11
184.464311993068
 21
72.00109189146087
 31
0.0
  0
LINE
  5
427
330
6C
100
AcDbEntity
  8
Visible (ANSI)
100
AcDbLine
 10
184.5527003407162
 20
23.24627499687416
 30
0.0
 11
184.0334011206129
 21
22.94723046466505
 31
0.0
  0
LINE
  5
428
330
6C
100
AcDbEntity
  8
Visible (ANSI)
100
AcDbLine
 10
183.9668751421783
 20
71.68945765812878
 30
0.0
 11
184.033401120613
 21
71.6511478950277
 31
0.0
  0
POLYLINE
  5
429
330
6C
100
AcDbEntity
  8
Visible (ANSI)
100
AcDb2dPolyline
 66
     1
 10
0.0
 20
0.0
 30
0.0
 70
   128
  0
VERTEX
  5
42A
330
429
100
AcDbEntity
  8
Visible (ANSI)
100
AcDbVertex
100
AcDb2dVertex
 10
183.9229491658036
 20
71.76155672903566
 30
0.0
  0
VERTEX
  5
42B
330
429
100
AcDbEntity
  8
Visible (ANSI)
100
AcDbVertex
100
AcDb2dVertex
 10
183.9234307344161
 20
71.75967516488103
 30
0.0
  0
VERTEX
  5
42D
330
429
100
AcDbEntity
  8
Visible (ANSI)
100
AcDbVertex
100
AcDb2dVertex
 10
183.923932394484
 20
71.75780025929565
 30
0.0
  0
VERTEX
  5
42E
330
429
100
AcDbEntity
  8
Visible (ANSI)
100
AcDbVertex
100
AcDb2dVertex
 10
183.9244498431736
 20
71.75594424947608
 30
0.0
  0
VERTEX
  5
42F
330
429
100
AcDbEntity
  8
Visible (ANSI)
100
AcDbVertex
100
AcDb2dVertex
 10
183.9249872368819
 20
71.75409481389846
 30
0.0
  0
VERTEX
  5
430
330
429
100
AcDbEntity
  8
Visible (ANSI)
100
AcDbVertex
100
AcDb2dVertex
 10
183.9255401998851
 20
71.75226414778475
 30
0.0
  0
VERTEX
  5
431
330
429
100
AcDbEntity
  8
Visible (ANSI)
100
AcDbVertex
100
AcDb2dVertex
 10
183.9261043203078
 20
71.75044969154729
 30
0.0
  0
VERTEX
  5
432
330
429
100
AcDbEntity
  8
Visible (ANSI)
100
AcDbVertex
100
AcDb2dVertex
 10
183.9266878941581
 20
71.74864152646328
 30
0.0
  0
VERTEX
  5
433
330
429
100
AcDbEntity
  8
Visible (ANSI)
100
AcDbVertex
100
AcDb2dVertex
 10
183.9272821903898
 20
71.74685423206416
 30
0.0
  0
VERTEX
  5
434
330
429
100
AcDbEntity
  8
Visible (ANSI)
100
AcDbVertex
100
AcDb2dVertex
 10
183.9278911865534
 20
71.74508029516572
 30
0.0
  0
VERTEX
  5
435
330
429
100
AcDbEntity
  8
Visible (ANSI)
100
AcDbVertex
100
AcDb2dVertex
 10
183.9285103299416
 20
71.74331707508057
 30
0.0
  0
VERTEX
  5
436
330
429
100
AcDbEntity
  8
Visible (ANSI)
100
AcDbVertex
100
AcDb2dVertex
 10
183.9291392816891
 20
71.74157419932993
 30
0.0
  0
VERTEX
  5
437
330
429
100
AcDbEntity
  8
Visible (ANSI)
100
AcDbVertex
100
AcDb2dVertex
 10
183.9297776696794
 20
71.73984163096541
 30
0.0
  0
VERTEX
  5
438
330
429
100
AcDbEntity
  8
Visible (ANSI)
100
AcDbVertex
100
AcDb2dVertex
 10
183.9304208410622
 20
71.73813140562232
 30
0.0
  0
VERTEX
  5
439
330
429
100
AcDbEntity
  8
Visible (ANSI)
100
AcDbVertex
100
AcDb2dVertex
 10
183.9310726069693
 20
71.73643591428231
 30
0.0
  0
VERTEX
  5
43A
330
429
100
AcDbEntity
  8
Visible (ANSI)
100
AcDbVertex
100
AcDb2dVertex
 10
183.9317282514184
 20
71.73475242223422
 30
0.0
  0
VERTEX
  5
43B
330
429
100
AcDbEntity
  8
Visible (ANSI)
100
AcDbVertex
100
AcDb2dVertex
 10
183.9323915239648
 20
71.73308801899128
 30
0.0
  0
VERTEX
  5
43C
330
429
100
AcDbEntity
  8
Visible (ANSI)
100
AcDbVertex
100
AcDb2dVertex
 10
183.9330534013821
 20
71.73144238183825
 30
0.0
  0
VERTEX
  5
43D
330
429
100
AcDbEntity
  8
Visible (ANSI)
100
AcDbVertex
100
AcDb2dVertex
 10
183.9337218230206
 20
71.72980538666689
 30
0.0
  0
VERTEX
  5
43E
330
429
100
AcDbEntity
  8
Visible (ANSI)
100
AcDbVertex
100
AcDb2dVertex
 10
183.9343877097813
 20
71.72819141257822
 30
0.0
  0
VERTEX
  5
43F
330
429
100
AcDbEntity
  8
Visible (ANSI)
100
AcDbVertex
100
AcDb2dVertex
 10
183.9350504516031
 20
71.72659028560065
 30
0.0
  0
VERTEX
  5
440
330
429
100
AcDbEntity
  8
Visible (ANSI)
100
AcDbVertex
100
AcDb2dVertex
 10
183.935713661147
 20
71.72500901641523
 30
0.0
  0
VERTEX
  5
441
330
429
100
AcDbEntity
  8
Visible (ANSI)
100
AcDbVertex
100
AcDb2dVertex
 10
183.9363766793501
 20
71.72344231416244
 30
0.0
  0
VERTEX
  5
442
330
429
100
AcDbEntity
  8
Visible (ANSI)
100
AcDbVertex
100
AcDb2dVertex
 10
183.9370303283316
 20
71.72188976706758
 30
0.0
  0
VERTEX
  5
443
330
429
100
AcDbEntity
  8
Visible (ANSI)
100
AcDbVertex
100
AcDb2dVertex
 10
183.9376823999174
 20
71.72035590005987
 30
0.0
  0
SEQEND
  5
42C
330
429
100
AcDbEntity
  8
Visible (ANSI)
  0
LINE
  5
444
330
6C
100
AcDbEntity
  8
Visible (ANSI)
100
AcDbLine
 10
183.9229510413917
 20
71.76155526359366
 30
0.0
 11
183.9012156386712
 21
71.74903867761148
 31
0.0
  0
LINE
  5
445
330
6C
100
AcDbEntity
  8
Visible (ANSI)
100
AcDbLine
 10
183.9012156386712
 20
71.74903867761148
 30
0.0
 11
183.8345626937434
 21
71.71065579936962
 31
0.0
  0
LINE
  5
446
330
6C
100
AcDbEntity
  8
Visible (ANSI)
100
AcDbLine
 10
184.033401120613
 20
71.6511478950277
 30
0.0
 11
184.5527003407163
 21
71.95019242723681
 31
0.0
  0
LINE
  5
447
330
6C
100
AcDbEntity
  8
Visible (ANSI)
100
AcDbLine
 10
184.464311993068
 20
72.00109189146087
 30
0.0
 11
184.5527003407163
 21
71.95019242723681
 31
0.0
  0
POLYLINE
  5
448
330
6C
100
AcDbEntity
  8
Visible (ANSI)
100
AcDb2dPolyline
 66
     1
 10
0.0
 20
0.0
 30
0.0
 70
   128
  0
VERTEX
  5
449
330
448
100
AcDbEntity
  8
Visible (ANSI)
100
AcDbVertex
100
AcDb2dVertex
 10
135.9501400014675
 20
99.28546128852689
 30
0.0
  0
VERTEX
  5
44A
330
448
100
AcDbEntity
  8
Visible (ANSI)
100
AcDbVertex
100
AcDb2dVertex
 10
135.9524974124286
 20
99.29186815592998
 30
0.0
  0
VERTEX
  5
44C
330
448
100
AcDbEntity
  8
Visible (ANSI)
100
AcDbVertex
100
AcDb2dVertex
 10
135.9552796437109
 20
99.29848527221782
 30
0.0
  0
VERTEX
  5
44D
330
448
100
AcDbEntity
  8
Visible (ANSI)
100
AcDbVertex
100
AcDb2dVertex
 10
135.9584839574284
 20
99.30528161187545
 30
0.0
  0
VERTEX
  5
44E
330
448
100
AcDbEntity
  8
Visible (ANSI)
100
AcDbVertex
100
AcDb2dVertex
 10
135.9621058153281
 20
99.31222017262873
 30
0.0
  0
VERTEX
  5
44F
330
448
100
AcDbEntity
  8
Visible (ANSI)
100
AcDbVertex
100
AcDb2dVertex
 10
135.9661389036791
 20
99.31927275243474
 30
0.0
  0
VERTEX
  5
450
330
448
100
AcDbEntity
  8
Visible (ANSI)
100
AcDbVertex
100
AcDb2dVertex
 10
135.9705751166802
 20
99.32639541194081
 30
0.0
  0
VERTEX
  5
451
330
448
100
AcDbEntity
  8
Visible (ANSI)
100
AcDbVertex
100
AcDb2dVertex
 10
135.9754046560188
 20
99.33355794246674
 30
0.0
  0
VERTEX
  5
452
330
448
100
AcDbEntity
  8
Visible (ANSI)
100
AcDbVertex
100
AcDb2dVertex
 10
135.9806160308709
 20
99.34072424934955
 30
0.0
  0
VERTEX
  5
453
330
448
100
AcDbEntity
  8
Visible (ANSI)
100
AcDbVertex
100
AcDb2dVertex
 10
135.9861960827914
 20
99.34785730627325
 30
0.0
  0
VERTEX
  5
454
330
448
100
AcDbEntity
  8
Visible (ANSI)
100
AcDbVertex
100
AcDb2dVertex
 10
135.9921301184596
 20
99.35491917437959
 30
0.0
  0
VERTEX
  5
455
330
448
100
AcDbEntity
  8
Visible (ANSI)
100
AcDbVertex
100
AcDb2dVertex
 10
135.9984019138279
 20
99.36187594465367
 30
0.0
  0
VERTEX
  5
456
330
448
100
AcDbEntity
  8
Visible (ANSI)
100
AcDbVertex
100
AcDb2dVertex
 10
136.0049937804945
 20
99.36868798215101
 30
0.0
  0
VERTEX
  5
457
330
448
100
AcDbEntity
  8
Visible (ANSI)
100
AcDbVertex
100
AcDb2dVertex
 10
136.0118866818563
 20
99.37532958087443
 30
0.0
  0
VERTEX
  5
458
330
448
100
AcDbEntity
  8
Visible (ANSI)
100
AcDbVertex
100
AcDb2dVertex
 10
136.0190602953333
 20
99.38176447162128
 30
0.0
  0
VERTEX
  5
459
330
448
100
AcDbEntity
  8
Visible (ANSI)
100
AcDbVertex
100
AcDb2dVertex
 10
136.0264930662973
 20
99.38795570436557
 30
0.0
  0
VERTEX
  5
45A
330
448
100
AcDbEntity
  8
Visible (ANSI)
100
AcDbVertex
100
AcDb2dVertex
 10
136.0341623615587
 20
99.39387550197382
 30
0.0
  0
VERTEX
  5
45B
330
448
100
AcDbEntity
  8
Visible (ANSI)
100
AcDbVertex
100
AcDb2dVertex
 10
136.0420445253691
 20
99.39949058712967
 30
0.0
  0
VERTEX
  5
45C
330
448
100
AcDbEntity
  8
Visible (ANSI)
100
AcDbVertex
100
AcDb2dVertex
 10
136.0501149789808
 20
99.40477209099327
 30
0.0
  0
VERTEX
  5
45D
330
448
100
AcDbEntity
  8
Visible (ANSI)
100
AcDbVertex
100
AcDb2dVertex
 10
136.0583483575407
 20
99.40969065381544
 30
0.0
  0
VERTEX
  5
45E
330
448
100
AcDbEntity
  8
Visible (ANSI)
100
AcDbVertex
100
AcDb2dVertex
 10
136.066718575427
 20
99.41422636166592
 30
0.0
  0
VERTEX
  5
45F
330
448
100
AcDbEntity
  8
Visible (ANSI)
100
AcDbVertex
100
AcDb2dVertex
 10
136.0751989797359
 20
99.41834912261176
 30
0.0
  0
VERTEX
  5
460
330
448
100
AcDbEntity
  8
Visible (ANSI)
100
AcDbVertex
100
AcDb2dVertex
 10
136.0837624389521
 20
99.42203348999173
 30
0.0
  0
VERTEX
  5
461
330
448
100
AcDbEntity
  8
Visible (ANSI)
100
AcDbVertex
100
AcDb2dVertex
 10
136.0923814673984
 20
99.42526363585692
 30
0.0
  0
VERTEX
  5
462
330
448
100
AcDbEntity
  8
Visible (ANSI)
100
AcDbVertex
100
AcDb2dVertex
 10
136.1010283398325
 20
99.42801868297181
 30
0.0
  0
SEQEND
  5
44B
330
448
100
AcDbEntity
  8
Visible (ANSI)
  0
POLYLINE
  5
463
330
6C
100
AcDbEntity
  8
Visible (ANSI)
100
AcDb2dPolyline
 66
     1
 10
0.0
 20
0.0
 30
0.0
 70
   128
  0
VERTEX
  5
464
330
463
100
AcDbEntity
  8
Visible (ANSI)
100
AcDbVertex
100
AcDb2dVertex
 10
183.8825128228718
 20
71.91249175297333
 30
0.0
  0
VERTEX
  5
465
330
463
100
AcDbEntity
  8
Visible (ANSI)
100
AcDbVertex
100
AcDb2dVertex
 10
183.8781556699538
 20
71.90726642068122
 30
0.0
  0
VERTEX
  5
467
330
463
100
AcDbEntity
  8
Visible (ANSI)
100
AcDbVertex
100
AcDb2dVertex
 10
183.8738263610235
 20
71.90156598963877
 30
0.0
  0
VERTEX
  5
468
330
463
100
AcDbEntity
  8
Visible (ANSI)
100
AcDbVertex
100
AcDb2dVertex
 10
183.8695526213233
 20
71.89541133708154
 30
0.0
  0
VERTEX
  5
469
330
463
100
AcDbEntity
  8
Visible (ANSI)
100
AcDbVertex
100
AcDb2dVertex
 10
183.8653576886592
 20
71.88882073714487
 30
0.0
  0
VERTEX
  5
46A
330
463
100
AcDbEntity
  8
Visible (ANSI)
100
AcDbVertex
100
AcDb2dVertex
 10
183.8612771902889
 20
71.88181474411712
 30
0.0
  0
VERTEX
  5
46B
330
463
100
AcDbEntity
  8
Visible (ANSI)
100
AcDbVertex
100
AcDb2dVertex
 10
183.8573335395416
 20
71.87442589134
 30
0.0
  0
VERTEX
  5
46C
330
463
100
AcDbEntity
  8
Visible (ANSI)
100
AcDbVertex
100
AcDb2dVertex
 10
183.853552805446
 20
71.86667410229913
 30
0.0
  0
VERTEX
  5
46D
330
463
100
AcDbEntity
  8
Visible (ANSI)
100
AcDbVertex
100
AcDb2dVertex
 10
183.8499603694483
 20
71.85858872718833
 30
0.0
  0
VERTEX
  5
46E
330
463
100
AcDbEntity
  8
Visible (ANSI)
100
AcDbVertex
100
AcDb2dVertex
 10
183.8465807937029
 20
71.85019864440282
 30
0.0
  0
VERTEX
  5
46F
330
463
100
AcDbEntity
  8
Visible (ANSI)
100
AcDbVertex
100
AcDb2dVertex
 10
183.843437742255
 20
71.84153712648125
 30
0.0
  0
VERTEX
  5
470
330
463
100
AcDbEntity
  8
Visible (ANSI)
100
AcDbVertex
100
AcDb2dVertex
 10
183.8405496087192
 20
71.83263439196585
 30
0.0
  0
VERTEX
  5
471
330
463
100
AcDbEntity
  8
Visible (ANSI)
100
AcDbVertex
100
AcDb2dVertex
 10
183.8379464268735
 20
71.82352250806521
 30
0.0
  0
VERTEX
  5
472
330
463
100
AcDbEntity
  8
Visible (ANSI)
100
AcDbVertex
100
AcDb2dVertex
 10
183.8356442797229
 20
71.81424018539061
 30
0.0
  0
VERTEX
  5
473
330
463
100
AcDbEntity
  8
Visible (ANSI)
100
AcDbVertex
100
AcDb2dVertex
 10
183.8336622121673
 20
71.80481312516157
 30
0.0
  0
VERTEX
  5
474
330
463
100
AcDbEntity
  8
Visible (ANSI)
100
AcDbVertex
100
AcDb2dVertex
 10
183.8320178960151
 20
71.79528097187797
 30
0.0
  0
VERTEX
  5
475
330
463
100
AcDbEntity
  8
Visible (ANSI)
100
AcDbVertex
100
AcDb2dVertex
 10
183.8307275636107
 20
71.78567762977703
 30
0.0
  0
VERTEX
  5
476
330
463
100
AcDbEntity
  8
Visible (ANSI)
100
AcDbVertex
100
AcDb2dVertex
 10
183.8298016686998
 20
71.77604347912566
 30
0.0
  0
VERTEX
  5
477
330
463
100
AcDbEntity
  8
Visible (ANSI)
100
AcDbVertex
100
AcDb2dVertex
 10
183.8292618488773
 20
71.76641066342249
 30
0.0
  0
VERTEX
  5
478
330
463
100
AcDbEntity
  8
Visible (ANSI)
100
AcDbVertex
100
AcDb2dVertex
 10
183.8291153553922
 20
71.75681771873915
 30
0.0
  0
VERTEX
  5
479
330
463
100
AcDbEntity
  8
Visible (ANSI)
100
AcDbVertex
100
AcDb2dVertex
 10
183.8293719948539
 20
71.74729484897818
 30
0.0
  0
VERTEX
  5
47A
330
463
100
AcDbEntity
  8
Visible (ANSI)
100
AcDbVertex
100
AcDb2dVertex
 10
183.8300398564703
 20
71.73788600304765
 30
0.0
  0
VERTEX
  5
47B
330
463
100
AcDbEntity
  8
Visible (ANSI)
100
AcDbVertex
100
AcDb2dVertex
 10
183.8311252622688
 20
71.72861937821277
 30
0.0
  0
VERTEX
  5
47C
330
463
100
AcDbEntity
  8
Visible (ANSI)
100
AcDbVertex
100
AcDb2dVertex
 10
183.8326327587992
 20
71.71953197196997
 30
0.0
  0
VERTEX
  5
47D
330
463
100
AcDbEntity
  8
Visible (ANSI)
100
AcDbVertex
100
AcDb2dVertex
 10
183.8345608194827
 20
71.71065726557604
 30
0.0
  0
SEQEND
  5
466
330
463
100
AcDbEntity
  8
Visible (ANSI)
  0
LINE
  5
47E
330
6C
100
AcDbEntity
  8
Visible (ANSI)
100
AcDbLine
 10
183.8859045145078
 20
71.81225352910714
 30
0.0
 11
184.401811993068
 21
72.10934488726199
 31
0.0
  0
LINE
  5
47F
330
6C
100
AcDbEntity
  8
Visible (ANSI)
100
AcDbLine
 10
184.401811993068
 20
72.2115382778673
 30
0.0
 11
183.8825127729647
 21
71.91249374565813
 31
0.0
  0
LINE
  5
480
330
6C
100
AcDbEntity
  8
Visible (ANSI)
100
AcDbLine
 10
183.8825127729647
 20
71.83543052842146
 30
0.0
 11
183.8825127729647
 21
71.91249374565813
 31
0.0
  0
LINE
  5
481
330
6C
100
AcDbEntity
  8
Visible (ANSI)
100
AcDbLine
 10
184.401811993068
 20
72.10934488726199
 30
0.0
 11
184.401811993068
 21
72.2115382778673
 31
0.0
  0
POLYLINE
  5
482
330
6C
100
AcDbEntity
  8
Visible (ANSI)
100
AcDb2dPolyline
 66
     1
 10
0.0
 20
0.0
 30
0.0
 70
   128
  0
VERTEX
  5
483
330
482
100
AcDbEntity
  8
Visible (ANSI)
100
AcDbVertex
100
AcDb2dVertex
 10
183.9229491658036
 20
71.76155672903566
 30
0.0
  0
VERTEX
  5
484
330
482
100
AcDbEntity
  8
Visible (ANSI)
100
AcDbVertex
100
AcDb2dVertex
 10
183.9215616609367
 20
71.76291246645702
 30
0.0
  0
VERTEX
  5
486
330
482
100
AcDbEntity
  8
Visible (ANSI)
100
AcDbVertex
100
AcDb2dVertex
 10
183.9201942273872
 20
71.76427485085094
 30
0.0
  0
VERTEX
  5
487
330
482
100
AcDbEntity
  8
Visible (ANSI)
100
AcDbVertex
100
AcDb2dVertex
 10
183.9188468103103
 20
71.76564876196485
 30
0.0
  0
VERTEX
  5
488
330
482
100
AcDbEntity
  8
Visible (ANSI)
100
AcDbVertex
100
AcDb2dVertex
 10
183.9175193183896
 20
71.76703414721308
 30
0.0
  0
VERTEX
  5
489
330
482
100
AcDbEntity
  8
Visible (ANSI)
100
AcDbVertex
100
AcDb2dVertex
 10
183.9162073761971
 20
71.76842846799674
 30
0.0
  0
VERTEX
  5
48A
330
482
100
AcDbEntity
  8
Visible (ANSI)
100
AcDbVertex
100
AcDb2dVertex
 10
183.9149193157712
 20
71.76982673767192
 30
0.0
  0
VERTEX
  5
48B
330
482
100
AcDbEntity
  8
Visible (ANSI)
100
AcDbVertex
100
AcDb2dVertex
 10
183.9136506898947
 20
71.77122637629904
 30
0.0
  0
VERTEX
  5
48C
330
482
100
AcDbEntity
  8
Visible (ANSI)
100
AcDbVertex
100
AcDb2dVertex
 10
183.9124012637342
 20
71.77263215997694
 30
0.0
  0
VERTEX
  5
48D
330
482
100
AcDbEntity
  8
Visible (ANSI)
100
AcDbVertex
100
AcDb2dVertex
 10
183.9111707675523
 20
71.77404393337411
 30
0.0
  0
VERTEX
  5
48E
330
482
100
AcDbEntity
  8
Visible (ANSI)
100
AcDbVertex
100
AcDb2dVertex
 10
183.9099546492248
 20
71.77545905613913
 30
0.0
  0
VERTEX
  5
48F
330
482
100
AcDbEntity
  8
Visible (ANSI)
100
AcDbVertex
100
AcDb2dVertex
 10
183.9087610662775
 20
71.7768724411329
 30
0.0
  0
VERTEX
  5
490
330
482
100
AcDbEntity
  8
Visible (ANSI)
100
AcDbVertex
100
AcDb2dVertex
 10
183.907585399565
 20
71.77828140940903
 30
0.0
  0
VERTEX
  5
491
330
482
100
AcDbEntity
  8
Visible (ANSI)
100
AcDbVertex
100
AcDb2dVertex
 10
183.9064272446917
 20
71.77969555075235
 30
0.0
  0
VERTEX
  5
492
330
482
100
AcDbEntity
  8
Visible (ANSI)
100
AcDbVertex
100
AcDb2dVertex
 10
183.9052861659553
 20
71.7811047915978
 30
0.0
  0
VERTEX
  5
493
330
482
100
AcDbEntity
  8
Visible (ANSI)
100
AcDbVertex
100
AcDb2dVertex
 10
183.9041574481512
 20
71.78251130901246
 30
0.0
  0
VERTEX
  5
494
330
482
100
AcDbEntity
  8
Visible (ANSI)
100
AcDbVertex
100
AcDb2dVertex
 10
183.9030490897432
 20
71.78391483559003
 30
0.0
  0
VERTEX
  5
495
330
482
100
AcDbEntity
  8
Visible (ANSI)
100
AcDbVertex
100
AcDb2dVertex
 10
183.9019563162835
 20
71.78530769162101
 30
0.0
  0
VERTEX
  5
496
330
482
100
AcDbEntity
  8
Visible (ANSI)
100
AcDbVertex
100
AcDb2dVertex
 10
183.9008785729356
 20
71.78669446892659
 30
0.0
  0
VERTEX
  5
497
330
482
100
AcDbEntity
  8
Visible (ANSI)
100
AcDbVertex
100
AcDb2dVertex
 10
183.8998152766022
 20
71.78807483172348
 30
0.0
  0
VERTEX
  5
498
330
482
100
AcDbEntity
  8
Visible (ANSI)
100
AcDbVertex
100
AcDb2dVertex
 10
183.8987615711659
 20
71.78945087593239
 30
0.0
  0
VERTEX
  5
499
330
482
100
AcDbEntity
  8
Visible (ANSI)
100
AcDbVertex
100
AcDb2dVertex
 10
183.8977253184553
 20
71.79081243280335
 30
0.0
  0
VERTEX
  5
49A
330
482
100
AcDbEntity
  8
Visible (ANSI)
100
AcDbVertex
100
AcDb2dVertex
 10
183.896701612314
 20
71.79216156944156
 30
0.0
  0
VERTEX
  5
49B
330
482
100
AcDbEntity
  8
Visible (ANSI)
100
AcDbVertex
100
AcDb2dVertex
 10
183.8956897721595
 20
71.79350280525603
 30
0.0
  0
VERTEX
  5
49C
330
482
100
AcDbEntity
  8
Visible (ANSI)
100
AcDbVertex
100
AcDb2dVertex
 10
183.8946848472409
 20
71.79482835901099
 30
0.0
  0
SEQEND
  5
485
330
482
100
AcDbEntity
  8
Visible (ANSI)
  0
LINE
  5
49D
330
6C
100
AcDbEntity
  8
Visible (ANSI)
100
AcDbLine
 10
136.101028347569
 20
99.42802064246174
 30
0.0
 11
136.6203275676723
 21
99.72706517467091
 31
0.0
  0
POLYLINE
  5
49E
330
6C
100
AcDbEntity
  8
Visible (ANSI)
100
AcDb2dPolyline
 66
     1
 10
0.0
 20
0.0
 30
0.0
 70
   128
  0
VERTEX
  5
49F
330
49E
100
AcDbEntity
  8
Visible (ANSI)
100
AcDbVertex
100
AcDb2dVertex
 10
135.9501400014673
 20
50.46252766437131
 30
0.0
  0
VERTEX
  5
4A0
330
49E
100
AcDbEntity
  8
Visible (ANSI)
100
AcDbVertex
100
AcDb2dVertex
 10
135.9469403255625
 20
50.46567128913193
 30
0.0
  0
VERTEX
  5
4A2
330
49E
100
AcDbEntity
  8
Visible (ANSI)
100
AcDbVertex
100
AcDb2dVertex
 10
135.9438505384388
 20
50.46887418135842
 30
0.0
  0
VERTEX
  5
4A3
330
49E
100
AcDbEntity
  8
Visible (ANSI)
100
AcDbVertex
100
AcDb2dVertex
 10
135.9408739421526
 20
50.47213423885931
 30
0.0
  0
VERTEX
  5
4A4
330
49E
100
AcDbEntity
  8
Visible (ANSI)
100
AcDbVertex
100
AcDb2dVertex
 10
135.938013730904
 20
50.47544930692542
 30
0.0
  0
VERTEX
  5
4A5
330
49E
100
AcDbEntity
  8
Visible (ANSI)
100
AcDbVertex
100
AcDb2dVertex
 10
135.9352729661471
 20
50.47881714473771
 30
0.0
  0
VERTEX
  5
4A6
330
49E
100
AcDbEntity
  8
Visible (ANSI)
100
AcDbVertex
100
AcDb2dVertex
 10
135.9326545931833
 20
50.48223548292194
 30
0.0
  0
VERTEX
  5
4A7
330
49E
100
AcDbEntity
  8
Visible (ANSI)
100
AcDbVertex
100
AcDb2dVertex
 10
135.9301613830851
 20
50.48570198995673
 30
0.0
  0
VERTEX
  5
4A8
330
49E
100
AcDbEntity
  8
Visible (ANSI)
100
AcDbVertex
100
AcDb2dVertex
 10
135.9277960405516
 20
50.48921428654353
 30
0.0
  0
VERTEX
  5
4A9
330
49E
100
AcDbEntity
  8
Visible (ANSI)
100
AcDbVertex
100
AcDb2dVertex
 10
135.9255610877566
 20
50.49276992649595
 30
0.0
  0
VERTEX
  5
4AA
330
49E
100
AcDbEntity
  8
Visible (ANSI)
100
AcDbVertex
100
AcDb2dVertex
 10
135.923458905831
 20
50.49636644933147
 30
0.0
  0
VERTEX
  5
4AB
330
49E
100
AcDbEntity
  8
Visible (ANSI)
100
AcDbVertex
100
AcDb2dVertex
 10
135.9214917597531
 20
50.50000130845774
 30
0.0
  0
VERTEX
  5
4AC
330
49E
100
AcDbEntity
  8
Visible (ANSI)
100
AcDbVertex
100
AcDb2dVertex
 10
135.9196617485688
 20
50.50367194783809
 30
0.0
  0
VERTEX
  5
4AD
330
49E
100
AcDbEntity
  8
Visible (ANSI)
100
AcDbVertex
100
AcDb2dVertex
 10
135.917970842726
 20
50.5073757707883
 30
0.0
  0
VERTEX
  5
4AE
330
49E
100
AcDbEntity
  8
Visible (ANSI)
100
AcDbVertex
100
AcDb2dVertex
 10
135.9164208342957
 20
50.51111013045825
 30
0.0
  0
VERTEX
  5
4AF
330
49E
100
AcDbEntity
  8
Visible (ANSI)
100
AcDbVertex
100
AcDb2dVertex
 10
135.9150133991957
 20
50.51487236088692
 30
0.0
  0
VERTEX
  5
4B0
330
49E
100
AcDbEntity
  8
Visible (ANSI)
100
AcDbVertex
100
AcDb2dVertex
 10
135.9137500432633
 20
50.51865976987299
 30
0.0
  0
VERTEX
  5
4B1
330
49E
100
AcDbEntity
  8
Visible (ANSI)
100
AcDbVertex
100
AcDb2dVertex
 10
135.9126321105515
 20
50.52246960538268
 30
0.0
  0
VERTEX
  5
4B2
330
49E
100
AcDbEntity
  8
Visible (ANSI)
100
AcDbVertex
100
AcDb2dVertex
 10
135.9116607999224
 20
50.52629913221527
 30
0.0
  0
VERTEX
  5
4B3
330
49E
100
AcDbEntity
  8
Visible (ANSI)
100
AcDbVertex
100
AcDb2dVertex
 10
135.9108371567506
 20
50.53014556974479
 30
0.0
  0
VERTEX
  5
4B4
330
49E
100
AcDbEntity
  8
Visible (ANSI)
100
AcDbVertex
100
AcDb2dVertex
 10
135.9101620646266
 20
50.53400613495642
 30
0.0
  0
VERTEX
  5
4B5
330
49E
100
AcDbEntity
  8
Visible (ANSI)
100
AcDbVertex
100
AcDb2dVertex
 10
135.9096362412083
 20
50.53787801139138
 30
0.0
  0
VERTEX
  5
4B6
330
49E
100
AcDbEntity
  8
Visible (ANSI)
100
AcDbVertex
100
AcDb2dVertex
 10
135.909260248592
 20
50.54175840054433
 30
0.0
  0
VERTEX
  5
4B7
330
49E
100
AcDbEntity
  8
Visible (ANSI)
100
AcDbVertex
100
AcDb2dVertex
 10
135.9090344933122
 20
50.54564445004965
 30
0.0
  0
VERTEX
  5
4B8
330
49E
100
AcDbEntity
  8
Visible (ANSI)
100
AcDbVertex
100
AcDb2dVertex
 10
135.9089592138968
 20
50.54953333273569
 30
0.0
  0
SEQEND
  5
4A1
330
49E
100
AcDbEntity
  8
Visible (ANSI)
  0
POLYLINE
  5
4B9
330
6C
100
AcDbEntity
  8
Visible (ANSI)
100
AcDb2dPolyline
 66
     1
 10
0.0
 20
0.0
 30
0.0
 70
   128
  0
VERTEX
  5
4BA
330
4B9
100
AcDbEntity
  8
Visible (ANSI)
100
AcDbVertex
100
AcDb2dVertex
 10
135.9501400004304
 20
99.34045413287023
 30
0.0
  0
VERTEX
  5
4BB
330
4B9
100
AcDbEntity
  8
Visible (ANSI)
100
AcDbVertex
100
AcDb2dVertex
 10
135.9438505366564
 20
99.33906733274685
 30
0.0
  0
VERTEX
  5
4BD
330
4B9
100
AcDbEntity
  8
Visible (ANSI)
100
AcDbVertex
100
AcDb2dVertex
 10
135.9380137336912
 20
99.33745193117253
 30
0.0
  0
VERTEX
  5
4BE
330
4B9
100
AcDbEntity
  8
Visible (ANSI)
100
AcDbVertex
100
AcDb2dVertex
 10
135.9326545860535
 20
99.33562546657151
 30
0.0
  0
VERTEX
  5
4BF
330
4B9
100
AcDbEntity
  8
Visible (ANSI)
100
AcDbVertex
100
AcDb2dVertex
 10
135.9277960415888
 20
99.33360638005629
 30
0.0
  0
VERTEX
  5
4C0
330
4B9
100
AcDbEntity
  8
Visible (ANSI)
100
AcDbVertex
100
AcDb2dVertex
 10
135.9234589053126
 20
99.33141393881619
 30
0.0
  0
VERTEX
  5
4C1
330
4B9
100
AcDbEntity
  8
Visible (ANSI)
100
AcDbVertex
100
AcDb2dVertex
 10
135.9196617516801
 20
99.32906815286221
 30
0.0
  0
VERTEX
  5
4C2
330
4B9
100
AcDbEntity
  8
Visible (ANSI)
100
AcDbVertex
100
AcDb2dVertex
 10
135.91642083637
 20
99.32658477415174
 30
0.0
  0
VERTEX
  5
4C3
330
4B9
100
AcDbEntity
  8
Visible (ANSI)
100
AcDbVertex
100
AcDb2dVertex
 10
135.9137500432634
 20
99.32399486255558
 30
0.0
  0
VERTEX
  5
4C4
330
4B9
100
AcDbEntity
  8
Visible (ANSI)
100
AcDbVertex
100
AcDb2dVertex
 10
135.9116608019967
 20
99.32131521366175
 30
0.0
  0
VERTEX
  5
4C5
330
4B9
100
AcDbEntity
  8
Visible (ANSI)
100
AcDbVertex
100
AcDb2dVertex
 10
135.9101620667009
 20
99.31856792556345
 30
0.0
  0
VERTEX
  5
4C6
330
4B9
100
AcDbEntity
  8
Visible (ANSI)
100
AcDbVertex
100
AcDb2dVertex
 10
135.9092602485921
 20
99.3157753830164
 30
0.0
  0
VERTEX
  5
4C7
330
4B9
100
AcDbEntity
  8
Visible (ANSI)
100
AcDbVertex
100
AcDb2dVertex
 10
135.908959213897
 20
99.3129601654679
 30
0.0
  0
VERTEX
  5
4C8
330
4B9
100
AcDbEntity
  8
Visible (ANSI)
100
AcDbVertex
100
AcDb2dVertex
 10
135.9092602485921
 20
99.3101449479194
 30
0.0
  0
VERTEX
  5
4C9
330
4B9
100
AcDbEntity
  8
Visible (ANSI)
100
AcDbVertex
100
AcDb2dVertex
 10
135.9101620646268
 20
99.30734749523644
 30
0.0
  0
VERTEX
  5
4CA
330
4B9
100
AcDbEntity
  8
Visible (ANSI)
100
AcDbVertex
100
AcDb2dVertex
 10
135.9116607999225
 20
99.30460020713814
 30
0.0
  0
VERTEX
  5
4CB
330
4B9
100
AcDbEntity
  8
Visible (ANSI)
100
AcDbVertex
100
AcDb2dVertex
 10
135.9137500432634
 20
99.30192055943873
 30
0.0
  0
VERTEX
  5
4CC
330
4B9
100
AcDbEntity
  8
Visible (ANSI)
100
AcDbVertex
100
AcDb2dVertex
 10
135.9164208342958
 20
99.29933064425927
 30
0.0
  0
VERTEX
  5
4CD
330
4B9
100
AcDbEntity
  8
Visible (ANSI)
100
AcDbVertex
100
AcDb2dVertex
 10
135.9196617485689
 20
99.29685217628197
 30
0.0
  0
VERTEX
  5
4CE
330
4B9
100
AcDbEntity
  8
Visible (ANSI)
100
AcDbVertex
100
AcDb2dVertex
 10
135.9234589058312
 20
99.29450639241821
 30
0.0
  0
VERTEX
  5
4CF
330
4B9
100
AcDbEntity
  8
Visible (ANSI)
100
AcDbVertex
100
AcDb2dVertex
 10
135.9277960405518
 20
99.29231395386558
 30
0.0
  0
VERTEX
  5
4D0
330
4B9
100
AcDbEntity
  8
Visible (ANSI)
100
AcDbVertex
100
AcDb2dVertex
 10
135.9326545931835
 20
99.2902899535565
 30
0.0
  0
VERTEX
  5
4D1
330
4B9
100
AcDbEntity
  8
Visible (ANSI)
100
AcDbVertex
100
AcDb2dVertex
 10
135.9380137309041
 20
99.28846349220284
 30
0.0
  0
VERTEX
  5
4D2
330
4B9
100
AcDbEntity
  8
Visible (ANSI)
100
AcDbVertex
100
AcDb2dVertex
 10
135.943850538439
 20
99.28684809087112
 30
0.0
  0
VERTEX
  5
4D3
330
4B9
100
AcDbEntity
  8
Visible (ANSI)
100
AcDbVertex
100
AcDb2dVertex
 10
135.9501400014675
 20
99.28546128852689
 30
0.0
  0
SEQEND
  5
4BC
330
4B9
100
AcDbEntity
  8
Visible (ANSI)
  0
LINE
  5
4D4
330
6C
100
AcDbEntity
  8
Visible (ANSI)
100
AcDbLine
 10
136.3898825562215
 20
50.78797097055902
 30
0.0
 11
136.5578275676722
 21
50.88468407052506
 31
0.0
  0
LINE
  5
4D5
330
6C
100
AcDbEntity
  8
Visible (ANSI)
100
AcDbLine
 10
136.0138678449207
 20
99.37715485812448
 30
0.0
 11
135.9501399999207
 21
99.34045643290261
 31
0.0
  0
LINE
  5
4D6
330
6C
100
AcDbEntity
  8
Visible (ANSI)
100
AcDbLine
 10
135.9716638850763
 20
99.32806165178508
 30
0.0
 11
135.9501399999207
 21
99.34045643290261
 31
0.0
  0
POLYLINE
  5
4D7
330
6C
100
AcDbEntity
  8
Visible (ANSI)
100
AcDb2dPolyline
 66
     1
 10
0.0
 20
0.0
 30
0.0
 70
   128
  0
VERTEX
  5
4D8
330
4D7
100
AcDbEntity
  8
Visible (ANSI)
100
AcDbVertex
100
AcDb2dVertex
 10
183.8345608194826
 20
22.88772364142047
 30
0.0
  0
VERTEX
  5
4D9
330
4D7
100
AcDbEntity
  8
Visible (ANSI)
100
AcDbVertex
100
AcDb2dVertex
 10
183.832632758799
 20
22.88156119717923
 30
0.0
  0
VERTEX
  5
4DB
330
4D7
100
AcDbEntity
  8
Visible (ANSI)
100
AcDbVertex
100
AcDb2dVertex
 10
183.8311252622687
 20
22.87567802433518
 30
0.0
  0
VERTEX
  5
4DC
330
4D7
100
AcDbEntity
  8
Visible (ANSI)
100
AcDbVertex
100
AcDb2dVertex
 10
183.8300398564701
 20
22.87010217714771
 30
0.0
  0
VERTEX
  5
4DD
330
4D7
100
AcDbEntity
  8
Visible (ANSI)
100
AcDbVertex
100
AcDb2dVertex
 10
183.8293719948537
 20
22.86486278841635
 30
0.0
  0
VERTEX
  5
4DE
330
4D7
100
AcDbEntity
  8
Visible (ANSI)
100
AcDbVertex
100
AcDb2dVertex
 10
183.8291153553921
 20
22.85998761359075
 30
0.0
  0
VERTEX
  5
4DF
330
4D7
100
AcDbEntity
  8
Visible (ANSI)
100
AcDbVertex
100
AcDb2dVertex
 10
183.8292618488772
 20
22.85550280532987
 30
0.0
  0
VERTEX
  5
4E0
330
4D7
100
AcDbEntity
  8
Visible (ANSI)
100
AcDbVertex
100
AcDb2dVertex
 10
183.8298016686997
 20
22.85143286063237
 30
0.0
  0
VERTEX
  5
4E1
330
4D7
100
AcDbEntity
  8
Visible (ANSI)
100
AcDbVertex
100
AcDb2dVertex
 10
183.8307275636105
 20
22.8477980546892
 30
0.0
  0
VERTEX
  5
4E2
330
4D7
100
AcDbEntity
  8
Visible (ANSI)
100
AcDbVertex
100
AcDb2dVertex
 10
183.832017896015
 20
22.84462411520508
 30
0.0
  0
VERTEX
  5
4E3
330
4D7
100
AcDbEntity
  8
Visible (ANSI)
100
AcDbVertex
100
AcDb2dVertex
 10
183.8336622121672
 20
22.84192748754021
 30
0.0
  0
VERTEX
  5
4E4
330
4D7
100
AcDbEntity
  8
Visible (ANSI)
100
AcDbVertex
100
AcDb2dVertex
 10
183.8356442797228
 20
22.83972500428182
 30
0.0
  0
VERTEX
  5
4E5
330
4D7
100
AcDbEntity
  8
Visible (ANSI)
100
AcDbVertex
100
AcDb2dVertex
 10
183.8379464268734
 20
22.83803138609572
 30
0.0
  0
VERTEX
  5
4E6
330
4D7
100
AcDbEntity
  8
Visible (ANSI)
100
AcDbVertex
100
AcDb2dVertex
 10
183.8405496087191
 20
22.83685917443106
 30
0.0
  0
VERTEX
  5
4E7
330
4D7
100
AcDbEntity
  8
Visible (ANSI)
100
AcDbVertex
100
AcDb2dVertex
 10
183.8434377422549
 20
22.83621623477923
 30
0.0
  0
VERTEX
  5
4E8
330
4D7
100
AcDbEntity
  8
Visible (ANSI)
100
AcDbVertex
100
AcDb2dVertex
 10
183.8465807937028
 20
22.83611548848519
 30
0.0
  0
VERTEX
  5
4E9
330
4D7
100
AcDbEntity
  8
Visible (ANSI)
100
AcDbVertex
100
AcDb2dVertex
 10
183.8499603694481
 20
22.8365602162127
 30
0.0
  0
VERTEX
  5
4EA
330
4D7
100
AcDbEntity
  8
Visible (ANSI)
100
AcDbVertex
100
AcDb2dVertex
 10
183.8535528054459
 20
22.83755379814444
 30
0.0
  0
VERTEX
  5
4EB
330
4D7
100
AcDbEntity
  8
Visible (ANSI)
100
AcDbVertex
100
AcDb2dVertex
 10
183.8573335395415
 20
22.83909727351312
 30
0.0
  0
VERTEX
  5
4EC
330
4D7
100
AcDbEntity
  8
Visible (ANSI)
100
AcDbVertex
100
AcDb2dVertex
 10
183.8612771902888
 20
22.8411893194422
 30
0.0
  0
VERTEX
  5
4ED
330
4D7
100
AcDbEntity
  8
Visible (ANSI)
100
AcDbVertex
100
AcDb2dVertex
 10
183.865357688659
 20
22.84382626983685
 30
0.0
  0
VERTEX
  5
4EE
330
4D7
100
AcDbEntity
  8
Visible (ANSI)
100
AcDbVertex
100
AcDb2dVertex
 10
183.8695526213232
 20
22.84699967512977
 30
0.0
  0
VERTEX
  5
4EF
330
4D7
100
AcDbEntity
  8
Visible (ANSI)
100
AcDbVertex
100
AcDb2dVertex
 10
183.8738263610234
 20
22.85070611830517
 30
0.0
  0
VERTEX
  5
4F0
330
4D7
100
AcDbEntity
  8
Visible (ANSI)
100
AcDbVertex
100
AcDb2dVertex
 10
183.8781556699537
 20
22.85493257180644
 30
0.0
  0
VERTEX
  5
4F1
330
4D7
100
AcDbEntity
  8
Visible (ANSI)
100
AcDbVertex
100
AcDb2dVertex
 10
183.8825128228717
 20
22.85966622695328
 30
0.0
  0
SEQEND
  5
4DA
330
4D7
100
AcDbEntity
  8
Visible (ANSI)
  0
POLYLINE
  5
4F2
330
6C
100
AcDbEntity
  8
Visible (ANSI)
100
AcDb2dPolyline
 66
     1
 10
0.0
 20
0.0
 30
0.0
 70
   128
  0
VERTEX
  5
4F3
330
4F2
100
AcDbEntity
  8
Visible (ANSI)
100
AcDbVertex
100
AcDb2dVertex
 10
136.0051932147354
 20
50.38308171092996
 30
0.0
  0
VERTEX
  5
4F4
330
4F2
100
AcDbEntity
  8
Visible (ANSI)
100
AcDbVertex
100
AcDb2dVertex
 10
136.001845788407
 20
50.38509666181063
 30
0.0
  0
VERTEX
  5
4F6
330
4F2
100
AcDbEntity
  8
Visible (ANSI)
100
AcDbVertex
100
AcDb2dVertex
 10
135.9985763005618
 20
50.38724122927926
 30
0.0
  0
VERTEX
  5
4F7
330
4F2
100
AcDbEntity
  8
Visible (ANSI)
100
AcDbVertex
100
AcDb2dVertex
 10
135.9953871364792
 20
50.38951376298355
 30
0.0
  0
VERTEX
  5
4F8
330
4F2
100
AcDbEntity
  8
Visible (ANSI)
100
AcDbVertex
100
AcDb2dVertex
 10
135.9922805486925
 20
50.39191249281374
 30
0.0
  0
VERTEX
  5
4F9
330
4F2
100
AcDbEntity
  8
Visible (ANSI)
100
AcDbVertex
100
AcDb2dVertex
 10
135.9892587399553
 20
50.39443549304211
 30
0.0
  0
VERTEX
  5
4FA
330
4F2
100
AcDbEntity
  8
Visible (ANSI)
100
AcDbVertex
100
AcDb2dVertex
 10
135.9863238010168
 20
50.39708072057234
 30
0.0
  0
VERTEX
  5
4FB
330
4F2
100
AcDbEntity
  8
Visible (ANSI)
100
AcDbVertex
100
AcDb2dVertex
 10
135.9834777189184
 20
50.39984600064347
 30
0.0
  0
VERTEX
  5
4FC
330
4F2
100
AcDbEntity
  8
Visible (ANSI)
100
AcDbVertex
100
AcDb2dVertex
 10
135.9807224184768
 20
50.40272900766349
 30
0.0
  0
VERTEX
  5
4FD
330
4F2
100
AcDbEntity
  8
Visible (ANSI)
100
AcDbVertex
100
AcDb2dVertex
 10
135.9780597083558
 20
50.40572732506029
 30
0.0
  0
VERTEX
  5
4FE
330
4F2
100
AcDbEntity
  8
Visible (ANSI)
100
AcDbVertex
100
AcDb2dVertex
 10
135.9754912810669
 20
50.4088383830419
 30
0.0
  0
VERTEX
  5
4FF
330
4F2
100
AcDbEntity
  8
Visible (ANSI)
100
AcDbVertex
100
AcDb2dVertex
 10
135.9730187544516
 20
50.41205949218849
 30
0.0
  0
VERTEX
  5
500
330
4F2
100
AcDbEntity
  8
Visible (ANSI)
100
AcDbVertex
100
AcDb2dVertex
 10
135.9706436219022
 20
50.41538786248922
 30
0.0
  0
VERTEX
  5
501
330
4F2
100
AcDbEntity
  8
Visible (ANSI)
100
AcDbVertex
100
AcDb2dVertex
 10
135.9683673104379
 20
50.41882057952764
 30
0.0
  0
VERTEX
  5
502
330
4F2
100
AcDbEntity
  8
Visible (ANSI)
100
AcDbVertex
100
AcDb2dVertex
 10
135.9661910811456
 20
50.42235459964861
 30
0.0
  0
VERTEX
  5
503
330
4F2
100
AcDbEntity
  8
Visible (ANSI)
100
AcDbVertex
100
AcDb2dVertex
 10
135.964116128739
 20
50.42598680740172
 30
0.0
  0
VERTEX
  5
504
330
4F2
100
AcDbEntity
  8
Visible (ANSI)
100
AcDbVertex
100
AcDb2dVertex
 10
135.962143540076
 20
50.4297139485979
 30
0.0
  0
VERTEX
  5
505
330
4F2
100
AcDbEntity
  8
Visible (ANSI)
100
AcDbVertex
100
AcDb2dVertex
 10
135.9602742775648
 20
50.43353268767897
 30
0.0
  0
VERTEX
  5
506
330
4F2
100
AcDbEntity
  8
Visible (ANSI)
100
AcDbVertex
100
AcDb2dVertex
 10
135.9585091791644
 20
50.43743956466268
 30
0.0
  0
VERTEX
  5
507
330
4F2
100
AcDbEntity
  8
Visible (ANSI)
100
AcDbVertex
100
AcDb2dVertex
 10
135.9568490081643
 20
50.44143105749361
 30
0.0
  0
VERTEX
  5
508
330
4F2
100
AcDbEntity
  8
Visible (ANSI)
100
AcDbVertex
100
AcDb2dVertex
 10
135.9552943868111
 20
50.44550353396988
 30
0.0
  0
VERTEX
  5
509
330
4F2
100
AcDbEntity
  8
Visible (ANSI)
100
AcDbVertex
100
AcDb2dVertex
 10
135.9538458294957
 20
50.44965326155772
 30
0.0
  0
VERTEX
  5
50A
330
4F2
100
AcDbEntity
  8
Visible (ANSI)
100
AcDbVertex
100
AcDb2dVertex
 10
135.9525037427524
 20
50.45387645509457
 30
0.0
  0
VERTEX
  5
50B
330
4F2
100
AcDbEntity
  8
Visible (ANSI)
100
AcDbVertex
100
AcDb2dVertex
 10
135.95126840037
 20
50.45816924338206
 30
0.0
  0
VERTEX
  5
50C
330
4F2
100
AcDbEntity
  8
Visible (ANSI)
100
AcDbVertex
100
AcDb2dVertex
 10
135.9501400014673
 20
50.46252766437131
 30
0.0
  0
SEQEND
  5
4F5
330
4F2
100
AcDbEntity
  8
Visible (ANSI)
  0
LINE
  5
50D
330
6C
100
AcDbEntity
  8
Visible (ANSI)
100
AcDbLine
 10
136.45270183664
 20
50.67990183612285
 30
0.0
 11
136.6203275676722
 21
50.776431074724
 31
0.0
  0
LINE
  5
50E
330
6C
100
AcDbEntity
  8
Visible (ANSI)
100
AcDbLine
 10
183.8825127729646
 20
22.88518395168072
 30
0.0
 11
183.8825127729646
 21
22.85966625510589
 31
0.0
  0
LINE
  5
50F
330
6C
100
AcDbEntity
  8
Visible (ANSI)
100
AcDbLine
 10
183.8825127729646
 20
22.85966625510589
 30
0.0
 11
183.9503576015323
 21
22.89873549348799
 31
0.0
  0
LINE
  5
510
330
6C
100
AcDbEntity
  8
Visible (ANSI)
100
AcDbLine
 10
184.0315672231361
 20
22.94550100432113
 30
0.0
 11
184.4018119930679
 21
23.15871078731503
 31
0.0
  0
LINE
  5
511
330
6C
100
AcDbEntity
  8
Visible (ANSI)
100
AcDbLine
 10
184.4018119930679
 20
23.15938417633848
 30
0.0
 11
184.4018119930679
 21
23.15871078731503
 31
0.0
  0
POLYLINE
  5
512
330
6C
100
AcDbEntity
  8
Visible (ANSI)
100
AcDb2dPolyline
 66
     1
 10
0.0
 20
0.0
 30
0.0
 70
   128
  0
VERTEX
  5
513
330
512
100
AcDbEntity
  8
Visible (ANSI)
100
AcDbVertex
100
AcDb2dVertex
 10
183.9376823999174
 20
71.72035590005987
 30
0.0
  0
VERTEX
  5
514
330
512
100
AcDbEntity
  8
Visible (ANSI)
100
AcDbVertex
100
AcDb2dVertex
 10
183.9428577653484
 20
71.71096786452425
 30
0.0
  0
VERTEX
  5
516
330
512
100
AcDbEntity
  8
Visible (ANSI)
100
AcDbVertex
100
AcDb2dVertex
 10
183.9498006149777
 20
71.70254875067462
 30
0.0
  0
VERTEX
  5
517
330
512
100
AcDbEntity
  8
Visible (ANSI)
100
AcDbVertex
100
AcDb2dVertex
 10
183.9580157570402
 20
71.69532218435648
 30
0.0
  0
VERTEX
  5
518
330
512
100
AcDbEntity
  8
Visible (ANSI)
100
AcDbVertex
100
AcDb2dVertex
 10
183.966875547803
 20
71.68945512480622
 30
0.0
  0
SEQEND
  5
515
330
512
100
AcDbEntity
  8
Visible (ANSI)
  0
POLYLINE
  5
519
330
6C
100
AcDbEntity
  8
Visible (ANSI)
100
AcDb2dPolyline
 66
     1
 10
0.0
 20
0.0
 30
0.0
 70
   128
  0
VERTEX
  5
51A
330
519
100
AcDbEntity
  8
Visible (ANSI)
100
AcDbVertex
100
AcDb2dVertex
 10
183.8825128228718
 20
71.83542806821906
 30
0.0
  0
VERTEX
  5
51B
330
519
100
AcDbEntity
  8
Visible (ANSI)
100
AcDbVertex
100
AcDb2dVertex
 10
183.8831774254707
 20
71.82484905289751
 30
0.0
  0
VERTEX
  5
51D
330
519
100
AcDbEntity
  8
Visible (ANSI)
100
AcDbVertex
100
AcDb2dVertex
 10
183.8853317231568
 20
71.81417014858658
 30
0.0
  0
VERTEX
  5
51E
330
519
100
AcDbEntity
  8
Visible (ANSI)
100
AcDbVertex
100
AcDb2dVertex
 10
183.8891566837015
 20
71.80396713124015
 30
0.0
  0
VERTEX
  5
51F
330
519
100
AcDbEntity
  8
Visible (ANSI)
100
AcDbVertex
100
AcDb2dVertex
 10
183.8946848472409
 20
71.79482835901099
 30
0.0
  0
SEQEND
  5
51C
330
519
100
AcDbEntity
  8
Visible (ANSI)
  0
LINE
  5
520
330
6C
100
AcDbEntity
  8
Visible (ANSI)
100
AcDbLine
 10
184.5527003407163
 20
71.95019242723681
 30
0.0
 11
184.5527003407162
 21
23.24627499687417
 31
0.0
  0
LINE
  5
521
330
6C
100
AcDbEntity
  8
Visible (ANSI)
100
AcDbLine
 10
136.6203275676723
 20
99.72706517467091
 30
0.0
 11
184.401811993068
 21
72.2115382778673
 31
0.0
  0
LINE
  5
522
330
6C
100
AcDbEntity
  8
Visible (ANSI)
100
AcDbLine
 10
136.5578275676722
 20
50.88468407052506
 30
0.0
 11
136.5578275676722
 21
50.91919577394727
 31
0.0
  0
LINE
  5
523
330
6C
100
AcDbEntity
  8
Visible (ANSI)
100
AcDbLine
 10
136.5578275676723
 20
74.39570969937477
 30
0.0
 11
136.5578275676723
 21
74.73025578498615
 31
0.0
  0
LINE
  5
524
330
6C
100
AcDbEntity
  8
Visible (ANSI)
100
AcDbLine
 10
136.5578275676723
 20
98.20676971041363
 30
0.0
 11
136.5578275676723
 21
98.54131579602501
 31
0.0
  0
LINE
  5
525
330
6C
100
AcDbEntity
  8
Visible (ANSI)
100
AcDbLine
 10
183.4947769946829
 20
23.7832308949434
 30
0.0
 11
183.2046117886827
 21
23.95032592403733
 31
0.0
  0
LINE
  5
526
330
6C
100
AcDbEntity
  8
Visible (ANSI)
100
AcDbLine
 10
160.0718648678751
 20
37.27158891431256
 30
0.0
 11
159.781699661875
 21
37.4386839434065
 31
0.0
  0
LINE
  5
527
330
6C
100
AcDbEntity
  8
Visible (ANSI)
100
AcDbLine
 10
136.6489527410672
 20
50.75994693368179
 30
0.0
 11
136.6203275676722
 21
50.776431074724
 31
0.0
  0
SPLINE
  5
528
330
6C
100
AcDbEntity
  8
Visible (ANSI)
100
AcDbSpline
210
0.0
220
0.0
230
1.0
 70
     8
 71
     3
 72
    11
 73
     7
 74
     0
 42
0.0000000001
 43
0.0000000001
 40
0.0
 40
0.0
 40
0.0
 40
0.0
 40
1.018582815488891
 40
1.018582815488891
 40
1.018582815488891
 40
1.570796326794115
 40
1.570796326794115
 40
1.570796326794115
 40
1.570796326794115
 10
95.7632248212092
 20
115.0788731038343
 30
0.0
 10
95.81096240249511
 20
115.0788731038343
 30
0.0
 10
95.85788495777732
 20
115.1050760094135
 30
0.0
 10
95.88292680493948
 20
115.1457181372826
 30
0.0
 10
95.89650296795804
 20
115.1677518215313
 30
0.0
 10
95.90382482120917
 20
115.193592697271
 30
0.0
 10
95.9038248212092
 20
115.2194731038342
 30
0.0
  0
LINE
  5
529
330
6C
100
AcDbEntity
  8
Visible (ANSI)
100
AcDbLine
 10
95.77882482120916
 20
115.2194731038342
 30
0.0
 11
95.77882482120921
 21
115.9538731038342
 31
0.0
  0
LINE
  5
52A
330
6C
100
AcDbEntity
  8
Visible (ANSI)
100
AcDbLine
 10
95.77882482120916
 20
115.2194731038342
 30
0.0
 11
95.90382482120917
 21
115.2194731038342
 31
0.0
  0
SPLINE
  5
52B
330
6C
100
AcDbEntity
  8
Visible (ANSI)
100
AcDbSpline
210
0.0
220
0.0
230
1.0
 70
     8
 71
     3
 72
     8
 73
     4
 74
     0
 42
0.0000000001
 43
0.0000000001
 40
0.0
 40
0.0
 40
0.0
 40
0.0
 40
1.570796326794115
 40
1.570796326794115
 40
1.570796326794115
 40
1.570796326794115
 10
95.7632248212092
 20
115.2038731038343
 30
0.0
 10
95.77139296210852
 20
115.2038731038343
 30
0.0
 10
95.77882482120918
 20
115.211304962935
 30
0.0
 10
95.77882482120919
 20
115.2194731038343
 30
0.0
  0
LINE
  5
52C
330
6C
100
AcDbEntity
  8
Visible (ANSI)
100
AcDbLine
 10
95.7632248212092
 20
115.2038731038343
 30
0.0
 11
95.7632248212092
 21
115.1731346025234
 31
0.0
  0
LINE
  5
52D
330
6C
100
AcDbEntity
  8
Visible (ANSI)
100
AcDbLine
 10
95.7632248212092
 20
115.1731346025234
 30
0.0
 11
95.7632248212092
 21
115.0788731038343
 31
0.0
  0
LINE
  5
52E
330
6C
100
AcDbEntity
  8
Visible (ANSI)
100
AcDbLine
 10
95.90382482120917
 20
115.2194731038342
 30
0.0
 11
95.90382482120922
 21
115.9538731038342
 31
0.0
  0
LINE
  5
52F
330
6C
100
AcDbEntity
  8
Visible (ANSI)
100
AcDbLine
 10
95.77882482120921
 20
115.9538731038342
 30
0.0
 11
95.90382482120922
 21
115.9538731038342
 31
0.0
  0
SPLINE
  5
530
330
6C
100
AcDbEntity
  8
Visible (ANSI)
100
AcDbSpline
210
0.0
220
0.0
230
1.0
 70
     8
 71
     3
 72
    11
 73
     7
 74
     0
 42
0.0000000001
 43
0.0000000001
 40
0.0
 40
0.0
 40
0.0
 40
0.0
 40
1.018582815488228
 40
1.018582815488228
 40
1.018582815488228
 40
1.570796326795121
 40
1.570796326795121
 40
1.570796326795121
 40
1.570796326795121
 10
28.04442482120921
 20
115.0788731038343
 30
0.0
 10
28.06015802158612
 20
115.0788731038343
 30
0.0
 10
28.07589122196303
 20
115.1050760094134
 30
0.0
 10
28.09162442233994
 20
115.1457181372826
 30
0.0
 10
28.10015400451246
 20
115.1677518215313
 30
0.0
 10
28.10868358668498
 20
115.1935926972711
 30
0.0
 10
28.11721316885751
 20
115.2194731038344
 30
0.0
  0
SPLINE
  5
531
330
6C
100
AcDbEntity
  8
Visible (ANSI)
100
AcDbSpline
210
0.0
220
0.0
230
1.0
 70
     8
 71
     3
 72
    11
 73
     7
 74
     0
 42
0.0000000001
 43
0.0000000001
 40
0.0
 40
0.0
 40
0.0
 40
0.0
 40
1.018582815488739
 40
1.018582815488739
 40
1.018582815488739
 40
1.570796326795524
 40
1.570796326795524
 40
1.570796326795524
 40
1.570796326795524
 10
95.69043647356087
 20
115.2194731038344
 30
0.0
 10
95.7061696739378
 20
115.1717355225485
 30
0.0
 10
95.72190287431469
 20
115.1248129672662
 30
0.0
 10
95.7376360746916
 20
115.099771120104
 30
0.0
 10
95.74616565686412
 20
115.0861949570854
 30
0.0
 10
95.75469523903665
 20
115.0788731038343
 30
0.0
 10
95.76322482120916
 20
115.0788731038343
 30
0.0
  0
LINE
  5
532
330
6C
100
AcDbEntity
  8
Visible (ANSI)
100
AcDbLine
 10
95.69043647356087
 20
115.9538731038344
 30
0.0
 11
95.69043647356087
 21
115.2194731038344
 31
0.0
  0
SPLINE
  5
533
330
6C
100
AcDbEntity
  8
Visible (ANSI)
100
AcDbSpline
210
0.0
220
0.0
230
1.0
 70
     8
 71
     3
 72
     8
 73
     4
 74
     0
 42
0.0000000001
 43
0.0000000001
 40
0.0
 40
0.0
 40
0.0
 40
0.0
 40
1.570796326795524
 40
1.570796326795524
 40
1.570796326795524
 40
1.570796326795524
 10
95.76322482120916
 20
115.2038731038343
 30
0.0
 10
95.73896203865974
 20
115.2038731038343
 30
0.0
 10
95.7146992561103
 20
115.211304962935
 30
0.0
 10
95.69043647356087
 20
115.2194731038343
 30
0.0
  0
SPLINE
  5
534
330
6C
100
AcDbEntity
  8
Visible (ANSI)
100
AcDbSpline
210
0.0
220
0.0
230
1.0
 70
     8
 71
     3
 72
     8
 73
     4
 74
     0
 42
0.0000000001
 43
0.0000000001
 40
0.0
 40
0.0
 40
0.0
 40
0.0
 40
1.570796326795121
 40
1.570796326795121
 40
1.570796326795121
 40
1.570796326795121
 10
28.04442482120921
 20
115.2038731038343
 30
0.0
 10
28.06868760375864
 20
115.2038731038343
 30
0.0
 10
28.09295038630807
 20
115.211304962935
 30
0.0
 10
28.11721316885751
 20
115.2194731038343
 30
0.0
  0
LINE
  5
535
330
6C
100
AcDbEntity
  8
Visible (ANSI)
100
AcDbLine
 10
28.04442482120919
 20
115.2038731038343
 30
0.0
 11
28.04442482120921
 21
115.1731346025234
 31
0.0
  0
LINE
  5
536
330
6C
100
AcDbEntity
  8
Visible (ANSI)
100
AcDbLine
 10
28.04442482120921
 20
115.1731346025234
 30
0.0
 11
28.04442482120919
 21
115.0788731038343
 31
0.0
  0
LINE
  5
537
330
6C
100
AcDbEntity
  8
Visible (ANSI)
100
AcDbLine
 10
28.11721316885751
 20
115.2194731038343
 30
0.0
 11
28.11721316885751
 21
115.9538731038344
 31
0.0
  0
SPLINE
  5
538
330
6C
100
AcDbEntity
  8
Visible (ANSI)
100
AcDbSpline
210
0.0
220
0.0
230
1.0
 70
     8
 71
     3
 72
    11
 73
     7
 74
     0
 42
0.0000000001
 43
0.0000000001
 40
0.0
 40
0.0
 40
0.0
 40
0.0
 40
1.018582815488559
 40
1.018582815488559
 40
1.018582815488559
 40
1.570796326794912
 40
1.570796326794912
 40
1.570796326794912
 40
1.570796326794912
 10
27.90382482120919
 20
115.2194731038343
 30
0.0
 10
27.90382482120918
 20
115.1717355225484
 30
0.0
 10
27.93002772678832
 20
115.1248129672662
 30
0.0
 10
27.97066985465749
 20
115.099771120104
 30
0.0
 10
27.99270353890616
 20
115.0861949570854
 30
0.0
 10
28.01854441464596
 20
115.0788731038343
 30
0.0
 10
28.04442482120919
 20
115.0788731038343
 30
0.0
  0
LINE
  5
539
330
6C
100
AcDbEntity
  8
Visible (ANSI)
100
AcDbLine
 10
28.02882482120919
 20
115.2194731038343
 30
0.0
 11
28.02882482120919
 21
115.9538731038343
 31
0.0
  0
LINE
  5
53A
330
6C
100
AcDbEntity
  8
Visible (ANSI)
100
AcDbLine
 10
27.90382482120919
 20
115.9538731038343
 30
0.0
 11
27.90382482120919
 21
115.2194731038343
 31
0.0
  0
LINE
  5
53B
330
6C
100
AcDbEntity
  8
Visible (ANSI)
100
AcDbLine
 10
28.02882482120919
 20
115.2194731038343
 30
0.0
 11
27.90382482120919
 21
115.2194731038343
 31
0.0
  0
LINE
  5
53C
330
6C
100
AcDbEntity
  8
Visible (ANSI)
100
AcDbLine
 10
28.02882482120919
 20
115.9538731038343
 30
0.0
 11
27.90382482120919
 21
115.9538731038343
 31
0.0
  0
SPLINE
  5
53D
330
6C
100
AcDbEntity
  8
Visible (ANSI)
100
AcDbSpline
210
0.0
220
0.0
230
1.0
 70
     8
 71
     3
 72
     8
 73
     4
 74
     0
 42
0.0000000001
 43
0.0000000001
 40
0.0
 40
0.0
 40
0.0
 40
0.0
 40
1.570796326794912
 40
1.570796326794912
 40
1.570796326794912
 40
1.570796326794912
 10
28.04442482120919
 20
115.2038731038343
 30
0.0
 10
28.03625668030985
 20
115.2038731038343
 30
0.0
 10
28.02882482120919
 20
115.211304962935
 30
0.0
 10
28.02882482120919
 20
115.2194731038343
 30
0.0
  0
LINE
  5
53E
330
6C
100
AcDbEntity
  8
Visible (ANSI)
100
AcDbLine
 10
95.7632248212092
 20
115.0788731038343
 30
0.0
 11
28.04442482120919
 21
115.0788731038343
 31
0.0
  0
LINE
  5
53F
330
6C
100
AcDbEntity
  8
Hidden (ANSI)
 48
1.092062592506408
100
AcDbLine
 10
28.04442482120919
 20
115.2038731038343
 30
0.0
 11
95.7632248212092
 21
115.2038731038343
 31
0.0
  0
LINE
  5
540
330
6C
100
AcDbEntity
  8
Visible (ANSI)
100
AcDbLine
 10
28.11721316885751
 20
115.9538731038344
 30
0.0
 11
95.69043647356087
 21
115.9538731038344
 31
0.0
  0
LINE
  5
541
330
6C
100
AcDbEntity
  8
Hidden (ANSI)
 48
0.0197405889630318
100
AcDbLine
 10
62.1853248212092
 20
115.2038731038341
 30
0.0
 11
62.1853248212092
 21
115.0788731038341
 31
0.0
  0
LINE
  5
542
330
6C
100
AcDbEntity
  8
Hidden (ANSI)
 48
0.0197405889630318
100
AcDbLine
 10
61.6223248212092
 20
115.2038731038341
 30
0.0
 11
61.6223248212092
 21
115.0788731038341
 31
0.0
  0
LINE
  5
543
330
6C
100
AcDbEntity
  8
Hidden (ANSI)
 48
0.0197405889630318
100
AcDbLine
 10
95.31032482120917
 20
115.2038731038341
 30
0.0
 11
95.31032482120917
 21
115.0788731038341
 31
0.0
  0
LINE
  5
544
330
6C
100
AcDbEntity
  8
Hidden (ANSI)
 48
0.0197405889630318
100
AcDbLine
 10
94.74732482120916
 20
115.2038731038341
 30
0.0
 11
94.74732482120916
 21
115.0788731038341
 31
0.0
  0
LINE
  5
545
330
6C
100
AcDbEntity
  8
Hidden (ANSI)
 48
0.0197405889630318
100
AcDbLine
 10
29.06032482120919
 20
115.2038731038341
 30
0.0
 11
29.06032482120919
 21
115.0788731038341
 31
0.0
  0
LINE
  5
546
330
6C
100
AcDbEntity
  8
Hidden (ANSI)
 48
0.0197405889630318
100
AcDbLine
 10
28.49732482120919
 20
115.2038731038341
 30
0.0
 11
28.49732482120919
 21
115.0788731038341
 31
0.0
  0
MTEXT
  5
547
330
6C
100
AcDbEntity
  8
Symbol (ANSI)
100
AcDbMText
 10
57.23725812493628
 20
109.2753828380516
 30
0.0
 40
1.440000017796914
 41
0.0
 46
0.0
 71
     7
 72
     1
  1
TOP VIEW
  7
Text Style153
 73
     1
 44
1.0
  0
LINE
  5
548
330
6C
100
AcDbEntity
  8
Symbol (ANSI)
370
    30
100
AcDbLine
 10
57.23841012789964
 20
108.9817231895529
 30
0.0
 11
66.32417985631242
 21
108.9817231895529
 31
0.0
  0
LINE
  5
549
330
6C
100
AcDbEntity
  8
Center Mark (ANSI)
  6
CHAIN
 48
0.1648447215557098
100
AcDbLine
 10
28.77882482119309
 20
92.17756954520471
 30
0.0
 11
28.77882482119309
 21
88.61456954520471
 31
0.0
  0
LINE
  5
54A
330
6C
100
AcDbEntity
  8
Center Mark (ANSI)
  6
CHAIN
 48
0.1648447215557098
100
AcDbLine
 10
95.02882482119307
 20
92.17756954520471
 30
0.0
 11
95.02882482119307
 21
88.61456954520471
 31
0.0
  0
LINE
  5
54B
330
6C
100
AcDbEntity
  8
Centerline (ANSI)
  6
CHAIN
 48
0.9524481296539306
100
AcDbLine
 10
26.99732482119309
 20
90.3960695452047
 30
0.0
 11
96.81032482119306
 21
90.3960695452047
 31
0.0
  0
LINE
  5
54C
330
6C
100
AcDbEntity
  8
Center Mark (ANSI)
  6
CHAIN
 48
0.1648447215557098
100
AcDbLine
 10
96.81032482119306
 20
90.3960695452047
 30
0.0
 11
93.24732482119307
 21
90.3960695452047
 31
0.0
  0
LINE
  5
54D
330
6C
100
AcDbEntity
  8
Center Mark (ANSI)
  6
CHAIN
 48
0.1648447215557098
100
AcDbLine
 10
96.81032482119306
 20
32.14606954520474
 30
0.0
 11
93.24732482119307
 21
32.14606954520474
 31
0.0
  0
LINE
  5
54E
330
6C
100
AcDbEntity
  8
Centerline (ANSI)
  6
CHAIN
 48
0.9524481296539306
100
AcDbLine
 10
95.02882482119307
 20
92.17756954520471
 30
0.0
 11
95.02882482119307
 21
30.36456954520474
 31
0.0
  0
LINE
  5
54F
330
6C
100
AcDbEntity
  8
Center Mark (ANSI)
  6
CHAIN
 48
0.1648447215557098
100
AcDbLine
 10
95.02882482119307
 20
30.36456954520474
 30
0.0
 11
95.02882482119307
 21
33.92756954520474
 31
0.0
  0
LINE
  5
550
330
6C
100
AcDbEntity
  8
Center Mark (ANSI)
  6
CHAIN
 48
0.1648447215557098
100
AcDbLine
 10
28.77882482119307
 20
30.36456954520474
 30
0.0
 11
28.77882482119307
 21
33.92756954520474
 31
0.0
  0
LINE
  5
551
330
6C
100
AcDbEntity
  8
Centerline (ANSI)
  6
CHAIN
 48
0.9524481296539306
100
AcDbLine
 10
96.81032482119306
 20
32.14606954520474
 30
0.0
 11
26.99732482119308
 21
32.14606954520474
 31
0.0
  0
LINE
  5
552
330
6C
100
AcDbEntity
  8
Center Mark (ANSI)
  6
CHAIN
 48
0.1648447215557098
100
AcDbLine
 10
26.99732482119308
 20
32.14606954520474
 30
0.0
 11
30.56032482119308
 21
32.14606954520474
 31
0.0
  0
LINE
  5
553
330
6C
100
AcDbEntity
  8
Center Mark (ANSI)
  6
CHAIN
 48
0.1648447215557098
100
AcDbLine
 10
26.99732482119309
 20
90.3960695452047
 30
0.0
 11
30.56032482119309
 21
90.3960695452047
 31
0.0
  0
LINE
  5
554
330
6C
100
AcDbEntity
  8
Centerline (ANSI)
  6
CHAIN
 48
0.9524481296539306
100
AcDbLine
 10
28.77882482119307
 20
30.36456954520474
 30
0.0
 11
28.77882482119309
 21
92.17756954520471
 31
0.0
  0
LINE
  5
555
330
6C
100
AcDbEntity
  8
Center Mark (ANSI)
  6
CHAIN
 48
0.1648447215557098
100
AcDbLine
 10
28.77882482119309
 20
63.05256954520473
 30
0.0
 11
28.77882482119309
 21
59.48956954520474
 31
0.0
  0
LINE
  5
556
330
6C
100
AcDbEntity
  8
Center Mark (ANSI)
  6
CHAIN
 48
0.1648447215557098
100
AcDbLine
 10
95.02882482119309
 20
63.05256954520475
 30
0.0
 11
95.02882482119309
 21
59.48956954520475
 31
0.0
  0
LINE
  5
557
330
6C
100
AcDbEntity
  8
Centerline (ANSI)
  6
CHAIN
 48
0.9524481296539306
100
AcDbLine
 10
26.9973248211931
 20
61.27106954520473
 30
0.0
 11
96.81032482119308
 21
61.27106954520476
 31
0.0
  0
DIMENSION
  5
558
330
6C
100
AcDbEntity
  8
Dimension (ANSI)
100
AcDbDimension
280
     0
  2
*D4
 10
95.90382482119306
 20
104.5224498521162
 30
0.0
 11
61.90382482119307
 21
104.5224498521162
 31
0.0
 70
   160
  1
<>
 42
67.99999999999997
 73
     0
 74
     0
 75
     0
  3
Default (ANSI)
100
AcDbAlignedDimension
 13
27.90382482119309
 23
91.05768119755643
 33
0.0
 14
95.90382482119306
 24
91.05768119755643
 34
0.0
100
AcDbRotatedDimension
1001
ACAD
1000
DSTYLE
1002
{
1070
   289
1070
     1
1070
    73
1070
     0
1070
    74
1070
     0
1070
   271
1070
     2
1070
   272
1070
     2
1070
    48
1040
0.0
1070
    47
1040
0.0
1002
}
  0
DIMENSION
  5
644
330
6C
100
AcDbEntity
  8
Dimension (ANSI)
100
AcDbDimension
280
     0
  2
*D5
 10
28.77882482119309
 20
96.29184061545506
 30
0.0
 11
22.70769735955692
 21
96.29184061545506
 31
0.0
 70
   160
  1
<>
 42
0.8750000000000035
 73
     0
 74
     0
 75
     0
  3
Default (ANSI)
100
AcDbAlignedDimension
 13
27.90382482119309
 23
91.05768119755643
 33
0.0
 14
28.77882482119309
 24
92.17756954520471
 34
0.0
100
AcDbRotatedDimension
1001
ACAD
1000
DSTYLE
1002
{
1070
   289
1070
     1
1070
    73
1070
     0
1070
    74
1070
     0
1070
   271
1070
     2
1070
   272
1070
     2
1070
    48
1040
0.0
1070
    47
1040
0.0
1002
}
  0
DIMENSION
  5
72E
330
6C
100
AcDbEntity
  8
Dimension (ANSI)
100
AcDbDimension
280
     0
  2
*D6
 10
61.90382482119309
 20
96.29184061545506
 30
0.0
 11
45.34132482119309
 21
96.29184061545506
 31
0.0
 70
   160
  1
<>
 42
33.125
 73
     0
 74
     0
 75
     0
  3
Default (ANSI)
100
AcDbAlignedDimension
 13
28.77882482119309
 23
92.17756954520471
 33
0.0
 14
61.90382482119309
 24
92.17756954520471
 34
0.0
 50
180.0
100
AcDbRotatedDimension
1001
ACAD
1000
DSTYLE
1002
{
1070
   289
1070
     1
1070
    73
1070
     0
1070
    74
1070
     0
1070
   271
1070
     2
1070
   272
1070
     2
1070
    48
1040
0.0
1070
    47
1040
0.0
1002
}
  0
DIMENSION
  5
818
330
6C
100
AcDbEntity
  8
Dimension (ANSI)
100
AcDbDimension
280
     0
  2
*D7
 10
26.72207336916397
 20
32.14606954520474
 30
0.0
 11
23.31732311900843
 21
27.82709755461906
 31
0.0
 70
   160
  1
<>
 42
0.875
 73
     0
 74
     0
 75
     0
  3
Default (ANSI)
100
AcDbAlignedDimension
 13
28.11721316884142
 23
31.27106954520474
 33
0.0
 14
26.99732482119308
 24
32.14606954520474
 34
0.0
 50
90.0
100
AcDbRotatedDimension
1001
ACAD
1000
DSTYLE
1002
{
1070
   289
1070
     1
1070
   271
1070
     2
1070
   272
1070
     2
1070
    48
1040
0.0
1070
    47
1040
0.0
1002
}
  0
DIMENSION
  5
918
330
6C
100
AcDbEntity
  8
Dimension (ANSI)
100
AcDbDimension
280
     0
  2
*D8
 10
23.31732311900845
 20
61.27106954520473
 30
0.0
 11
23.31732311900843
 21
46.70856954520473
 31
0.0
 70
   160
  1
<>
 42
29.125
 73
     0
 74
     0
 75
     0
  3
Default (ANSI)
100
AcDbAlignedDimension
 13
26.99732482119308
 23
32.14606954520474
 33
0.0
 14
26.9973248211931
 24
61.27106954520473
 34
0.0
 50
90.0
100
AcDbRotatedDimension
1001
ACAD
1000
DSTYLE
1002
{
1070
   289
1070
     1
1070
   271
1070
     2
1070
   272
1070
     2
1070
    48
1040
0.0
1070
    47
1040
0.0
1002
}
  0
DIMENSION
  5
A02
330
6C
100
AcDbEntity
  8
Dimension (ANSI)
100
AcDbDimension
280
     0
  2
*D9
 10
15.97370277394901
 20
90.3960695452047
 30
0.0
 11
15.973702773949
 21
61.27106954520473
 31
0.0
 70
   160
  1
<>
 42
58.24999999999996
 73
     0
 74
     0
 75
     0
  3
Default (ANSI)
100
AcDbAlignedDimension
 13
26.99732482119308
 23
32.14606954520474
 33
0.0
 14
26.99732482119309
 24
90.3960695452047
 34
0.0
 50
90.0
100
AcDbRotatedDimension
1001
ACAD
1000
DSTYLE
1002
{
1070
   289
1070
     1
1070
   271
1070
     2
1070
   272
1070
     2
1070
    48
1040
0.0
1070
    47
1040
0.0
1002
}
  0
DIMENSION
  5
AEC
330
6C
100
AcDbEntity
  8
Dimension (ANSI)
100
AcDbDimension
280
     0
  2
*D10
 10
8.99640419892518
 20
91.27106954520471
 30
0.0
 11
8.996404198925164
 21
61.27106954520473
 31
0.0
 70
   160
  1
<>
 42
59.99999999999996
 73
     0
 74
     0
 75
     0
  3
Default (ANSI)
100
AcDbAlignedDimension
 13
28.11721316884142
 23
31.27106954520474
 33
0.0
 14
28.11721316884142
 24
91.27106954520471
 34
0.0
 50
90.0
100
AcDbRotatedDimension
1001
ACAD
1000
DSTYLE
1002
{
1070
   289
1070
     1
1070
   271
1070
     2
1070
   272
1070
     2
1070
    48
1040
0.0
1070
    47
1040
0.0
1002
}
  0
DIMENSION
  5
BD6
330
6C
100
AcDbEntity
  8
Dimension (ANSI)
100
AcDbDimension
280
     0
  2
*D11
 10
94.85681494438004
 20
32.36890323269111
 30
0.0
 11
102.3980163360051
 21
29.15874917505652
 31
0.0
 70
   163
  1
<>{\P(8 PL.)}
 71
     4
 42
0.563000000000007
 73
     0
 74
     0
 75
     0
  3
Default (ANSI)
100
AcDbDiametricDimension
 15
95.20083469800608
 25
31.92323585771835
 35
0.0
 40
0.0
1001
ACAD
1000
DSTYLE
1002
{
1070
   144
1040
0.9999999999999705
1070
   271
1070
     3
1070
   272
1070
     3
1070
    48
1040
0.0
1070
    47
1040
0.0
1002
}
1001
ACAD_DSTYLE_DIMRADIAL_EXTENSION
1070
   387
1070
     1
1070
   388
1040
0.0
1070
   390
1040
0.0
  0
DIMENSION
  5
C90
330
6C
100
AcDbEntity
  8
Dimension (ANSI)
100
AcDbDimension
280
     0
  2
*D12
 10
84.12424769063576
 20
115.0788731038343
 30
0.0
 11
87.5855728251453
 21
121.0178451144416
 31
0.0
 70
   160
  1
<>{\PTYP.}
 71
     5
 42
0.875000000000071
 73
     0
 74
     0
 75
     0
  3
Default (ANSI)
100
AcDbAlignedDimension
 13
87.5855728251453
 23
115.9538731038344
 33
0.0
 14
87.54957286914125
 24
115.0788731038343
 34
0.0
 50
270.0
100
AcDbRotatedDimension
1001
ACAD
1000
DSTYLE
1002
{
1070
   289
1070
     1
1070
   271
1070
     2
1070
    76
1070
     1
1070
    75
1070
     1
1070
   272
1070
     2
1070
    48
1040
0.0
1070
    47
1040
0.0
1002
}
  0
DIMENSION
  5
D99
330
6C
100
AcDbEntity
  8
Dimension (ANSI)
100
AcDbDimension
280
     0
  2
*D13
 10
115.0425642679955
 20
88.24808455786248
 30
0.0
 11
121.2248424712087
 21
88.24808455786248
 31
0.0
 70
   160
  1
<>{\PTYP.}
 71
     4
 42
0.8749999999999715
 73
     0
 74
     0
 75
     0
  3
Default (ANSI)
100
AcDbAlignedDimension
 13
115.9175642679954
 23
88.24808455786248
 33
0.0
 14
115.0425642679955
 24
88.27431637428624
 34
0.0
 50
180.0
100
AcDbRotatedDimension
1001
ACAD
1000
DSTYLE
1002
{
1070
   289
1070
     1
1070
    73
1070
     0
1070
    74
1070
     0
1070
   271
1070
     2
1070
    76
1070
     1
1070
    75
1070
     1
1070
   272
1070
     2
1070
    48
1040
0.0
1070
    47
1040
0.0
1002
}
  0
LINE
  5
E88
330
6C
100
AcDbEntity
  8
Center Mark (ANSI)
  6
CHAIN
 48
0.1648447215557098
100
AcDbLine
 10
63.68532482119309
 20
90.3960695452047
 30
0.0
 11
60.12232482119309
 21
90.3960695452047
 31
0.0
  0
LINE
  5
E89
330
6C
100
AcDbEntity
  8
Center Mark (ANSI)
  6
CHAIN
 48
0.1648447215557098
100
AcDbLine
 10
63.68532482119313
 20
32.14606954520475
 30
0.0
 11
60.12232482119314
 21
32.14606954520475
 31
0.0
  0
LINE
  5
E8A
330
6C
100
AcDbEntity
  8
Centerline (ANSI)
  6
CHAIN
 48
0.9524481296539306
100
AcDbLine
 10
61.90382482119309
 20
92.17756954520471
 30
0.0
 11
61.90382482119313
 21
30.36456954520475
 31
0.0
  0
DIMENSION
  5
E8B
330
6C
100
AcDbEntity
  8
Dimension (ANSI)
100
AcDbDimension
280
     0
  2
*D14
 10
95.02882482119307
 20
99.94285791165488
 30
0.0
 11
61.90382482119307
 21
99.94285791165488
 31
0.0
 70
   160
  1
<>
 42
66.24999999999999
 73
     0
 74
     0
 75
     0
  3
Default (ANSI)
100
AcDbAlignedDimension
 13
28.77882482119309
 23
92.17756954520471
 33
0.0
 14
95.02882482119307
 24
92.17756954520471
 34
0.0
 50
180.0
100
AcDbRotatedDimension
1001
ACAD
1000
DSTYLE
1002
{
1070
   289
1070
     1
1070
    73
1070
     0
1070
    74
1070
     0
1070
   271
1070
     2
1070
   272
1070
     2
1070
    48
1040
0.0
1070
    47
1040
0.0
1002
}
  0
MTEXT
  5
F75
102
{ACAD_XDICTIONARY
360
F7C
102
}
330
6C
100
AcDbEntity
  8
Symbol (ANSI)
100
AcDbMText
 10
114.2820912152928
 20
12.29514261978904
 30
0.0
 40
1.200000038297157
 41
88.60064529058503
 46
0.0
 71
     4
 72
     1
  3
{\fRomanS|b0|i0|c0|p2;\H2x;PART#: WA72P72F1G\P(DATA SUBJECT TO CHANGE WITHOUT NOTICE)\H1.6157x; \H0.61894x;\P \H1.352x; \H0.73963x;\P\H0.6x;THIS DRAWING IS PROPERTY OF HUBBELL INC. WIEGMANN\H1.5633x; \H0.63966x;\PALL INFORMATION IS PROPRIETARY AND NO
  1
T TO BE DUPLICATED\H1.234x; \H0.81039x;\P\H1.2571x; }
  7
Note Text (ANSI)
 73
     1
 44
0.8026435375213623
  0
ENDSEC
  0
SECTION
  2
OBJECTS
  0
DICTIONARY
  5
C
330
0
100
AcDbDictionary
281
     1
  3
ACAD_CIP_PREVIOUS_PRODUCT_INFO
350
F77
  3
ACAD_COLOR
350
63
  3
ACAD_GROUP
350
D
  3
ACAD_LAYOUT
350
62
  3
ACAD_MATERIAL
350
10
  3
ACAD_MLEADERSTYLE
350
66
  3
ACAD_MLINESTYLE
350
5F
  3
ACAD_PLOTSETTINGS
350
61
  3
ACAD_PLOTSTYLENAME
350
E
  3
ACAD_SCALELIST
350
42
  3
ACAD_TABLESTYLE
350
64
  3
ACAD_VISUALSTYLE
350
29
  3
ACDB_RECOMPOSE_DATA
350
F7E
  3
AcDbVariableDictionary
350
76
  0
DICTIONARY
  5
F7C
330
F75
100
AcDbDictionary
280
     1
281
     1
  3
ACAD_MTEXT_2008_RT
360
F7D
  0
XRECORD
  5
F77
102
{ACAD_REACTORS
330
C
102
}
330
C
100
AcDbXrecord
280
     1
300
INVNTOR
300
2012
300
PDSP_F_S
  0
DICTIONARY
  5
63
102
{ACAD_REACTORS
330
C
102
}
330
C
100
AcDbDictionary
281
     1
  0
DICTIONARY
  5
D
102
{ACAD_REACTORS
330
C
102
}
330
C
100
AcDbDictionary
281
     1
  0
DICTIONARY
  5
62
102
{ACAD_REACTORS
330
C
102
}
330
C
100
AcDbDictionary
281
     1
  3
Layout1
350
6B
  3
Layout2
350
73
  3
Model
350
6F
  0
DICTIONARY
  5
10
102
{ACAD_REACTORS
330
C
102
}
330
C
100
AcDbDictionary
281
     1
  3
ByBlock
350
19
  3
ByLayer
350
11
  3
Global
350
21
  0
DICTIONARY
  5
66
102
{ACAD_REACTORS
330
C
102
}
330
C
100
AcDbDictionary
281
     1
  3
Standard
350
67
  0
DICTIONARY
  5
5F
102
{ACAD_REACTORS
330
C
102
}
330
C
100
AcDbDictionary
281
     1
  3
Standard
350
60
  0
DICTIONARY
  5
61
102
{ACAD_REACTORS
330
C
102
}
330
C
100
AcDbDictionary
281
     1
  0
ACDBDICTIONARYWDFLT
  5
E
102
{ACAD_REACTORS
330
C
102
}
330
C
100
AcDbDictionary
281
     1
  3
Normal
350
F
100
AcDbDictionaryWithDefault
340
F
  0
DICTIONARY
  5
42
102
{ACAD_REACTORS
330
C
102
}
330
C
100
AcDbDictionary
281
     1
  3
A0
350
43
  3
A1
350
44
  3
A2
350
45
  3
A3
350
46
  3
A4
350
47
  3
A5
350
48
  3
A6
350
49
  3
A7
350
4A
  3
A8
350
4B
  3
A9
350
4C
  3
B0
350
4D
  3
B1
350
4E
  3
B2
350
4F
  3
B3
350
50
  3
B4
350
51
  3
B5
350
52
  3
B6
350
53
  0
DICTIONARY
  5
64
102
{ACAD_REACTORS
330
C
102
}
330
C
100
AcDbDictionary
281
     1
  3
Standard
350
65
  0
DICTIONARY
  5
29
102
{ACAD_REACTORS
330
C
102
}
330
C
100
AcDbDictionary
281
     1
  3
2dWireframe
350
2F
  3
Basic
350
2E
  3
Brighten
350
35
  3
ColorChange
350
39
  3
Conceptual
350
32
  3
Dim
350
34
  3
EdgeColorOff
350
41
  3
Facepattern
350
38
  3
Flat
350
2A
  3
FlatWithEdges
350
2B
  3
Gouraud
350
2C
  3
GouraudWithEdges
350
2D
  3
Hidden
350
31
  3
JitterOff
350
3F
  3
Linepattern
350
37
  3
OverhangOff
350
40
  3
Realistic
350
33
  3
Shaded
350
3E
  3
Shaded with edges
350
3D
  3
Shades of Gray
350
3A
  3
Sketchy
350
3B
  3
Thicken
350
36
  3
Wireframe
350
30
  3
X-Ray
350
3C
  0
XRECORD
  5
F7E
102
{ACAD_REACTORS
330
C
102
}
330
C
100
AcDbXrecord
280
     1
 90
        1
330
65
330
F75
  0
DICTIONARY
  5
76
102
{ACAD_REACTORS
330
C
102
}
330
C
100
AcDbDictionary
281
     1
  3
CANNOSCALE
350
79
  3
CMLEADERSTYLE
350
78
  3
CTABLESTYLE
350
77
  0
XRECORD
  5
F7D
102
{ACAD_REACTORS
330
F7C
102
}
330
F7C
100
AcDbXrecord
280
     1
 40
3109190.0
  1
\pxsm0.94;{\fRomanS|b0|i0;\H2.4000;PART#: WA72P72F1G\P(DATA SUBJECT TO CHANGE WITHOUT NOTICE)\P \P\fRomanS|b0|i0;\H1.4400;THIS DRAWING IS PROPERTY OF HUBBELL INC. WIEGMANN\PALL INFORMATION IS PROPRIETARY AND NOT TO BE DUPLICATED\P}
  0
LAYOUT
  5
6B
102
{ACAD_REACTORS
330
62
102
}
330
62
100
AcDbPlotSettings
  1

  2

  4

  6

 40
0.0
 41
0.0
 42
0.0
 43
0.0
 44
0.0
 45
0.0
 46
0.0
 47
0.0
 48
0.0
 49
0.0
140
0.0
141
0.0
142
1.0
143
1.0
 70
   688
 72
     0
 73
     0
 74
     5
  7

 75
    16
147
1.0
 76
     0
 77
     2
 78
   300
148
0.0
149
0.0
100
AcDbLayout
  1
Layout1
 70
     1
 71
     1
 10
0.0
 20
0.0
 11
12.0
 21
9.0
 12
0.0
 22
0.0
 32
0.0
 14
0.0
 24
0.0
 34
0.0
 15
0.0
 25
0.0
 35
0.0
146
0.0
 13
0.0
 23
0.0
 33
0.0
 16
1.0
 26
0.0
 36
0.0
 17
0.0
 27
1.0
 37
0.0
 76
     0
330
68
  0
LAYOUT
  5
73
102
{ACAD_REACTORS
330
62
102
}
330
62
100
AcDbPlotSettings
  1

  2

  4

  6

 40
0.0
 41
0.0
 42
0.0
 43
0.0
 44
0.0
 45
0.0
 46
0.0
 47
0.0
 48
0.0
 49
0.0
140
0.0
141
0.0
142
1.0
143
1.0
 70
   688
 72
     0
 73
     0
 74
     5
  7

 75
    16
147
1.0
 76
     0
 77
     2
 78
   300
148
0.0
149
0.0
100
AcDbLayout
  1
Layout2
 70
     1
 71
     2
 10
0.0
 20
0.0
 11
12.0
 21
9.0
 12
0.0
 22
0.0
 32
0.0
 14
0.0
 24
0.0
 34
0.0
 15
0.0
 25
0.0
 35
0.0
146
0.0
 13
0.0
 23
0.0
 33
0.0
 16
1.0
 26
0.0
 36
0.0
 17
0.0
 27
1.0
 37
0.0
 76
     0
330
70
  0
LAYOUT
  5
6F
102
{ACAD_REACTORS
330
62
102
}
330
62
100
AcDbPlotSettings
  1

  2

  4

  6

 40
0.0
 41
0.0
 42
0.0
 43
0.0
 44
0.0
 45
0.0
 46
0.0
 47
0.0
 48
0.0
 49
0.0
140
0.0
141
0.0
142
1.0
143
1.0
 70
  1712
 72
     0
 73
     0
 74
     0
  7

 75
     0
147
1.0
 76
     0
 77
     2
 78
   300
148
0.0
149
0.0
100
AcDbLayout
  1
Model
 70
     1
 71
     0
 10
0.0
 20
0.0
 11
12.0
 21
9.0
 12
0.0
 22
0.0
 32
0.0
 14
0.0
 24
0.0
 34
0.0
 15
0.0
 25
0.0
 35
0.0
146
0.0
 13
0.0
 23
0.0
 33
0.0
 16
1.0
 26
0.0
 36
0.0
 17
0.0
 27
1.0
 37
0.0
 76
     0
330
6C
  0
MATERIAL
  5
19
102
{ACAD_XDICTIONARY
360
1A
102
}
102
{ACAD_REACTORS
330
10
102
}
330
10
100
AcDbMaterial
  1
ByBlock
 72
     0
 43
0.0208333333333333
 43
0.0
 43
0.0
 43
0.0
 43
0.0
 43
0.0208333333333333
 43
0.0
 43
0.0
 43
0.0
 43
0.0
 43
1.0
 43
0.0
 43
0.0
 43
0.0
 43
0.0
 43
1.0
 77
     0
 47
0.0208333333333333
 47
0.0
 47
0.0
 47
0.0
 47
0.0
 47
0.0208333333333333
 47
0.0
 47
0.0
 47
0.0
 47
0.0
 47
1.0
 47
0.0
 47
0.0
 47
0.0
 47
0.0
 47
1.0
171
     0
 49
0.0208333333333333
 49
0.0
 49
0.0
 49
0.0
 49
0.0
 49
0.0208333333333333
 49
0.0
 49
0.0
 49
0.0
 49
0.0
 49
1.0
 49
0.0
 49
0.0
 49
0.0
 49
0.0
 49
1.0
175
     0
142
0.0208333333333333
142
0.0
142
0.0
142
0.0
142
0.0
142
0.0208333333333333
142
0.0
142
0.0
142
0.0
142
0.0
142
1.0
142
0.0
142
0.0
142
0.0
142
0.0
142
1.0
179
     0
144
0.0208333333333333
144
0.0
144
0.0
144
0.0
144
0.0
144
0.0208333333333333
144
0.0
144
0.0
144
0.0
144
0.0
144
1.0
144
0.0
144
0.0
144
0.0
144
0.0
144
1.0
147
0.0208333333333333
147
0.0
147
0.0
147
0.0
147
0.0
147
0.0208333333333333
147
0.0
147
0.0
147
0.0
147
0.0
147
1.0
147
0.0
147
0.0
147
0.0
147
0.0
147
1.0
  0
MATERIAL
  5
11
102
{ACAD_XDICTIONARY
360
12
102
}
102
{ACAD_REACTORS
330
10
102
}
330
10
100
AcDbMaterial
  1
ByLayer
 72
     0
 43
0.0208333333333333
 43
0.0
 43
0.0
 43
0.0
 43
0.0
 43
0.0208333333333333
 43
0.0
 43
0.0
 43
0.0
 43
0.0
 43
1.0
 43
0.0
 43
0.0
 43
0.0
 43
0.0
 43
1.0
 77
     0
 47
0.0208333333333333
 47
0.0
 47
0.0
 47
0.0
 47
0.0
 47
0.0208333333333333
 47
0.0
 47
0.0
 47
0.0
 47
0.0
 47
1.0
 47
0.0
 47
0.0
 47
0.0
 47
0.0
 47
1.0
171
     0
 49
0.0208333333333333
 49
0.0
 49
0.0
 49
0.0
 49
0.0
 49
0.0208333333333333
 49
0.0
 49
0.0
 49
0.0
 49
0.0
 49
1.0
 49
0.0
 49
0.0
 49
0.0
 49
0.0
 49
1.0
175
     0
142
0.0208333333333333
142
0.0
142
0.0
142
0.0
142
0.0
142
0.0208333333333333
142
0.0
142
0.0
142
0.0
142
0.0
142
1.0
142
0.0
142
0.0
142
0.0
142
0.0
142
1.0
179
     0
144
0.0208333333333333
144
0.0
144
0.0
144
0.0
144
0.0
144
0.0208333333333333
144
0.0
144
0.0
144
0.0
144
0.0
144
1.0
144
0.0
144
0.0
144
0.0
144
0.0
144
1.0
147
0.0208333333333333
147
0.0
147
0.0
147
0.0
147
0.0
147
0.0208333333333333
147
0.0
147
0.0
147
0.0
147
0.0
147
1.0
147
0.0
147
0.0
147
0.0
147
0.0
147
1.0
  0
MATERIAL
  5
21
102
{ACAD_XDICTIONARY
360
22
102
}
102
{ACAD_REACTORS
330
10
102
}
330
10
100
AcDbMaterial
  1
Global
 72
     0
 43
0.0208333333333333
 43
0.0
 43
0.0
 43
0.0
 43
0.0
 43
0.0208333333333333
 43
0.0
 43
0.0
 43
0.0
 43
0.0
 43
1.0
 43
0.0
 43
0.0
 43
0.0
 43
0.0
 43
1.0
 77
     0
 47
0.0208333333333333
 47
0.0
 47
0.0
 47
0.0
 47
0.0
 47
0.0208333333333333
 47
0.0
 47
0.0
 47
0.0
 47
0.0
 47
1.0
 47
0.0
 47
0.0
 47
0.0
 47
0.0
 47
1.0
171
     0
 49
0.0208333333333333
 49
0.0
 49
0.0
 49
0.0
 49
0.0
 49
0.0208333333333333
 49
0.0
 49
0.0
 49
0.0
 49
0.0
 49
1.0
 49
0.0
 49
0.0
 49
0.0
 49
0.0
 49
1.0
175
     0
142
0.0208333333333333
142
0.0
142
0.0
142
0.0
142
0.0
142
0.0208333333333333
142
0.0
142
0.0
142
0.0
142
0.0
142
1.0
142
0.0
142
0.0
142
0.0
142
0.0
142
1.0
179
     0
144
0.0208333333333333
144
0.0
144
0.0
144
0.0
144
0.0
144
0.0208333333333333
144
0.0
144
0.0
144
0.0
144
0.0
144
1.0
144
0.0
144
0.0
144
0.0
144
0.0
144
1.0
147
0.0208333333333333
147
0.0
147
0.0
147
0.0
147
0.0
147
0.0208333333333333
147
0.0
147
0.0
147
0.0
147
0.0
147
1.0
147
0.0
147
0.0
147
0.0
147
0.0
147
1.0
  0
MLEADERSTYLE
  5
67
102
{ACAD_XDICTIONARY
360
F7A
102
}
102
{ACAD_REACTORS
330
66
102
}
330
66
100
AcDbMLeaderStyle
179
     2
170
     2
171
     1
172
     0
 90
        2
 40
0.0
 41
0.0
173
     1
 91
-1056964608
340
5B
 92
       -2
290
     1
 42
0.09
291
     1
 43
0.36
  3
Standard
 44
0.18
300

342
55
174
     1
178
     6
175
     1
176
     0
 93
-1056964608
 45
0.18
292
     0
297
     0
 46
0.18
 94
-1056964608
 47
1.0
 49
1.0
140
1.0
293
     1
141
0.0
294
     1
177
     0
142
1.0
295
     0
296
     0
143
0.125
271
     0
272
     9
273
     9
  0
MLINESTYLE
  5
60
102
{ACAD_REACTORS
330
5F
102
}
330
5F
100
AcDbMlineStyle
  2
STANDARD
 70
     0
  3

 62
   256
 51
90.0
 52
90.0
 71
     2
 49
0.5
 62
   256
  6
BYLAYER
 49
-0.5
 62
   256
  6
BYLAYER
  0
ACDBPLACEHOLDER
  5
F
102
{ACAD_REACTORS
330
E
102
}
330
E
  0
SCALE
  5
43
102
{ACAD_REACTORS
330
42
102
}
330
42
100
AcDbScale
 70
     0
300
1:1
140
1.0
141
1.0
290
     1
  0
SCALE
  5
44
102
{ACAD_REACTORS
330
42
102
}
330
42
100
AcDbScale
 70
     0
300
1/128" = 1'-0"
140
0.0078125
141
12.0
290
     0
  0
SCALE
  5
45
102
{ACAD_REACTORS
330
42
102
}
330
42
100
AcDbScale
 70
     0
300
1/64" = 1'-0"
140
0.015625
141
12.0
290
     0
  0
SCALE
  5
46
102
{ACAD_REACTORS
330
42
102
}
330
42
100
AcDbScale
 70
     0
300
1/32" = 1'-0"
140
0.03125
141
12.0
290
     0
  0
SCALE
  5
47
102
{ACAD_REACTORS
330
42
102
}
330
42
100
AcDbScale
 70
     0
300
1/16" = 1'-0"
140
0.0625
141
12.0
290
     0
  0
SCALE
  5
48
102
{ACAD_REACTORS
330
42
102
}
330
42
100
AcDbScale
 70
     0
300
3/32" = 1'-0"
140
0.09375
141
12.0
290
     0
  0
SCALE
  5
49
102
{ACAD_REACTORS
330
42
102
}
330
42
100
AcDbScale
 70
     0
300
1/8" = 1'-0"
140
0.125
141
12.0
290
     0
  0
SCALE
  5
4A
102
{ACAD_REACTORS
330
42
102
}
330
42
100
AcDbScale
 70
     0
300
3/16" = 1'-0"
140
0.1875
141
12.0
290
     0
  0
SCALE
  5
4B
102
{ACAD_REACTORS
330
42
102
}
330
42
100
AcDbScale
 70
     0
300
1/4" = 1'-0"
140
0.25
141
12.0
290
     0
  0
SCALE
  5
4C
102
{ACAD_REACTORS
330
42
102
}
330
42
100
AcDbScale
 70
     0
300
3/8" = 1'-0"
140
0.375
141
12.0
290
     0
  0
SCALE
  5
4D
102
{ACAD_REACTORS
330
42
102
}
330
42
100
AcDbScale
 70
     0
300
1/2" = 1'-0"
140
0.5
141
12.0
290
     0
  0
SCALE
  5
4E
102
{ACAD_REACTORS
330
42
102
}
330
42
100
AcDbScale
 70
     0
300
3/4" = 1'-0"
140
0.75
141
12.0
290
     0
  0
SCALE
  5
4F
102
{ACAD_REACTORS
330
42
102
}
330
42
100
AcDbScale
 70
     0
300
1" = 1'-0"
140
1.0
141
12.0
290
     0
  0
SCALE
  5
50
102
{ACAD_REACTORS
330
42
102
}
330
42
100
AcDbScale
 70
     0
300
1-1/2" = 1'-0"
140
1.5
141
12.0
290
     0
  0
SCALE
  5
51
102
{ACAD_REACTORS
330
42
102
}
330
42
100
AcDbScale
 70
     0
300
3" = 1'-0"
140
3.0
141
12.0
290
     0
  0
SCALE
  5
52
102
{ACAD_REACTORS
330
42
102
}
330
42
100
AcDbScale
 70
     0
300
6" = 1'-0"
140
6.0
141
12.0
290
     0
  0
SCALE
  5
53
102
{ACAD_REACTORS
330
42
102
}
330
42
100
AcDbScale
 70
     0
300
1'-0" = 1'-0"
140
12.0
141
12.0
290
     0
  0
TABLESTYLE
  5
65
102
{ACAD_XDICTIONARY
360
F78
102
}
102
{ACAD_REACTORS
330
64
102
}
330
64
100
AcDbTableStyle
280
     0
  3
Standard
 70
     0
 71
     0
 40
0.06
 41
0.06
280
     0
281
     0
  7
Standard
140
0.18
170
     2
 62
     0
 63
     7
283
     0
 90
      512
 91
        0
  1

274
    -2
284
     1
 64
     0
275
    -2
285
     1
 65
     0
276
    -2
286
     1
 66
     0
277
    -2
287
     1
 67
     0
278
    -2
288
     1
 68
     0
279
    -2
289
     1
 69
     0
  7
Standard
140
0.25
170
     5
 62
     0
 63
     7
283
     0
 90
      512
 91
        0
  1

274
    -2
284
     1
 64
     0
275
    -2
285
     1
 65
     0
276
    -2
286
     1
 66
     0
277
    -2
287
     1
 67
     0
278
    -2
288
     1
 68
     0
279
    -2
289
     1
 69
     0
  7
Standard
140
0.18
170
     5
 62
     0
 63
     7
283
     0
 90
      512
 91
        0
  1

274
    -2
284
     1
 64
     0
275
    -2
285
     1
 65
     0
276
    -2
286
     1
 66
     0
277
    -2
287
     1
 67
     0
278
    -2
288
     1
 68
     0
279
    -2
289
     1
 69
     0
  0
VISUALSTYLE
  5
2F
102
{ACAD_REACTORS
330
29
102
}
330
29
100
AcDbVisualStyle
  2
2dWireframe
 70
     4
177
     2
291
     0
 71
     0
176
     1
 72
     2
176
     1
 73
     0
176
     1
 90
        0
176
     1
 40
0.6
176
     1
 41
30.0
176
     1
 63
     7
421
 16777215
176
     1
 74
     1
176
     1
 91
        4
176
     1
 64
     7
176
     1
 65
   257
176
     1
 75
     1
176
     1
175
     1
176
     1
 42
1.0
176
     1
 92
        0
176
     1
 66
   257
176
     1
 43
1.0
176
     1
 76
     1
176
     1
 77
     6
176
     1
 78
     2
176
     1
 67
     7
176
     1
 79
     5
176
     1
170
     0
176
     1
171
     0
176
     1
290
     0
176
     1
 93
        1
176
     1
 44
0.0
176
     1
173
     0
176
     1
  0
VISUALSTYLE
  5
2E
102
{ACAD_REACTORS
330
29
102
}
330
29
100
AcDbVisualStyle
  2
Basic
 70
     7
177
     2
291
     1
 71
     1
176
     1
 72
     0
176
     1
 73
     1
176
     1
 90
        0
176
     1
 40
0.6
176
     1
 41
30.0
176
     1
 63
     7
421
 16777215
176
     1
 74
     0
176
     1
 91
        4
176
     1
 64
     7
176
     1
 65
   257
176
     1
 75
     1
176
     1
175
     1
176
     1
 42
1.0
176
     1
 92
        8
176
     1
 66
     7
176
     1
 43
1.0
176
     1
 76
     1
176
     1
 77
     6
176
     1
 78
     2
176
     1
 67
     7
176
     1
 79
     5
176
     1
170
     0
176
     1
171
     0
176
     1
290
     0
176
     1
 93
        1
176
     1
 44
0.0
176
     1
173
     0
176
     1
  0
VISUALSTYLE
  5
35
102
{ACAD_REACTORS
330
29
102
}
330
29
100
AcDbVisualStyle
  2
Brighten
 70
    12
177
     2
291
     1
 71
     2
176
     1
 72
     2
176
     1
 73
     0
176
     1
 90
        0
176
     1
 40
0.6
176
     1
 41
30.0
176
     1
 63
     7
421
 16777215
176
     1
 74
     1
176
     1
 91
        4
176
     1
 64
     7
176
     1
 65
   257
176
     1
 75
     1
176
     1
175
     1
176
     1
 42
1.0
176
     1
 92
        8
176
     1
 66
     7
176
     1
 43
1.0
176
     1
 76
     1
176
     1
 77
     6
176
     1
 78
     2
176
     1
 67
     7
176
     1
 79
     5
176
     1
170
     0
176
     1
171
     0
176
     1
290
     0
176
     1
 93
        1
176
     1
 44
50.0
176
     1
173
     0
176
     1
  0
VISUALSTYLE
  5
39
102
{ACAD_REACTORS
330
29
102
}
330
29
100
AcDbVisualStyle
  2
ColorChange
 70
    16
177
     2
291
     1
 71
     2
176
     1
 72
     2
176
     1
 73
     3
176
     1
 90
        0
176
     1
 40
0.6
176
     1
 41
30.0
176
     1
 63
     8
421
  8421504
176
     1
 74
     1
176
     1
 91
        4
176
     1
 64
     7
176
     1
 65
   257
176
     1
 75
     1
176
     1
175
     1
176
     1
 42
1.0
176
     1
 92
        8
176
     1
 66
     8
424
  8421504
176
     1
 43
1.0
176
     1
 76
     1
176
     1
 77
     6
176
     1
 78
     2
176
     1
 67
     7
176
     1
 79
     5
176
     1
170
     0
176
     1
171
     0
176
     1
290
     0
176
     1
 93
        1
176
     1
 44
0.0
176
     1
173
     0
176
     1
  0
VISUALSTYLE
  5
32
102
{ACAD_REACTORS
330
29
102
}
330
29
100
AcDbVisualStyle
  2
Conceptual
 70
     9
177
     2
291
     0
 71
     3
176
     1
 72
     2
176
     1
 73
     0
176
     1
 90
        0
176
     1
 40
0.6
176
     1
 41
30.0
176
     1
 63
     7
421
 16777215
176
     1
 74
     2
176
     1
 91
        2
176
     1
 64
     7
176
     1
 65
   257
176
     1
 75
     1
176
     1
175
     1
176
     1
 42
179.0
176
     1
 92
        8
176
     1
 66
     7
176
     1
 43
1.0
176
     1
 76
     1
176
     1
 77
     6
176
     1
 78
     2
176
     1
 67
     7
176
     1
 79
     3
176
     1
170
     0
176
     1
171
     0
176
     1
290
     0
176
     1
 93
        1
176
     1
 44
0.0
176
     1
173
     0
176
     1
  0
VISUALSTYLE
  5
34
102
{ACAD_REACTORS
330
29
102
}
330
29
100
AcDbVisualStyle
  2
Dim
 70
    11
177
     2
291
     1
 71
     2
176
     1
 72
     2
176
     1
 73
     0
176
     1
 90
        0
176
     1
 40
0.6
176
     1
 41
30.0
176
     1
 63
     7
421
 16777215
176
     1
 74
     1
176
     1
 91
        4
176
     1
 64
     7
176
     1
 65
   257
176
     1
 75
     1
176
     1
175
     1
176
     1
 42
1.0
176
     1
 92
        8
176
     1
 66
     7
176
     1
 43
1.0
176
     1
 76
     1
176
     1
 77
     6
176
     1
 78
     2
176
     1
 67
     7
176
     1
 79
     5
176
     1
170
     0
176
     1
171
     0
176
     1
290
     0
176
     1
 93
        1
176
     1
 44
-50.0
176
     1
173
     0
176
     1
  0
VISUALSTYLE
  5
41
102
{ACAD_REACTORS
330
29
102
}
330
29
100
AcDbVisualStyle
  2
EdgeColorOff
 70
    22
177
     2
291
     1
 71
     2
176
     0
 72
     2
176
     0
 73
     0
176
     0
 90
        0
176
     0
 40
0.6
176
     0
 41
30.0
176
     0
 63
     7
421
 16777215
176
     0
 74
     1
176
     0
 91
        4
176
     0
 64
     7
176
     0
 65
   257
176
     0
 75
     1
176
     0
175
     1
176
     0
 42
1.0
176
     0
 92
        8
176
     2
 66
     7
176
     0
 43
1.0
176
     0
 76
     1
176
     0
 77
     6
176
     0
 78
     2
176
     0
 67
     7
176
     0
 79
     5
176
     0
170
     0
176
     0
171
     0
176
     0
290
     0
176
     0
 93
        1
176
     0
 44
0.0
176
     0
173
     0
176
     0
  0
VISUALSTYLE
  5
38
102
{ACAD_REACTORS
330
29
102
}
330
29
100
AcDbVisualStyle
  2
Facepattern
 70
    15
177
     2
291
     1
 71
     2
176
     1
 72
     2
176
     1
 73
     0
176
     1
 90
        0
176
     1
 40
0.6
176
     1
 41
30.0
176
     1
 63
     7
421
 16777215
176
     1
 74
     1
176
     1
 91
        4
176
     1
 64
     7
176
     1
 65
   257
176
     1
 75
     1
176
     1
175
     1
176
     1
 42
1.0
176
     1
 92
        8
176
     1
 66
     7
176
     1
 43
1.0
176
     1
 76
     1
176
     1
 77
     6
176
     1
 78
     2
176
     1
 67
     7
176
     1
 79
     5
176
     1
170
     0
176
     1
171
     0
176
     1
290
     0
176
     1
 93
        1
176
     1
 44
0.0
176
     1
173
     0
176
     1
  0
VISUALSTYLE
  5
2A
102
{ACAD_REACTORS
330
29
102
}
330
29
100
AcDbVisualStyle
  2
Flat
 70
     0
177
     2
291
     1
 71
     2
176
     1
 72
     1
176
     1
 73
     1
176
     1
 90
        2
176
     1
 40
0.6
176
     1
 41
30.0
176
     1
 63
     7
421
 16777215
176
     1
 74
     0
176
     1
 91
        0
176
     1
 64
     7
176
     1
 65
   257
176
     1
 75
     1
176
     1
175
     1
176
     1
 42
1.0
176
     1
 92
        8
176
     1
 66
     7
176
     1
 43
1.0
176
     1
 76
     1
176
     1
 77
     6
176
     1
 78
     2
176
     1
 67
     7
176
     1
 79
     5
176
     1
170
     0
176
     1
171
     0
176
     1
290
     0
176
     1
 93
       13
176
     1
 44
0.0
176
     1
173
     0
176
     1
  0
VISUALSTYLE
  5
2B
102
{ACAD_REACTORS
330
29
102
}
330
29
100
AcDbVisualStyle
  2
FlatWithEdges
 70
     1
177
     2
291
     1
 71
     2
176
     1
 72
     1
176
     1
 73
     1
176
     1
 90
        2
176
     1
 40
0.6
176
     1
 41
30.0
176
     1
 63
     7
421
 16777215
176
     1
 74
     1
176
     1
 91
        0
176
     1
 64
     7
176
     1
 65
   257
176
     1
 75
     1
176
     1
175
     1
176
     1
 42
1.0
176
     1
 92
        0
176
     1
 66
   257
176
     1
 43
1.0
176
     1
 76
     1
176
     1
 77
     6
176
     1
 78
     2
176
     1
 67
     7
176
     1
 79
     5
176
     1
170
     0
176
     1
171
     0
176
     1
290
     0
176
     1
 93
       13
176
     1
 44
0.0
176
     1
173
     0
176
     1
  0
VISUALSTYLE
  5
2C
102
{ACAD_REACTORS
330
29
102
}
330
29
100
AcDbVisualStyle
  2
Gouraud
 70
     2
177
     2
291
     1
 71
     2
176
     1
 72
     2
176
     1
 73
     1
176
     1
 90
        2
176
     1
 40
0.6
176
     1
 41
30.0
176
     1
 63
     7
421
 16777215
176
     1
 74
     0
176
     1
 91
        0
176
     1
 64
     7
176
     1
 65
   257
176
     1
 75
     1
176
     1
175
     1
176
     1
 42
1.0
176
     1
 92
        0
176
     1
 66
     7
176
     1
 43
1.0
176
     1
 76
     1
176
     1
 77
     6
176
     1
 78
     2
176
     1
 67
     7
176
     1
 79
     5
176
     1
170
     0
176
     1
171
     0
176
     1
290
     0
176
     1
 93
       13
176
     1
 44
0.0
176
     1
173
     0
176
     1
  0
VISUALSTYLE
  5
2D
102
{ACAD_REACTORS
330
29
102
}
330
29
100
AcDbVisualStyle
  2
GouraudWithEdges
 70
     3
177
     2
291
     1
 71
     2
176
     1
 72
     2
176
     1
 73
     1
176
     1
 90
        2
176
     1
 40
0.6
176
     1
 41
30.0
176
     1
 63
     7
421
 16777215
176
     1
 74
     1
176
     1
 91
        0
176
     1
 64
     7
176
     1
 65
   257
176
     1
 75
     1
176
     1
175
     1
176
     1
 42
1.0
176
     1
 92
        0
176
     1
 66
   257
176
     1
 43
1.0
176
     1
 76
     1
176
     1
 77
     6
176
     1
 78
     2
176
     1
 67
     7
176
     1
 79
     5
176
     1
170
     0
176
     1
171
     0
176
     1
290
     0
176
     1
 93
       13
176
     1
 44
0.0
176
     1
173
     0
176
     1
  0
VISUALSTYLE
  5
31
102
{ACAD_REACTORS
330
29
102
}
330
29
100
AcDbVisualStyle
  2
Hidden
 70
     6
177
     2
291
     0
 71
     1
176
     1
 72
     2
176
     1
 73
     2
176
     1
 90
        0
176
     1
 40
0.6
176
     1
 41
30.0
176
     1
 63
     7
421
 16777215
176
     1
 74
     2
176
     1
 91
        2
176
     1
 64
     7
176
     1
 65
   257
176
     1
 75
     2
176
     1
175
     1
176
     1
 42
40.0
176
     1
 92
        0
176
     1
 66
   257
176
     1
 43
1.0
176
     1
 76
     1
176
     1
 77
     6
176
     1
 78
     2
176
     1
 67
     7
176
     1
 79
     3
176
     1
170
     0
176
     1
171
     0
176
     1
290
     0
176
     1
 93
        1
176
     1
 44
0.0
176
     1
173
     0
176
     1
  0
VISUALSTYLE
  5
3F
102
{ACAD_REACTORS
330
29
102
}
330
29
100
AcDbVisualStyle
  2
JitterOff
 70
    20
177
     2
291
     1
 71
     2
176
     0
 72
     2
176
     0
 73
     0
176
     0
 90
        0
176
     0
 40
0.6
176
     0
 41
30.0
176
     0
 63
     7
421
 16777215
176
     0
 74
     1
176
     0
 91
        4
176
     0
 64
     7
176
     0
 65
   257
176
     0
 75
     1
176
     0
175
     1
176
     0
 42
1.0
176
     0
 92
       10
176
     2
 66
     7
176
     0
 43
1.0
176
     0
 76
     1
176
     0
 77
     6
176
     0
 78
     2
176
     0
 67
     7
176
     0
 79
     5
176
     0
170
     0
176
     0
171
     0
176
     0
290
     0
176
     0
 93
        1
176
     0
 44
0.0
176
     0
173
     0
176
     0
  0
VISUALSTYLE
  5
37
102
{ACAD_REACTORS
330
29
102
}
330
29
100
AcDbVisualStyle
  2
Linepattern
 70
    14
177
     2
291
     1
 71
     2
176
     1
 72
     2
176
     1
 73
     0
176
     1
 90
        0
176
     1
 40
0.6
176
     1
 41
30.0
176
     1
 63
     7
421
 16777215
176
     1
 74
     1
176
     1
 91
        4
176
     1
 64
     7
176
     1
 65
   257
176
     1
 75
     7
176
     1
175
     7
176
     1
 42
1.0
176
     1
 92
        8
176
     1
 66
     7
176
     1
 43
1.0
176
     1
 76
     1
176
     1
 77
     6
176
     1
 78
     2
176
     1
 67
     7
176
     1
 79
     5
176
     1
170
     0
176
     1
171
     0
176
     1
290
     0
176
     1
 93
        1
176
     1
 44
0.0
176
     1
173
     0
176
     1
  0
VISUALSTYLE
  5
40
102
{ACAD_REACTORS
330
29
102
}
330
29
100
AcDbVisualStyle
  2
OverhangOff
 70
    21
177
     2
291
     1
 71
     2
176
     0
 72
     2
176
     0
 73
     0
176
     0
 90
        0
176
     0
 40
0.6
176
     0
 41
30.0
176
     0
 63
     7
421
 16777215
176
     0
 74
     1
176
     0
 91
        4
176
     0
 64
     7
176
     0
 65
   257
176
     0
 75
     1
176
     0
175
     1
176
     0
 42
1.0
176
     0
 92
        9
176
     2
 66
     7
176
     0
 43
1.0
176
     0
 76
     1
176
     0
 77
     6
176
     0
 78
     2
176
     0
 67
     7
176
     0
 79
     5
176
     0
170
     0
176
     0
171
     0
176
     0
290
     0
176
     0
 93
        1
176
     0
 44
0.0
176
     0
173
     0
176
     0
  0
VISUALSTYLE
  5
33
102
{ACAD_REACTORS
330
29
102
}
330
29
100
AcDbVisualStyle
  2
Realistic
 70
     8
177
     2
291
     0
 71
     2
176
     1
 72
     3
176
     1
 73
     0
176
     1
 90
        2
176
     1
 40
0.6
176
     1
 41
30.0
176
     1
 63
     7
421
 16777215
176
     1
 74
     0
176
     1
 91
        0
176
     1
 64
     7
176
     1
 65
   257
176
     1
 75
     1
176
     1
175
     1
176
     1
 42
1.0
176
     1
 92
        8
176
     1
 66
   257
176
     1
 43
1.0
176
     1
 76
     1
176
     1
 77
     6
176
     1
 78
     2
176
     1
 67
     7
176
     1
 79
     3
176
     1
170
     0
176
     1
171
     0
176
     1
290
     0
176
     1
 93
       13
176
     1
 44
0.0
176
     1
173
     0
176
     1
  0
VISUALSTYLE
  5
3E
102
{ACAD_REACTORS
330
29
102
}
330
29
100
AcDbVisualStyle
  2
Shaded
 70
    27
177
     2
291
     0
 71
     2
176
     1
 72
     2
176
     1
 73
     1
176
     1
 90
        2
176
     1
 40
0.6
176
     1
 41
30.0
176
     1
 63
     7
421
 16777215
176
     1
 74
     0
176
     1
 91
        4
176
     1
 64
     7
176
     1
 65
   257
176
     1
 75
     1
176
     1
175
     1
176
     1
 42
1.0
176
     1
 92
        8
176
     1
 66
   257
176
     1
 43
1.0
176
     1
 76
     1
176
     1
 77
     6
176
     1
 78
     2
176
     1
 67
     8
425
  7895160
176
     1
 79
     3
176
     1
170
     0
176
     1
171
     0
176
     1
290
     0
176
     1
 93
        5
176
     1
 44
0.0
176
     1
173
     0
176
     1
  0
VISUALSTYLE
  5
3D
102
{ACAD_REACTORS
330
29
102
}
330
29
100
AcDbVisualStyle
  2
Shaded with edges
 70
    26
177
     2
291
     0
 71
     2
176
     1
 72
     2
176
     1
 73
     1
176
     1
 90
        2
176
     1
 40
0.6
176
     1
 41
30.0
176
     1
 63
     7
421
 16777215
176
     1
 74
     1
176
     1
 91
       10
176
     1
 64
     7
176
     1
 65
   257
176
     1
 75
     2
176
     1
175
     1
176
     1
 42
1.0
176
     1
 92
        8
176
     1
 66
   257
176
     1
 43
1.0
176
     1
 76
     1
176
     1
 77
     6
176
     1
 78
     2
176
     1
 67
     7
176
     1
 79
     3
176
     1
170
     0
176
     1
171
     0
176
     1
290
     0
176
     1
 93
        5
176
     1
 44
0.0
176
     1
173
     0
176
     1
  0
VISUALSTYLE
  5
3A
102
{ACAD_REACTORS
330
29
102
}
330
29
100
AcDbVisualStyle
  2
Shades of Gray
 70
    23
177
     2
291
     0
 71
     2
176
     1
 72
     2
176
     1
 73
     3
176
     1
 90
        0
176
     1
 40
0.6
176
     1
 41
30.0
176
     1
 63
     7
421
 16777215
176
     1
 74
     2
176
     1
 91
        2
176
     1
 64
     7
176
     1
 65
     7
176
     1
 75
     1
176
     1
175
     1
176
     1
 42
40.0
176
     1
 92
        8
176
     1
 66
     7
176
     1
 43
1.0
176
     1
 76
     1
176
     1
 77
     6
176
     1
 78
     2
176
     1
 67
     7
176
     1
 79
     3
176
     1
170
     0
176
     1
171
     0
176
     1
290
     0
176
     1
 93
        1
176
     1
 44
0.0
176
     1
173
     0
176
     1
  0
VISUALSTYLE
  5
3B
102
{ACAD_REACTORS
330
29
102
}
330
29
100
AcDbVisualStyle
  2
Sketchy
 70
    24
177
     2
291
     0
 71
     1
176
     1
 72
     2
176
     1
 73
     2
176
     1
 90
        0
176
     1
 40
0.6
176
     1
 41
30.0
176
     1
 63
     7
421
 16777215
176
     1
 74
     2
176
     1
 91
        2
176
     1
 64
     7
176
     1
 65
     7
176
     1
 75
     1
176
     1
175
     1
176
     1
 42
40.0
176
     1
 92
       11
176
     1
 66
     7
176
     1
 43
1.0
176
     1
 76
     1
176
     1
 77
     6
176
     1
 78
     2
176
     1
 67
     7
176
     1
 79
     6
176
     1
170
     0
176
     1
171
     0
176
     1
290
     0
176
     1
 93
        1
176
     1
 44
0.0
176
     1
173
     0
176
     1
  0
VISUALSTYLE
  5
36
102
{ACAD_REACTORS
330
29
102
}
330
29
100
AcDbVisualStyle
  2
Thicken
 70
    13
177
     2
291
     1
 71
     2
176
     1
 72
     2
176
     1
 73
     0
176
     1
 90
        0
176
     1
 40
0.6
176
     1
 41
30.0
176
     1
 63
     7
421
 16777215
176
     1
 74
     1
176
     1
 91
        4
176
     1
 64
     7
176
     1
 65
   257
176
     1
 75
     1
176
     1
175
     1
176
     1
 42
1.0
176
     1
 92
       12
176
     1
 66
     7
176
     1
 43
1.0
176
     1
 76
     1
176
     1
 77
     6
176
     1
 78
     2
176
     1
 67
     7
176
     1
 79
     5
176
     1
170
     0
176
     1
171
     0
176
     1
290
     0
176
     1
 93
        1
176
     1
 44
0.0
176
     1
173
     0
176
     1
  0
VISUALSTYLE
  5
30
102
{ACAD_REACTORS
330
29
102
}
330
29
100
AcDbVisualStyle
  2
Wireframe
 70
     5
177
     2
291
     0
 71
     0
176
     1
 72
     2
176
     1
 73
     0
176
     1
 90
        0
176
     1
 40
0.6
176
     1
 41
30.0
176
     1
 63
     7
421
 16777215
176
     1
 74
     1
176
     1
 91
        4
176
     1
 64
     7
176
     1
 65
   257
176
     1
 75
     1
176
     1
175
     1
176
     1
 42
1.0
176
     1
 92
        0
176
     1
 66
   257
176
     1
 43
1.0
176
     1
 76
     1
176
     1
 77
     6
176
     1
 78
     2
176
     1
 67
     7
176
     1
 79
     3
176
     1
170
     0
176
     1
171
     0
176
     1
290
     0
176
     1
 93
        1
176
     1
 44
0.0
176
     1
173
     0
176
     1
  0
VISUALSTYLE
  5
3C
102
{ACAD_REACTORS
330
29
102
}
330
29
100
AcDbVisualStyle
  2
X-Ray
 70
    25
177
     2
291
     0
 71
     2
176
     1
 72
     2
176
     1
 73
     1
176
     1
 90
        1
176
     1
 40
0.5
176
     1
 41
30.0
176
     1
 63
     7
421
 16777215
176
     1
 74
     1
176
     1
 91
        0
176
     1
 64
     7
176
     1
 65
   257
176
     1
 75
     1
176
     1
175
     1
176
     1
 42
1.0
176
     1
 92
        8
176
     1
 66
     7
176
     1
 43
1.0
176
     1
 76
     1
176
     1
 77
     6
176
     1
 78
     2
176
     1
 67
     7
176
     1
 79
     3
176
     1
170
     0
176
     1
171
     0
176
     1
290
     0
176
     1
 93
       13
176
     1
 44
0.0
176
     1
173
     0
176
     1
  0
DICTIONARYVAR
  5
79
102
{ACAD_REACTORS
330
76
102
}
330
76
100
DictionaryVariables
280
     0
  1
1:1
  0
DICTIONARYVAR
  5
78
102
{ACAD_REACTORS
330
76
102
}
330
76
100
DictionaryVariables
280
     0
  1
STANDARD
  0
DICTIONARYVAR
  5
77
102
{ACAD_REACTORS
330
76
102
}
330
76
100
DictionaryVariables
280
     0
  1
STANDARD
  0
DICTIONARY
  5
1A
330
19
100
AcDbDictionary
280
     1
281
     1
  3
BUMPTILE
360
1C
  3
DIFFUSETILE
360
1B
  3
OPACITYTILE
360
1F
  3
REFLECTIONTILE
360
1E
  3
REFRACTIONTILE
360
20
  3
SPECULARTILE
360
1D
  0
DICTIONARY
  5
12
330
11
100
AcDbDictionary
280
     1
281
     1
  3
BUMPTILE
360
14
  3
DIFFUSETILE
360
13
  3
FBXASSET
360
109
  3
OPACITYTILE
360
17
  3
REFLECTIONTILE
360
16
  3
REFRACTIONTILE
360
18
  3
SPECULARTILE
360
15
  0
DICTIONARY
  5
22
330
21
100
AcDbDictionary
280
     1
281
     1
  3
BUMPTILE
360
24
  3
DIFFUSETILE
360
23
  3
FBXASSET
360
BA
  3
OPACITYTILE
360
27
  3
REFLECTIONTILE
360
26
  3
REFRACTIONTILE
360
28
  3
SPECULARTILE
360
25
  0
DICTIONARY
  5
F7A
330
67
100
AcDbDictionary
280
     1
281
     1
  3
ACAD_XREC_ROUNDTRIP
360
F7B
  0
DICTIONARY
  5
F78
330
65
100
AcDbDictionary
280
     1
281
     1
  3
ACAD_ROUNDTRIP_2008_TABLESTYLE_CELLSTYLEMAP
360
F79
  0
XRECORD
  5
1C
102
{ACAD_REACTORS
330
1A
102
}
330
1A
100
AcDbXrecord
280
     1
270
     1
271
     1
  0
XRECORD
  5
1B
102
{ACAD_REACTORS
330
1A
102
}
330
1A
100
AcDbXrecord
280
     1
270
     1
271
     1
  0
XRECORD
  5
1F
102
{ACAD_REACTORS
330
1A
102
}
330
1A
100
AcDbXrecord
280
     1
270
     1
271
     1
  0
XRECORD
  5
1E
102
{ACAD_REACTORS
330
1A
102
}
330
1A
100
AcDbXrecord
280
     1
270
     1
271
     1
  0
XRECORD
  5
20
102
{ACAD_REACTORS
330
1A
102
}
330
1A
100
AcDbXrecord
280
     1
270
     1
271
     1
  0
XRECORD
  5
1D
102
{ACAD_REACTORS
330
1A
102
}
330
1A
100
AcDbXrecord
280
     1
270
     1
271
     1
  0
XRECORD
  5
14
102
{ACAD_REACTORS
330
12
102
}
330
12
100
AcDbXrecord
280
     1
270
     1
271
     1
  0
XRECORD
  5
13
102
{ACAD_REACTORS
330
12
102
}
330
12
100
AcDbXrecord
280
     1
270
     1
271
     1
  0
XRECORD
  5
109
102
{ACAD_REACTORS
330
12
102
}
330
12
100
AcDbXrecord
280
     1
 70
     1
 90
1959938040
 71
     1
  1
F97B3EC7-0A51-4991-A651-0B038D02A716
311
504B03040A0000080000F899D5423DEE336E79000000790000001B0000006175746F6465736B2D64657369676E2D7061636B6167652E786D6C3C3F786D6C2076657273696F6E3D22312E302220656E636F64696E673D227574662D3822203F3E3C666F726D6174733E3C666F726D61743E687474703A2F2F736368656D612E
311
6175746F6465736B2E636F6D2F64657369676E2D7061636B6167652F323030393C2F666F726D61743E3C2F666F726D6174733E504B0304140006080800F899D542D486FD9CA0000000F4000000130000005B436F6E74656E745F54797065735D2E786D6C7D8EC10E82300C865F65E91D8A1E8C310C0EEA1BF002731658846E
311
D98AC1B77784ABF1D8FE5FBFBF75BBCE937A534CCEB38643598122B6FEE978D0B0485F9C41B54DDD7D022595594E1A469170414C76A4D9A4D207E29CF43ECE46F218070CC6BECC4078ACAA135ACF422C856C0E68EA1BF5669944DDD7BCDE7B1F8E415D77AECB980613C2E4AC91FC167A2B244592486606FC29C8FD7F045B9A
311
EF7053A7E60B504B0304140006080800F899D54299151D91EB0000007C01000008000000636F72652E786D6C8D90D16E842010457F85CC6B830A8A51836CDCB67E417F80206BC9AE60049A7E7E71D74DDAB73ECDE4CE3D3393CB4FDFCB0D7DE9CD1B677B205901485BE52663E71E62B8E006D049F0CDB9F0CB06C8CA45F7B0
311
CB20F8BCB9B81E927236681B926ADDA40F517AAF0320754B4D0F5E7DEA45663286E4F0D76C95EA2A679D916797E018CD841E47CC94F6998BD11B8861A8E9D88E0CB386BEE28AD6036EDF2A86CFE79AB4ACA94BF63EF27C87050F6679DE579B96414F2068414A5CD498920FD276847555FB52B0AE2C78BEDBFF40719DFE0945
311
6343498F771F980741D223F781E0F99E452AF7A052DD73133F504B0304140006080800F899D54255019EA25F0000007C00000007000000636E782E786D6C4DCB3B0E80201045D1AD90E915ED2CF8AC45050C11660C8261F98AB1B07AC9C97D42D718D865D3E909258CFD00CCE24AC6E326A164D74DC0B4128928FF32603847
311
2BA13128B1252AC747C6BAB984FC68F0B87FE8960A5C09FE86CFB69FBA01504B0304140006080800F899D54291CBD0D168010000020300000C0000006662782F636F72652E786D6C8D525B6E833010BC8AE5DF0ACC5B21328E92B639412FE018875A011B191BE5F85D1E519A2A8A2A2463CDECECCE0ED0DDB56BD128EDA08C
311
AE701C4618492D4CAD745361EFCEC106A31DA3D618F7AB0C23CD3B59E109C68C36D6F87E8584D14E6A07A836B55C413E0CD261245AB8547810DFB2E321F70E2A864BD87371E18D0CE31068A8637470160CA065C87462763E5D29597046BD57F5CAAA1AA6A9B39216B3FDBE488EE5310FF24DF21E6449B10FCA8F2C0F0E8722
311
2EF34D91E69F474A2631A34E753777C24AEE648D5912C569101541127FC5E536CEB759F916E5DB34A2642A7F10F9BEFEA7C82BEDD264B5BBC806CC623032137FB685881C1AF8087E08A3640A115E73C28F41432010B2E3A7F6B6C705A0510A676C064C6DFC9D1A79EB254C8DD0FC50B2B0D0796E009B3DED93BCE8F3BA077C
311
40AE1BB0C61D5C4FDE4DD3E932758DA2973618DD1569633BDEDECD2D16EFE77DD053B930ADB1FF51937555B28649A6BF97FD00504B0304140006080800F899D5427D98F3887D0000009D0000000B0000006662782F636E782E786D6C4DCCD10AC2201886E15B91FFDCA660CB401D2DF53E467343723A4CA3CB6F8B1D74F4C1
311
C3C72BBACF12D0DBE5974F51023D11402E3ED2E8E32CA1960973409D1239A5F277031487C549D819949873AAEB41A39B861ACAA6C1C7E78177C27ACB2CC757630D66E79EE29B6E2DD69C714AB5B910D642A344F32B6DBB87D517504B0304140006080800F899D542DEB09C442D01000014020000310000006662782F433034
311
42463446382D394546452D343542312D414436462D4438343831314445373034362F636F72652E786D6C8D515B6EC32010BC0AE22B55850D0E267684899A263E412FE0D8244189C1E251E5F885DA91DABFFCB068766676B4CB778FF10EBEA575CAE806920C4320756F06A52F0D0CFE8C2A0876825B63FC1F1A04BA1B650313
311
0C05BF5813A605EA8DF652FB886A33C805EC9C931E82FE1E3F0D74FD558E5DD6051F19EE964D5D7FEB2E3223596C479EE0CEDB1800CC43D20BC527A6FB96B615AA8FED11D1724FD0C781B5E850D18A90C3718329E3F92C143C04352C7235C438EAACA47DD5248905F76A7CC6EFADECBC1CA028305923CC5041BE48BD25E596
311
D6EFB8DCAE31CF13FD9F284CC38BA2A0B45F174BDC59E6A0203C9F1B820F269CEECF30F23119EB419AB772B27F830267981405DBB09AE733352E207A32BA783A6F6C5CF0EA768A6C52CEC68C0A9EA71BC5F27BC058D33DC50F504B0304140006080800F899D542B26849CC4F01000033030000300000006662782F43303442
311
463446382D394546452D343542312D414436462D4438343831314445373034362F636E782E786D6CD593CD6EC32010845F0571ADFC43E2444D8489D4439FA0875E316C1A1A0C16E0AA79FB2E094973C9A1C75E90353BCCAC3E61BEFB1E2DF982108D773D65754B0938E5B5711F3D9DD3BE7AA6642778F03EDDD9287172849E
311
66990AFE11FC3C1549C35ECE36A16A8D3B163140F473501051CE3789F54A5A0C0057CD28C23880D6A0C9CD885F7B08B80A8AC389A40390D79777E2874F5029F226A708DEE40EC1F3599AEE4C94282B63EC69540718652DE7E435C463AD659235ABAF5D0F76FA4D22F9C2B5720E86E4F29EE6938AB2518D1C798343C1630A48
311
AF98D269022AE43459A36442C8CDD978F1083E1B97D65DF11A041FD0CDD6CBAEC3B0F34CF06446280E154026D0542C5AB6ACDA75B5606F6CB365AB6DB7796A57DB65CB9B6C177CF0DE964B1803C14F447997C0252A186FF2F811BEE223DA0464EDC3E90F20114069BDD0B965FC673ECDF97D23AE807F81F801504B03041400
311
06080800F899D54238579B44A305000081100000340000006662782F43303442463446382D394546452D343542312D414436462D4438343831314445373034362F6F626A656374732E786D6CAD57D98EDB3614FD15417D691FBCC8F62C2E340ABC64022399248891A00F060C5AA234EC500B486AE2E9D7F750A464C9B1276E
311
91172D5C2EEF3DF7DC85FE9B7DCA9D672A24CBB33BD7EB0F5D8766611EB12CB9734B15F76E5DE74DE08B3C57AD65AE939194DEB97AD80DFC44E4656187221A9392ABA3D1FBF95F8E0C69465D27E444CA3B57868F34257D52AA3CA2F2A91F1145FA49BCEF7B7DB3B02B3611A4783C125A104133054D319E418A6394F2BABF43
311
7710F8033D1FF8FA69578DCFAF1A54F674CF679954240B7F38EC48CCD89B2CDF8EAEA6BDABC964DC9B5C8FBCDEFC7EBEEC7937E3E1E27AB198CEDE4E71B0540292AC2682C66EF00ED80816FA033315F825CBD478649758070D047D66DA536E30723C7F60D634D659234FA91FE65946C30A2BA051D9674547B4A059049F332A
311
A1590BA161F7D7D338B6A6C7FADF1ED91EBE0C81F68E96A05AF7FADDD634DFFD0D13E4250C12926A061A2CADA186ABC303C2BB3CE7768E4927258A0A46B8C3D94E10F1E20658AA97047E478C66B2D0D1A02D700378C14C77E98230FA39CF4F6919979C6B1ABB4115055BC40A55B2D28CFD43C541FB3632D009BED26CB8B506
311
A99782BAC1D450E4F6884D064827E62481CB61A6DE391E1D19BAD071BA5ABAC1FBFBDD7EAD63F7F4E185C80B2A94A60FA8553BAE7E6B94AC4EDE459ED31BDC23550EA07C01F21F11EA0755E037C1F693FDC49EA204C9649C8B14BE71864E6F88C7D0F1AAA7FE6E7DF9836673D77BE7F084B33554BF00CFAE0D6D5FB6E00CFC
311
67103E17636BDA3A241C69E38165004893C4E139869087E3DDDE0D56C872C8CAD84578E0C164A8FB8C4F7F60C520515427B5DE19B03C4A8B172468C05631126A18F25B050F7EFA219D5507DB65E7E0BDFA25749D2DD7EFD7A58849481F6C4C2F69CC32A650E20EBC692BD4C1BC63D1137DF99E8B0886FE88F7BA8D776A8F92
311
405B63AE814FEA9CAE7F0E27770E08B12FC975BAF17F72028CD085B525FF81C990724E329A97F5B9AFD60F940D03B10E76CDE4A6C01C0A0B4863668E6210453A14ACD02036D5AA499AFD33D67D5D7D0423DD60FEF281BCB4B3D7EE907BC39CE762BB7BD99AB47412EA6F5D6E5B0C065A0AE85E05491DFF16F46DC4E2B89448
311
822770FDB65AB47DA7D30252442DD544CB04F623B888B0A4ADE5A25A0B824A9A675B86BA89B83B79405B3E20B50CA8049ED358521E6F19E765BA8D194735DAA6A43803C7FFD77F57A6C596A47999A933B23BAAA33A7475EFB0577E272A7C748375F5EECD917B231A9D2183AE2527B0EAB8F67E7A331FBF5DDCF486B32BAF37
311
994EBDDEEC1A5FC3F9707CBB1C8E6637DE75ED27A349E0D7A5A61DD1F0124A9B5F0A66DDF77585F8B149C00D1E88929B77263CEBF7D7551FBDB03FC01ED4CB66E32C7A46DF47A39F0B38AC3C296895169CA6345344C7D083FEE05F08FA8C8E32667C9592845E20E5D3BBF5913118B960DF671DEFF4FBD15E3BBAD001795288
311
7A2CD35D46183FDA981824FB459658FC6A9F346F5368EA5FFD671D83CE54E69C45C8839193D03CA50AD9F0822224522A41BD764F1FD9BBC705BB9F4D87A8C88ED35A93478226994B8405A85586AA3BEEFC86A64EF755772ECA6DFF090F9B295C079CB973D1A42B1652D9DFA140EB56A8120E2EB53B7934FE244B387A6DB3A9
311
F96F76696C3A25B9597249FF64ED3229DC1A803452A06F404304EF54CA047EA59B9D0FFF93E1B53A0E51F8DC95AAB1E530D018531D83103546D9DB029A98277BF41E81FABA595EBF5AD341E4A25BD6AB2430527B8A88A4BA2968FDAC4AB3E5E7013A1467F5C9297899C097974BEA090A32973AC0C122B0C2CA2C880255177F
311
6E3E8B1C37D9D4B967A080F3FBFEF6FA8FCD224FD33C33439B99BD0F3BEB47DC6EA30D9203D5D712B9190DBDD1A6BA0ED81BCA764724ED93483E61009E15AC01BAE37EF0D2DC195187CC44B36EA05D71C4D0D5D2B1856D02A1962EEDDCAAC141E391510731A4AF943A62DA0B8A576F04836A295410E8E5837F01504B030414
311
0006080000F899D542000000000000000000000000350000006662782F43303442463446382D394546452D343542312D414436462D4438343831314445373034362F76657274696365732E62696E504B0304140006080800F899D542F270F1330600000004000000360000006662782F43303442463446382D394546452D34
311
3542312D414436462D4438343831314445373034362F747269616E676C65732E62696E636660600000504B0304140006080000F899D542000000000000000000000000370000006662782F43303442463446382D394546452D343542312D414436462D4438343831314445373034362F617474726962757465732E62696E50
311
4B0304140006080800F899D542D5987DFC8F00000041010000360000006662782F43303442463446382D394546452D343542312D414436462D4438343831314445373034362F6469726563746F72792E786D6C858F410EC2201045AF4266AF15DDB800BA74E7C21B903225242D6328188F2FA5C4183471359997F9FF81E89F
311
F3C41E1816475E02DF1F80A11FC8386F25A438EECEC07A250251FC3803E6F58C12560C4AD840E95E91C151A72936F496F35732D860FE635F62C8F2DA16B505C545B74125BAA2FA9E05D7CC053D063734D5C7665FD55B6B8D15D5E9BFEAFD8490FFA45E504B0304140006080800F899D5428ABE3309FE000000A00100003B00
311
00006662782F43303442463446382D394546452D343542312D414436462D4438343831314445373034362F7265736F75726365732F636F72652E786D6C8D50596E833010BD0A9ADFCA80D914907144DA72825EC032136225D8C84BD5E3D7042AB57FFD9919BD45F3F4D8F96B79249F689D32BA079AE690A09666527AEE21F8
311
2B394172E6CC1AE37FC920D162C11E3618389BAD09EB0149A33D6A1F516D263C40E11C7A48E4231E3D3879C345A422F8A870F77415F22E664C691AE9A8E3CC791B0324FB936D02B7E84CB0121DCB7696B310D47468D4147FAAAB420B7C189A626CC78AD4A7E29554453390F6ADAAC9E5D2D0B63E3565FD3EB26C3373E6D5F2
311
93515A141E27E0454E4B9237A4A01FB4ED68DD55ED4B5E7765CEB24DFEC714D6E99FA6A0B42F8B23EE6E73C0690CF22438CBB6BEE27A9619F7D62DFF06504B010214000A0000080000F899D5423DEE336E79000000790000001B00000000000000000000000000000000006175746F6465736B2D64657369676E2D7061636B
311
6167652E786D6C504B01021400140006080800F899D542D486FD9CA0000000F40000001300000000000000000000000000B20000005B436F6E74656E745F54797065735D2E786D6C504B01021400140006080800F899D54299151D91EB0000007C010000080000000000000000000000000083010000636F72652E786D6C50
311
4B01021400140006080800F899D54255019EA25F0000007C000000070000000000000000000000000094020000636E782E786D6C504B01021400140006080800F899D54291CBD0D168010000020300000C00000000000000000000000000180300006662782F636F72652E786D6C504B01021400140006080800F899D5427D
311
98F3887D0000009D0000000B00000000000000000000000000AA0400006662782F636E782E786D6C504B01021400140006080800F899D542DEB09C442D010000140200003100000000000000000000000000500500006662782F43303442463446382D394546452D343542312D414436462D4438343831314445373034362F
311
636F72652E786D6C504B01021400140006080800F899D542B26849CC4F010000330300003000000000000000000000000000CC0600006662782F43303442463446382D394546452D343542312D414436462D4438343831314445373034362F636E782E786D6C504B01021400140006080800F899D54238579B44A305000081
311
1000003400000000000000000000000000690800006662782F43303442463446382D394546452D343542312D414436462D4438343831314445373034362F6F626A656374732E786D6C504B01021400140006080000F899D54200000000000000000000000035000000000000000000000000005E0E00006662782F43303442
311
463446382D394546452D343542312D414436462D4438343831314445373034362F76657274696365732E62696E504B01021400140006080800F899D542F270F13306000000040000003600000000000000000000000000B10E00006662782F43303442463446382D394546452D343542312D414436462D4438343831314445
311
373034362F747269616E676C65732E62696E504B01021400140006080000F899D54200000000000000000000000037000000000000000000000000000B0F00006662782F43303442463446382D394546452D343542312D414436462D4438343831314445373034362F617474726962757465732E62696E504B010214001400
311
06080800F899D542D5987DFC8F000000410100003600000000000000000000000000600F00006662782F43303442463446382D394546452D343542312D414436462D4438343831314445373034362F6469726563746F72792E786D6C504B01021400140006080800F899D5428ABE3309FE000000A00100003B000000000000
311
00000000000000431000006662782F43303442463446382D394546452D343542312D414436462D4438343831314445373034362F7265736F75726365732F636F72652E786D6C504B0506000000000E000E00800400009A1100000000
310
504B03040A0000080000F899D5423DEE336E79000000790000001B0000006175746F6465736B2D64657369676E2D7061636B6167652E786D6C3C3F786D6C2076657273696F6E3D22312E302220656E636F64696E673D227574662D3822203F3E3C666F726D6174733E3C666F726D61743E687474703A2F2F736368656D612E
310
6175746F6465736B2E636F6D2F64657369676E2D7061636B6167652F323030393C2F666F726D61743E3C2F666F726D6174733E504B0304140006080800F899D542D486FD9CA0000000F4000000130000005B436F6E74656E745F54797065735D2E786D6C7D8EC10E82300C865F65E91D8A1E8C310C0EEA1BF002731658846E
310
D98AC1B77784ABF1D8FE5FBFBF75BBCE937A534CCEB38643598122B6FEE978D0B0485F9C41B54DDD7D022595594E1A469170414C76A4D9A4D207E29CF43ECE46F218070CC6BECC4078ACAA135ACF422C856C0E68EA1BF5669944DDD7BCDE7B1F8E415D77AECB980613C2E4AC91FC167A2B244592486606FC29C8FD7F045B9A
310
EF7053A7E60B504B0304140006080800F899D542BCFADC7AEB0000007C01000008000000636F72652E786D6C8D905B6EC3201045B782E6B7C2063FE287309112B72BE80610260E4A0C9681AACB2F248ED4FEF56B4677EE99195D76FC5EEEE84B6D4E5B3300CD082065A49DB4990708FE825B4047CE366BFD2F1B2023163540
310
9281B379B361DD25698D57C647D5D849EDA2704E7940F21E9B019CBCAA456422F8E870B76C15F2266695D15717E110F4849E47F414F7E98B561BF073D19C48777AC7757BAE7155B5236EC7B1C34D5DD2E6E350546D45599E60CEBC5E5EF7E5A6845713F082D01293032EE827ED7A5AF755F746EABE242C4FF63F5058A77F42
310
411B5F16FBBB4FCC014F8F3C069CE5298B581E41C59A72E33F504B0304140006080800F899D54255019EA25F0000007C00000007000000636E782E786D6C4DCB3B0E80201045D1AD90E915ED2CF8AC45050C11660C8261F98AB1B07AC9C97D42D718D865D3E909258CFD00CCE24AC6E326A164D74DC0B4128928FF32603847
310
2BA13128B1252AC747C6BAB984FC68F0B87FE8960A5C09FE86CFB69FBA01504B0304140006080800F899D542FED6C82C67010000020300000C0000006662782F636F72652E786D6C8D52ED8A8330107C9590BF478C9FAD969842DBBB27B8174835F5A49A484CA48F7FEB47F17A945284186676766747D9FED6366890A6AFB5
310
CA71E0F9184955E8B256558E9DBD9014A33D67466BFBA70C23255A99E311C69C5546BB6E810AADAC541650A54BB980A2EFA5C5A868E092E3BEF891ADF084B350D15FBD4E145751492FF080863ACE7A6BC0009A878C27E697F38DD119E7CCB9BA5CD8BA8469F5A59606F363B83DF8D9E19324E93121719C9E487A3A65649B44
310
C1F66B13C6691C303A8A39B3757B77571829AC2C310FFD2022FE8684C17790ED826417671F7EB28B7C46C7F20791EBCA3745AE56360A17BBB3ACC77C343211FFB685882CEAC5007E2867740C115E53C28F41432010B215E7E6BEC715A04116569B189852BB951A44E3244CF5D1F4303AB3D0796A009B3DED13BEE8F3BA077C
310
40A12AB0262C5CCFCE8ED3D93C7589A293860CF6869436AD685673B3C5F55C073D9517BAD1E61D355D56A54B9874FC7BF92F504B0304140006080800F899D542235BAB817C0000009D0000000B0000006662782F636E782E786D6C4DCCD10A83201805E05791FFDEE5E80F14D420CCF7886521330DA7638FBF1A5D0C0E1CF8
310
381CD97FB640DE2EBF7C8A0AEE3706C4C5479A7D5C15D4B2500EA4D732A754FE6640E2B439052783966B4E75BF6876CB54433934F8F8BC10B165E2081D191A8A68381D3A3B50E4A235D68E1D17021A2D9BDFD3D1E7B1FE02504B0304140006080800F899D542DCD58BED2A01000014020000310000006662782F3434333039
310
3330392D453034442D343444382D423546422D3438393344464645353839392F636F72652E786D6C8D51ED6AC320147D15F1D7C630D1C494588C85D2F609F602D6D84EDA68F063F4F1A74B0ADBBF8278E5DC73CE3D78F9EE31DDC1B7F6C1383B40526108B4556E34F63AC0142FA8876027B8772EFEA14160E5A407586028F8
310
D5BB34AF9072366A1B336ADDA8575086A02304EA9E1F030CEA4B4FB292296646B855B3543779D515A9723BF3040FD1E7006019526E28286D31CB071D313D204A0F3DDA77A73DA23D6B0FA7D3B1EB19E3F522143C2533AE7233E638E662B47FD5A488058F667AC6575ECBA847281A4C5A8437A8219F846D49B7A5EC0377DB16
310
F3BAD0FF89D23CBE284AC6C6B659E32EB20005E1F5D2107C74E97C7F86D18FD9F908CABCB7A0D53B14B8C2A4C1B4633DAF176AFE80ECB9A1AB6788CEE70F7EBB9D33BB5D8D3754F0BAEC2897DF05E65AF6297E00504B0304140006080800F899D542D4CF86DB5701000033030000300000006662782F34343330393330392D
310
453034442D343444382D423546422D3438393344464645353839392F636E782E786D6CBD93CD6EC32010845F0571ADFC43EC44498489D4439FA0875E316C1A1A1B2CC055F3F65D1292E69243A5AA1764CD0E33AB4F98EFBEC6817C820FC6D98EB2B2A604AC72DAD8F78ECE715FAC29D909EE9D8B77364AAC1CA1A349A682BF
310
7B374F59D2B097F310511D8C3D66D14370B35710504E37C9E0941C30006C31A308630F5A832637237EEDC1E32A28F627120F405E9EDF88EB3F40C5C0AB942278953A044F676EBA3351A206194247833AC0284B3947A7211C4B2DA32C5979ED7AB0D34F124917AE95B337249577349D54E48D4AE4C82B1C0A1EA2477AD9144F
310
135021A769304A46845C9D8D178FE0B3B171D566AF41F01EDDCD62B55E63D879267834236487F22023682A16356B8A7A552CD82BDB6CD972DB6E9EEAE5B6A97995EC82F7CE0DF912C680771351CE46B0910AC6AB347E842FFB88361E593B7FFA054804905B2F746E197FC987AD9AB6FD473ED5F97D232E8F7F81F806504B03
310
04140006080800F899D5420AEBE169620700009A1B0000340000006662782F34343330393330392D453034442D343444382D423546422D3438393344464645353839392F6F626A656374732E786D6CED59DD73A33610FF5718FAD23E1843ECE4920EE126712E379E6BAE3775AFD307CF3032C8448D108C247271FFFAAE3EC0
310
404C82DBF4ED1E6C4048ABDDDF7E6A09DF3FE5D479C45C90825DBA81E7BB0E66499112965DBA95DC4ECE5DE77D14F2A290AD69AEC3508E2F5D35EC4661C68BAAB44329DEA28ACADEE8EDF59F8E4830C3AE935024C4A52B927B9C230F55B248B178F0522491976D9FBCC03313BB64338ECAFB1ED11271CC24700AE30CA83886
310
A9A0FBE8BBD3289CAAF751A8FEEDACD9A859F3E159532D75974BC284442C79C6528FCC6C144BB3607EF3E1E4F462723A9FCF26F3B39360727D7B7D3309DECDFCC5D9627171F5E102D8DB1405B532A5B8C42C05FDEDDC2808A7EA4D23BA45E010D749C1184E3490009516AB4F9060015BB5E0F3BB8F8192A8F55A4BD87A9EAB
310
F79685D6F0AC4B6568D638203A744110BB5D2D717D6DCB576CFE02C1C518A3E4024BE056480EDAB5F070F00A37F2C3A9198DC2CD5E17443839929813441D4A361C71500A4C5553A2D02CB06494737020E52809B4E6CCEBAE6D8167BEEE3A87B8DC56942ACF7023ED5831B81F96427346FEC67CCF7D1B19E009A4AD0893E796
310
4BB92BB11B5D84533D1885EA323BB12F0D90CE96A24C6844CCDB9EA00BE5FACB1B37FA74BB795AA9707078F3921725E652199DD2A3E60B0CD95E154A76DB6094E6D40210C6806A57EE41F90D90FF0CD163CF0AE88D93A7F9D3DCCE951C31B12D780EBA717C67E2C39FEF04FA5FDDB7EEC269B3B8ABBD213CC14D1554E7FF1D
310
CFAE0C1A2BCB7F0BCE287C04832FF8CCBE5A2588823DDF11060029237168014310DAB79B27375A42E084400FAB108D021019D87D84DB706AC9ECB552BB97F53A0688DA3D66639404B0698B043606F4F411B20727C95E4D6D1187E03D7D1373BDBA597D5A557C8B127C677DFA066F092312B2E661863A9877247AC0BB6F054F
310
41D0E778AFDA78E7762B01682BCC15F0590D827AD8EFDCD920817559A1C24DF8CA0E2084CAD52DFA7744249852C47051D5FB36D14D196AE3F1B66670A31303F1ECA467C21C3F12555580D3EC67741885BC9F70522A10DDE8A391AC099ADE80745F979FC1229BF903B3960C422F43F4771DB40EE0D0B1EC1A690B4423F0661F
310
CE9382163CDEEC6213E95CA825808DAEB7FCD1210AB1DE284951010FD27E578794CC481BA764BBAD04C4D5032CFEB15CB4CDC1F766C1A9D3FEEF39E31CA22DF82EE2D6EF7A7BC42447198EB7281DDAAEBD5B435B689203A439DE52908B3C12B98B918CFD1467C7407314F18B37A59ED14208C2B0807C7510FC361ABE0781C4
310
68B3665969B5073411718E25A2C720A0C80C80ABD38EAE7113281D5EE7B1B1DE9734D626FA3F590447504B162C26508A420E7995F1C03B8518D245D7A0DCC317ACADA6ADC5A0159410C92EFE8649762F8F41DD901FC03D81234925E3A2440998F508B2CF7C4529B5C7FB06250F2A7FC44945DFCA4004A6DB98505AE531FC08
310
8393C718D76E02D38B28B4889BD827710E451992151FB3C9D9A9FF6C1F5333F443606BA32DA110B6E31C9503A87702A2AE479C067C4B7D40A99B2A2F639417151B6528DEACEF4D967C5FAD8AEC487E55A90865634DD8128C42C2649355EB980DA6AE032BB8910E54BB58A0BCA4E614F64AE2091A6FD2940737E0D64FDF7683
310
1C0ABF01EDB523EABC86C1F2D8290CC43724937B375AE9EBE41AEAEF14A7FB545FD79AED0A10105391BCE2C4AAE8EB12CA1B5BA3B9D11D9262FDD164DDFAFA75E941F7239CC21AA85D9A854B05748E9944AA32B95337F4370421B843C38C2F554E3D86CA559AEAAA11D15B32A4CE4E19D1D934275E798F5991C38FAD094B68
310
95E2354AC5437C2769BC228A752BA597931AE31705FCF5E3AA070F8C8C10E98B2AF0F0B7DE5A3BBA50E5D24122F2BECA370C1108821DD132A31BAF6499D548ADE5E6AACE14507781815915CFBF9F2CDAED88EF278BCC1AC67F3A595CEF7E41BB765FA495CE1365D7471D039AFCA4A8BCC53140B71D1AAA4D1631C9DCCA6F9D
310
2986A05847F9D1D5581D340CC1218EFF75D61ECA8266BB1EFFC765EDE059C5715456E94C565DAA0395EBB29DC36E2FDE5DCF3E2CDE4DFCABD36032BFB80826576770E75FFBB3F31BFFE4EA5D70D6A0A91D350A9B60A673173C9BA0560FAB278B0174654541490AA7F9D4C930C47C0967FA11ED739E6301C9B3DDEC4E6D537E
310
C4EA47D3E794684371CDC93D8206311590D601A32A91DD71E707684D4A38685FBAD034F21EE0CF5AA5EB40E6B974A15520498285B78136936AE869E2907275EEB7C4001FC4329512CDA2E6B959A5B0E984FF66CA983460E5EAF430A0702BA1FBD5E95068DE2C4FC95182D7EC3848C2EDA69250AD1959F6038D307A9BBDFA8D
310
6C94B007BBF513B8EECB62059E9ED34164D42783178DC0509D48C433DDEF568C5996AE6EBE4CA1CFE62C7F754A5A65A0CBF194261C833157AAA0022B02ABB0344B24C154173FAFBFF0023EF1E48EAE8A9C1F9FCECF7E5A2F8A3C2F98195A5FC1A92C850F45CEEA1E3EFBA46B281EB06AAE8BF5891F9CAC7553DBF6D9E30D12
310
D85355110CD4C58412A467726097CF1A54B67D3955AAE84D5FDE3836884233C0D8D1B31EAFF9C8E5800FA9CF29CA63B49FD7D2BED8D79EEAA960131C3AD2D13F504B0304140006080000F899D542000000000000000000000000350000006662782F34343330393330392D453034442D343444382D423546422D3438393344
310
464645353839392F76657274696365732E62696E504B0304140006080800F899D542F270F1330600000004000000360000006662782F34343330393330392D453034442D343444382D423546422D3438393344464645353839392F747269616E676C65732E62696E636660600000504B0304140006080000F899D542000000
310
000000000000000000370000006662782F34343330393330392D453034442D343444382D423546422D3438393344464645353839392F617474726962757465732E62696E504B0304140006080800F899D542D5987DFC8F00000041010000360000006662782F34343330393330392D453034442D343444382D423546422D34
310
38393344464645353839392F6469726563746F72792E786D6C858F410EC2201045AF4266AF15DDB800BA74E7C21B903225242D6328188F2FA5C4183471359997F9FF81E89FF3C41E1816475E02DF1F80A11FC8386F25A438EECEC07A250251FC3803E6F58C12560C4AD840E95E91C151A72936F496F35732D860FE635F62C8
310
F2DA16B505C545B74125BAA2FA9E05D7CC053D063734D5C7665FD55B6B8D15D5E9BFEAFD8490FFA45E504B0304140006080800F899D542AF51F2E2FD000000A00100003B0000006662782F34343330393330392D453034442D343444382D423546422D3438393344464645353839392F7265736F75726365732F636F72652E
310
786D6C8D50596AC33010BD8A99DF22DBF212DB415620313D412F20E48923124B414BE9F12BC52EB47FFD9919DEC23C1E3B7DAD8FEC13AD53468F40F31232D4D2CC4A2F23047F253D6427CEAC31FE970C322D561C21C1C0D9624D78EE9034DAA3F611D566C61D14CEA1874C3EE2318293375C452E828F0A77CF9F42DEC58239
310
CD231D759C396F63806C7B9226708BCE042BD1B16263390B41CDBB46CDF1A7BA2AB4C02F55772E87F344DAFED292A6E927D24FD340BAB6A6DDFBA16AFA86B2229939F36AFDC9282D0A8F33F0AAA435290FA4A21F7438D2F6D80C6F657BAC4B5624F91F5378CEFF3405A57D5DED71379B039E82BC08CE8AD4575CAF32E34EDD
310
F26F504B010214000A0000080000F899D5423DEE336E79000000790000001B00000000000000000000000000000000006175746F6465736B2D64657369676E2D7061636B6167652E786D6C504B01021400140006080800F899D542D486FD9CA0000000F40000001300000000000000000000000000B20000005B436F6E7465
310
6E745F54797065735D2E786D6C504B01021400140006080800F899D542BCFADC7AEB0000007C010000080000000000000000000000000083010000636F72652E786D6C504B01021400140006080800F899D54255019EA25F0000007C000000070000000000000000000000000094020000636E782E786D6C504B0102140014
310
0006080800F899D542FED6C82C67010000020300000C00000000000000000000000000180300006662782F636F72652E786D6C504B01021400140006080800F899D542235BAB817C0000009D0000000B00000000000000000000000000A90400006662782F636E782E786D6C504B01021400140006080800F899D542DCD58B
310
ED2A0100001402000031000000000000000000000000004E0500006662782F34343330393330392D453034442D343444382D423546422D3438393344464645353839392F636F72652E786D6C504B01021400140006080800F899D542D4CF86DB57010000330300003000000000000000000000000000C70600006662782F34
310
343330393330392D453034442D343444382D423546422D3438393344464645353839392F636E782E786D6C504B01021400140006080800F899D5420AEBE169620700009A1B000034000000000000000000000000006C0800006662782F34343330393330392D453034442D343444382D423546422D34383933444646453538
310
39392F6F626A656374732E786D6C504B01021400140006080000F899D5420000000000000000000000003500000000000000000000000000201000006662782F34343330393330392D453034442D343444382D423546422D3438393344464645353839392F76657274696365732E62696E504B01021400140006080800F899
310
D542F270F13306000000040000003600000000000000000000000000731000006662782F34343330393330392D453034442D343444382D423546422D3438393344464645353839392F747269616E676C65732E62696E504B01021400140006080000F899D54200000000000000000000000037000000000000000000000000
310
00CD1000006662782F34343330393330392D453034442D343444382D423546422D3438393344464645353839392F617474726962757465732E62696E504B01021400140006080800F899D542D5987DFC8F000000410100003600000000000000000000000000221100006662782F34343330393330392D453034442D343444
310
382D423546422D3438393344464645353839392F6469726563746F72792E786D6C504B01021400140006080800F899D542AF51F2E2FD000000A00100003B00000000000000000000000000051200006662782F34343330393330392D453034442D343444382D423546422D3438393344464645353839392F7265736F757263
310
65732F636F72652E786D6C504B0506000000000E000E00800400005B1300000000
  0
XRECORD
  5
17
102
{ACAD_REACTORS
330
12
102
}
330
12
100
AcDbXrecord
280
     1
270
     1
271
     1
  0
XRECORD
  5
16
102
{ACAD_REACTORS
330
12
102
}
330
12
100
AcDbXrecord
280
     1
270
     1
271
     1
  0
XRECORD
  5
18
102
{ACAD_REACTORS
330
12
102
}
330
12
100
AcDbXrecord
280
     1
270
     1
271
     1
  0
XRECORD
  5
15
102
{ACAD_REACTORS
330
12
102
}
330
12
100
AcDbXrecord
280
     1
270
     1
271
     1
  0
XRECORD
  5
24
102
{ACAD_REACTORS
330
22
102
}
330
22
100
AcDbXrecord
280
     1
270
     1
271
     1
  0
XRECORD
  5
23
102
{ACAD_REACTORS
330
22
102
}
330
22
100
AcDbXrecord
280
     1
270
     1
271
     1
  0
XRECORD
  5
BA
102
{ACAD_REACTORS
330
22
102
}
330
22
100
AcDbXrecord
280
     1
 70
     1
 90
1959938040
 71
     1
  1
A2B2F5FE-FB1B-48C4-9BF1-7A59825AD8D2
311
504B03040A0000080000F799D5423DEE336E79000000790000001B0000006175746F6465736B2D64657369676E2D7061636B6167652E786D6C3C3F786D6C2076657273696F6E3D22312E302220656E636F64696E673D227574662D3822203F3E3C666F726D6174733E3C666F726D61743E687474703A2F2F736368656D612E
311
6175746F6465736B2E636F6D2F64657369676E2D7061636B6167652F323030393C2F666F726D61743E3C2F666F726D6174733E504B0304140006080800F799D542D486FD9CA0000000F4000000130000005B436F6E74656E745F54797065735D2E786D6C7D8EC10E82300C865F65E91D8A1E8C310C0EEA1BF002731658846E
311
D98AC1B77784ABF1D8FE5FBFBF75BBCE937A534CCEB38643598122B6FEE978D0B0485F9C41B54DDD7D022595594E1A469170414C76A4D9A4D207E29CF43ECE46F218070CC6BECC4078ACAA135ACF422C856C0E68EA1BF5669944DDD7BCDE7B1F8E415D77AECB980613C2E4AC91FC167A2B244592486606FC29C8FD7F045B9A
311
EF7053A7E60B504B0304140006080800F799D542506487C4ED0000007C01000008000000636F72652E786D6C8D90D18E832010457F85F0BA4145B15B0DD2B858BF607F8000B5A4158CC0663F7FB1B5C9EEDB3ECDE4CE3D33934B4FDFF31D7CE9D51B673B88B302026DA553C64E1D8CE1828E109C185D9D0BBF6C105831EB0E
311
6E3264745A5D5C76493A1BB40D49B54EE95D14DEEB0081BCA7A6835E5EF52C32114372F85BB608791393CEF0AB4B708C4681E711A3D23E73317A85ECF8C1FB73FF3EA2231F08220DAF51D3D7049D47528E03E764E03DCD3798D160E6D77DB96A11B482AC2C70858A032AF1276E5A5CB7E4F056D46D55D07CB3FF81E2A2FE09
311
45634355EEEF3E310F194E8F3C068CE65B16A93C824A75CB8DFD00504B0304140006080800F799D54255019EA25F0000007C00000007000000636E782E786D6C4DCB3B0E80201045D1AD90E915ED2CF8AC45050C11660C8261F98AB1B07AC9C97D42D718D865D3E909258CFD00CCE24AC6E326A164D74DC0B4128928FF3260
311
38472BA13128B1252AC747C6BAB984FC68F0B87FE8960A5C09FE86CFB69FBA01504B0304140006080800F799D5420E2C0EB669010000020300000C0000006662782F636F72652E786D6C8D52ED8E8230107C95A67F2F5040F0D4941A0EF509EE052A54AE115A525AE2E3DFF261382FC61892D2CCECECCE0ED0FDADA9512F4C
311
27B54A71E807180955E852AA2AC5CE5EBC0D467B468DD6F64F19468A3722C5038C19AD8C76ED0C155A59A12CA04A97620679D7098B5151C325C55DF1231AEE7367A1A2BBFA2D2FAEBC127EE8030D758C76D68001340D194ECC2EE71B2513CEA873B29C5959C2347991C260B6F9CAB363F679F236F921F6E26D9E78DB2C89BD
311
E3298E4E873C8F0F7946C92066D4CAE6EEAE30825B51621605E1CA0BD65E147E87DB5D98ECE2F54790EC56012543F983C8B5E59B2227955D45B3DD49D66116829191F8B72D446451C77BF04318254388F01A137E0C1A0281902D3FD7F73DAE00F5A2B0DAC4C094DA2D54CF6B27606A80C687928985CE6303D8EC699FE8459F
311
D73DE003725581356EE17A7676984EA7A97314AD305E6F6F4869D3F07A3137595CCE65D05379A16B6DDE5193795532874986BF97FD02504B0304140006080800F799D542AA6D40B97E0000009D0000000B0000006662782F636E782E786D6C4DCCD10A83201886E15B91FFDC65AD4C418D6AEB3E6259C84C87E9D8E5AF4607
311
3BFAE0E1E315CD67B5E8ADC366BC93905F0820ED1E7E326E9190E28C19A04689E07DFCBB0172E3AA251C0C4A2CC1A7D749939EC764E3AED6B8E789FCCEAAFADAF6B8183A8ACB1BCD31EF68812963A4E6A424435F41A644F62BED7B84D517504B0304140006080800F799D542750E53EB2D0100001302000031000000666278
311
2F39453835373341432D324642362D344436312D394236322D3638383037393034304643352F636F72652E786D6C8D515B6EC32010BC0AE22B55850D7E103BC2444DDA9CA0177030715162B07854397EA176A4F62F3F2C9A9D991D58B6BF4F37F02DAD53467790641802A98519941E3B18FC053510EC39B3C6F83F3408743F
311
C90E261872365A13E61512467BA97D44B519E40AF6CE490F81B8C54B079DF892539FF5C14786BB66732FAEFD283392C576E471E6BC8D01C032249D90B71F4DBD2DDF8EA8381D28AADE2941ED811688360DDEB6B8C2A763CDF245C859086A58E56A8871D44549FBAC491273E6D5F4882FACECBD1C202F302911A6A8209FA4DD
311
917A57D1575CEF4ACCF244FF270AF3F0A42828EDCB628DBBC81CE484E54B83B3C184F3ED1146DE67633D48F3364E8A17C871860969DBA665F9C28CEF8F96B45A2D9D3736FEEFE67A8E64127F29F9D28AB33CAD2896DFFDC59AD6C97F00504B0304140006080800F799D5427EA166794F01000033030000300000006662782F
311
39453835373341432D324642362D344436312D394236322D3638383037393034304643352F636E782E786D6CD593CD6EC32010845F0571ADFC43E2586D8489D4439FA0875E096C121A0C16E0AA79FB2E094973C9A1C75E90353BCCAC3E61BEF91E2DF982108D770365754B0938E5B571FB81CE69573D53B2113C789FEE6C94
311
3839C240B34C05DF073F4F45D2B093B34DA85AE38E450C10FD1C144494F34D62BD921603C055338A306E416BD0E466C4AF1D045C05C5ED89A40390B7D70FE2B79FA052E44D4E11BCC91D82E7B334DD99285156C638D0A80E30CA5ACEC96B88C75ACB246B565FBB1EECF49B44F2856BE51C0CC9E503CD271565A31A39F20687
311
82C714905E31A5D30454C869B246C984909BB3F1E2117C362EF55DF11A041FD0CDFA65D761D8792678322314870A2013682A162D5B566D5F2DD83B7B59B3D5BAEB9FDAD57AD9F226DB05DF7A6FCB258C81E027A2BC4BE012158C3779FC085FF1116D02B2F6E1F4079008A0B45EE8DC32FE339FE6FCBE1157C0BF40FC00504B
311
0304140006080800F799D5423C9B26B3A405000080100000340000006662782F39453835373341432D324642362D344436312D394236322D3638383037393034304643352F6F626A656374732E786D6CAD57DB8EDB3610FD15417D691F7C91ED4DBC8556812F7160049B043112F4C180414994565D4A14486AD7DBAFEFA144
311
DD1C7BE31679B12C6A389C3973E642F7DD3165D6131532E1D99DED0CC7B645B380874916DFD9858A0673DB7AE7B98273D511B3AD8CA4F4CED6CBB6E7C68217B9590A69440AA64E5637CBBF2C19D08CDA56C0889477B60C1E684A86A4503CA4F2711812458671741C3AC34AB0AF3616247F38519A134133054BB19E418B5519
311
E5F45FC7F6C87347FABBE7EA5F2335BD2C352AFDE99F9F6452912CF8E1B013355367B67E3FB9B91DDCCC66D3C1ECCDC4192C37CBF5C0793B1DAFDEAC56B78BF7B738582A014DC6124123DBFB006C4412B8A3EA93E71649A6A6132362023412F429D191B2BD89E5B8A34AA6F1CE3879CEFC8067190D4AAC8046E99F511DD29C
311
6621629E5009CB3A088DFBAF8EC6B1F379AADFCD91DDE5EB10E8EEE828AA6DAF9F5D4BB9FF375C90D7304848AA195861691CADB83A6E11F63967E65B22AD94282A12C22C96F8828817DB83A816F1DC9E1ACD64A1B3417B607B8842F5B94F17A4D1CF797ECECAA8604CD3D8F6CA2C382057A892A565C93F54B4D67791814D88
311
9566C3DC38A45E726A7BB71545E6276CAA80B4224662841C6EEA9DD3C989A32B9DA7DBB5ED7DDCF8C79DCEDDF387E782E754284D1F50AB0E5CFDD428199B9CAB22A737D827A6B4A07C05F29F90EAAD29889B488EB3E3CC9CA204C964C4458AD858636B30C6CFD872CA5FFDBFF3CF1D359BFBD1BB842782ADA1FA0578F67DE8
311
C6B203A7E73E81F05C4C8D6BBB8030948DFB2403409A2416E358421D8EFCA3ED6D51E55095B18B30CF81CB30F7097FDD91518342519ED47966C0F2A42C5E51A0015BC948985191DF18D8C6E98772561E6CC42EC17BF34BE8BA58EF3EEE0A119180DE9B9C5ED328C9128516D7F2A66B500FF39E478FF4E5998B108EFE88F7AE
311
8B776A8E92405B63AE818FEB9AAE5FDA937B0704D817735D6EDC9F9C00277463EDE8BF4F6440192319E5457DEEABFD036DA3825827BB6672D360DAC602D2545F4E72104D3A1049AE416CBA5553348717BCFBB6FD0446429E719FB056C86F4B6FC0191707FFE55055A5B3487FEF53DB4030D25AC0F63247EAF437981FC2248A
311
0A891A7806D6EFDB553774BA2AA042D45AAB6499C17DE4161186B3B55E346B41D048797648D0369176670FE8EA07A28600A5C24B164BCAA243C258911EA284A1191D52925F80E3FFDBEF17697E20292F32754177CF743487BEED3DF2CA67A28207DBDB95CFC112A537A4611BE69EB06E2567B0EA857631594E36379BF783CD
311
D2590E66F3D56C70BBDC3883B78B9BDBF9E466B19EAF27759C2AE59E5B779A6E42234AE86C6E211213BE6F5BA48FA901B6774F94DC7FA8B2B37E7EDB0E310ABB23EC41BB6C362EC2278C7D34FCB98256F2ACA26D9A339AD24C119D42F7FA0FFB4A3066F48CA9D6B72989E9155A3E7FD89D3883952BF67DD1E94E9F4FF69AD5
311
954EC8B34AD44391FA1949D8C9C6B842729867B1C1AF8E49F3ACFA4CFDAADF4C6030984ACE92106530B462CA53AA500CAFE84122A512D4EB8EF4A1B97A5CB1FBA91A1015F119AD2D7920989199445A805A45A0FAEBD66F98E9F4587567A3DB0E1FF1632A856D8133773666749504540E7DF4673D0995CAC1A5EE208FB99F64
311
31C3A85D6D6ADE9B5D1A9B5E476E44AE199F8C5F5505370EA08CE4181B300F213AA5319E5BDA66BE07FFC9F1DA1C8B28FCF50BD5F8D22E34CE94C720452BA7CC650133CCA339FA88447DDD2D6758CAF410B9EA92F52A092AAD0345445C5E14B47DC6A4C5FACB08038AB5FD6CE5AC8811CBEB350D0405990B9DE06011586174
311
E64481AAAB3FF75F04C74536B536092860FD7E9CBFF963BFE269CAB36A69BF30D7616BF780CB6DB84771A0FA5622F793B133D997B701734139F844D22109E523161059913440F7C20F5E565746F4A1EA432337D2A13861E8766D99C636835243976E6DD5E060EEC8A8851CD2374A9D315D81FCD50BC1A814850902A3BCF72F
311
504B0304140006080000F799D542000000000000000000000000350000006662782F39453835373341432D324642362D344436312D394236322D3638383037393034304643352F76657274696365732E62696E504B0304140006080800F799D542F270F1330600000004000000360000006662782F39453835373341432D32
311
4642362D344436312D394236322D3638383037393034304643352F747269616E676C65732E62696E636660600000504B0304140006080000F799D542000000000000000000000000370000006662782F39453835373341432D324642362D344436312D394236322D3638383037393034304643352F61747472696275746573
311
2E62696E504B0304140006080800F799D542D5987DFC8F00000041010000360000006662782F39453835373341432D324642362D344436312D394236322D3638383037393034304643352F6469726563746F72792E786D6C858F410EC2201045AF4266AF15DDB800BA74E7C21B903225242D6328188F2FA5C4183471359997
311
F9FF81E89FF3C41E1816475E02DF1F80A11FC8386F25A438EECEC07A250251FC3803E6F58C12560C4AD840E95E91C151A72936F496F35732D860FE635F62C8F2DA16B505C545B74125BAA2FA9E05D7CC053D063734D5C7665FD55B6B8D15D5E9BFEAFD8490FFA45E504B0304140006080800F799D542388EDAF5FF000000A0
311
0100003B0000006662782F39453835373341432D324642362D344436312D394236322D3638383037393034304643352F7265736F75726365732F636F72652E786D6C8D50596E833010BD0A9ADFCA8059D204194714C8097A01CB4C522BC1465EAA1EBF2650A9FDEBCFCCE82D9AA7C7CE5FF323F944EB94D12DD0348704B534
311
93D2B71682BF92232467CEAC31FE970C122D666C618581B39B3561D92169B447ED23AACD843B289C430F897CC4A305273F7016A9083E2ADC3D5D84BC8B1BA6348D74D471E6BC8D0192EDC93A815B742658898E651BCB59086ADA356A8A3FD555A1057E7CEBBBB17B1DC9B11F2A529DFA9A9CBABA22E3A52A2E43DF5743DFB1
311
6C3573E6D5FC93515A141E27E0454E4B921F4841DFE9A9A175531D5EF2BA297396ADF23FA6B04CFF3405A57D59EC71379B034E639027C159B6F615D7B3CCB8D76EF937504B010214000A0000080000F799D5423DEE336E79000000790000001B00000000000000000000000000000000006175746F6465736B2D6465736967
311
6E2D7061636B6167652E786D6C504B01021400140006080800F799D542D486FD9CA0000000F40000001300000000000000000000000000B20000005B436F6E74656E745F54797065735D2E786D6C504B01021400140006080800F799D542506487C4ED0000007C010000080000000000000000000000000083010000636F72
311
652E786D6C504B01021400140006080800F799D54255019EA25F0000007C000000070000000000000000000000000096020000636E782E786D6C504B01021400140006080800F799D5420E2C0EB669010000020300000C000000000000000000000000001A0300006662782F636F72652E786D6C504B010214001400060808
311
00F799D542AA6D40B97E0000009D0000000B00000000000000000000000000AD0400006662782F636E782E786D6C504B01021400140006080800F799D542750E53EB2D010000130200003100000000000000000000000000540500006662782F39453835373341432D324642362D344436312D394236322D36383830373930
311
34304643352F636F72652E786D6C504B01021400140006080800F799D5427EA166794F010000330300003000000000000000000000000000D00600006662782F39453835373341432D324642362D344436312D394236322D3638383037393034304643352F636E782E786D6C504B01021400140006080800F799D5423C9B26
311
B3A40500008010000034000000000000000000000000006D0800006662782F39453835373341432D324642362D344436312D394236322D3638383037393034304643352F6F626A656374732E786D6C504B01021400140006080000F799D5420000000000000000000000003500000000000000000000000000630E00006662
311
782F39453835373341432D324642362D344436312D394236322D3638383037393034304643352F76657274696365732E62696E504B01021400140006080800F799D542F270F13306000000040000003600000000000000000000000000B60E00006662782F39453835373341432D324642362D344436312D394236322D3638
311
383037393034304643352F747269616E676C65732E62696E504B01021400140006080000F799D5420000000000000000000000003700000000000000000000000000100F00006662782F39453835373341432D324642362D344436312D394236322D3638383037393034304643352F617474726962757465732E62696E504B
311
01021400140006080800F799D542D5987DFC8F000000410100003600000000000000000000000000650F00006662782F39453835373341432D324642362D344436312D394236322D3638383037393034304643352F6469726563746F72792E786D6C504B01021400140006080800F799D542388EDAF5FF000000A00100003B
311
00000000000000000000000000481000006662782F39453835373341432D324642362D344436312D394236322D3638383037393034304643352F7265736F75726365732F636F72652E786D6C504B0506000000000E000E0080040000A01100000000
310
504B03040A0000080000F799D5423DEE336E79000000790000001B0000006175746F6465736B2D64657369676E2D7061636B6167652E786D6C3C3F786D6C2076657273696F6E3D22312E302220656E636F64696E673D227574662D3822203F3E3C666F726D6174733E3C666F726D61743E687474703A2F2F736368656D612E
310
6175746F6465736B2E636F6D2F64657369676E2D7061636B6167652F323030393C2F666F726D61743E3C2F666F726D6174733E504B0304140006080800F799D542D486FD9CA0000000F4000000130000005B436F6E74656E745F54797065735D2E786D6C7D8EC10E82300C865F65E91D8A1E8C310C0EEA1BF002731658846E
310
D98AC1B77784ABF1D8FE5FBFBF75BBCE937A534CCEB38643598122B6FEE978D0B0485F9C41B54DDD7D022595594E1A469170414C76A4D9A4D207E29CF43ECE46F218070CC6BECC4078ACAA135ACF422C856C0E68EA1BF5669944DDD7BCDE7B1F8E415D77AECB980613C2E4AC91FC167A2B244592486606FC29C8FD7F045B9A
310
EF7053A7E60B504B0304140006080800F799D54238DF97F5EC0000007C01000008000000636F72652E786D6C8D905B6EC3201045B782E6B7C206FC886361A2388A57D00D204C1C94182C0355975F9C87D4FEF56B4677EE99195D7EF89EEFE84BAFDE38DB01CD08206D951B8D9D3A88E1821B4007C157E7C22F1B202B67DDC1
310
2683E0D3EAE2F29294B341DB9054EB46FD12A5F73A0052F7D474E0D555CF3293312487BF658B543739E98CBEBB04C76846F43C62C6B4CF5C8C5E415405A3C7F278C6E7A61C70D90C25EE4F3DC1BBBAD90DECD4B37DDDF07C83050F667EDF57AB96418F2018A105263566F493EE5B5AB565FD41AAB6203CDFEC7FA0B88CFF84
310
A2B1A160AF779F980741D3238F81E0F996452A8FA052DD72133F504B0304140006080800F799D54255019EA25F0000007C00000007000000636E782E786D6C4DCB3B0E80201045D1AD90E915ED2CF8AC45050C11660C8261F98AB1B07AC9C97D42D718D865D3E909258CFD00CCE24AC6E326A164D74DC0B4128928FF326038
310
472BA13128B1252AC747C6BAB984FC68F0B87FE8960A5C09FE86CFB69FBA01504B0304140006080800F799D5426358FA8568010000020300000C0000006662782F636F72652E786D6C8D52ED8E8230107C95A67F2FA57C89684A8D1A7D827B810A9523424B4A4B7CFC5B3E0CE7C51843529A999DDDD901B6BB3735EAA5E92A
310
AD321C783E4652E5BAA854996167AF24C568C799D1DAFE29C34889466678803167A5D1AE9DA15C2B2B950554E942CEA0E83A6931CA6BB864B8CB7F64233CE12C547437AF15F94D94D20B3CA0A18EB3CE1A3080A621C389F9F5726774C23973AE2A66B62A605A75ADA4C17C1585C13EDE9FC8298DCF244ECF31391C0F3E5927
310
E9FA1C1E0FE12649191DC49CD9AA79B8CB8D14561698877E10113F2161F01D6CB6C16A1B275FFE6A1BF98C0EE54F22D7161F8A5CA56C14CE7627598779004646E2DFB61091459DE8C10FE58C0E21C26B4CF83968080442B6E2523FF6B801D4CBDC6A13035368B750BDA89D84A93E1A1F4627163A8F0D60B3977DC2377DDEF7
310
800F285409D68485EBC5D9613A9BA6CE51B4D290DEDE91D2A611F5626EB2B89CCBA097F25CD7DA7CA2A6F3AA740E930E7F2FFF05504B0304140006080800F799D54202DE48AB7D0000009D0000000B0000006662782F636E782E786D6C4DCCD10A83201805E05791FFDEE536C3066A943FBD472C8B98E9703AF6F8B3D1C5AE
310
CEE1E37064FBD91C79DBF85A8357703E3120D6DFC3B4FA45414E336D80B45AC610D2DF0C881F37AB6067D07289213F0F9AEC3C66978ABAD53F0EE4B511061952340229EF4D4D7BD6943674DD8DE370BDA0804ACBEAF754723FD65F504B0304140006080800F799D542AAE951B92B01000014020000310000006662782F3435
310
4337434430442D444337442D344243352D423038442D3446414139344446333244372F636F72652E786D6C8D515B6EC32010BC0AE22B55651BF0230F61A2C4564ED00B104C1294182C1E558E5FA81DA9FDCB0F8B66676647BB74FF1C1FE05B5AA78C6E21CE1104520B33287D6D61F0976C03C19E516B8CFF438340F351B630
310
C190D1AB35615A2061B497DA47549B412E20774E7A08C4237E5AE8C44D8E3CE7C14786BBE71317777E9539CE633BF21875DEC600601E925EC8AABA5B773DEAB3BE5BF75975ECEAEC8836F1773A1CB6557F2A49BFA6C52C643404352C7235C438EAA2A47DD7248919F56A7CC51756722F07C808C265869A8CE02FBCDDE17A57
310
359FA8DE95881689FE4F14A6E14D5150DA9764893BCB1C6498167383D1C184F3E315463E27633D48F3564E8A0FC8508E3029B78494B498A97101D1B3A9164FE78D8D0B5EDDCF915D2EC64DC568916E14CBEF01634DF7643F504B0304140006080800F799D5421806A96E5601000033030000300000006662782F3435433743
310
4430442D444337442D344243352D423038442D3446414139344446333244372F636E782E786D6CBD93CD6EC23010845FC5F2B5CA1F0911458E917AE813F4D0ABB1177049ECC83F5579FBAEC1502E1C2A55BD58D1EC7866F5C9619BAF69249FE0BCB666A04D595302465AA5CD7EA031EC8A15251BCE9CB5E1CE468911130C34
310
C994B3BDB371CE92829D88634075D4E6984507DE4627C1A39C6E92D14A3162009822A208D3169402456E46FCDA81C35550DC9E483800797D792776FB01327856A514CEAAD4C1593A73D39D8912390AEF07EAE50126518A18AC027F2C9508A26CCA6BD7839D7E9248BA70AD8C4E93543ED074529E372A9123AB70C8990F0EE9
310
655338CD40B998E7514B11107275365E3C9C456D42DF65AF46F00EDDEDA25FAD30EC3CE32CE809B2433A100114E58BBA698BBA2F16CD5BF3BC6E96EBAE7FAA97EBB66655B273B6B576CC9730069C9D89B42680099437AC4AE347F8B28F28ED90B575A75F804400B9F542E796F1977C9ABEEDBA7FE4539DDF37E272F817F06F
310
504B0304140006080800F799D542604888EF62070000991B0000340000006662782F34354337434430442D444337442D344243352D423038442D3446414139344446333244372F6F626A656374732E786D6CED595B739B3814FE2B0CFBB2FB606C7C69931DC24E62371D4F276DA7DE76F6C1338C0C32D14608461269B2BF7E
310
8F2E602026C1DBEC5B1F6C404847E77CE7AA43F0C743469D7BCC05C9D985EB7B13D7C12CCE13C2D20BB794FBD199EBFC11063CCF65639AEB3094E10B570DBB6190F2BC2CEC5082F7A8A4B2337A7DF5972362CCB0EBC4140971E18AF81667C843A5CC132CEEBC0449E4A5FB07CFF7CCC436D994A3E2B643B4401C33099CC238
310
032A8E61CA6F3F4EDC71188CD5FB3050FF76D66CD0AC79FFACB196BACD25614222163F61A943663688A5993F5FBD9B2ECE478BF97C369ABF99FAA3ABEBABD5C87F3B9B2CDF2C97E797EFCE81BD5D9E532B53820BCC12D0DFA31BFAC158BDA945B7081CE33ACE19C3B10612A0D2627509122C60AB067C93F6A3AF246ABCD612
310
369EE7EABD65A1313C6B53E99B350C88165D10C46E57495C5D9BF2E5BBBF417031C428B9C012B8159283762D3C1CBCC20D27C1D88C86C1EEA00B229C0C49CC09A20E253B8E382805A6AA296160165832CA3938907294045A73E675DBB6C0335F769D635CEE4B4A9567B8A176AC08DC0F4BA13923FF607EE0BE890CF004D296
310
84C933CBA57C2CB01B9E07633D1806EA329BDA970648674F512A3422E66D47D0A572FDF5CA0D3F5CEF1E362A1C1CDFBCE07981B95446A7F4A8F90243B6578592DDD61FA439B5008431A0DA950750BE00F21F217A1C5801BD71F2307F98DBB9922326F639CF4037CEC4194DE06FE2F8FA5FDD37EE8271BDB8ADBD3E3CC14D15
310
54673F8E675B068D95E5BF016718DC83C1E77C665F6D6244C19E6F08038094913834872108EDFBDD831BAE217042A0875588863E880CECDEC36D30B6640E5AA9DCCB7A1D0344ED1EB3214A02D8B445021B3D7A7A0FD98393F8A0A6A6887DF02E5EC55C2F579B0F9B92EF518C6FAC4FAFF09E3022216B1E67A885794BA23BFC
310
F83DE70908FA14EF4D13EFCC6E25006D85B9023EAD40500F879D5B1BC4B02ECD55B8095ED8018450B9BA41FF868818538A18CECB6ADF3ABA2943AD3DDED60C6E383510CFA61D13E6F89EA8AA029CE630A3C528E4FD98934281E886EF8D6475D0F47AA4FBBAFE081659CFEF99B566107A19A27FEAA0750487966557485B206A
310
817787701EE734E7D1EE313291CE855A02D8687BCBB7165188F546498A0A7890F6BB2AA4A446DA2821FB7D2920AE1E61F1DB7AD934878937F3174EF3BFE38C7388B6E0BB885BBFEBEC11910CA538DAA3A46FBBE66E356DA149F690E6784F412E724FE46384643449707A0A3427113F7F55EA29CD85200C0BC85747C16FA231
310
F12090186D562C2BAD76802622CAB044F4140414991E7075DAD1356E0CA5C3CB3CD6D6FB9CC69A44FF278BE0086AC99C45044A51C8212F32EE7B0B88216D740DCA1D7CC1DA2ADA5A0C5A4209113F46DF31496FE529A81BF23DB8C77024296594172806B31E40F689AF28A57678DFA1F84EE58F282EE96B1988C0741F114ACB
310
2C821F6170F218E2DA75607A1685067113FB24CEA02843B2E4433679B3983CD9C7D40CDD10D8D8684F2884ED2843450FEAAD80A8EB11A706DF52EF51EAAECC8A086579C906198A37EB7A9325DF55AB223B905F552A42D95811B604C380305967D52A6683A9EBC00A6EA403D56324505650730A7B21F1F8B53769CABD1B70EB
310
A7AFBB4106855F8FF69A11755EC160796C1506E23B92F1AD1B6EF4757405F577829343AAAF6ACD66050888A9485E726255F4750DE58DADD1DCF00649B17D6FB26E75FDBAF6A0FB118C610DD42EF5C2B5023AC34C225599DCA81BFA0541086ED130E36B95534FA1729924BA6A44F49AF4A9B35546B436CD8857DC629667F063
310
5BC2625A26788B127117DD481A6D8862DD4AE965A4C2F859013FBDDF74E0819101227D56051EFEDE596B4797AA5C3A4A44DE96D98E210241B0255A6A74E3152CB51AA9B45C5FD59902EA2E3030ABE2F9CF9345B31DF1F364915AC3F8B19305CD77881EA24D239BC7CAAC4F3A05D4E94951798D5380EE3AD454EB246272B915
310
DFFA520431B10AF2838BB12A6618827D1CFFE7A4DD9704CD761DFE4F4BDAFE9382E3A4A4D29AAC9A54470AD77533855D4EAFA6D78BEB77A3EB2BFF6A343F5BCE47E757D7FEE8EDE5E2FC6CBAB85C9DADEA4C6C8887411DCB74EA826713D3AA61F5643180A6ACC82949E0309F382986902FE1483FA07BCE332C2077367BDD89
310
EDC90F587D6FDA9C12ED28AE38B945D01FA602B23A8851C6B23DEEFC029D4909E7EC0B177A46DE1DFC59AB741D483C172E740A2489B1F076D06552FD3C4D1C32AE4EFD9618C431C4529511CDA2FAB95EA5B06945FF7ACA902C60E56AB530A06E2BA0F9D56A5068DE2C4FF1498257EC3848C2EDAE9450AC19590E03B5307A9B
310
83FA8D6C94B03BBBF503B8EEF362F99E9ED34264D01783678DC0501D49C453DDEE568C59962E579FC7D06673D69F9C829629E87238A511C760CCA5AAA7C08AC02A2CCD024930D5E5EFDBCF3C872F3C99A38B22E7D787B337BF6D977996E5CC0C6D2FE15096C0772267730B5F7D922DD40E58F5D6C5763AF1A75BDDD3B66DF6
310
688704F654510403552DA104E9981CD8E593FE94ED5E8E952A3AD3D72BC70651E805183B7AD2E235DFB81CF021F53545798CF6F34ADA67DBDA633D156C8243433AFC17504B0304140006080000F799D542000000000000000000000000350000006662782F34354337434430442D444337442D344243352D423038442D3446
310
414139344446333244372F76657274696365732E62696E504B0304140006080800F799D542F270F1330600000004000000360000006662782F34354337434430442D444337442D344243352D423038442D3446414139344446333244372F747269616E676C65732E62696E636660600000504B0304140006080000F799D542
310
000000000000000000000000370000006662782F34354337434430442D444337442D344243352D423038442D3446414139344446333244372F617474726962757465732E62696E504B0304140006080800F799D542D5987DFC8F00000041010000360000006662782F34354337434430442D444337442D344243352D423038
310
442D3446414139344446333244372F6469726563746F72792E786D6C858F410EC2201045AF4266AF15DDB800BA74E7C21B903225242D6328188F2FA5C4183471359997F9FF81E89FF3C41E1816475E02DF1F80A11FC8386F25A438EECEC07A250251FC3803E6F58C12560C4AD840E95E91C151A72936F496F35732D860FE63
310
5F62C8F2DA16B505C545B74125BAA2FA9E05D7CC053D063734D5C7665FD55B6B8D15D5E9BFEAFD8490FFA45E504B0304140006080800F799D5422B74B96DFF000000A00100003B0000006662782F34354337434430442D444337442D344243352D423038442D3446414139344446333244372F7265736F75726365732F636F
310
72652E786D6C8D50596E833010BD0A9ADFCA80D942907114D2E604BD806526D44AB09197AAC7AF09546AFFFA33337A8BE6E9B1D3D7FC483ED13A65740F34CD21412DCDA8F4D443F037D24272E2CC1AE37FC920D162C61E5618389BAC09CB0E49A33D6A1F516D46DC41E11C7A48E4231E3D38F981B34845F051E1EEE922E45D
310
4C98D234D251C799F3360648B627EB046ED19960253A966D2C6721A871D7A831FE54378516785D16F45C9D5FC95B5B5D49D55E2B325C869C1C9AF6702D2E43716C5A96AD66CEBC9A7F324A8BC2E308BCC86949F28614F49D1E3B5A7755F392D75D99B36C95FF318565FCA72928EDCB628FBBD91C701A833C09CEB2B5AFB89E
310
65C6BD76CBBF01504B010214000A0000080000F799D5423DEE336E79000000790000001B00000000000000000000000000000000006175746F6465736B2D64657369676E2D7061636B6167652E786D6C504B01021400140006080800F799D542D486FD9CA0000000F40000001300000000000000000000000000B20000005B
310
436F6E74656E745F54797065735D2E786D6C504B01021400140006080800F799D54238DF97F5EC0000007C010000080000000000000000000000000083010000636F72652E786D6C504B01021400140006080800F799D54255019EA25F0000007C000000070000000000000000000000000095020000636E782E786D6C504B
310
01021400140006080800F799D5426358FA8568010000020300000C00000000000000000000000000190300006662782F636F72652E786D6C504B01021400140006080800F799D54202DE48AB7D0000009D0000000B00000000000000000000000000AB0400006662782F636E782E786D6C504B01021400140006080800F799
310
D542AAE951B92B010000140200003100000000000000000000000000510500006662782F34354337434430442D444337442D344243352D423038442D3446414139344446333244372F636F72652E786D6C504B01021400140006080800F799D5421806A96E56010000330300003000000000000000000000000000CB060000
310
6662782F34354337434430442D444337442D344243352D423038442D3446414139344446333244372F636E782E786D6C504B01021400140006080800F799D542604888EF62070000991B000034000000000000000000000000006F0800006662782F34354337434430442D444337442D344243352D423038442D3446414139
310
344446333244372F6F626A656374732E786D6C504B01021400140006080000F799D5420000000000000000000000003500000000000000000000000000231000006662782F34354337434430442D444337442D344243352D423038442D3446414139344446333244372F76657274696365732E62696E504B01021400140006
310
080800F799D542F270F13306000000040000003600000000000000000000000000761000006662782F34354337434430442D444337442D344243352D423038442D3446414139344446333244372F747269616E676C65732E62696E504B01021400140006080000F799D5420000000000000000000000003700000000000000
310
000000000000D01000006662782F34354337434430442D444337442D344243352D423038442D3446414139344446333244372F617474726962757465732E62696E504B01021400140006080800F799D542D5987DFC8F000000410100003600000000000000000000000000251100006662782F34354337434430442D444337
310
442D344243352D423038442D3446414139344446333244372F6469726563746F72792E786D6C504B01021400140006080800F799D5422B74B96DFF000000A00100003B00000000000000000000000000081200006662782F34354337434430442D444337442D344243352D423038442D3446414139344446333244372F7265
310
736F75726365732F636F72652E786D6C504B0506000000000E000E0080040000601300000000
  0
XRECORD
  5
27
102
{ACAD_REACTORS
330
22
102
}
330
22
100
AcDbXrecord
280
     1
270
     1
271
     1
  0
XRECORD
  5
26
102
{ACAD_REACTORS
330
22
102
}
330
22
100
AcDbXrecord
280
     1
270
     1
271
     1
  0
XRECORD
  5
28
102
{ACAD_REACTORS
330
22
102
}
330
22
100
AcDbXrecord
280
     1
270
     1
271
     1
  0
XRECORD
  5
25
102
{ACAD_REACTORS
330
22
102
}
330
22
100
AcDbXrecord
280
     1
270
     1
271
     1
  0
XRECORD
  5
F7B
102
{ACAD_REACTORS
330
F7A
102
}
330
F7A
100
AcDbXrecord
280
     1
102
ACAD_ROUNDTRIP_2012_MLEADER_STYLE
298
     1
  0
CELLSTYLEMAP
  5
F79
102
{ACAD_REACTORS
330
F78
102
}
330
F78
100
AcDbCellStyleMap
 90
        3
300
CELLSTYLE
  1
TABLEFORMAT_BEGIN
 90
        5
170
     1
 91
        0
 92
    32768
 62
   257
 93
        1
300
CONTENTFORMAT
  1
CONTENTFORMAT_BEGIN
 90
        0
 91
        0
 92
      512
 93
        0
300

 40
0.0
140
1.0
 94
        5
 62
     0
340
55
144
0.25
309
CONTENTFORMAT_END
171
     0
 94
        0
309
TABLEFORMAT_END
  1
CELLSTYLE_BEGIN
 90
        1
 91
        1
300
_TITLE
309
CELLSTYLE_END
300
CELLSTYLE
  1
TABLEFORMAT_BEGIN
 90
        5
170
     1
 91
        0
 92
        0
 62
   257
 93
        1
300
CONTENTFORMAT
  1
CONTENTFORMAT_BEGIN
 90
        0
 91
        0
 92
      512
 93
        0
300

 40
0.0
140
1.0
 94
        5
 62
     0
340
55
144
0.18
309
CONTENTFORMAT_END
171
     0
 94
        0
309
TABLEFORMAT_END
  1
CELLSTYLE_BEGIN
 90
        2
 91
        1
300
_HEADER
309
CELLSTYLE_END
300
CELLSTYLE
  1
TABLEFORMAT_BEGIN
 90
        5
170
     1
 91
        0
 92
        0
 62
   257
 93
        1
300
CONTENTFORMAT
  1
CONTENTFORMAT_BEGIN
 90
        0
 91
        0
 92
      512
 93
        0
300

 40
0.0
140
1.0
 94
        2
 62
     0
340
55
144
0.18
309
CONTENTFORMAT_END
171
     0
 94
        0
309
TABLEFORMAT_END
  1
CELLSTYLE_BEGIN
 90
        3
 91
        2
300
_DATA
309
CELLSTYLE_END
  0
ENDSEC
  0
EOF
