  0
SECTION
  2
HEADER
  9
$ACADVER
  1
AC1024
  9
$ACADMAINTVER
 70
    63
  9
$DWGCODEPAGE
  3
ANSI_1252
  9
$AUTHOR
  1
PR
  9
$REVISIONNUMBER
  1
-
  9
$CUSTOMPROPERTYTAG
  1
Manager
  9
$CUSTOMPROPERTY
  1

  9
$CUSTOMPROPERTYTAG
  1
Company
  9
$CUSTOMPROPERTY
  1

  9
$CUSTOMPROPERTYTAG
  1
Category
  9
$CUSTOMPROPERTY
  1

  9
$CUSTOMPROPERTYTAG
  1
Part Number
  9
$CUSTOMPROPERTY
  1
HWDWA72P72F2
  9
$CUSTOMPROPERTYTAG
  1
Description
  9
$CUSTOMPROPERTY
  1
N1P PANEL MASTER VIEW
  9
$CUSTOMPROPERTYTAG
  1
Project
  9
$CUSTOMPROPERTY
  1

  9
$CUSTOMPROPERTYTAG
  1
Designer
  9
$CUSTOMPROPERTY
  1
PR
  9
$CUSTOMPROPERTYTAG
  1
Engineer
  9
$CUSTOMPROPERTY
  1

  9
$CUSTOMPROPERTYTAG
  1
Authority
  9
$CUSTOMPROPERTY
  1

  9
$CUSTOMPROPERTYTAG
  1
Cost Center
  9
$CUSTOMPROPERTY
  1

  9
$CUSTOMPROPERTYTAG
  1
Vendor
  9
$CUSTOMPROPERTY
  1

  9
$CUSTOMPROPERTYTAG
  1
User Status
  9
$CUSTOMPROPERTY
  1

  9
$CUSTOMPROPERTYTAG
  1
Design Status
  9
$CUSTOMPROPERTY
  1
WorkInProgress
  9
$CUSTOMPROPERTYTAG
  1
Checked by
  9
$CUSTOMPROPERTY
  1
NJ
  9
$CUSTOMPROPERTYTAG
  1
Engr Approved by
  9
$CUSTOMPROPERTY
  1

  9
$CUSTOMPROPERTYTAG
  1
Date Eng Approved
  9
$CUSTOMPROPERTY
  1
06/19/2013
  9
$CUSTOMPROPERTYTAG
  1
Mfg Approved by
  9
$CUSTOMPROPERTY
  1

  9
$CUSTOMPROPERTYTAG
  1
DWG. NO
  9
$CUSTOMPROPERTY
  1

  9
$CUSTOMPROPERTYTAG
  1
NUMBER OF SHEETS
  9
$CUSTOMPROPERTY
  1
1
  9
$CUSTOMPROPERTYTAG
  1
DRAWING #
  9
$CUSTOMPROPERTY
  1
1
  9
$INSBASE
 10
0.0
 20
0.0
 30
0.0
  9
$EXTMIN
 10
0.0
 20
0.0
 30
0.0
  9
$EXTMAX
 10
187.0
 20
121.0
 30
0.0
  9
$LIMMIN
 10
0.0
 20
0.0
  9
$LIMMAX
 10
187.0
 20
121.0
  9
$ORTHOMODE
 70
     0
  9
$REGENMODE
 70
     1
  9
$FILLMODE
 70
     1
  9
$QTEXTMODE
 70
     0
  9
$MIRRTEXT
 70
     0
  9
$LTSCALE
 40
11.0
  9
$ATTMODE
 70
     1
  9
$TEXTSIZE
 40
0.2
  9
$TRACEWID
 40
0.05
  9
$TEXTSTYLE
  7
Standard
  9
$CLAYER
  8
0
  9
$CELTYPE
  6
ByLayer
  9
$CECOLOR
 62
   256
  9
$CELTSCALE
 40
1.0
  9
$DISPSILH
 70
     0
  9
$DIMSCALE
 40
1.0
  9
$DIMASZ
 40
0.0708661417322835
  9
$DIMEXO
 40
0.0625
  9
$DIMDLI
 40
0.38
  9
$DIMRND
 40
0.0
  9
$DIMDLE
 40
0.0
  9
$DIMEXE
 40
0.18
  9
$DIMTP
 40
0.0
  9
$DIMTM
 40
0.0
  9
$DIMTXT
 40
0.0708661417322835
  9
$DIMCEN
 40
0.09
  9
$DIMTSZ
 40
0.0
  9
$DIMTOL
 70
     0
  9
$DIMLIM
 70
     0
  9
$DIMTIH
 70
     1
  9
$DIMTOH
 70
     1
  9
$DIMSE1
 70
     0
  9
$DIMSE2
 70
     0
  9
$DIMTAD
 70
     0
  9
$DIMZIN
 70
     0
  9
$DIMBLK
  1

  9
$DIMASO
 70
     1
  9
$DIMSHO
 70
     1
  9
$DIMPOST
  1

  9
$DIMAPOST
  1

  9
$DIMALT
 70
     0
  9
$DIMALTD
 70
     2
  9
$DIMALTF
 40
25.4
  9
$DIMLFAC
 40
1.0
  9
$DIMTOFL
 70
     0
  9
$DIMTVP
 40
0.0
  9
$DIMTIX
 70
     0
  9
$DIMSOXD
 70
     0
  9
$DIMSAH
 70
     0
  9
$DIMBLK1
  1

  9
$DIMBLK2
  1

  9
$DIMSTYLE
  2
STANDARD
  9
$DIMCLRD
 70
     0
  9
$DIMCLRE
 70
     0
  9
$DIMCLRT
 70
     0
  9
$DIMTFAC
 40
1.0
  9
$DIMGAP
 40
0.09
  9
$DIMJUST
 70
     0
  9
$DIMSD1
 70
     0
  9
$DIMSD2
 70
     0
  9
$DIMTOLJ
 70
     1
  9
$DIMTZIN
 70
     0
  9
$DIMALTZ
 70
     0
  9
$DIMALTTZ
 70
     0
  9
$DIMUPT
 70
     0
  9
$DIMDEC
 70
     4
  9
$DIMTDEC
 70
     4
  9
$DIMALTU
 70
     2
  9
$DIMALTTD
 70
     2
  9
$DIMTXSTY
  7
Standard
  9
$DIMAUNIT
 70
     0
  9
$DIMADEC
 70
     0
  9
$DIMALTRND
 40
0.0
  9
$DIMAZIN
 70
     0
  9
$DIMDSEP
 70
    46
  9
$DIMATFIT
 70
     3
  9
$DIMFRAC
 70
     0
  9
$DIMLDRBLK
  1

  9
$DIMLUNIT
 70
     2
  9
$DIMLWD
 70
    -2
  9
$DIMLWE
 70
    -2
  9
$DIMTMOVE
 70
     0
  9
$DIMFXL
 40
1.0
  9
$DIMFXLON
 70
     0
  9
$DIMJOGANG
 40
0.7853981633974483
  9
$DIMTFILL
 70
     0
  9
$DIMTFILLCLR
 70
     0
  9
$DIMARCSYM
 70
     0
  9
$DIMLTYPE
  6

  9
$DIMLTEX1
  6

  9
$DIMLTEX2
  6

  9
$DIMTXTDIRECTION
 70
     0
  9
$LUNITS
 70
     2
  9
$LUPREC
 70
     4
  9
$SKETCHINC
 40
0.1
  9
$FILLETRAD
 40
0.0
  9
$AUNITS
 70
     0
  9
$AUPREC
 70
     0
  9
$MENU
  1
.
  9
$ELEVATION
 40
0.0
  9
$PELEVATION
 40
0.0
  9
$THICKNESS
 40
0.0
  9
$LIMCHECK
 70
     0
  9
$CHAMFERA
 40
0.0
  9
$CHAMFERB
 40
0.0
  9
$CHAMFERC
 40
0.0
  9
$CHAMFERD
 40
0.0
  9
$SKPOLY
 70
     0
  9
$TDCREATE
 40
2456465.803089908
  9
$TDUCREATE
 40
2456465.573923241
  9
$TDUPDATE
 40
2456465.803089919
  9
$TDUUPDATE
 40
2456465.573923253
  9
$TDINDWG
 40
0.0000468171
  9
$TDUSRTIMER
 40
0.0000468171
  9
$USRTIMER
 70
     1
  9
$ANGBASE
 50
0.0
  9
$ANGDIR
 70
     0
  9
$PDMODE
 70
     0
  9
$PDSIZE
 40
0.0
  9
$PLINEWID
 40
0.0
  9
$SPLFRAME
 70
     0
  9
$SPLINETYPE
 70
     6
  9
$SPLINESEGS
 70
     8
  9
$HANDSEED
  5
E89
  9
$SURFTAB1
 70
     6
  9
$SURFTAB2
 70
     6
  9
$SURFTYPE
 70
     6
  9
$SURFU
 70
     6
  9
$SURFV
 70
     6
  9
$UCSBASE
  2

  9
$UCSNAME
  2

  9
$UCSORG
 10
0.0
 20
0.0
 30
0.0
  9
$UCSXDIR
 10
1.0
 20
0.0
 30
0.0
  9
$UCSYDIR
 10
0.0
 20
1.0
 30
0.0
  9
$UCSORTHOREF
  2

  9
$UCSORTHOVIEW
 70
     0
  9
$UCSORGTOP
 10
0.0
 20
0.0
 30
0.0
  9
$UCSORGBOTTOM
 10
0.0
 20
0.0
 30
0.0
  9
$UCSORGLEFT
 10
0.0
 20
0.0
 30
0.0
  9
$UCSORGRIGHT
 10
0.0
 20
0.0
 30
0.0
  9
$UCSORGFRONT
 10
0.0
 20
0.0
 30
0.0
  9
$UCSORGBACK
 10
0.0
 20
0.0
 30
0.0
  9
$PUCSBASE
  2

  9
$PUCSNAME
  2

  9
$PUCSORG
 10
0.0
 20
0.0
 30
0.0
  9
$PUCSXDIR
 10
1.0
 20
0.0
 30
0.0
  9
$PUCSYDIR
 10
0.0
 20
1.0
 30
0.0
  9
$PUCSORTHOREF
  2

  9
$PUCSORTHOVIEW
 70
     0
  9
$PUCSORGTOP
 10
0.0
 20
0.0
 30
0.0
  9
$PUCSORGBOTTOM
 10
0.0
 20
0.0
 30
0.0
  9
$PUCSORGLEFT
 10
0.0
 20
0.0
 30
0.0
  9
$PUCSORGRIGHT
 10
0.0
 20
0.0
 30
0.0
  9
$PUCSORGFRONT
 10
0.0
 20
0.0
 30
0.0
  9
$PUCSORGBACK
 10
0.0
 20
0.0
 30
0.0
  9
$USERI1
 70
     0
  9
$USERI2
 70
     0
  9
$USERI3
 70
     0
  9
$USERI4
 70
     0
  9
$USERI5
 70
     0
  9
$USERR1
 40
0.0
  9
$USERR2
 40
0.0
  9
$USERR3
 40
0.0
  9
$USERR4
 40
0.0
  9
$USERR5
 40
0.0
  9
$WORLDVIEW
 70
     1
  9
$SHADEDGE
 70
     3
  9
$SHADEDIF
 70
    70
  9
$TILEMODE
 70
     1
  9
$MAXACTVP
 70
    64
  9
$PINSBASE
 10
0.0
 20
0.0
 30
0.0
  9
$PLIMCHECK
 70
     0
  9
$PEXTMIN
 10
0.0
 20
0.0
 30
0.0
  9
$PEXTMAX
 10
187.0
 20
121.0
 30
0.0
  9
$PLIMMIN
 10
0.0
 20
0.0
  9
$PLIMMAX
 10
187.0
 20
121.0
  9
$UNITMODE
 70
     0
  9
$VISRETAIN
 70
     1
  9
$PLINEGEN
 70
     0
  9
$PSLTSCALE
 70
     1
  9
$TREEDEPTH
 70
  3020
  9
$CMLSTYLE
  2
Standard
  9
$CMLJUST
 70
     0
  9
$CMLSCALE
 40
1.0
  9
$PROXYGRAPHICS
 70
     1
  9
$MEASUREMENT
 70
     0
  9
$CELWEIGHT
370
    -1
  9
$ENDCAPS
280
     0
  9
$JOINSTYLE
280
     0
  9
$LWDISPLAY
290
     0
  9
$INSUNITS
 70
     1
  9
$HYPERLINKBASE
  1

  9
$STYLESHEET
  1

  9
$XEDIT
290
     1
  9
$CEPSNTYPE
380
     0
  9
$PSTYLEMODE
290
     1
  9
$FINGERPRINTGUID
  2
{9D7820A6-A472-4CAD-82DD-3B847E1EFAA7}
  9
$VERSIONGUID
  2
{24E169DE-D5C5-45B1-BADA-C6105501C4FF}
  9
$EXTNAMES
290
     1
  9
$PSVPSCALE
 40
0.0
  9
$OLESTARTUP
290
     0
  9
$SORTENTS
280
   127
  9
$INDEXCTL
280
     0
  9
$HIDETEXT
280
     1
  9
$XCLIPFRAME
280
     2
  9
$HALOGAP
280
     0
  9
$OBSCOLOR
 70
   257
  9
$OBSLTYPE
280
     0
  9
$INTERSECTIONDISPLAY
280
     0
  9
$INTERSECTIONCOLOR
 70
   257
  9
$DIMASSOC
280
     1
  9
$PROJECTNAME
  1

  9
$CAMERADISPLAY
290
     0
  9
$LENSLENGTH
 40
50.0
  9
$CAMERAHEIGHT
 40
0.0
  9
$STEPSPERSEC
 40
2.0
  9
$STEPSIZE
 40
6.0
  9
$3DDWFPREC
 40
2.0
  9
$PSOLWIDTH
 40
0.25
  9
$PSOLHEIGHT
 40
4.0
  9
$LOFTANG1
 40
1.570796326794896
  9
$LOFTANG2
 40
1.570796326794896
  9
$LOFTMAG1
 40
0.0
  9
$LOFTMAG2
 40
0.0
  9
$LOFTPARAM
 70
     7
  9
$LOFTNORMALS
280
     1
  9
$LATITUDE
 40
37.795
  9
$LONGITUDE
 40
-122.394
  9
$NORTHDIRECTION
 40
0.0
  9
$TIMEZONE
 70
 -8000
  9
$LIGHTGLYPHDISPLAY
280
     1
  9
$TILEMODELIGHTSYNCH
280
     1
  9
$CMATERIAL
347
11
  9
$SOLIDHIST
280
     0
  9
$SHOWHIST
280
     1
  9
$DWFFRAME
280
     2
  9
$DGNFRAME
280
     0
  9
$REALWORLDSCALE
290
     1
  9
$INTERFERECOLOR
 62
     1
  9
$INTERFEREOBJVS
345
33
  9
$INTERFEREVPVS
346
30
  9
$CSHADOW
280
     0
  9
$SHADOWPLANELOCATION
 40
0.0
  0
ENDSEC
  0
SECTION
  2
CLASSES
  0
CLASS
  1
ACDBDICTIONARYWDFLT
  2
AcDbDictionaryWithDefault
  3
ObjectDBX Classes
 90
        0
 91
        1
280
     0
281
     0
  0
CLASS
  1
MATERIAL
  2
AcDbMaterial
  3
ObjectDBX Classes
 90
     1153
 91
        3
280
     0
281
     0
  0
CLASS
  1
VISUALSTYLE
  2
AcDbVisualStyle
  3
ObjectDBX Classes
 90
     4095
 91
       24
280
     0
281
     0
  0
CLASS
  1
SCALE
  2
AcDbScale
  3
ObjectDBX Classes
 90
     1153
 91
       17
280
     0
281
     0
  0
CLASS
  1
TABLESTYLE
  2
AcDbTableStyle
  3
ObjectDBX Classes
 90
     4095
 91
        1
280
     0
281
     0
  0
CLASS
  1
MLEADERSTYLE
  2
AcDbMLeaderStyle
  3
ACDB_MLEADERSTYLE_CLASS
 90
     4095
 91
        1
280
     0
281
     0
  0
CLASS
  1
DICTIONARYVAR
  2
AcDbDictionaryVar
  3
ObjectDBX Classes
 90
        0
 91
        3
280
     0
281
     0
  0
CLASS
  1
CELLSTYLEMAP
  2
AcDbCellStyleMap
  3
ObjectDBX Classes
 90
     1152
 91
        1
280
     0
281
     0
  0
ENDSEC
  0
SECTION
  2
TABLES
  0
TABLE
  2
VPORT
  5
8
330
0
100
AcDbSymbolTable
 70
     1
  0
VPORT
  5
57
330
8
100
AcDbSymbolTableRecord
100
AcDbViewportTableRecord
  2
*Active
 70
     0
 10
0.0
 20
0.0
 11
1.0
 21
1.0
 12
93.49999999999999
 22
60.5
 13
0.0
 23
0.0
 14
1.0
 24
1.0
 15
0.0
 25
0.0
 16
0.0
 26
0.0
 36
1.0
 17
0.0
 27
0.0
 37
0.0
 40
121.0
 41
1.545454545454545
 42
50.0
 43
0.0
 44
0.0
 50
0.0
 51
0.0
 71
     0
 72
   100
 73
     1
 74
     1
 75
     0
 76
     0
 77
     0
 78
     0
281
     0
 65
     1
110
0.0
120
0.0
130
0.0
111
1.0
121
0.0
131
0.0
112
0.0
122
1.0
132
0.0
 79
     0
146
0.0
 60
     3
 61
     5
292
     1
282
     1
141
0.0
142
0.0
 63
   250
421
  3355443
  0
ENDTAB
  0
TABLE
  2
LTYPE
  5
5
330
0
100
AcDbSymbolTable
 70
    59
  0
LTYPE
  5
5B
330
5
100
AcDbSymbolTableRecord
100
AcDbLinetypeTableRecord
  2
ByBlock
 70
     0
  3

 72
    65
 73
     0
 40
0.0
  0
LTYPE
  5
5C
330
5
100
AcDbSymbolTableRecord
100
AcDbLinetypeTableRecord
  2
ByLayer
 70
     0
  3

 72
    65
 73
     0
 40
0.0
  0
LTYPE
  5
5D
330
5
100
AcDbSymbolTableRecord
100
AcDbLinetypeTableRecord
  2
Continuous
 70
     0
  3
Solid line
 72
    65
 73
     0
 40
0.0
  0
LTYPE
  5
7C
330
5
100
AcDbSymbolTableRecord
100
AcDbLinetypeTableRecord
  2
BY_STANDARD
 70
     0
  3
By Standard ____________    ____    ____   _
 72
    65
 73
     6
 40
1.240299999999999
 49
0.6614
 74
     0
 49
-0.0827
 74
     0
 49
0.1654
 74
     0
 49
-0.0827
 74
     0
 49
0.1654
 74
     0
 49
-0.0827
 74
     0
  0
LTYPE
  5
7D
330
5
100
AcDbSymbolTableRecord
100
AcDbLinetypeTableRecord
  2
CHAIN
 70
     0
  3
Chain ____ _ ____ _ ____ _ ____ _ ____ _ ____
 72
    65
 73
     4
 40
0.7087
 49
0.4724000000000001
 74
     0
 49
-0.0591
 74
     0
 49
0.1181
 74
     0
 49
-0.0591
 74
     0
  0
LTYPE
  5
7E
330
5
100
AcDbSymbolTableRecord
100
AcDbLinetypeTableRecord
  2
DASH_DOT
 70
     0
  3
Dash dot __ . __ . __ . __ . __ . __ . __ . __
 72
    65
 73
     4
 40
0.37
 49
0.24
 74
     0
 49
-0.06
 74
     0
 49
0.01
 74
     0
 49
-0.06
 74
     0
  0
LTYPE
  5
7F
330
5
100
AcDbSymbolTableRecord
100
AcDbLinetypeTableRecord
  2
DOUBLE_DASH_DOT
 70
     0
  3
Double-Dash Dot __ __ . __ __ . __ __ . __ _
 72
    65
 73
     6
 40
0.4398
 49
0.24
 74
     0
 49
-0.06
 74
     0
 49
0.0098
 74
     0
 49
-0.06
 74
     0
 49
0.01
 74
     0
 49
-0.06
 74
     0
  0
LTYPE
  5
80
330
5
100
AcDbSymbolTableRecord
100
AcDbLinetypeTableRecord
  2
DASH_TRIPLE_DOT
 70
     0
  3
Dash Triple-Dot _ . . . _ . . . _ . . . _
 72
    65
 73
     8
 40
0.51
 49
0.24
 74
     0
 49
-0.06
 74
     0
 49
0.01
 74
     0
 49
-0.06
 74
     0
 49
0.01
 74
     0
 49
-0.06
 74
     0
 49
0.01
 74
     0
 49
-0.06
 74
     0
  0
LTYPE
  5
81
330
5
100
AcDbSymbolTableRecord
100
AcDbLinetypeTableRecord
  2
DASHED
 70
     0
  3
Dashed __ __ __ __ __ __ __ __ __ __ __ __ __ _
 72
    65
 73
     2
 40
0.2067
 49
0.1654
 74
     0
 49
-0.0413
 74
     0
  0
LTYPE
  5
82
330
5
100
AcDbSymbolTableRecord
100
AcDbLinetypeTableRecord
  2
DASH_DOUBLE_DOT
 70
     0
  3
Dash Double-Dot __ . . __ . . __ . . __ . .
 72
    65
 73
     6
 40
0.4398
 49
0.24
 74
     0
 49
-0.06
 74
     0
 49
0.0098
 74
     0
 49
-0.06
 74
     0
 49
0.01
 74
     0
 49
-0.06
 74
     0
  0
LTYPE
  5
83
330
5
100
AcDbSymbolTableRecord
100
AcDbLinetypeTableRecord
  2
DASHED_SPACE
 70
     0
  3
Dashed Space __ __ __ __ __ __ __ __ __ __ __ _
 72
    65
 73
     2
 40
0.2067
 49
0.1654
 74
     0
 49
-0.0413
 74
     0
  0
LTYPE
  5
84
330
5
100
AcDbSymbolTableRecord
100
AcDbLinetypeTableRecord
  2
DOTTED
 70
     0
  3
Dotted . . . . . . . . . . . . . . . . . . . . 
 72
    65
 73
     2
 40
0.0482
 49
0.0069
 74
     0
 49
-0.0413
 74
     0
  0
LTYPE
  5
85
330
5
100
AcDbSymbolTableRecord
100
AcDbLinetypeTableRecord
  2
DOUBLE_DASH_CHAIN
 70
     0
  3
Double-Dash Chain ______  __  __  ______  __  _
 72
    65
 73
     6
 40
1.240299999999999
 49
0.6614
 74
     0
 49
-0.0827
 74
     0
 49
0.1654
 74
     0
 49
-0.0827
 74
     0
 49
0.1654
 74
     0
 49
-0.0827
 74
     0
  0
LTYPE
  5
87
330
5
100
AcDbSymbolTableRecord
100
AcDbLinetypeTableRecord
  2
DOUBLE_DASH_DOUBLE_DOT
 70
     0
  3
Double-Dash Double-dot _ _ . . _ _ . . _
 72
    65
 73
     8
 40
0.7400000000000001
 49
0.24
 74
     0
 49
-0.06
 74
     0
 49
0.24
 74
     0
 49
-0.06
 74
     0
 49
0.01
 74
     0
 49
-0.06
 74
     0
 49
0.01
 74
     0
 49
-0.06
 74
     0
  0
LTYPE
  5
88
330
5
100
AcDbSymbolTableRecord
100
AcDbLinetypeTableRecord
  2
DOUBLE_DASH_TRIPLE_DOT
 70
     0
  3
Double Dash Triple Dot __ __ . . . __ __ . .
 72
    65
 73
    10
 40
0.8100000000000001
 49
0.24
 74
     0
 49
-0.06
 74
     0
 49
0.24
 74
     0
 49
-0.06
 74
     0
 49
0.01
 74
     0
 49
-0.06
 74
     0
 49
0.01
 74
     0
 49
-0.06
 74
     0
 49
0.01
 74
     0
 49
-0.06
 74
     0
  0
LTYPE
  5
89
330
5
100
AcDbSymbolTableRecord
100
AcDbLinetypeTableRecord
  2
LONG_DASH_DOTTED
 70
     0
  3
Long Dash Dotted ____ . ____ . ____ . ____ . _
 72
    65
 73
     4
 40
0.3543
 49
0.2362
 74
     0
 49
-0.0295
 74
     0
 49
0.0591
 74
     0
 49
-0.0295
 74
     0
  0
LTYPE
  5
8A
330
5
100
AcDbSymbolTableRecord
100
AcDbLinetypeTableRecord
  2
LONG_DASH_DOUBLE_DOT
 70
     0
  3
Long Dash Double Dot ________  .  .  ________  
 72
    65
 73
     6
 40
0.6799999999999999
 49
0.48
 74
     0
 49
-0.06
 74
     0
 49
0.01
 74
     0
 49
-0.06
 74
     0
 49
0.01
 74
     0
 49
-0.06
 74
     0
  0
LTYPE
  5
8B
330
5
100
AcDbSymbolTableRecord
100
AcDbLinetypeTableRecord
  2
LONG_DASH_TRIPLE_DOT
 70
     0
  3
Long Dash Triple Dot ____ ... ____ ... ____
 72
    65
 73
     8
 40
0.3689
 49
0.2362
 74
     0
 49
-0.0295
 74
     0
 49
0.0049
 74
     0
 49
-0.0295
 74
     0
 49
0.0049
 74
     0
 49
-0.0295
 74
     0
 49
0.0049
 74
     0
 49
-0.0295
 74
     0
  0
LTYPE
  5
8C
330
5
100
AcDbSymbolTableRecord
100
AcDbLinetypeTableRecord
  2
BORDER
 70
     0
  3
Border __ __ . __ __ . __ __ . __ __ . __ __ .
 72
    65
 73
     6
 40
1.75
 49
0.5
 74
     0
 49
-0.25
 74
     0
 49
0.5
 74
     0
 49
-0.25
 74
     0
 49
0.0
 74
     0
 49
-0.25
 74
     0
  0
LTYPE
  5
8D
330
5
100
AcDbSymbolTableRecord
100
AcDbLinetypeTableRecord
  2
BORDER2
 70
     0
  3
Border (.5x) __.__.__.__.__.__.__.__.__.__.__.
 72
    65
 73
     6
 40
0.875
 49
0.25
 74
     0
 49
-0.125
 74
     0
 49
0.25
 74
     0
 49
-0.125
 74
     0
 49
0.0
 74
     0
 49
-0.125
 74
     0
  0
LTYPE
  5
8E
330
5
100
AcDbSymbolTableRecord
100
AcDbLinetypeTableRecord
  2
BORDERX2
 70
     0
  3
Border (2x) ____  ____  .  ____  ____  .  ___
 72
    65
 73
     6
 40
3.5
 49
1.0
 74
     0
 49
-0.5
 74
     0
 49
1.0
 74
     0
 49
-0.5
 74
     0
 49
0.0
 74
     0
 49
-0.5
 74
     0
  0
LTYPE
  5
8F
330
5
100
AcDbSymbolTableRecord
100
AcDbLinetypeTableRecord
  2
CENTER
 70
     0
  3
Center ____ _ ____ _ ____ _ ____ _ ____ _ ____
 72
    65
 73
     4
 40
2.0
 49
1.25
 74
     0
 49
-0.25
 74
     0
 49
0.25
 74
     0
 49
-0.25
 74
     0
  0
LTYPE
  5
90
330
5
100
AcDbSymbolTableRecord
100
AcDbLinetypeTableRecord
  2
CENTER2
 70
     0
  3
Center (.5x) ___ _ ___ _ ___ _ ___ _ ___ _ ___
 72
    65
 73
     4
 40
1.125
 49
0.75
 74
     0
 49
-0.125
 74
     0
 49
0.125
 74
     0
 49
-0.125
 74
     0
  0
LTYPE
  5
91
330
5
100
AcDbSymbolTableRecord
100
AcDbLinetypeTableRecord
  2
CENTERX2
 70
     0
  3
Center (2x) ________  __  ________  __  _____
 72
    65
 73
     4
 40
4.0
 49
2.5
 74
     0
 49
-0.5
 74
     0
 49
0.5
 74
     0
 49
-0.5
 74
     0
  0
LTYPE
  5
92
330
5
100
AcDbSymbolTableRecord
100
AcDbLinetypeTableRecord
  2
DASHDOT2
 70
     0
  3
Dash dot (.5x) _._._._._._._._._._._._._._._.
 72
    65
 73
     4
 40
0.5
 49
0.25
 74
     0
 49
-0.125
 74
     0
 49
0.0
 74
     0
 49
-0.125
 74
     0
  0
LTYPE
  5
93
330
5
100
AcDbSymbolTableRecord
100
AcDbLinetypeTableRecord
  2
DASHDOTX2
 70
     0
  3
Dash dot (2x) ____  .  ____  .  ____  .  ___
 72
    65
 73
     4
 40
2.0
 49
1.0
 74
     0
 49
-0.5
 74
     0
 49
0.0
 74
     0
 49
-0.5
 74
     0
  0
LTYPE
  5
95
330
5
100
AcDbSymbolTableRecord
100
AcDbLinetypeTableRecord
  2
DASHED2
 70
     0
  3
Dashed (.5x) _ _ _ _ _ _ _ _ _ _ _ _ _ _ _ _ _
 72
    65
 73
     2
 40
0.375
 49
0.25
 74
     0
 49
-0.125
 74
     0
  0
LTYPE
  5
96
330
5
100
AcDbSymbolTableRecord
100
AcDbLinetypeTableRecord
  2
DASHEDX2
 70
     0
  3
Dashed (2x) ____  ____  ____  ____  ____  ___
 72
    65
 73
     2
 40
1.5
 49
1.0
 74
     0
 49
-0.5
 74
     0
  0
LTYPE
  5
97
330
5
100
AcDbSymbolTableRecord
100
AcDbLinetypeTableRecord
  2
DIVIDE
 70
     0
  3
Divide ____ . . ____ . . ____ . . ____ . . ____
 72
    65
 73
     6
 40
1.25
 49
0.5
 74
     0
 49
-0.25
 74
     0
 49
0.0
 74
     0
 49
-0.25
 74
     0
 49
0.0
 74
     0
 49
-0.25
 74
     0
  0
LTYPE
  5
98
330
5
100
AcDbSymbolTableRecord
100
AcDbLinetypeTableRecord
  2
DIVIDE2
 70
     0
  3
Divide (.5x) __..__..__..__..__..__..__..__.._
 72
    65
 73
     6
 40
0.625
 49
0.25
 74
     0
 49
-0.125
 74
     0
 49
0.0
 74
     0
 49
-0.125
 74
     0
 49
0.0
 74
     0
 49
-0.125
 74
     0
  0
LTYPE
  5
99
330
5
100
AcDbSymbolTableRecord
100
AcDbLinetypeTableRecord
  2
DIVIDEX2
 70
     0
  3
Divide (2x) ________  .  .  ________  .  .  _
 72
    65
 73
     6
 40
2.5
 49
1.0
 74
     0
 49
-0.5
 74
     0
 49
0.0
 74
     0
 49
-0.5
 74
     0
 49
0.0
 74
     0
 49
-0.5
 74
     0
  0
LTYPE
  5
9A
330
5
100
AcDbSymbolTableRecord
100
AcDbLinetypeTableRecord
  2
DOT
 70
     0
  3
Dot . . . . . . . . . . . . . . . . . . . . . .
 72
    65
 73
     2
 40
0.25
 49
0.0
 74
     0
 49
-0.25
 74
     0
  0
LTYPE
  5
9B
330
5
100
AcDbSymbolTableRecord
100
AcDbLinetypeTableRecord
  2
DOT2
 70
     0
  3
Dot (.5x) .....................................
 72
    65
 73
     2
 40
0.125
 49
0.0
 74
     0
 49
-0.125
 74
     0
  0
LTYPE
  5
9C
330
5
100
AcDbSymbolTableRecord
100
AcDbLinetypeTableRecord
  2
DOTX2
 70
     0
  3
Dot (2x) .  .  .  .  .  .  .  .  .  .  .  .  . 
 72
    65
 73
     2
 40
0.5
 49
0.0
 74
     0
 49
-0.5
 74
     0
  0
LTYPE
  5
9D
330
5
100
AcDbSymbolTableRecord
100
AcDbLinetypeTableRecord
  2
HIDDEN
 70
     0
  3
Hidden __ __ __ __ __ __ __ __ __ __ __ __ __ _
 72
    65
 73
     2
 40
0.375
 49
0.25
 74
     0
 49
-0.125
 74
     0
  0
LTYPE
  5
9E
330
5
100
AcDbSymbolTableRecord
100
AcDbLinetypeTableRecord
  2
HIDDEN2
 70
     0
  3
Hidden (.5x) _ _ _ _ _ _ _ _ _ _ _ _ _ _ _ _ _
 72
    65
 73
     2
 40
0.1875
 49
0.125
 74
     0
 49
-0.0625
 74
     0
  0
LTYPE
  5
9F
330
5
100
AcDbSymbolTableRecord
100
AcDbLinetypeTableRecord
  2
HIDDENX2
 70
     0
  3
Hidden (2x) ____ ____ ____ ____ ____ ____ ____
 72
    65
 73
     2
 40
0.75
 49
0.5
 74
     0
 49
-0.25
 74
     0
  0
LTYPE
  5
A0
330
5
100
AcDbSymbolTableRecord
100
AcDbLinetypeTableRecord
  2
PHANTOM
 70
     0
  3
Phantom ______  __  __  ______  __  __  ______
 72
    65
 73
     6
 40
2.5
 49
1.25
 74
     0
 49
-0.25
 74
     0
 49
0.25
 74
     0
 49
-0.25
 74
     0
 49
0.25
 74
     0
 49
-0.25
 74
     0
  0
LTYPE
  5
A1
330
5
100
AcDbSymbolTableRecord
100
AcDbLinetypeTableRecord
  2
PHANTOM2
 70
     0
  3
Phantom (.5x) ___ _ _ ___ _ _ ___ _ _ ___ _ _
 72
    65
 73
     6
 40
1.25
 49
0.625
 74
     0
 49
-0.125
 74
     0
 49
0.125
 74
     0
 49
-0.125
 74
     0
 49
0.125
 74
     0
 49
-0.125
 74
     0
  0
LTYPE
  5
A2
330
5
100
AcDbSymbolTableRecord
100
AcDbLinetypeTableRecord
  2
PHANTOMX2
 70
     0
  3
Phantom (2x) ____________    ____    ____   _
 72
    65
 73
     6
 40
5.0
 49
2.5
 74
     0
 49
-0.5
 74
     0
 49
0.5
 74
     0
 49
-0.5
 74
     0
 49
0.5
 74
     0
 49
-0.5
 74
     0
  0
LTYPE
  5
A3
330
5
100
AcDbSymbolTableRecord
100
AcDbLinetypeTableRecord
  2
ACAD_ISO02W100
 70
     0
  3
ISO dash __ __ __ __ __ __ __ __ __ __ __ __ __
 72
    65
 73
     2
 40
0.59
 49
0.47
 74
     0
 49
-0.12
 74
     0
  0
LTYPE
  5
A4
330
5
100
AcDbSymbolTableRecord
100
AcDbLinetypeTableRecord
  2
ACAD_ISO03W100
 70
     0
  3
ISO dash space __    __    __    __    __    __
 72
    65
 73
     2
 40
1.179999999999999
 49
0.47
 74
     0
 49
-0.71
 74
     0
  0
LTYPE
  5
A5
330
5
100
AcDbSymbolTableRecord
100
AcDbLinetypeTableRecord
  2
ACAD_ISO04W100
 70
     0
  3
ISO long-dash dot ____ . ____ . ____ . ____ . _
 72
    65
 73
     4
 40
1.179999999999999
 49
0.9399999999999998
 74
     0
 49
-0.12
 74
     0
 49
0.0
 74
     0
 49
-0.12
 74
     0
  0
LTYPE
  5
A6
330
5
100
AcDbSymbolTableRecord
100
AcDbLinetypeTableRecord
  2
ACAD_ISO05W100
 70
     0
  3
ISO long-dash double-dot ____ .. ____ .. ____ .
 72
    65
 73
     6
 40
1.299999999999999
 49
0.9399999999999998
 74
     0
 49
-0.12
 74
     0
 49
0.0
 74
     0
 49
-0.12
 74
     0
 49
0.0
 74
     0
 49
-0.12
 74
     0
  0
LTYPE
  5
A7
330
5
100
AcDbSymbolTableRecord
100
AcDbLinetypeTableRecord
  2
ACAD_ISO06W100
 70
     0
  3
ISO long-dash triple-dot ____ ... ____ ... ____
 72
    65
 73
     8
 40
1.419999999999999
 49
0.9399999999999998
 74
     0
 49
-0.12
 74
     0
 49
0.0
 74
     0
 49
-0.12
 74
     0
 49
0.0
 74
     0
 49
-0.12
 74
     0
 49
0.0
 74
     0
 49
-0.12
 74
     0
  0
LTYPE
  5
A8
330
5
100
AcDbSymbolTableRecord
100
AcDbLinetypeTableRecord
  2
ACAD_ISO07W100
 70
     0
  3
ISO dot . . . . . . . . . . . . . . . . . . . .
 72
    65
 73
     2
 40
0.12
 49
0.0
 74
     0
 49
-0.12
 74
     0
  0
LTYPE
  5
A9
330
5
100
AcDbSymbolTableRecord
100
AcDbLinetypeTableRecord
  2
ACAD_ISO08W100
 70
     0
  3
ISO long-dash short-dash ____ __ ____ __ ____ _
 72
    65
 73
     4
 40
0.95
 49
0.47
 74
     0
 49
-0.12
 74
     0
 49
0.24
 74
     0
 49
-0.12
 74
     0
  0
LTYPE
  5
AA
330
5
100
AcDbSymbolTableRecord
100
AcDbLinetypeTableRecord
  2
ACAD_ISO09W100
 70
     0
  3
ISO long-dash double-short-dash ____ __ __ ____
 72
    65
 73
     6
 40
1.31
 49
0.47
 74
     0
 49
-0.12
 74
     0
 49
0.24
 74
     0
 49
-0.12
 74
     0
 49
0.24
 74
     0
 49
-0.12
 74
     0
  0
LTYPE
  5
AB
330
5
100
AcDbSymbolTableRecord
100
AcDbLinetypeTableRecord
  2
ACAD_ISO10W100
 70
     0
  3
ISO dash dot __ . __ . __ . __ . __ . __ . __ .
 72
    65
 73
     4
 40
0.71
 49
0.47
 74
     0
 49
-0.12
 74
     0
 49
0.0
 74
     0
 49
-0.12
 74
     0
  0
LTYPE
  5
AC
330
5
100
AcDbSymbolTableRecord
100
AcDbLinetypeTableRecord
  2
ACAD_ISO11W100
 70
     0
  3
ISO double-dash dot __ __ . __ __ . __ __ . __ 
 72
    65
 73
     6
 40
1.299999999999999
 49
0.47
 74
     0
 49
-0.12
 74
     0
 49
0.47
 74
     0
 49
-0.12
 74
     0
 49
0.0
 74
     0
 49
-0.12
 74
     0
  0
LTYPE
  5
AD
330
5
100
AcDbSymbolTableRecord
100
AcDbLinetypeTableRecord
  2
ACAD_ISO12W100
 70
     0
  3
ISO dash double-dot __ . . __ . . __ . . __ . .
 72
    65
 73
     6
 40
0.8299999999999998
 49
0.47
 74
     0
 49
-0.12
 74
     0
 49
0.0
 74
     0
 49
-0.12
 74
     0
 49
0.0
 74
     0
 49
-0.12
 74
     0
  0
LTYPE
  5
AE
330
5
100
AcDbSymbolTableRecord
100
AcDbLinetypeTableRecord
  2
ACAD_ISO13W100
 70
     0
  3
ISO double-dash double-dot __ __ . . __ __ . . 
 72
    65
 73
     8
 40
1.419999999999999
 49
0.47
 74
     0
 49
-0.12
 74
     0
 49
0.47
 74
     0
 49
-0.12
 74
     0
 49
0.0
 74
     0
 49
-0.12
 74
     0
 49
0.0
 74
     0
 49
-0.12
 74
     0
  0
LTYPE
  5
AF
330
5
100
AcDbSymbolTableRecord
100
AcDbLinetypeTableRecord
  2
ACAD_ISO14W100
 70
     0
  3
ISO dash triple-dot __ . . . __ . . . __ . . . 
 72
    65
 73
     8
 40
0.95
 49
0.47
 74
     0
 49
-0.12
 74
     0
 49
0.0
 74
     0
 49
-0.12
 74
     0
 49
0.0
 74
     0
 49
-0.12
 74
     0
 49
0.0
 74
     0
 49
-0.12
 74
     0
  0
LTYPE
  5
B0
330
5
100
AcDbSymbolTableRecord
100
AcDbLinetypeTableRecord
  2
ACAD_ISO15W100
 70
     0
  3
ISO double-dash triple-dot __ __ . . . __ __ . 
 72
    65
 73
    10
 40
1.539999999999999
 49
0.47
 74
     0
 49
-0.12
 74
     0
 49
0.47
 74
     0
 49
-0.12
 74
     0
 49
0.0
 74
     0
 49
-0.12
 74
     0
 49
0.0
 74
     0
 49
-0.12
 74
     0
 49
0.0
 74
     0
 49
-0.12
 74
     0
  0
LTYPE
  5
B3
330
5
100
AcDbSymbolTableRecord
100
AcDbLinetypeTableRecord
  2
FENCELINE1
 70
     0
  3
Fenceline circle ----0-----0----0-----0----0---
 72
    65
 73
     4
 40
1.45
 49
0.25
 74
     0
 49
-0.1
 74
     4
 75
   133
340
B2
 46
0.1
 50
0.0
 44
-0.1
 45
0.0
 49
-0.1
 74
     0
 49
1.0
 74
     0
  0
LTYPE
  5
B4
330
5
100
AcDbSymbolTableRecord
100
AcDbLinetypeTableRecord
  2
FENCELINE2
 70
     0
  3
Fenceline square ----[]-----[]----[]-----[]----
 72
    65
 73
     4
 40
1.45
 49
0.25
 74
     0
 49
-0.1
 74
     4
 75
   132
340
B2
 46
0.1
 50
0.0
 44
-0.1
 45
0.0
 49
-0.1
 74
     0
 49
1.0
 74
     0
  0
LTYPE
  5
B5
330
5
100
AcDbSymbolTableRecord
100
AcDbLinetypeTableRecord
  2
TRACKS
 70
     0
  3
Tracks -|-|-|-|-|-|-|-|-|-|-|-|-|-|-|-|-|-|-|-|
 72
    65
 73
     2
 40
0.3
 49
0.15
 74
     4
 75
   130
340
B2
 46
0.25
 50
0.0
 44
0.0
 45
0.0
 49
0.15
 74
     0
  0
LTYPE
  5
B6
330
5
100
AcDbSymbolTableRecord
100
AcDbLinetypeTableRecord
  2
BATTING
 70
     0
  3
Batting SSSSSSSSSSSSSSSSSSSSSSSSSSSSSSSSSSSSSSS
 72
    65
 73
     4
 40
0.4001000000000001
 49
0.0001
 74
     0
 49
-0.1
 74
     4
 75
   134
340
B2
 46
0.1
 50
0.0
 44
-0.1
 45
0.0
 49
-0.2
 74
     4
 75
   134
340
B2
 46
0.1
 50
180.0
 44
0.1
 45
0.0
 49
-0.1
 74
     0
  0
LTYPE
  5
B7
330
5
100
AcDbSymbolTableRecord
100
AcDbLinetypeTableRecord
  2
HOT_WATER_SUPPLY
 70
     0
  3
Hot water supply ---- HW ---- HW ---- HW ----
 72
    65
 73
     3
 40
0.9
 49
0.5
 74
     0
 49
-0.2
 74
     2
 75
     0
340
55
 46
0.1
 50
0.0
 44
-0.1
 45
-0.05
  9
HW
 49
-0.2
 74
     0
  0
LTYPE
  5
B8
330
5
100
AcDbSymbolTableRecord
100
AcDbLinetypeTableRecord
  2
GAS_LINE
 70
     0
  3
Gas line ----GAS----GAS----GAS----GAS----GAS---
 72
    65
 73
     3
 40
0.95
 49
0.5
 74
     0
 49
-0.2
 74
     2
 75
     0
340
55
 46
0.1
 50
0.0
 44
-0.1
 45
-0.05
  9
GAS
 49
-0.25
 74
     0
  0
LTYPE
  5
B9
330
5
100
AcDbSymbolTableRecord
100
AcDbLinetypeTableRecord
  2
ZIGZAG
 70
     0
  3
Zig zag /\/\/\/\/\/\/\/\/\/\/\/\/\/\/\/\/\/\/\/
 72
    65
 73
     4
 40
0.8001000000000001
 49
0.0001
 74
     0
 49
-0.2
 74
     4
 75
   131
340
B2
 46
0.2
 50
0.0
 44
-0.2
 45
0.0
 49
-0.4
 74
     4
 75
   131
340
B2
 46
0.2
 50
180.0
 44
0.2
 45
0.0
 49
-0.2
 74
     0
  0
ENDTAB
  0
TABLE
  2
LAYER
  5
2
330
0
100
AcDbSymbolTable
 70
    27
  0
LAYER
  5
54
330
2
100
AcDbSymbolTableRecord
100
AcDbLayerTableRecord
  2
0
 70
     0
 62
     7
  6
Continuous
370
    18
390
F
347
21
  0
LAYER
  5
C0
330
2
100
AcDbSymbolTableRecord
100
AcDbLayerTableRecord
  2
Center Mark (ANSI)
 70
     0
 62
     7
  6
Continuous
370
    15
390
F
347
21
  0
LAYER
  5
C1
330
2
100
AcDbSymbolTableRecord
100
AcDbLayerTableRecord
  2
Centerline (ANSI)
 70
     0
 62
     7
  6
Continuous
370
    15
390
F
347
21
  0
LAYER
  5
C3
330
2
100
AcDbSymbolTableRecord
100
AcDbLayerTableRecord
  2
Dimension (ANSI)
 70
     0
 62
     7
  6
Continuous
370
    13
390
F
347
21
  0
LAYER
  5
C5
330
2
100
AcDbSymbolTableRecord
100
AcDbLayerTableRecord
  2
Hidden (ANSI)
 70
     0
 62
     7
  6
DASHED
370
    15
390
F
347
21
  0
LAYER
  5
CC
330
2
100
AcDbSymbolTableRecord
100
AcDbLayerTableRecord
  2
Symbol (ANSI)
 70
     0
 62
     7
  6
Continuous
370
    18
390
F
347
21
  0
LAYER
  5
CF
330
2
100
AcDbSymbolTableRecord
100
AcDbLayerTableRecord
  2
Visible (ANSI)
 70
     0
 62
     7
  6
Continuous
370
    13
390
F
347
21
  0
LAYER
  5
D0
330
2
100
AcDbSymbolTableRecord
100
AcDbLayerTableRecord
  2
Visible Narrow (ANSI)
 70
     0
 62
     7
  6
Continuous
370
    18
390
F
347
21
  0
LAYER
  5
54E
330
2
100
AcDbSymbolTableRecord
100
AcDbLayerTableRecord
  2
Defpoints
 70
     0
 62
     7
  6
Continuous
290
     0
370
    -3
390
F
347
21
  0
ENDTAB
  0
TABLE
  2
STYLE
  5
3
330
0
100
AcDbSymbolTable
 70
    18
  0
STYLE
  5
55
330
3
100
AcDbSymbolTableRecord
100
AcDbTextStyleTableRecord
  2
Standard
 70
     0
 40
0.0
 41
1.0
 50
0.0
 71
     0
 42
0.2
  3
txt
  4

  0
STYLE
  5
5A
330
3
100
AcDbSymbolTableRecord
100
AcDbTextStyleTableRecord
  2
Annotative
 70
     0
 40
0.0
 41
1.0
 50
0.0
 71
     0
 42
0.2
  3
txt
  4

1001
AcadAnnotative
1000
AnnotativeData
1002
{
1070
     1
1070
     1
1002
}
  0
STYLE
  5
B2
330
3
100
AcDbSymbolTableRecord
100
AcDbTextStyleTableRecord
  2

 70
     1
 40
0.0
 41
1.0
 50
0.0
 71
     0
 42
0.2
  3
ltypeshp.shx
  4

  0
STYLE
  5
D4
330
3
100
AcDbSymbolTableRecord
100
AcDbTextStyleTableRecord
  2
ITALICC_120
 70
     0
 40
0.0
 41
1.0
 50
0.0
 71
     0
 42
0.2
  3
italicc.shx
  4

  0
STYLE
  5
D5
330
3
100
AcDbSymbolTableRecord
100
AcDbTextStyleTableRecord
  2
Label Text (ANSI)
 70
     0
 40
0.0
 41
1.0
 50
0.0
 71
     0
 42
0.2
  3
tahoma.ttf
  4

1001
ACAD
1000
Tahoma
1071
      256
  0
STYLE
  5
D6
330
3
100
AcDbSymbolTableRecord
100
AcDbTextStyleTableRecord
  2
Note Text (ANSI)
 70
     0
 40
0.0
 41
1.0
 50
0.0
 71
     0
 42
0.2
  3
tahoma.ttf
  4

1001
ACAD
1000
Tahoma
1071
      256
  0
STYLE
  5
D7
330
3
100
AcDbSymbolTableRecord
100
AcDbTextStyleTableRecord
  2
ROMANS
 70
     0
 40
0.0
 41
1.0
 50
0.0
 71
     0
 42
0.2
  3
romans.shx
  4

  0
STYLE
  5
D8
330
3
100
AcDbSymbolTableRecord
100
AcDbTextStyleTableRecord
  2
SANSSERIF_114
 70
     0
 40
0.0
 41
1.0
 50
0.0
 71
     0
 42
0.2
  3
tahoma.ttf
  4

1001
ACAD
1000
Tahoma
1071
      256
  0
STYLE
  5
D9
330
3
100
AcDbSymbolTableRecord
100
AcDbTextStyleTableRecord
  2
SANSSERIF_117
 70
     0
 40
0.0
 41
1.0
 50
0.0
 71
     0
 42
0.2
  3
tahoma.ttf
  4

1001
ACAD
1000
Tahoma
1071
      256
  0
STYLE
  5
DA
330
3
100
AcDbSymbolTableRecord
100
AcDbTextStyleTableRecord
  2
STANDARDAM_ANSI
 70
     0
 40
0.0
 41
1.0
 50
0.0
 71
     0
 42
0.2
  3
txt.shx
  4

  0
STYLE
  5
DB
330
3
100
AcDbSymbolTableRecord
100
AcDbTextStyleTableRecord
  2
StandardAM_ANSI$0
 70
     0
 40
0.0
 41
1.0
 50
0.0
 71
     0
 42
0.2
  3
txt.shx
  4

  0
STYLE
  5
DC
330
3
100
AcDbSymbolTableRecord
100
AcDbTextStyleTableRecord
  2
STANDARDAM_ANSI$3
 70
     0
 40
0.0
 41
1.0
 50
0.0
 71
     0
 42
0.2
  3
txt.shx
  4

  0
STYLE
  5
DD
330
3
100
AcDbSymbolTableRecord
100
AcDbTextStyleTableRecord
  2
STANDARDAM_ANSI$4
 70
     0
 40
0.0
 41
1.0
 50
0.0
 71
     0
 42
0.2
  3
txt.shx
  4

  0
STYLE
  5
DE
330
3
100
AcDbSymbolTableRecord
100
AcDbTextStyleTableRecord
  2
STANDARDAM_ANSI$7
 70
     0
 40
0.0
 41
1.0
 50
0.0
 71
     0
 42
0.2
  3
txt.shx
  4

  0
STYLE
  5
DF
330
3
100
AcDbSymbolTableRecord
100
AcDbTextStyleTableRecord
  2
STANDARDAM_ANSI$SF
 70
     0
 40
0.0
 41
1.0
 50
0.0
 71
     0
 42
0.2
  3
txt.shx
  4

  0
STYLE
  5
E0
330
3
100
AcDbSymbolTableRecord
100
AcDbTextStyleTableRecord
  2
STANDARDAM_ANSI$SH
 70
     0
 40
0.0
 41
1.0
 50
0.0
 71
     0
 42
0.2
  3
txt.shx
  4

  0
STYLE
  5
E1
330
3
100
AcDbSymbolTableRecord
100
AcDbTextStyleTableRecord
  2
STANDARDSTANDARD
 70
     0
 40
0.0
 41
1.0
 50
0.0
 71
     0
 42
0.2
  3
txt.shx
  4

  0
STYLE
  5
2E1
330
3
100
AcDbSymbolTableRecord
100
AcDbTextStyleTableRecord
  2
Text Style153
 70
     0
 40
0.0
 41
1.0
 50
0.0
 71
     0
 42
0.2
  3
tahoma.ttf
  4

1001
ACAD
1000
Tahoma
1071
      256
  0
ENDTAB
  0
TABLE
  2
VIEW
  5
6
330
0
100
AcDbSymbolTable
 70
     0
  0
ENDTAB
  0
TABLE
  2
UCS
  5
7
330
0
100
AcDbSymbolTable
 70
     0
  0
ENDTAB
  0
TABLE
  2
APPID
  5
9
330
0
100
AcDbSymbolTable
 70
     3
  0
APPID
  5
56
330
9
100
AcDbSymbolTableRecord
100
AcDbRegAppTableRecord
  2
ACAD
 70
     0
  0
APPID
  5
5E
330
9
100
AcDbSymbolTableRecord
100
AcDbRegAppTableRecord
  2
AcadAnnotative
 70
     0
  0
APPID
  5
B79
330
9
100
AcDbSymbolTableRecord
100
AcDbRegAppTableRecord
  2
ACAD_DSTYLE_DIMRADIAL_EXTENSION
 70
     0
  0
ENDTAB
  0
TABLE
  2
DIMSTYLE
  5
A
330
0
100
AcDbSymbolTable
 70
    27
100
AcDbDimStyleTable
 71
     2
340
F6
340
58
  0
DIMSTYLE
105
58
330
A
100
AcDbSymbolTableRecord
100
AcDbDimStyleTableRecord
  2
STANDARD
 70
     0
 41
0.1800000071525573
 42
0.0625
140
0.1800000071525574
144
1.0
147
0.0900000035762787
176
   256
177
   256
178
   256
274
     3
340
55
371
    -1
372
    -1
  0
DIMSTYLE
105
59
330
A
100
AcDbSymbolTableRecord
100
AcDbDimStyleTableRecord
  2
Annotative
 70
     0
340
55
1001
AcadAnnotative
1000
AnnotativeData
1002
{
1070
     1
1070
     1
1002
}
  0
DIMSTYLE
105
E2
330
A
100
AcDbSymbolTableRecord
100
AcDbDimStyleTableRecord
  2
AM_ANSI
 70
     0
  4
 mm
 40
11.0
 41
0.119999997317791
 42
0.05
 43
0.5
 44
0.1
 45
0.00000001
 78
     4
 79
     2
140
0.1200000047683716
146
0.7099999189376831
147
0.0599999986588955
176
   256
177
   256
178
     2
284
     4
340
DA
371
    -1
372
    -1
  0
DIMSTYLE
105
E3
330
A
100
AcDbSymbolTableRecord
100
AcDbDimStyleTableRecord
  2
AM_ANSI$7
 70
     0
  4
 mm
 40
11.0
 41
0.119999997317791
 42
0.05
 43
0.5
 44
0.1
 45
0.00000001
 78
     4
 79
     2
140
0.1200000047683716
146
0.7099999189376831
147
0.0599999986588955
176
   256
177
   256
178
     2
284
     4
340
DA
371
    -1
372
    -1
  0
DIMSTYLE
105
E4
330
A
100
AcDbSymbolTableRecord
100
AcDbDimStyleTableRecord
  2
AM_ANSI$0
 70
     0
  4
 mm
 40
11.0
 41
0.119999997317791
 42
0.05
 43
0.5
 44
0.1
 45
0.00000001
 78
     4
 79
     2
140
0.1200000047683716
146
0.7099999189376831
147
0.0599999986588955
176
   256
177
   256
178
     2
284
     4
340
DB
371
    -1
372
    -1
  0
DIMSTYLE
105
E5
330
A
100
AcDbSymbolTableRecord
100
AcDbDimStyleTableRecord
  2
AM_ANSI$0$7
 70
     0
  4
 mm
 40
11.0
 41
0.119999997317791
 42
0.05
 43
0.5
 44
0.1
 45
0.00000001
 78
     4
 79
     2
140
0.1200000047683716
146
0.7099999189376831
147
0.0599999986588955
176
   256
177
   256
178
     2
284
     4
340
DB
371
    -1
372
    -1
  0
DIMSTYLE
105
E6
330
A
100
AcDbSymbolTableRecord
100
AcDbDimStyleTableRecord
  2
AM_ANSI$3
 70
     0
  4
 mm
 40
11.0
 41
0.119999997317791
 42
0.05
 43
0.5
 44
0.1
 45
0.00000001
 78
     4
 79
     2
140
0.1200000047683716
146
0.7099999189376831
147
0.0599999986588955
176
   256
177
   256
178
     2
284
     4
340
DC
371
    -1
372
    -1
  0
DIMSTYLE
105
E7
330
A
100
AcDbSymbolTableRecord
100
AcDbDimStyleTableRecord
  2
AM_ANSI$3$7
 70
     0
  4
 mm
 40
11.0
 41
0.119999997317791
 42
0.05
 43
0.5
 44
0.1
 45
0.00000001
 78
     4
 79
     2
140
0.1200000047683716
146
0.7099999189376831
147
0.0599999986588955
176
   256
177
   256
178
     2
284
     4
340
DC
371
    -1
372
    -1
  0
DIMSTYLE
105
E8
330
A
100
AcDbSymbolTableRecord
100
AcDbDimStyleTableRecord
  2
AM_ANSI$4
 70
     0
  4
 mm
 40
11.0
 41
0.119999997317791
 42
0.05
 43
0.5
 44
0.1
 45
0.00000001
 78
     4
 79
     2
140
0.1200000047683716
146
0.7099999189376831
147
0.0599999986588955
176
   256
177
   256
178
     2
284
     4
340
DD
371
    -1
372
    -1
  0
DIMSTYLE
105
E9
330
A
100
AcDbSymbolTableRecord
100
AcDbDimStyleTableRecord
  2
AM_ANSI$4$7
 70
     0
  4
 mm
 40
11.0
 41
0.119999997317791
 42
0.05
 43
0.5
 44
0.1
 45
0.00000001
 78
     4
 79
     2
140
0.1200000047683716
146
0.7099999189376831
147
0.0599999986588955
176
   256
177
   256
178
     2
284
     4
340
DD
371
    -1
372
    -1
  0
DIMSTYLE
105
EA
330
A
100
AcDbSymbolTableRecord
100
AcDbDimStyleTableRecord
  2
AM_ANSI$SF
 70
     0
  4
 mm
 40
11.0
 41
0.119999997317791
 42
0.05
 43
0.5
 44
0.1
 45
0.00000001
 75
     1
 76
     1
 78
     4
 79
     2
140
0.1200000047683716
146
0.7099999189376831
147
0.0599999986588955
176
   256
177
   256
178
     2
284
     4
340
DF
371
    -1
372
    -1
  0
DIMSTYLE
105
EB
330
A
100
AcDbSymbolTableRecord
100
AcDbDimStyleTableRecord
  2
AM_ANSI$SF$7
 70
     0
  4
 mm
 40
11.0
 41
0.119999997317791
 42
0.05
 43
0.5
 44
0.1
 45
0.00000001
 75
     1
 76
     1
 78
     4
 79
     2
140
0.1200000047683716
146
0.7099999189376831
147
0.0599999986588955
176
   256
177
   256
178
     2
284
     4
340
DF
371
    -1
372
    -1
  0
DIMSTYLE
105
EC
330
A
100
AcDbSymbolTableRecord
100
AcDbDimStyleTableRecord
  2
AM_ANSI$SH
 70
     0
  4
 mm
 40
11.0
 41
0.119999997317791
 42
0.05
 43
0.5
 44
0.1
 45
0.00000001
 75
     1
 76
     1
 78
     4
 79
     2
140
0.1200000047683716
146
0.7099999189376831
147
0.0599999986588955
176
   256
177
   256
178
     2
284
     4
340
E0
371
    -1
372
    -1
  0
DIMSTYLE
105
ED
330
A
100
AcDbSymbolTableRecord
100
AcDbDimStyleTableRecord
  2
AM_ANSI$SH$7
 70
     0
  4
 mm
 40
11.0
 41
0.119999997317791
 42
0.05
 43
0.5
 44
0.1
 45
0.00000001
 75
     1
 76
     1
 78
     4
 79
     2
140
0.1200000047683716
146
0.7099999189376831
147
0.0599999986588955
176
   256
177
   256
178
     2
284
     4
340
E0
371
    -1
372
    -1
  0
DIMSTYLE
105
EE
330
A
100
AcDbSymbolTableRecord
100
AcDbDimStyleTableRecord
  2
Architectural (ANSI)
 70
     0
 40
11.0
 41
0.0984251946210861
 43
0.2362204724409449
 44
0.125
 45
0.00000001
 46
0.3937007874015748
 78
     3
 79
     3
140
0.1200000047683716
147
0.031496062992126
171
     1
176
   256
177
   256
178
   256
272
     2
274
     1
276
     2
277
     4
284
    12
285
     4
286
    12
340
D6
371
    -1
372
    -1
  0
DIMSTYLE
105
EF
330
A
100
AcDbSymbolTableRecord
100
AcDbDimStyleTableRecord
  2
Architectural (ANSI)$7
 70
     0
 40
11.0
 41
0.0984251946210861
 43
0.2362204724409449
 44
0.125
 45
0.00000001
 46
0.3937007874015748
 78
     3
 79
     3
140
0.1200000047683716
147
0.031496062992126
171
     1
176
   256
177
   256
178
   256
272
     2
274
     1
276
     2
277
     4
284
    12
285
     4
286
    12
340
D6
371
    -1
372
    -1
  0
DIMSTYLE
105
F0
330
A
100
AcDbSymbolTableRecord
100
AcDbDimStyleTableRecord
  2
Default - Fraction (ANSI)
 70
     0
 40
11.0
 41
0.0984251946210861
 43
0.2362204724409449
 44
0.125
 45
0.00000001
 46
0.3937007874015748
 79
     3
140
0.1200000047683716
147
0.031496062992126
171
     1
176
   256
177
   256
178
   256
272
     2
274
     1
276
     2
277
     5
284
    12
285
     4
286
    12
340
D6
371
    -1
372
    -1
  0
DIMSTYLE
105
F1
330
A
100
AcDbSymbolTableRecord
100
AcDbDimStyleTableRecord
  2
Default - Fraction (ANSI)$7
 70
     0
 40
11.0
 41
0.0984251946210861
 43
0.2362204724409449
 44
0.125
 45
0.00000001
 46
0.3937007874015748
 79
     3
140
0.1200000047683716
147
0.031496062992126
171
     1
176
   256
177
   256
178
   256
272
     2
274
     1
276
     2
277
     5
284
    12
285
     4
286
    12
340
D6
371
    -1
372
    -1
  0
DIMSTYLE
105
F2
330
A
100
AcDbSymbolTableRecord
100
AcDbDimStyleTableRecord
  2
Default - mm (ANSI)
 70
     0
 40
11.0
 41
0.0984251946210861
 42
0.063
 43
0.2362204724409449
 44
0.125
 45
0.00000001
 46
0.3937007874015748
 73
     0
 78
     4
 79
     1
140
0.1200000047683716
143
1.0
144
25.4
147
0.031496062992126
171
     1
176
   256
177
   256
178
   256
179
     1
271
     2
272
     2
274
     1
284
     4
285
     4
340
D6
371
    -1
372
    -1
  0
DIMSTYLE
105
F3
330
A
100
AcDbSymbolTableRecord
100
AcDbDimStyleTableRecord
  2
Default - mm (ANSI)$7
 70
     0
 40
11.0
 41
0.0984251946210861
 42
0.063
 43
0.2362204724409449
 44
0.125
 45
0.00000001
 46
0.3937007874015748
 73
     0
 78
     4
 79
     1
140
0.1200000047683716
143
1.0
144
25.4
147
0.031496062992126
171
     1
176
   256
177
   256
178
   256
179
     1
271
     2
272
     2
274
     1
284
     4
285
     4
340
D6
371
    -1
372
    -1
  0
DIMSTYLE
105
F4
330
A
100
AcDbSymbolTableRecord
100
AcDbDimStyleTableRecord
  2
Default - mm [in] (ANSI)
 70
     0
  4
 in
 40
11.0
 41
0.0984251946210861
 42
0.063
 43
0.25
 44
0.125
 45
0.00000001
 46
0.3937007874015748
 73
     0
 78
     4
 79
     1
140
0.1200000047683716
143
0.03937
144
25.4
147
0.031496062992126
170
     1
171
     3
176
   256
177
   256
178
   256
179
     1
271
     2
272
     2
274
     3
284
     4
285
     4
286
     4
340
D6
371
    -1
372
    -1
  0
DIMSTYLE
105
F5
330
A
100
AcDbSymbolTableRecord
100
AcDbDimStyleTableRecord
  2
Default - mm [in] (ANSI)$7
 70
     0
  4
 in
 40
11.0
 41
0.0984251946210861
 42
0.063
 43
0.25
 44
0.125
 45
0.00000001
 46
0.3937007874015748
 73
     0
 78
     4
 79
     1
140
0.1200000047683716
143
0.03937
144
25.4
147
0.031496062992126
170
     1
171
     3
176
   256
177
   256
178
   256
179
     1
271
     2
272
     2
274
     3
284
     4
285
     4
286
     4
340
D6
371
    -1
372
    -1
  0
DIMSTYLE
105
F6
102
{ACAD_REACTORS
330
54C
330
638
330
722
330
80C
330
90C
330
9F6
330
AE0
330
B9A
330
CA3
330
D95
102
}
330
A
100
AcDbSymbolTableRecord
100
AcDbDimStyleTableRecord
  2
Default (ANSI)
 70
     0
 40
11.0
 41
0.0984251946210861
 43
0.2362204724409449
 44
0.125
 45
0.00000001
 46
0.3937007874015748
 79
     1
140
0.1200000047683716
147
0.031496062992126
171
     1
176
   256
177
   256
178
   256
271
     2
272
     2
274
     1
284
     4
285
     4
340
D6
371
    -1
372
    -1
  0
DIMSTYLE
105
F7
330
A
100
AcDbSymbolTableRecord
100
AcDbDimStyleTableRecord
  2
Default (ANSI)$7
 70
     0
 40
11.0
 41
0.0984251946210861
 43
0.2362204724409449
 44
0.125
 45
0.00000001
 46
0.3937007874015748
 79
     1
140
0.1200000047683716
147
0.031496062992126
171
     1
176
   256
177
   256
178
   256
271
     2
272
     2
274
     1
284
     4
285
     4
340
D6
371
    -1
372
    -1
  0
DIMSTYLE
105
F8
330
A
100
AcDbSymbolTableRecord
100
AcDbDimStyleTableRecord
  2
Alternate (ANSI)
 70
     0
 40
11.0
 41
0.0979999974370003
340
55
342
F9
  0
DIMSTYLE
105
10B
330
A
100
AcDbSymbolTableRecord
100
AcDbDimStyleTableRecord
  2
Datum (ANSI)
 70
     0
 40
11.0
 41
0.0979999974370003
340
55
342
F9
  0
DIMSTYLE
105
11A
330
A
100
AcDbSymbolTableRecord
100
AcDbDimStyleTableRecord
  2
Large (ANSI)
 70
     0
 40
11.0
 41
0.1959999948740005
340
55
342
F9
  0
ENDTAB
  0
TABLE
  2
BLOCK_RECORD
  5
1
330
0
100
AcDbSymbolTable
 70
    14
  0
BLOCK_RECORD
  5
6C
330
1
100
AcDbSymbolTableRecord
100
AcDbBlockTableRecord
  2
*Model_Space
340
6F
 70
     0
280
     1
281
     0
  0
BLOCK_RECORD
  5
68
330
1
100
AcDbSymbolTableRecord
100
AcDbBlockTableRecord
  2
*Paper_Space
340
6B
 70
     0
280
     1
281
     0
  0
BLOCK_RECORD
  5
70
330
1
100
AcDbSymbolTableRecord
100
AcDbBlockTableRecord
  2
*Paper_Space0
340
73
 70
     0
280
     1
281
     0
  0
BLOCK_RECORD
  5
F9
330
1
100
AcDbSymbolTableRecord
100
AcDbBlockTableRecord
  2
_Closed
340
0
 70
     0
280
     1
281
     0
  0
BLOCK_RECORD
  5
100
330
1
100
AcDbSymbolTableRecord
100
AcDbBlockTableRecord
  2
DatumFilled45
340
0
 70
     0
280
     1
281
     0
  0
BLOCK_RECORD
  5
10C
330
1
100
AcDbSymbolTableRecord
100
AcDbBlockTableRecord
  2
Filled-1
340
0
 70
     0
280
     1
281
     0
  0
BLOCK_RECORD
  5
54F
330
1
100
AcDbSymbolTableRecord
100
AcDbBlockTableRecord
  2
*D4
340
0
 70
     0
280
     1
281
     0
  0
BLOCK_RECORD
  5
639
330
1
100
AcDbSymbolTableRecord
100
AcDbBlockTableRecord
  2
*D5
340
0
 70
     0
280
     1
281
     0
  0
BLOCK_RECORD
  5
723
330
1
100
AcDbSymbolTableRecord
100
AcDbBlockTableRecord
  2
*D6
340
0
 70
     0
280
     1
281
     0
  0
BLOCK_RECORD
  5
80D
330
1
100
AcDbSymbolTableRecord
100
AcDbBlockTableRecord
  2
*D7
340
0
 70
     0
280
     1
281
     0
  0
BLOCK_RECORD
  5
90D
330
1
100
AcDbSymbolTableRecord
100
AcDbBlockTableRecord
  2
*D8
340
0
 70
     0
280
     1
281
     0
  0
BLOCK_RECORD
  5
9F7
330
1
100
AcDbSymbolTableRecord
100
AcDbBlockTableRecord
  2
*D9
340
0
 70
     0
280
     1
281
     0
  0
BLOCK_RECORD
  5
AE1
330
1
100
AcDbSymbolTableRecord
100
AcDbBlockTableRecord
  2
*D10
340
0
 70
     0
280
     1
281
     0
  0
BLOCK_RECORD
  5
B9B
330
1
100
AcDbSymbolTableRecord
100
AcDbBlockTableRecord
  2
*D11
340
0
 70
     0
280
     1
281
     0
  0
BLOCK_RECORD
  5
CA4
330
1
100
AcDbSymbolTableRecord
100
AcDbBlockTableRecord
  2
*D12
340
0
 70
     0
280
     1
281
     0
  0
BLOCK_RECORD
  5
D96
330
1
100
AcDbSymbolTableRecord
100
AcDbBlockTableRecord
  2
*D13
340
0
 70
     0
280
     1
281
     0
  0
ENDTAB
  0
ENDSEC
  0
SECTION
  2
BLOCKS
  0
BLOCK
  5
6D
330
6C
100
AcDbEntity
  8
0
100
AcDbBlockBegin
  2
*Model_Space
 70
     0
 10
0.0
 20
0.0
 30
0.0
  3
*Model_Space
  1

  0
ENDBLK
  5
6E
330
6C
100
AcDbEntity
  8
0
100
AcDbBlockEnd
  0
BLOCK
  5
69
330
68
100
AcDbEntity
 67
     1
  8
0
100
AcDbBlockBegin
  2
*Paper_Space
 70
     0
 10
0.0
 20
0.0
 30
0.0
  3
*Paper_Space
  1

  0
ENDBLK
  5
6A
330
68
100
AcDbEntity
 67
     1
  8
0
100
AcDbBlockEnd
  0
BLOCK
  5
71
330
70
100
AcDbEntity
 67
     1
  8
0
100
AcDbBlockBegin
  2
*Paper_Space0
 70
     0
 10
0.0
 20
0.0
 30
0.0
  3
*Paper_Space0
  1

  0
ENDBLK
  5
72
330
70
100
AcDbEntity
 67
     1
  8
0
100
AcDbBlockEnd
  0
BLOCK
  5
FE
330
F9
100
AcDbEntity
  8
0
100
AcDbBlockBegin
  2
_Closed
 70
     0
 10
0.0
 20
0.0
 30
0.0
  3
_Closed
  1

  0
LINE
  5
FA
330
F9
100
AcDbEntity
  8
0
  6
ByBlock
 62
     0
370
    -2
100
AcDbLine
 10
-1.0
 20
0.1666666666666666
 30
0.0
 11
0.0
 21
0.0
 31
0.0
  0
LINE
  5
FB
330
F9
100
AcDbEntity
  8
0
  6
ByBlock
 62
     0
370
    -2
100
AcDbLine
 10
0.0
 20
0.0
 30
0.0
 11
-1.0
 21
-0.1666666666666666
 31
0.0
  0
LINE
  5
FC
330
F9
100
AcDbEntity
  8
0
  6
ByBlock
 62
     0
370
    -2
100
AcDbLine
 10
-1.0
 20
0.1666666666666666
 30
0.0
 11
-1.0
 21
-0.1666666666666666
 31
0.0
  0
LINE
  5
FD
330
F9
100
AcDbEntity
  8
0
  6
ByBlock
 62
     0
370
    -2
100
AcDbLine
 10
0.0
 20
0.0
 30
0.0
 11
-1.0
 21
0.0
 31
0.0
  0
ENDBLK
  5
FF
330
F9
100
AcDbEntity
  8
0
100
AcDbBlockEnd
  0
BLOCK
  5
101
330
100
100
AcDbEntity
  8
0
100
AcDbBlockBegin
  2
DatumFilled45
 70
     0
 10
0.0
 20
0.0
 30
0.0
  3
DatumFilled45
  1

  0
POLYLINE
  5
103
330
100
100
AcDbEntity
  8
0
 62
     0
100
AcDb2dPolyline
 66
     1
 10
0.0
 20
0.0
 30
0.0
 70
   128
  0
VERTEX
  5
104
330
103
100
AcDbEntity
  8
0
 62
     0
100
AcDbVertex
100
AcDb2dVertex
 10
0.0
 20
0.9999999999999998
 30
0.0
  0
VERTEX
  5
105
330
103
100
AcDbEntity
  8
0
 62
     0
100
AcDbVertex
100
AcDb2dVertex
 10
0.0
 20
-0.9999999999999998
 30
0.0
  0
VERTEX
  5
107
330
103
100
AcDbEntity
  8
0
 62
     0
100
AcDbVertex
100
AcDb2dVertex
 10
-0.9999999999999998
 20
0.0
 30
0.0
  0
VERTEX
  5
108
330
103
100
AcDbEntity
  8
0
 62
     0
100
AcDbVertex
100
AcDb2dVertex
 10
0.0
 20
0.9999999999999998
 30
0.0
  0
SEQEND
  5
106
330
103
100
AcDbEntity
  8
0
 62
     0
  0
SOLID
  5
10A
330
100
100
AcDbEntity
  8
0
 62
     0
100
AcDbTrace
 10
0.0
 20
0.9999999999999998
 30
0.0
 11
0.0
 21
-0.9999999999999998
 31
0.0
 12
-0.9999999999999998
 22
0.0
 32
0.0
 13
0.0
 23
0.9999999999999998
 33
0.0
  0
ENDBLK
  5
102
330
100
100
AcDbEntity
  8
0
100
AcDbBlockEnd
  0
BLOCK
  5
10D
330
10C
100
AcDbEntity
  8
0
100
AcDbBlockBegin
  2
Filled-1
 70
     0
 10
0.0
 20
0.0
 30
0.0
  3
Filled-1
  1

  0
LINE
  5
10F
330
10C
100
AcDbEntity
  8
0
 62
     0
100
AcDbLine
 10
-0.9999999999999998
 20
0.0
 30
0.0
 11
0.0
 21
0.0
 31
0.0
  0
POLYLINE
  5
110
330
10C
100
AcDbEntity
  8
0
 62
     0
100
AcDb2dPolyline
 66
     1
 10
0.0
 20
0.0
 30
0.0
 70
   128
  0
VERTEX
  5
111
330
110
100
AcDbEntity
  8
0
 62
     0
100
AcDbVertex
100
AcDb2dVertex
 10
-0.9999999999999998
 20
-0.0994897959183674
 30
0.0
  0
VERTEX
  5
112
330
110
100
AcDbEntity
  8
0
 62
     0
100
AcDbVertex
100
AcDb2dVertex
 10
0.0
 20
0.0
 30
0.0
  0
VERTEX
  5
114
330
110
100
AcDbEntity
  8
0
 62
     0
100
AcDbVertex
100
AcDb2dVertex
 10
-0.9999999999999998
 20
0.0994897959183674
 30
0.0
  0
VERTEX
  5
115
330
110
100
AcDbEntity
  8
0
 62
     0
100
AcDbVertex
100
AcDb2dVertex
 10
-0.9999999999999998
 20
-0.0994897959183674
 30
0.0
  0
SEQEND
  5
113
330
110
100
AcDbEntity
  8
0
 62
     0
  0
SOLID
  5
116
330
10C
100
AcDbEntity
  8
0
 62
     0
100
AcDbTrace
 10
-0.9999999999999998
 20
-0.0994897959183674
 30
0.0
 11
0.0
 21
0.0
 31
0.0
 12
-0.9999999999999998
 22
0.0994897959183674
 32
0.0
 13
-0.9999999999999998
 23
-0.0994897959183674
 33
0.0
  0
LINE
  5
117
330
10C
100
AcDbEntity
  8
0
 62
     0
100
AcDbLine
 10
-0.9999999999999998
 20
-0.0994897959183674
 30
0.0
 11
0.0
 21
0.0
 31
0.0
  0
LINE
  5
118
330
10C
100
AcDbEntity
  8
0
 62
     0
100
AcDbLine
 10
0.0
 20
0.0
 30
0.0
 11
-0.9999999999999998
 21
0.0994897959183674
 31
0.0
  0
LINE
  5
119
330
10C
100
AcDbEntity
  8
0
 62
     0
100
AcDbLine
 10
-0.9999999999999998
 20
0.0994897959183674
 30
0.0
 11
-0.9999999999999998
 21
-0.0994897959183674
 31
0.0
  0
ENDBLK
  5
10E
330
10C
100
AcDbEntity
  8
0
100
AcDbBlockEnd
  0
BLOCK
  5
550
330
54F
100
AcDbEntity
  8
0
100
AcDbBlockBegin
  2
*D4
 70
     1
 10
0.0
 20
0.0
 30
0.0
  3
*D4
  1

  0
LINE
  5
62E
330
54F
100
AcDbEntity
  8
Dimension (ANSI)
440
 16777216
100
AcDbLine
 10
19.66731573880038
 20
72.22262731522292
 30
0.0
 11
19.66731573880038
 21
86.32193932922763
 31
0.0
  0
LINE
  5
62F
330
54F
100
AcDbEntity
  8
Dimension (ANSI)
440
 16777216
100
AcDbLine
 10
87.66731573880038
 20
72.22262731522292
 30
0.0
 11
87.66731573880038
 21
86.32193932922763
 31
0.0
  0
LINE
  5
630
330
54F
100
AcDbEntity
  8
Dimension (ANSI)
440
 16777216
100
AcDbLine
 10
20.74999287963233
 20
84.94693932922762
 30
0.0
 11
51.13829349307327
 21
84.94693932922762
 31
0.0
  0
LINE
  5
631
330
54F
100
AcDbEntity
  8
Dimension (ANSI)
440
 16777216
100
AcDbLine
 10
86.58463859796844
 20
84.94693932922762
 30
0.0
 11
56.19633798452753
 21
84.94693932922762
 31
0.0
  0
SOLID
  5
632
330
54F
100
AcDbEntity
  8
Dimension (ANSI)
440
 16777216
100
AcDbTrace
 10
20.74999287963233
 20
85.12738551936628
 30
0.0
 11
20.74999287963233
 21
84.76649313908898
 31
0.0
 12
19.66731573880038
 22
84.94693932922762
 32
0.0
 13
19.66731573880038
 23
84.94693932922762
 33
0.0
  0
SOLID
  5
633
330
54F
100
AcDbEntity
  8
Dimension (ANSI)
440
 16777216
100
AcDbTrace
 10
86.58463859796844
 20
85.12738551936628
 30
0.0
 11
86.58463859796844
 21
84.76649313908898
 31
0.0
 12
87.66731573880038
 22
84.94693932922762
 32
0.0
 13
87.66731573880038
 23
84.94693932922762
 33
0.0
  0
MTEXT
  5
634
330
54F
100
AcDbEntity
  8
Dimension (ANSI)
440
 16777216
100
AcDbMText
 10
51.48475018598666
 20
85.63708038644351
 30
0.0
 40
1.320000052452087
 41
0.0
 46
0.0
 71
     1
 72
     1
  1
\A1;68.00
  7
Note Text (ANSI)
 73
     1
 44
1.0
  0
POINT
  5
635
330
54F
100
AcDbEntity
  8
Defpoints
 62
     0
440
 16777216
100
AcDbPoint
 10
19.66731573880038
 20
71.53512731522292
 30
0.0
  0
POINT
  5
636
330
54F
100
AcDbEntity
  8
Defpoints
 62
     0
440
 16777216
100
AcDbPoint
 10
87.66731573880038
 20
71.53512731522292
 30
0.0
  0
POINT
  5
637
330
54F
100
AcDbEntity
  8
Defpoints
 62
     0
440
 16777216
100
AcDbPoint
 10
87.66731573880038
 20
84.94693932922762
 30
0.0
  0
ENDBLK
  5
551
330
54F
100
AcDbEntity
  8
0
100
AcDbBlockEnd
  0
BLOCK
  5
63A
330
639
100
AcDbEntity
  8
0
100
AcDbBlockBegin
  2
*D5
 70
     1
 10
0.0
 20
0.0
 30
0.0
  3
*D5
  1

  0
LINE
  5
718
330
639
100
AcDbEntity
  8
Dimension (ANSI)
440
 16777216
100
AcDbLine
 10
19.66731573880038
 20
72.22262731522292
 30
0.0
 11
19.66731573880038
 21
77.63251151753569
 31
0.0
  0
LINE
  5
719
330
639
100
AcDbEntity
  8
Dimension (ANSI)
440
 16777216
100
AcDbLine
 10
20.54231573880039
 20
73.21751566287122
 30
0.0
 11
20.54231573880039
 21
77.63251151753569
 31
0.0
  0
LINE
  5
71A
330
639
100
AcDbEntity
  8
Dimension (ANSI)
440
 16777216
100
AcDbLine
 10
21.62499287963234
 20
76.25751151753568
 30
0.0
 11
22.70767002046428
 21
76.25751151753568
 31
0.0
  0
LINE
  5
71B
330
639
100
AcDbEntity
  8
Dimension (ANSI)
440
 16777216
100
AcDbLine
 10
18.58463859796843
 20
76.25751151753568
 30
0.0
 11
15.98499127206651
 21
76.25751151753568
 31
0.0
  0
SOLID
  5
71C
330
639
100
AcDbEntity
  8
Dimension (ANSI)
440
 16777216
100
AcDbTrace
 10
21.62499287963234
 20
76.43795770767434
 30
0.0
 11
21.62499287963234
 21
76.07706532739704
 31
0.0
 12
20.54231573880039
 22
76.25751151753568
 32
0.0
 13
20.54231573880039
 23
76.25751151753568
 33
0.0
  0
SOLID
  5
71D
330
639
100
AcDbEntity
  8
Dimension (ANSI)
440
 16777216
100
AcDbTrace
 10
18.58463859796843
 20
76.43795770767434
 30
0.0
 11
18.58463859796843
 21
76.07706532739704
 31
0.0
 12
19.66731573880038
 22
76.25751151753568
 32
0.0
 13
19.66731573880038
 23
76.25751151753568
 33
0.0
  0
MTEXT
  5
71E
330
639
100
AcDbEntity
  8
Dimension (ANSI)
440
 16777216
100
AcDbMText
 10
12.25476012135863
 20
76.94765257475157
 30
0.0
 40
1.320000052452087
 41
0.0
 46
0.0
 71
     1
 72
     1
  1
\A1;0.88
  7
Note Text (ANSI)
 73
     1
 44
1.0
  0
POINT
  5
71F
330
639
100
AcDbEntity
  8
Defpoints
 62
     0
440
 16777216
100
AcDbPoint
 10
19.66731573880038
 20
71.53512731522292
 30
0.0
  0
POINT
  5
720
330
639
100
AcDbEntity
  8
Defpoints
 62
     0
440
 16777216
100
AcDbPoint
 10
20.54231573880039
 20
72.53001566287122
 30
0.0
  0
POINT
  5
721
330
639
100
AcDbEntity
  8
Defpoints
 62
     0
440
 16777216
100
AcDbPoint
 10
20.54231573880039
 20
76.25751151753568
 30
0.0
  0
ENDBLK
  5
63B
330
639
100
AcDbEntity
  8
0
100
AcDbBlockEnd
  0
BLOCK
  5
724
330
723
100
AcDbEntity
  8
0
100
AcDbBlockBegin
  2
*D6
 70
     1
 10
0.0
 20
0.0
 30
0.0
  3
*D6
  1

  0
LINE
  5
802
330
723
100
AcDbEntity
  8
Dimension (ANSI)
440
 16777216
100
AcDbLine
 10
20.54231573880039
 20
73.21751566287122
 30
0.0
 11
20.54231573880039
 21
81.75357187881637
 31
0.0
  0
LINE
  5
803
330
723
100
AcDbEntity
  8
Dimension (ANSI)
440
 16777216
100
AcDbLine
 10
86.79231573880038
 20
73.21751566287122
 30
0.0
 11
86.79231573880038
 21
81.75357187881637
 31
0.0
  0
LINE
  5
804
330
723
100
AcDbEntity
  8
Dimension (ANSI)
440
 16777216
100
AcDbLine
 10
21.62499287963234
 20
80.37857187881638
 30
0.0
 11
51.14893150551589
 21
80.37857187881638
 31
0.0
  0
LINE
  5
805
330
723
100
AcDbEntity
  8
Dimension (ANSI)
440
 16777216
100
AcDbLine
 10
85.70963859796844
 20
80.37857187881638
 30
0.0
 11
56.18569997208488
 21
80.37857187881638
 31
0.0
  0
SOLID
  5
806
330
723
100
AcDbEntity
  8
Dimension (ANSI)
440
 16777216
100
AcDbTrace
 10
21.62499287963234
 20
80.55901806895503
 30
0.0
 11
21.62499287963234
 21
80.19812568867772
 31
0.0
 12
20.54231573880039
 22
80.37857187881638
 32
0.0
 13
20.54231573880039
 23
80.37857187881638
 33
0.0
  0
SOLID
  5
807
330
723
100
AcDbEntity
  8
Dimension (ANSI)
440
 16777216
100
AcDbTrace
 10
85.70963859796844
 20
80.55901806895503
 30
0.0
 11
85.70963859796844
 21
80.19812568867772
 31
0.0
 12
86.79231573880038
 22
80.37857187881638
 32
0.0
 13
86.79231573880038
 23
80.37857187881638
 33
0.0
  0
MTEXT
  5
808
330
723
100
AcDbEntity
  8
Dimension (ANSI)
440
 16777216
100
AcDbMText
 10
51.49538819842927
 20
81.06605343292159
 30
0.0
 40
1.320000052452087
 41
0.0
 46
0.0
 71
     1
 72
     1
  1
\A1;66.25
  7
Note Text (ANSI)
 73
     1
 44
1.0
  0
POINT
  5
809
330
723
100
AcDbEntity
  8
Defpoints
 62
     0
440
 16777216
100
AcDbPoint
 10
20.54231573880039
 20
72.53001566287122
 30
0.0
  0
POINT
  5
80A
330
723
100
AcDbEntity
  8
Defpoints
 62
     0
440
 16777216
100
AcDbPoint
 10
86.79231573880038
 20
72.53001566287122
 30
0.0
  0
POINT
  5
80B
330
723
100
AcDbEntity
  8
Defpoints
 62
     0
440
 16777216
100
AcDbPoint
 10
86.79231573880038
 20
80.37857187881638
 30
0.0
  0
ENDBLK
  5
725
330
723
100
AcDbEntity
  8
0
100
AcDbBlockEnd
  0
BLOCK
  5
80E
330
80D
100
AcDbEntity
  8
0
100
AcDbBlockBegin
  2
*D7
 70
     1
 10
0.0
 20
0.0
 30
0.0
  3
*D7
  1

  0
LINE
  5
901
330
80D
100
AcDbEntity
  8
Dimension (ANSI)
440
 16777216
100
AcDbLine
 10
19.19320408644871
 20
40.86851566287125
 30
0.0
 11
16.87743053906367
 21
40.86851566287125
 31
0.0
  0
LINE
  5
902
330
80D
100
AcDbEntity
  8
Dimension (ANSI)
440
 16777216
100
AcDbLine
 10
18.19831573880036
 20
41.74351566287125
 30
0.0
 11
16.87743053906367
 21
41.74351566287125
 31
0.0
  0
LINE
  5
903
330
80D
100
AcDbEntity
  8
Dimension (ANSI)
440
 16777216
100
AcDbLine
 10
18.25243053906367
 20
42.8261928037032
 30
0.0
 11
18.25243053906367
 21
43.90886994453515
 31
0.0
  0
LINE
  5
904
330
80D
100
AcDbEntity
  8
Dimension (ANSI)
440
 16777216
100
AcDbLine
 10
18.25243053906367
 20
39.78583852203931
 30
0.0
 11
18.25243053906367
 21
37.71154133816772
 31
0.0
  0
LINE
  5
905
330
80D
100
AcDbEntity
  8
Dimension (ANSI)
440
 16777216
100
AcDbLine
 10
18.25243053906367
 20
37.71154133816772
 30
0.0
 11
17.16975339823172
 21
37.71154133816772
 31
0.0
  0
SOLID
  5
906
330
80D
100
AcDbEntity
  8
Dimension (ANSI)
440
 16777216
100
AcDbTrace
 10
18.07198434892502
 20
42.8261928037032
 30
0.0
 11
18.43287672920233
 21
42.8261928037032
 31
0.0
 12
18.25243053906367
 22
41.74351566287125
 32
0.0
 13
18.25243053906367
 23
41.74351566287125
 33
0.0
  0
SOLID
  5
907
330
80D
100
AcDbEntity
  8
Dimension (ANSI)
440
 16777216
100
AcDbTrace
 10
18.07198434892501
 20
39.78583852203931
 30
0.0
 11
18.43287672920233
 21
39.78583852203931
 31
0.0
 12
18.25243053906367
 22
40.86851566287125
 32
0.0
 13
18.25243053906367
 23
40.86851566287125
 33
0.0
  0
MTEXT
  5
908
330
80D
100
AcDbEntity
  8
Dimension (ANSI)
440
 16777216
100
AcDbMText
 10
13.43952224752384
 20
38.4016823953836
 30
0.0
 40
1.320000052452087
 41
0.0
 46
0.0
 71
     1
 72
     1
  1
\A1;0.88
  7
Note Text (ANSI)
 73
     1
 44
1.0
  0
POINT
  5
909
330
80D
100
AcDbEntity
  8
Defpoints
 62
     0
440
 16777216
100
AcDbPoint
 10
19.88070408644871
 20
40.86851566287125
 30
0.0
  0
POINT
  5
90A
330
80D
100
AcDbEntity
  8
Defpoints
 62
     0
440
 16777216
100
AcDbPoint
 10
18.88581573880036
 20
41.74351566287125
 30
0.0
  0
POINT
  5
90B
330
80D
100
AcDbEntity
  8
Defpoints
 62
     0
440
 16777216
100
AcDbPoint
 10
18.25243053906367
 20
41.74351566287125
 30
0.0
  0
ENDBLK
  5
80F
330
80D
100
AcDbEntity
  8
0
100
AcDbBlockEnd
  0
BLOCK
  5
90E
330
90D
100
AcDbEntity
  8
0
100
AcDbBlockBegin
  2
*D8
 70
     1
 10
0.0
 20
0.0
 30
0.0
  3
*D8
  1

  0
LINE
  5
9EC
330
90D
100
AcDbEntity
  8
Dimension (ANSI)
440
 16777216
100
AcDbLine
 10
18.19831573880036
 20
41.74351566287125
 30
0.0
 11
13.75640947642109
 21
41.74351566287126
 31
0.0
  0
LINE
  5
9ED
330
90D
100
AcDbEntity
  8
Dimension (ANSI)
440
 16777216
100
AcDbLine
 10
18.19831573880038
 20
70.87351566287122
 30
0.0
 11
13.7564094764211
 21
70.87351566287122
 31
0.0
  0
LINE
  5
9EE
330
90D
100
AcDbEntity
  8
Dimension (ANSI)
440
 16777216
100
AcDbLine
 10
15.13140947642109
 20
42.82619280370321
 30
0.0
 11
15.13140947642109
 21
55.27457741585265
 31
0.0
  0
LINE
  5
9EF
330
90D
100
AcDbEntity
  8
Dimension (ANSI)
440
 16777216
100
AcDbLine
 10
15.1314094764211
 20
69.79083852203928
 30
0.0
 11
15.13140947642109
 21
57.34245390988985
 31
0.0
  0
SOLID
  5
9F0
330
90D
100
AcDbEntity
  8
Dimension (ANSI)
440
 16777216
100
AcDbTrace
 10
14.95096328628243
 20
42.82619280370321
 30
0.0
 11
15.31185566655975
 21
42.82619280370321
 31
0.0
 12
15.13140947642109
 22
41.74351566287126
 32
0.0
 13
15.13140947642109
 23
41.74351566287126
 33
0.0
  0
SOLID
  5
9F1
330
90D
100
AcDbEntity
  8
Dimension (ANSI)
440
 16777216
100
AcDbTrace
 10
14.95096328628244
 20
69.79083852203928
 30
0.0
 11
15.31185566655975
 21
69.79083852203928
 31
0.0
 12
15.1314094764211
 22
70.87351566287122
 32
0.0
 13
15.1314094764211
 23
70.87351566287122
 33
0.0
  0
MTEXT
  5
9F2
330
90D
100
AcDbEntity
  8
Dimension (ANSI)
440
 16777216
100
AcDbMText
 10
12.9741092031586
 20
56.99599721697647
 30
0.0
 40
1.320000052452087
 41
0.0
 46
0.0
 71
     1
 72
     1
  1
\A1;29.13
  7
Note Text (ANSI)
 73
     1
 44
1.0
  0
POINT
  5
9F3
330
90D
100
AcDbEntity
  8
Defpoints
 62
     0
440
 16777216
100
AcDbPoint
 10
18.88581573880036
 20
41.74351566287125
 30
0.0
  0
POINT
  5
9F4
330
90D
100
AcDbEntity
  8
Defpoints
 62
     0
440
 16777216
100
AcDbPoint
 10
18.88581573880038
 20
70.87351566287122
 30
0.0
  0
POINT
  5
9F5
330
90D
100
AcDbEntity
  8
Defpoints
 62
     0
440
 16777216
100
AcDbPoint
 10
15.1314094764211
 20
70.87351566287122
 30
0.0
  0
ENDBLK
  5
90F
330
90D
100
AcDbEntity
  8
0
100
AcDbBlockEnd
  0
BLOCK
  5
9F8
330
9F7
100
AcDbEntity
  8
0
100
AcDbBlockBegin
  2
*D9
 70
     1
 10
0.0
 20
0.0
 30
0.0
  3
*D9
  1

  0
LINE
  5
AD6
330
9F7
100
AcDbEntity
  8
Dimension (ANSI)
440
 16777216
100
AcDbLine
 10
19.19320408644871
 20
40.86851566287125
 30
0.0
 11
6.696071121068779
 21
40.86851566287125
 31
0.0
  0
LINE
  5
AD7
330
9F7
100
AcDbEntity
  8
Dimension (ANSI)
440
 16777216
100
AcDbLine
 10
19.19320408644873
 20
71.74851566287123
 30
0.0
 11
6.696071121068786
 21
71.74851566287123
 31
0.0
  0
LINE
  5
AD8
330
9F7
100
AcDbEntity
  8
Dimension (ANSI)
440
 16777216
100
AcDbLine
 10
8.071071121068779
 20
41.9511928037032
 30
0.0
 11
8.071071121068783
 21
55.27191791274198
 31
0.0
  0
LINE
  5
AD9
330
9F7
100
AcDbEntity
  8
Dimension (ANSI)
440
 16777216
100
AcDbLine
 10
8.071071121068786
 20
70.66583852203928
 30
0.0
 11
8.071071121068783
 21
57.34511341300052
 31
0.0
  0
SOLID
  5
ADA
330
9F7
100
AcDbEntity
  8
Dimension (ANSI)
440
 16777216
100
AcDbTrace
 10
7.890624930930122
 20
41.9511928037032
 30
0.0
 11
8.251517311207438
 21
41.9511928037032
 31
0.0
 12
8.071071121068779
 22
40.86851566287125
 32
0.0
 13
8.071071121068779
 23
40.86851566287125
 33
0.0
  0
SOLID
  5
ADB
330
9F7
100
AcDbEntity
  8
Dimension (ANSI)
440
 16777216
100
AcDbTrace
 10
7.890624930930129
 20
70.66583852203928
 30
0.0
 11
8.251517311207445
 21
70.66583852203928
 31
0.0
 12
8.071071121068786
 22
71.74851566287123
 32
0.0
 13
8.071071121068786
 23
71.74851566287123
 33
0.0
  0
MTEXT
  5
ADC
330
9F7
100
AcDbEntity
  8
Dimension (ANSI)
440
 16777216
100
AcDbMText
 10
5.889835319810363
 20
56.99865672008713
 30
0.0
 40
1.320000052452087
 41
0.0
 46
0.0
 71
     1
 72
     1
  1
\A1;30.88
  7
Note Text (ANSI)
 73
     1
 44
1.0
  0
POINT
  5
ADD
330
9F7
100
AcDbEntity
  8
Defpoints
 62
     0
440
 16777216
100
AcDbPoint
 10
19.88070408644871
 20
40.86851566287125
 30
0.0
  0
POINT
  5
ADE
330
9F7
100
AcDbEntity
  8
Defpoints
 62
     0
440
 16777216
100
AcDbPoint
 10
19.88070408644873
 20
71.74851566287123
 30
0.0
  0
POINT
  5
ADF
330
9F7
100
AcDbEntity
  8
Defpoints
 62
     0
440
 16777216
100
AcDbPoint
 10
8.071071121068786
 20
71.74851566287123
 30
0.0
  0
ENDBLK
  5
9F9
330
9F7
100
AcDbEntity
  8
0
100
AcDbBlockEnd
  0
BLOCK
  5
AE2
330
AE1
100
AcDbEntity
  8
0
100
AcDbBlockBegin
  2
*D10
 70
     1
 10
0.0
 20
0.0
 30
0.0
  3
*D10
  1

  0
LINE
  5
B92
330
AE1
100
AcDbEntity
  8
Dimension (ANSI)
440
 16777216
100
AcDbLine
 10
90.57448569080248
 20
38.75619529272302
 30
0.0
 11
89.09828937620938
 21
38.75619529272302
 31
0.0
  0
LINE
  5
B93
330
AE1
100
AcDbEntity
  8
Dimension (ANSI)
440
 16777216
100
AcDbLine
 10
89.09828937620938
 20
38.75619529272302
 30
0.0
 11
87.62589279722181
 21
40.66364133720094
 31
0.0
  0
MTEXT
  5
B94
330
AE1
100
AcDbEntity
  8
Dimension (ANSI)
440
 16777216
100
AcDbMText
 10
90.9209423837159
 20
38.75619529272302
 30
0.0
 40
1.320000052452087
 41
0.0
 46
0.0
 71
     4
 72
     1
  1
\A1;∅0.563{\P(6 PL.)}
  7
Note Text (ANSI)
 73
     1
 44
1.0
  0
SOLID
  5
B95
330
AE1
100
AcDbEntity
  8
Dimension (ANSI)
440
 16777216
100
AcDbTrace
 10
87.76873290358579
 20
40.77390253413567
 30
0.0
 11
87.48305269085781
 21
40.55338014026621
 31
0.0
 12
86.96432561561341
 22
41.52068197538489
 32
0.0
 13
86.96432561561341
 23
41.52068197538489
 33
0.0
  0
LINE
  5
B96
330
AE1
100
AcDbEntity
  8
Dimension (ANSI)
440
 16777216
100
AcDbLine
 10
85.80231573880039
 20
41.74351566287125
 30
0.0
 11
87.78231573880038
 21
41.74351566287126
 31
0.0
  0
LINE
  5
B97
330
AE1
100
AcDbEntity
  8
Dimension (ANSI)
440
 16777216
100
AcDbLine
 10
86.79231573880038
 20
40.75351566287126
 30
0.0
 11
86.79231573880038
 21
42.73351566287127
 31
0.0
  0
POINT
  5
B98
330
AE1
100
AcDbEntity
  8
Defpoints
 62
     0
440
 16777216
100
AcDbPoint
 10
86.96432561561341
 20
41.52068197538489
 30
0.0
  0
POINT
  5
B99
330
AE1
100
AcDbEntity
  8
Defpoints
 62
     0
440
 16777216
100
AcDbPoint
 10
86.62030586198737
 20
41.96634935035763
 30
0.0
  0
ENDBLK
  5
AE3
330
AE1
100
AcDbEntity
  8
0
100
AcDbBlockEnd
  0
BLOCK
  5
B9C
330
B9B
100
AcDbEntity
  8
0
100
AcDbBlockBegin
  2
*D11
 70
     1
 10
0.0
 20
0.0
 30
0.0
  3
*D11
  1

  0
LINE
  5
C9A
330
B9B
100
AcDbEntity
  8
Dimension (ANSI)
440
 16777216
100
AcDbLine
 10
76.17618236944913
 20
98.62882414050195
 30
0.0
 11
76.17618236944913
 21
97.54614699967
 31
0.0
  0
LINE
  5
C9B
330
B9B
100
AcDbEntity
  8
Dimension (ANSI)
440
 16777216
100
AcDbLine
 10
76.17618236944913
 20
101.6691784221659
 30
0.0
 11
76.17618236944913
 21
105.2284756243905
 31
0.0
  0
LINE
  5
C9C
330
B9B
100
AcDbEntity
  8
Dimension (ANSI)
440
 16777216
100
AcDbLine
 10
76.17618236944913
 20
105.2284756243905
 30
0.0
 11
77.25885951028108
 21
105.2284756243905
 31
0.0
  0
SOLID
  5
C9D
330
B9B
100
AcDbEntity
  8
Dimension (ANSI)
440
 16777216
100
AcDbTrace
 10
75.99573617931048
 20
98.62882414050195
 30
0.0
 11
76.35662855958779
 21
98.62882414050195
 31
0.0
 12
76.17618236944913
 22
99.71150128133389
 32
0.0
 13
76.17618236944913
 23
99.71150128133389
 33
0.0
  0
SOLID
  5
C9E
330
B9B
100
AcDbEntity
  8
Dimension (ANSI)
440
 16777216
100
AcDbTrace
 10
75.99573617931048
 20
101.6691784221659
 30
0.0
 11
76.35662855958779
 21
101.6691784221659
 31
0.0
 12
76.17618236944913
 22
100.5865012813339
 32
0.0
 13
76.17618236944913
 23
100.5865012813339
 33
0.0
  0
MTEXT
  5
C9F
330
B9B
100
AcDbEntity
  8
Dimension (ANSI)
440
 16777216
100
AcDbMText
 10
79.34906374274953
 20
105.2284756243905
 30
0.0
 40
1.320000052452087
 41
0.0
 46
0.0
 71
     5
 72
     1
  1
\A1;0.88{\PTYP.}
  7
Note Text (ANSI)
 73
     1
 44
1.0
  0
POINT
  5
CA0
330
B9B
100
AcDbEntity
  8
Defpoints
 62
     0
440
 16777216
100
AcDbPoint
 10
79.34906374274953
 20
100.5865012813339
 30
0.0
  0
POINT
  5
CA1
330
B9B
100
AcDbEntity
  8
Defpoints
 62
     0
440
 16777216
100
AcDbPoint
 10
79.31306378674546
 20
99.71150128133389
 30
0.0
  0
POINT
  5
CA2
330
B9B
100
AcDbEntity
  8
Defpoints
 62
     0
440
 16777216
100
AcDbPoint
 10
76.17618236944913
 20
99.71150128133389
 30
0.0
  0
ENDBLK
  5
B9D
330
B9B
100
AcDbEntity
  8
0
100
AcDbBlockEnd
  0
BLOCK
  5
CA5
330
CA4
100
AcDbEntity
  8
0
100
AcDbBlockBegin
  2
*D12
 70
     1
 10
0.0
 20
0.0
 30
0.0
  3
*D12
  1

  0
LINE
  5
D8A
330
CA4
100
AcDbEntity
  8
Dimension (ANSI)
440
 16777216
100
AcDbLine
 10
106.9252573767241
 20
70.09889020871087
 30
0.0
 11
105.8425802358921
 21
70.09889020871087
 31
0.0
  0
LINE
  5
D8B
330
CA4
100
AcDbEntity
  8
Dimension (ANSI)
440
 16777216
100
AcDbLine
 10
109.965611658388
 20
70.09889020871087
 30
0.0
 11
111.6577353046998
 21
70.09889020871087
 31
0.0
  0
SOLID
  5
D8C
330
CA4
100
AcDbEntity
  8
Dimension (ANSI)
440
 16777216
100
AcDbTrace
 10
106.9252573767241
 20
70.27933639884953
 30
0.0
 11
106.9252573767241
 21
69.91844401857221
 31
0.0
 12
108.007934517556
 22
70.09889020871087
 32
0.0
 13
108.007934517556
 23
70.09889020871087
 33
0.0
  0
SOLID
  5
D8D
330
CA4
100
AcDbEntity
  8
Dimension (ANSI)
440
 16777216
100
AcDbTrace
 10
109.965611658388
 20
70.27933639884953
 30
0.0
 11
109.965611658388
 21
69.91844401857221
 31
0.0
 12
108.8829345175561
 22
70.09889020871087
 32
0.0
 13
108.8829345175561
 23
70.09889020871087
 33
0.0
  0
MTEXT
  5
D8E
330
CA4
100
AcDbEntity
  8
Dimension (ANSI)
440
 16777216
100
AcDbMText
 10
112.0041919976132
 20
70.09889020871087
 30
0.0
 40
1.320000052452087
 41
0.0
 46
0.0
 71
     4
 72
     1
  1
\A1;0.88{\PTYP.}
  7
Note Text (ANSI)
 73
     1
 44
1.0
  0
POINT
  5
D8F
330
CA4
100
AcDbEntity
  8
Defpoints
 62
     0
440
 16777216
100
AcDbPoint
 10
108.8829345175561
 20
70.09889020871087
 30
0.0
  0
POINT
  5
D90
330
CA4
100
AcDbEntity
  8
Defpoints
 62
     0
440
 16777216
100
AcDbPoint
 10
108.007934517556
 20
70.14447601494964
 30
0.0
  0
POINT
  5
D91
330
CA4
100
AcDbEntity
  8
Defpoints
 62
     0
440
 16777216
100
AcDbPoint
 10
108.007934517556
 20
70.09889020871087
 30
0.0
  0
ENDBLK
  5
CA6
330
CA4
100
AcDbEntity
  8
0
100
AcDbBlockEnd
  0
BLOCK
  5
D97
330
D96
100
AcDbEntity
  8
0
100
AcDbBlockBegin
  2
*D13
 70
     1
 10
0.0
 20
0.0
 30
0.0
  3
*D13
  1

  0
LINE
  5
E75
330
D96
100
AcDbEntity
  8
Dimension (ANSI)
440
 16777216
100
AcDbLine
 10
20.54231573880039
 20
73.21751566287122
 30
0.0
 11
20.54231573880039
 21
77.63251151753566
 31
0.0
  0
LINE
  5
E76
330
D96
100
AcDbEntity
  8
Dimension (ANSI)
440
 16777216
100
AcDbLine
 10
53.66731573880038
 20
73.21751566287123
 30
0.0
 11
53.66731573880038
 21
77.63251151753566
 31
0.0
  0
LINE
  5
E77
330
D96
100
AcDbEntity
  8
Dimension (ANSI)
440
 16777216
100
AcDbLine
 10
21.62499287963234
 20
76.25751151753566
 30
0.0
 11
34.5957397664032
 21
76.25751151753566
 31
0.0
  0
LINE
  5
E78
330
D96
100
AcDbEntity
  8
Dimension (ANSI)
440
 16777216
100
AcDbLine
 10
52.58463859796844
 20
76.25751151753566
 30
0.0
 11
39.61389171119757
 21
76.25751151753566
 31
0.0
  0
SOLID
  5
E79
330
D96
100
AcDbEntity
  8
Dimension (ANSI)
440
 16777216
100
AcDbTrace
 10
21.62499287963234
 20
76.43795770767431
 30
0.0
 11
21.62499287963234
 21
76.07706532739701
 31
0.0
 12
20.54231573880039
 22
76.25751151753566
 32
0.0
 13
20.54231573880039
 23
76.25751151753566
 33
0.0
  0
SOLID
  5
E7A
330
D96
100
AcDbEntity
  8
Dimension (ANSI)
440
 16777216
100
AcDbTrace
 10
52.58463859796844
 20
76.43795770767431
 30
0.0
 11
52.58463859796844
 21
76.07706532739701
 31
0.0
 12
53.66731573880038
 22
76.25751151753566
 32
0.0
 13
53.66731573880038
 23
76.25751151753566
 33
0.0
  0
MTEXT
  5
E7B
330
D96
100
AcDbEntity
  8
Dimension (ANSI)
440
 16777216
100
AcDbMText
 10
34.94219645931659
 20
76.94499307164088
 30
0.0
 40
1.320000052452087
 41
0.0
 46
0.0
 71
     1
 72
     1
  1
\A1;33.13
  7
Note Text (ANSI)
 73
     1
 44
1.0
  0
POINT
  5
E7C
330
D96
100
AcDbEntity
  8
Defpoints
 62
     0
440
 16777216
100
AcDbPoint
 10
20.54231573880039
 20
72.53001566287122
 30
0.0
  0
POINT
  5
E7D
330
D96
100
AcDbEntity
  8
Defpoints
 62
     0
440
 16777216
100
AcDbPoint
 10
53.66731573880038
 20
72.53001566287124
 30
0.0
  0
POINT
  5
E7E
330
D96
100
AcDbEntity
  8
Defpoints
 62
     0
440
 16777216
100
AcDbPoint
 10
53.66731573880038
 20
76.25751151753566
 30
0.0
  0
ENDBLK
  5
D98
330
D96
100
AcDbEntity
  8
0
100
AcDbBlockEnd
  0
ENDSEC
  0
SECTION
  2
ENTITIES
  0
CIRCLE
  5
11B
330
6C
100
AcDbEntity
  8
Visible (ANSI)
100
AcDbCircle
 10
53.6673157388004
 20
41.74351566287124
 30
0.0
 40
0.2814999999999999
  0
CIRCLE
  5
11C
330
6C
100
AcDbEntity
  8
Visible (ANSI)
100
AcDbCircle
 10
53.66731573880038
 20
70.87351566287124
 30
0.0
 40
0.2814999999999999
  0
CIRCLE
  5
11D
330
6C
100
AcDbEntity
  8
Visible (ANSI)
100
AcDbCircle
 10
86.79231573880038
 20
70.87351566287122
 30
0.0
 40
0.2814999999999999
  0
CIRCLE
  5
11E
330
6C
100
AcDbEntity
  8
Visible (ANSI)
100
AcDbCircle
 10
20.54231573880038
 20
70.87351566287122
 30
0.0
 40
0.2814999999999999
  0
CIRCLE
  5
11F
330
6C
100
AcDbEntity
  8
Visible (ANSI)
100
AcDbCircle
 10
20.54231573880037
 20
41.74351566287125
 30
0.0
 40
0.2814999999999999
  0
CIRCLE
  5
120
330
6C
100
AcDbEntity
  8
Visible (ANSI)
100
AcDbCircle
 10
86.79231573880038
 20
41.74351566287125
 30
0.0
 40
0.2814999999999999
  0
LINE
  5
121
330
6C
100
AcDbEntity
  8
Visible (ANSI)
100
AcDbLine
 10
87.66731573880036
 20
71.53512731522295
 30
0.0
 11
87.66731573880036
 21
41.08190401051957
 31
0.0
  0
LINE
  5
122
330
6C
100
AcDbEntity
  8
Visible (ANSI)
100
AcDbLine
 10
19.88070408644871
 20
71.74851566287123
 30
0.0
 11
87.45392739115205
 21
71.74851566287125
 31
0.0
  0
LINE
  5
123
330
6C
100
AcDbEntity
  8
Visible (ANSI)
100
AcDbLine
 10
19.66731573880039
 20
41.08190401051957
 30
0.0
 11
19.66731573880038
 21
71.53512731522295
 31
0.0
  0
LINE
  5
124
330
6C
100
AcDbEntity
  8
Visible (ANSI)
100
AcDbLine
 10
87.45392739115205
 20
40.86851566287125
 30
0.0
 11
19.88070408644871
 21
40.86851566287125
 31
0.0
  0
LINE
  5
125
330
6C
100
AcDbEntity
  8
Hidden (ANSI)
 48
1.116140484809875
100
AcDbLine
 10
87.54231573880039
 20
41.08190401051957
 30
0.0
 11
87.54231573880039
 21
71.53512731522295
 31
0.0
  0
LINE
  5
126
330
6C
100
AcDbEntity
  8
Hidden (ANSI)
 48
1.100722193717956
100
AcDbLine
 10
87.45392739115205
 20
71.62351566287125
 30
0.0
 11
19.88070408644871
 21
71.62351566287121
 31
0.0
  0
LINE
  5
127
330
6C
100
AcDbEntity
  8
Hidden (ANSI)
 48
1.116140484809875
100
AcDbLine
 10
19.79231573880038
 20
71.53512731522295
 30
0.0
 11
19.79231573880039
 21
41.08190401051956
 31
0.0
  0
LINE
  5
128
330
6C
100
AcDbEntity
  8
Hidden (ANSI)
 48
1.100722193717956
100
AcDbLine
 10
19.88070408644871
 20
40.99351566287126
 30
0.0
 11
87.45392739115205
 21
40.99351566287126
 31
0.0
  0
POLYLINE
  5
129
330
6C
100
AcDbEntity
  8
Visible (ANSI)
100
AcDb2dPolyline
 66
     1
 10
0.0
 20
0.0
 30
0.0
 70
   128
  0
VERTEX
  5
12A
330
129
100
AcDbEntity
  8
Visible (ANSI)
100
AcDbVertex
100
AcDb2dVertex
 10
87.52671308631823
 20
71.60791693201803
 30
0.0
  0
VERTEX
  5
12B
330
129
100
AcDbEntity
  8
Visible (ANSI)
100
AcDbVertex
100
AcDb2dVertex
 10
87.5359104115366
 20
71.60488319639734
 30
0.0
  0
VERTEX
  5
12D
330
129
100
AcDbEntity
  8
Visible (ANSI)
100
AcDbVertex
100
AcDb2dVertex
 10
87.5450656849741
 20
71.60184946077665
 30
0.0
  0
VERTEX
  5
12E
330
129
100
AcDbEntity
  8
Visible (ANSI)
100
AcDbVertex
100
AcDb2dVertex
 10
87.55414286224711
 20
71.59881572515594
 30
0.0
  0
VERTEX
  5
12F
330
129
100
AcDbEntity
  8
Visible (ANSI)
100
AcDbVertex
100
AcDb2dVertex
 10
87.56310589897202
 20
71.59578499323389
 30
0.0
  0
VERTEX
  5
130
330
129
100
AcDbEntity
  8
Visible (ANSI)
100
AcDbVertex
100
AcDb2dVertex
 10
87.57191274336793
 20
71.59275125761318
 30
0.0
  0
VERTEX
  5
131
330
129
100
AcDbEntity
  8
Visible (ANSI)
100
AcDbVertex
100
AcDb2dVertex
 10
87.58052134365398
 20
71.58971752199251
 30
0.0
  0
VERTEX
  5
132
330
129
100
AcDbEntity
  8
Visible (ANSI)
100
AcDbVertex
100
AcDb2dVertex
 10
87.5889016628438
 20
71.58668679007044
 30
0.0
  0
VERTEX
  5
133
330
129
100
AcDbEntity
  8
Visible (ANSI)
100
AcDbVertex
100
AcDb2dVertex
 10
87.59701765655384
 20
71.58365305444974
 30
0.0
  0
VERTEX
  5
134
330
129
100
AcDbEntity
  8
Visible (ANSI)
100
AcDbVertex
100
AcDb2dVertex
 10
87.60482727300313
 20
71.58061931882905
 30
0.0
  0
VERTEX
  5
135
330
129
100
AcDbEntity
  8
Visible (ANSI)
100
AcDbVertex
100
AcDb2dVertex
 10
87.61230648260269
 20
71.57758858690698
 30
0.0
  0
VERTEX
  5
136
330
129
100
AcDbEntity
  8
Visible (ANSI)
100
AcDbVertex
100
AcDb2dVertex
 10
87.61941924096882
 20
71.57455485128631
 30
0.0
  0
VERTEX
  5
137
330
129
100
AcDbEntity
  8
Visible (ANSI)
100
AcDbVertex
100
AcDb2dVertex
 10
87.62613551111522
 20
71.5715211156656
 30
0.0
  0
VERTEX
  5
138
330
129
100
AcDbEntity
  8
Visible (ANSI)
100
AcDbVertex
100
AcDb2dVertex
 10
87.63242525605555
 20
71.5684873800449
 30
0.0
  0
VERTEX
  5
139
330
129
100
AcDbEntity
  8
Visible (ANSI)
100
AcDbVertex
100
AcDb2dVertex
 10
87.63825843880345
 20
71.56545664812284
 30
0.0
  0
VERTEX
  5
13A
330
129
100
AcDbEntity
  8
Visible (ANSI)
100
AcDbVertex
100
AcDb2dVertex
 10
87.6436230445644
 20
71.56242291250215
 30
0.0
  0
VERTEX
  5
13B
330
129
100
AcDbEntity
  8
Visible (ANSI)
100
AcDbVertex
100
AcDb2dVertex
 10
87.64847702155751
 20
71.55938917688146
 30
0.0
  0
VERTEX
  5
13C
330
129
100
AcDbEntity
  8
Visible (ANSI)
100
AcDbVertex
100
AcDb2dVertex
 10
87.65281436238552
 20
71.5563584449594
 30
0.0
  0
VERTEX
  5
13D
330
129
100
AcDbEntity
  8
Visible (ANSI)
100
AcDbVertex
100
AcDb2dVertex
 10
87.65661103745934
 20
71.5533247093387
 30
0.0
  0
VERTEX
  5
13E
330
129
100
AcDbEntity
  8
Visible (ANSI)
100
AcDbVertex
100
AcDb2dVertex
 10
87.65985503198445
 20
71.55029097371802
 30
0.0
  0
VERTEX
  5
13F
330
129
100
AcDbEntity
  8
Visible (ANSI)
100
AcDbVertex
100
AcDb2dVertex
 10
87.66252231637174
 20
71.54725723809732
 30
0.0
  0
VERTEX
  5
140
330
129
100
AcDbEntity
  8
Visible (ANSI)
100
AcDbVertex
100
AcDb2dVertex
 10
87.66461289062126
 20
71.54422650617526
 30
0.0
  0
VERTEX
  5
141
330
129
100
AcDbEntity
  8
Visible (ANSI)
100
AcDbVertex
100
AcDb2dVertex
 10
87.66611473993842
 20
71.54119277055457
 30
0.0
  0
VERTEX
  5
142
330
129
100
AcDbEntity
  8
Visible (ANSI)
100
AcDbVertex
100
AcDb2dVertex
 10
87.66701584952874
 20
71.53815903493387
 30
0.0
  0
VERTEX
  5
143
330
129
100
AcDbEntity
  8
Visible (ANSI)
100
AcDbVertex
100
AcDb2dVertex
 10
87.66731621939216
 20
71.53512830301181
 30
0.0
  0
SEQEND
  5
12C
330
129
100
AcDbEntity
  8
Visible (ANSI)
  0
POLYLINE
  5
144
330
6C
100
AcDbEntity
  8
Visible (ANSI)
100
AcDb2dPolyline
 66
     1
 10
0.0
 20
0.0
 30
0.0
 70
   128
  0
VERTEX
  5
145
330
144
100
AcDbEntity
  8
Visible (ANSI)
100
AcDbVertex
100
AcDb2dVertex
 10
87.66731621939216
 20
41.08190399885765
 30
0.0
  0
VERTEX
  5
146
330
144
100
AcDbEntity
  8
Visible (ANSI)
100
AcDbVertex
100
AcDb2dVertex
 10
87.66701584952874
 20
41.07887115495999
 30
0.0
  0
VERTEX
  5
148
330
144
100
AcDbEntity
  8
Visible (ANSI)
100
AcDbVertex
100
AcDb2dVertex
 10
87.66611473993842
 20
41.07583831106233
 30
0.0
  0
VERTEX
  5
149
330
144
100
AcDbEntity
  8
Visible (ANSI)
100
AcDbVertex
100
AcDb2dVertex
 10
87.66461289062126
 20
41.07280546716467
 30
0.0
  0
VERTEX
  5
14A
330
144
100
AcDbEntity
  8
Visible (ANSI)
100
AcDbVertex
100
AcDb2dVertex
 10
87.66252231637174
 20
41.069772623267
 30
0.0
  0
VERTEX
  5
14B
330
144
100
AcDbEntity
  8
Visible (ANSI)
100
AcDbVertex
100
AcDb2dVertex
 10
87.65985503198445
 20
41.06673977936934
 30
0.0
  0
VERTEX
  5
14C
330
144
100
AcDbEntity
  8
Visible (ANSI)
100
AcDbVertex
100
AcDb2dVertex
 10
87.65661103745934
 20
41.06370692373848
 30
0.0
  0
VERTEX
  5
14D
330
144
100
AcDbEntity
  8
Visible (ANSI)
100
AcDbVertex
100
AcDb2dVertex
 10
87.65281436238552
 20
41.06067407984083
 30
0.0
  0
VERTEX
  5
14E
330
144
100
AcDbEntity
  8
Visible (ANSI)
100
AcDbVertex
100
AcDb2dVertex
 10
87.64847702155751
 20
41.05764122420995
 30
0.0
  0
VERTEX
  5
14F
330
144
100
AcDbEntity
  8
Visible (ANSI)
100
AcDbVertex
100
AcDb2dVertex
 10
87.6436230445644
 20
41.0546083803123
 30
0.0
  0
VERTEX
  5
150
330
144
100
AcDbEntity
  8
Visible (ANSI)
100
AcDbVertex
100
AcDb2dVertex
 10
87.63825843880345
 20
41.05157553641464
 30
0.0
  0
VERTEX
  5
151
330
144
100
AcDbEntity
  8
Visible (ANSI)
100
AcDbVertex
100
AcDb2dVertex
 10
87.63242525605555
 20
41.04854268078378
 30
0.0
  0
VERTEX
  5
152
330
144
100
AcDbEntity
  8
Visible (ANSI)
100
AcDbVertex
100
AcDb2dVertex
 10
87.62613551111522
 20
41.04550983688612
 30
0.0
  0
VERTEX
  5
153
330
144
100
AcDbEntity
  8
Visible (ANSI)
100
AcDbVertex
100
AcDb2dVertex
 10
87.61941924096882
 20
41.04247699298845
 30
0.0
  0
VERTEX
  5
154
330
144
100
AcDbEntity
  8
Visible (ANSI)
100
AcDbVertex
100
AcDb2dVertex
 10
87.61230648260269
 20
41.03944413735759
 30
0.0
  0
VERTEX
  5
155
330
144
100
AcDbEntity
  8
Visible (ANSI)
100
AcDbVertex
100
AcDb2dVertex
 10
87.60482727300313
 20
41.03641129345994
 30
0.0
  0
VERTEX
  5
156
330
144
100
AcDbEntity
  8
Visible (ANSI)
100
AcDbVertex
100
AcDb2dVertex
 10
87.59701765655384
 20
41.03337844956228
 30
0.0
  0
VERTEX
  5
157
330
144
100
AcDbEntity
  8
Visible (ANSI)
100
AcDbVertex
100
AcDb2dVertex
 10
87.5889016628438
 20
41.03034559393141
 30
0.0
  0
VERTEX
  5
158
330
144
100
AcDbEntity
  8
Visible (ANSI)
100
AcDbVertex
100
AcDb2dVertex
 10
87.58052134365398
 20
41.02731275003375
 30
0.0
  0
VERTEX
  5
159
330
144
100
AcDbEntity
  8
Visible (ANSI)
100
AcDbVertex
100
AcDb2dVertex
 10
87.57191274336793
 20
41.02427990613609
 30
0.0
  0
VERTEX
  5
15A
330
144
100
AcDbEntity
  8
Visible (ANSI)
100
AcDbVertex
100
AcDb2dVertex
 10
87.56310589897202
 20
41.02124705050523
 30
0.0
  0
VERTEX
  5
15B
330
144
100
AcDbEntity
  8
Visible (ANSI)
100
AcDbVertex
100
AcDb2dVertex
 10
87.55414286224711
 20
41.01821420660757
 30
0.0
  0
VERTEX
  5
15C
330
144
100
AcDbEntity
  8
Visible (ANSI)
100
AcDbVertex
100
AcDb2dVertex
 10
87.5450656849741
 20
41.0151813627099
 30
0.0
  0
VERTEX
  5
15D
330
144
100
AcDbEntity
  8
Visible (ANSI)
100
AcDbVertex
100
AcDb2dVertex
 10
87.5359104115366
 20
41.01214850707904
 30
0.0
  0
VERTEX
  5
15E
330
144
100
AcDbEntity
  8
Visible (ANSI)
100
AcDbVertex
100
AcDb2dVertex
 10
87.52671308631823
 20
41.00911566318138
 30
0.0
  0
SEQEND
  5
147
330
144
100
AcDbEntity
  8
Visible (ANSI)
  0
POLYLINE
  5
15F
330
6C
100
AcDbEntity
  8
Visible (ANSI)
100
AcDb2dPolyline
 66
     1
 10
0.0
 20
0.0
 30
0.0
 70
   128
  0
VERTEX
  5
160
330
15F
100
AcDbEntity
  8
Visible (ANSI)
100
AcDbVertex
100
AcDb2dVertex
 10
19.80791573911052
 20
71.60791693201803
 30
0.0
  0
VERTEX
  5
161
330
15F
100
AcDbEntity
  8
Visible (ANSI)
100
AcDbVertex
100
AcDb2dVertex
 10
19.81094858300818
 20
71.61711125353779
 30
0.0
  0
VERTEX
  5
163
330
15F
100
AcDbEntity
  8
Visible (ANSI)
100
AcDbVertex
100
AcDb2dVertex
 10
19.81398143863905
 20
71.62626652697527
 30
0.0
  0
VERTEX
  5
164
330
15F
100
AcDbEntity
  8
Visible (ANSI)
100
AcDbVertex
100
AcDb2dVertex
 10
19.81701428253671
 20
71.63534670794692
 30
0.0
  0
VERTEX
  5
165
330
15F
100
AcDbEntity
  8
Visible (ANSI)
100
AcDbVertex
100
AcDb2dVertex
 10
19.82004712643437
 20
71.64430674097319
 30
0.0
  0
VERTEX
  5
166
330
15F
100
AcDbEntity
  8
Visible (ANSI)
100
AcDbVertex
100
AcDb2dVertex
 10
19.82307998206523
 20
71.65311058167048
 30
0.0
  0
VERTEX
  5
167
330
15F
100
AcDbEntity
  8
Visible (ANSI)
100
AcDbVertex
100
AcDb2dVertex
 10
19.82611282596289
 20
71.66172218565515
 30
0.0
  0
VERTEX
  5
168
330
15F
100
AcDbEntity
  8
Visible (ANSI)
100
AcDbVertex
100
AcDb2dVertex
 10
19.82914566986055
 20
71.67010250484498
 30
0.0
  0
VERTEX
  5
169
330
15F
100
AcDbEntity
  8
Visible (ANSI)
100
AcDbVertex
100
AcDb2dVertex
 10
19.83217852549141
 20
71.67821549485636
 30
0.0
  0
VERTEX
  5
16A
330
15F
100
AcDbEntity
  8
Visible (ANSI)
100
AcDbVertex
100
AcDb2dVertex
 10
19.83521136938907
 20
71.68602811500431
 30
0.0
  0
VERTEX
  5
16B
330
15F
100
AcDbEntity
  8
Visible (ANSI)
100
AcDbVertex
100
AcDb2dVertex
 10
19.83824421328673
 20
71.69350732460384
 30
0.0
  0
VERTEX
  5
16C
330
15F
100
AcDbEntity
  8
Visible (ANSI)
100
AcDbVertex
100
AcDb2dVertex
 10
19.84127706891759
 20
71.70062008296998
 30
0.0
  0
VERTEX
  5
16D
330
15F
100
AcDbEntity
  8
Visible (ANSI)
100
AcDbVertex
100
AcDb2dVertex
 10
19.84430991281525
 20
71.70733635311639
 30
0.0
  0
VERTEX
  5
16E
330
15F
100
AcDbEntity
  8
Visible (ANSI)
100
AcDbVertex
100
AcDb2dVertex
 10
19.84734275671291
 20
71.7136230943581
 30
0.0
  0
VERTEX
  5
16F
330
15F
100
AcDbEntity
  8
Visible (ANSI)
100
AcDbVertex
100
AcDb2dVertex
 10
19.85037561234378
 20
71.71946228450327
 30
0.0
  0
VERTEX
  5
170
330
15F
100
AcDbEntity
  8
Visible (ANSI)
100
AcDbVertex
100
AcDb2dVertex
 10
19.85340845624144
 20
71.72482088286695
 30
0.0
  0
VERTEX
  5
171
330
15F
100
AcDbEntity
  8
Visible (ANSI)
100
AcDbVertex
100
AcDb2dVertex
 10
19.8564413001391
 20
71.7296778635587
 30
0.0
  0
VERTEX
  5
172
330
15F
100
AcDbEntity
  8
Visible (ANSI)
100
AcDbVertex
100
AcDb2dVertex
 10
19.85947415576996
 20
71.7340152043867
 30
0.0
  0
VERTEX
  5
173
330
15F
100
AcDbEntity
  8
Visible (ANSI)
100
AcDbVertex
100
AcDb2dVertex
 10
19.86250699966763
 20
71.73781187946051
 30
0.0
  0
VERTEX
  5
174
330
15F
100
AcDbEntity
  8
Visible (ANSI)
100
AcDbVertex
100
AcDb2dVertex
 10
19.86553985529848
 20
71.74105287028698
 30
0.0
  0
VERTEX
  5
175
330
15F
100
AcDbEntity
  8
Visible (ANSI)
100
AcDbVertex
100
AcDb2dVertex
 10
19.86857269919614
 20
71.74372616207155
 30
0.0
  0
VERTEX
  5
176
330
15F
100
AcDbEntity
  8
Visible (ANSI)
100
AcDbVertex
100
AcDb2dVertex
 10
19.87160554309381
 20
71.74581373262242
 30
0.0
  0
VERTEX
  5
177
330
15F
100
AcDbEntity
  8
Visible (ANSI)
100
AcDbVertex
100
AcDb2dVertex
 10
19.87463838699147
 20
71.74731257824096
 30
0.0
  0
VERTEX
  5
178
330
15F
100
AcDbEntity
  8
Visible (ANSI)
100
AcDbVertex
100
AcDb2dVertex
 10
19.87767123088913
 20
71.74821368783128
 30
0.0
  0
VERTEX
  5
179
330
15F
100
AcDbEntity
  8
Visible (ANSI)
100
AcDbVertex
100
AcDb2dVertex
 10
19.88070407478679
 20
71.74851706139334
 30
0.0
  0
SEQEND
  5
162
330
15F
100
AcDbEntity
  8
Visible (ANSI)
  0
POLYLINE
  5
17A
330
6C
100
AcDbEntity
  8
Visible (ANSI)
100
AcDb2dPolyline
 66
     1
 10
0.0
 20
0.0
 30
0.0
 70
   128
  0
VERTEX
  5
17B
330
17A
100
AcDbEntity
  8
Visible (ANSI)
100
AcDbVertex
100
AcDb2dVertex
 10
87.45392746101064
 20
71.74851706139334
 30
0.0
  0
VERTEX
  5
17C
330
17A
100
AcDbEntity
  8
Visible (ANSI)
100
AcDbVertex
100
AcDb2dVertex
 10
87.45696119663135
 20
71.74821368783128
 30
0.0
  0
VERTEX
  5
17E
330
17A
100
AcDbEntity
  8
Visible (ANSI)
100
AcDbVertex
100
AcDb2dVertex
 10
87.45999493225204
 20
71.74731257824096
 30
0.0
  0
VERTEX
  5
17F
330
17A
100
AcDbEntity
  8
Visible (ANSI)
100
AcDbVertex
100
AcDb2dVertex
 10
87.46302866787273
 20
71.74581373262242
 30
0.0
  0
VERTEX
  5
180
330
17A
100
AcDbEntity
  8
Visible (ANSI)
100
AcDbVertex
100
AcDb2dVertex
 10
87.46605639609615
 20
71.74372616207155
 30
0.0
  0
VERTEX
  5
181
330
17A
100
AcDbEntity
  8
Visible (ANSI)
100
AcDbVertex
100
AcDb2dVertex
 10
87.46909013171684
 20
71.74105287028698
 30
0.0
  0
VERTEX
  5
182
330
17A
100
AcDbEntity
  8
Visible (ANSI)
100
AcDbVertex
100
AcDb2dVertex
 10
87.47212386733755
 20
71.73781187946051
 30
0.0
  0
VERTEX
  5
183
330
17A
100
AcDbEntity
  8
Visible (ANSI)
100
AcDbVertex
100
AcDb2dVertex
 10
87.47515760295824
 20
71.7340152043867
 30
0.0
  0
VERTEX
  5
184
330
17A
100
AcDbEntity
  8
Visible (ANSI)
100
AcDbVertex
100
AcDb2dVertex
 10
87.47819133857893
 20
71.7296778635587
 30
0.0
  0
VERTEX
  5
185
330
17A
100
AcDbEntity
  8
Visible (ANSI)
100
AcDbVertex
100
AcDb2dVertex
 10
87.48122507419962
 20
71.72482088286695
 30
0.0
  0
VERTEX
  5
186
330
17A
100
AcDbEntity
  8
Visible (ANSI)
100
AcDbVertex
100
AcDb2dVertex
 10
87.48425880982031
 20
71.71946228450327
 30
0.0
  0
VERTEX
  5
187
330
17A
100
AcDbEntity
  8
Visible (ANSI)
100
AcDbVertex
100
AcDb2dVertex
 10
87.48728653804375
 20
71.7136230943581
 30
0.0
  0
VERTEX
  5
188
330
17A
100
AcDbEntity
  8
Visible (ANSI)
100
AcDbVertex
100
AcDb2dVertex
 10
87.49032027366444
 20
71.70733635311639
 30
0.0
  0
VERTEX
  5
189
330
17A
100
AcDbEntity
  8
Visible (ANSI)
100
AcDbVertex
100
AcDb2dVertex
 10
87.49335400928513
 20
71.70062008296998
 30
0.0
  0
VERTEX
  5
18A
330
17A
100
AcDbEntity
  8
Visible (ANSI)
100
AcDbVertex
100
AcDb2dVertex
 10
87.49638774490582
 20
71.69350732460384
 30
0.0
  0
VERTEX
  5
18B
330
17A
100
AcDbEntity
  8
Visible (ANSI)
100
AcDbVertex
100
AcDb2dVertex
 10
87.49942148052651
 20
71.68602811500431
 30
0.0
  0
VERTEX
  5
18C
330
17A
100
AcDbEntity
  8
Visible (ANSI)
100
AcDbVertex
100
AcDb2dVertex
 10
87.5024552161472
 20
71.67821549485636
 30
0.0
  0
VERTEX
  5
18D
330
17A
100
AcDbEntity
  8
Visible (ANSI)
100
AcDbVertex
100
AcDb2dVertex
 10
87.50548294437065
 20
71.67010250484498
 30
0.0
  0
VERTEX
  5
18E
330
17A
100
AcDbEntity
  8
Visible (ANSI)
100
AcDbVertex
100
AcDb2dVertex
 10
87.50851667999132
 20
71.66172218565515
 30
0.0
  0
VERTEX
  5
18F
330
17A
100
AcDbEntity
  8
Visible (ANSI)
100
AcDbVertex
100
AcDb2dVertex
 10
87.51155041561203
 20
71.65311058167048
 30
0.0
  0
VERTEX
  5
190
330
17A
100
AcDbEntity
  8
Visible (ANSI)
100
AcDbVertex
100
AcDb2dVertex
 10
87.51458415123272
 20
71.64430674097319
 30
0.0
  0
VERTEX
  5
191
330
17A
100
AcDbEntity
  8
Visible (ANSI)
100
AcDbVertex
100
AcDb2dVertex
 10
87.51761788685341
 20
71.63534670794692
 30
0.0
  0
VERTEX
  5
192
330
17A
100
AcDbEntity
  8
Visible (ANSI)
100
AcDbVertex
100
AcDb2dVertex
 10
87.52065162247411
 20
71.62626652697527
 30
0.0
  0
VERTEX
  5
193
330
17A
100
AcDbEntity
  8
Visible (ANSI)
100
AcDbVertex
100
AcDb2dVertex
 10
87.52368535809479
 20
71.61711125353779
 30
0.0
  0
VERTEX
  5
194
330
17A
100
AcDbEntity
  8
Visible (ANSI)
100
AcDbVertex
100
AcDb2dVertex
 10
87.52671308631823
 20
71.60791693201803
 30
0.0
  0
SEQEND
  5
17D
330
17A
100
AcDbEntity
  8
Visible (ANSI)
  0
POLYLINE
  5
195
330
6C
100
AcDbEntity
  8
Visible (ANSI)
100
AcDb2dPolyline
 66
     1
 10
0.0
 20
0.0
 30
0.0
 70
   128
  0
VERTEX
  5
196
330
195
100
AcDbEntity
  8
Visible (ANSI)
100
AcDbVertex
100
AcDb2dVertex
 10
19.80791573911052
 20
41.00911566318138
 30
0.0
  0
VERTEX
  5
197
330
195
100
AcDbEntity
  8
Visible (ANSI)
100
AcDbVertex
100
AcDb2dVertex
 10
19.79872005653983
 20
41.01214850707904
 30
0.0
  0
VERTEX
  5
199
330
195
100
AcDbEntity
  8
Visible (ANSI)
100
AcDbVertex
100
AcDb2dVertex
 10
19.78956375058093
 20
41.0151813627099
 30
0.0
  0
VERTEX
  5
19A
330
195
100
AcDbEntity
  8
Visible (ANSI)
100
AcDbVertex
100
AcDb2dVertex
 10
19.78048604531402
 20
41.01821420660757
 30
0.0
  0
VERTEX
  5
19B
330
195
100
AcDbEntity
  8
Visible (ANSI)
100
AcDbVertex
100
AcDb2dVertex
 10
19.7715257776238
 20
41.02124705050523
 30
0.0
  0
VERTEX
  5
19C
330
195
100
AcDbEntity
  8
Visible (ANSI)
100
AcDbVertex
100
AcDb2dVertex
 10
19.76272135026663
 20
41.02427990613609
 30
0.0
  0
VERTEX
  5
19D
330
195
100
AcDbEntity
  8
Visible (ANSI)
100
AcDbVertex
100
AcDb2dVertex
 10
19.75411045027381
 20
41.02731275003375
 30
0.0
  0
VERTEX
  5
19E
330
195
100
AcDbEntity
  8
Visible (ANSI)
100
AcDbVertex
100
AcDb2dVertex
 10
19.7457299492194
 20
41.03034559393141
 30
0.0
  0
VERTEX
  5
19F
330
195
100
AcDbEntity
  8
Visible (ANSI)
100
AcDbVertex
100
AcDb2dVertex
 10
19.73761573895545
 20
41.03337844956228
 30
0.0
  0
VERTEX
  5
1A0
330
195
100
AcDbEntity
  8
Visible (ANSI)
100
AcDbVertex
100
AcDb2dVertex
 10
19.72980256148062
 20
41.03641129345994
 30
0.0
  0
VERTEX
  5
1A1
330
195
100
AcDbEntity
  8
Visible (ANSI)
100
AcDbVertex
100
AcDb2dVertex
 10
19.72232387987499
 20
41.03944413735759
 30
0.0
  0
VERTEX
  5
1A2
330
195
100
AcDbEntity
  8
Visible (ANSI)
100
AcDbVertex
100
AcDb2dVertex
 10
19.71521171696863
 20
41.04247699298845
 30
0.0
  0
VERTEX
  5
1A3
330
195
100
AcDbEntity
  8
Visible (ANSI)
100
AcDbVertex
100
AcDb2dVertex
 10
19.70849652627642
 20
41.04550983688612
 30
0.0
  0
VERTEX
  5
1A4
330
195
100
AcDbEntity
  8
Visible (ANSI)
100
AcDbVertex
100
AcDb2dVertex
 10
19.70220706293283
 20
41.04854268078378
 30
0.0
  0
VERTEX
  5
1A5
330
195
100
AcDbEntity
  8
Visible (ANSI)
100
AcDbVertex
100
AcDb2dVertex
 10
19.69637026049341
 20
41.05157553641464
 30
0.0
  0
VERTEX
  5
1A6
330
195
100
AcDbEntity
  8
Visible (ANSI)
100
AcDbVertex
100
AcDb2dVertex
 10
19.69101111066943
 20
41.0546083803123
 30
0.0
  0
VERTEX
  5
1A7
330
195
100
AcDbEntity
  8
Visible (ANSI)
100
AcDbVertex
100
AcDb2dVertex
 10
19.68615256652908
 20
41.05764122420995
 30
0.0
  0
VERTEX
  5
1A8
330
195
100
AcDbEntity
  8
Visible (ANSI)
100
AcDbVertex
100
AcDb2dVertex
 10
19.68181543103204
 20
41.06067407984083
 30
0.0
  0
VERTEX
  5
1A9
330
195
100
AcDbEntity
  8
Visible (ANSI)
100
AcDbVertex
100
AcDb2dVertex
 10
19.67801827636376
 20
41.06370692373848
 30
0.0
  0
VERTEX
  5
1AA
330
195
100
AcDbEntity
  8
Visible (ANSI)
100
AcDbVertex
100
AcDb2dVertex
 10
19.67477736253641
 20
41.06673977936934
 30
0.0
  0
VERTEX
  5
1AB
330
195
100
AcDbEntity
  8
Visible (ANSI)
100
AcDbVertex
100
AcDb2dVertex
 10
19.67210656772299
 20
41.069772623267
 30
0.0
  0
VERTEX
  5
1AC
330
195
100
AcDbEntity
  8
Visible (ANSI)
100
AcDbVertex
100
AcDb2dVertex
 10
19.67001732830807
 20
41.07280546716467
 30
0.0
  0
VERTEX
  5
1AD
330
195
100
AcDbEntity
  8
Visible (ANSI)
100
AcDbVertex
100
AcDb2dVertex
 10
19.66851859131327
 20
41.07583831106233
 30
0.0
  0
VERTEX
  5
1AE
330
195
100
AcDbEntity
  8
Visible (ANSI)
100
AcDbVertex
100
AcDb2dVertex
 10
19.66761677420197
 20
41.07887115495999
 30
0.0
  0
VERTEX
  5
1AF
330
195
100
AcDbEntity
  8
Visible (ANSI)
100
AcDbVertex
100
AcDb2dVertex
 10
19.66731573880039
 20
41.08190399885765
 30
0.0
  0
SEQEND
  5
198
330
195
100
AcDbEntity
  8
Visible (ANSI)
  0
POLYLINE
  5
1B0
330
6C
100
AcDbEntity
  8
Visible (ANSI)
100
AcDb2dPolyline
 66
     1
 10
0.0
 20
0.0
 30
0.0
 70
   128
  0
VERTEX
  5
1B1
330
1B0
100
AcDbEntity
  8
Visible (ANSI)
100
AcDbVertex
100
AcDb2dVertex
 10
19.66731573880038
 20
71.53512830301181
 30
0.0
  0
VERTEX
  5
1B2
330
1B0
100
AcDbEntity
  8
Visible (ANSI)
100
AcDbVertex
100
AcDb2dVertex
 10
19.66761677420197
 20
71.53815903493387
 30
0.0
  0
VERTEX
  5
1B4
330
1B0
100
AcDbEntity
  8
Visible (ANSI)
100
AcDbVertex
100
AcDb2dVertex
 10
19.66851859131327
 20
71.54119277055457
 30
0.0
  0
VERTEX
  5
1B5
330
1B0
100
AcDbEntity
  8
Visible (ANSI)
100
AcDbVertex
100
AcDb2dVertex
 10
19.67001732830807
 20
71.54422650617526
 30
0.0
  0
VERTEX
  5
1B6
330
1B0
100
AcDbEntity
  8
Visible (ANSI)
100
AcDbVertex
100
AcDb2dVertex
 10
19.67210656772299
 20
71.54725723809732
 30
0.0
  0
VERTEX
  5
1B7
330
1B0
100
AcDbEntity
  8
Visible (ANSI)
100
AcDbVertex
100
AcDb2dVertex
 10
19.67477736253641
 20
71.55029097371802
 30
0.0
  0
VERTEX
  5
1B8
330
1B0
100
AcDbEntity
  8
Visible (ANSI)
100
AcDbVertex
100
AcDb2dVertex
 10
19.67801827636376
 20
71.5533247093387
 30
0.0
  0
VERTEX
  5
1B9
330
1B0
100
AcDbEntity
  8
Visible (ANSI)
100
AcDbVertex
100
AcDb2dVertex
 10
19.68181543103204
 20
71.5563584449594
 30
0.0
  0
VERTEX
  5
1BA
330
1B0
100
AcDbEntity
  8
Visible (ANSI)
100
AcDbVertex
100
AcDb2dVertex
 10
19.68615256652908
 20
71.55938917688146
 30
0.0
  0
VERTEX
  5
1BB
330
1B0
100
AcDbEntity
  8
Visible (ANSI)
100
AcDbVertex
100
AcDb2dVertex
 10
19.69101111066943
 20
71.56242291250215
 30
0.0
  0
VERTEX
  5
1BC
330
1B0
100
AcDbEntity
  8
Visible (ANSI)
100
AcDbVertex
100
AcDb2dVertex
 10
19.69637026049341
 20
71.56545664812284
 30
0.0
  0
VERTEX
  5
1BD
330
1B0
100
AcDbEntity
  8
Visible (ANSI)
100
AcDbVertex
100
AcDb2dVertex
 10
19.70220706293283
 20
71.5684873800449
 30
0.0
  0
VERTEX
  5
1BE
330
1B0
100
AcDbEntity
  8
Visible (ANSI)
100
AcDbVertex
100
AcDb2dVertex
 10
19.70849652627642
 20
71.5715211156656
 30
0.0
  0
VERTEX
  5
1BF
330
1B0
100
AcDbEntity
  8
Visible (ANSI)
100
AcDbVertex
100
AcDb2dVertex
 10
19.71521171696863
 20
71.57455485128631
 30
0.0
  0
VERTEX
  5
1C0
330
1B0
100
AcDbEntity
  8
Visible (ANSI)
100
AcDbVertex
100
AcDb2dVertex
 10
19.72232387987499
 20
71.57758858690698
 30
0.0
  0
VERTEX
  5
1C1
330
1B0
100
AcDbEntity
  8
Visible (ANSI)
100
AcDbVertex
100
AcDb2dVertex
 10
19.72980256148062
 20
71.58061931882905
 30
0.0
  0
VERTEX
  5
1C2
330
1B0
100
AcDbEntity
  8
Visible (ANSI)
100
AcDbVertex
100
AcDb2dVertex
 10
19.73761573895545
 20
71.58365305444974
 30
0.0
  0
VERTEX
  5
1C3
330
1B0
100
AcDbEntity
  8
Visible (ANSI)
100
AcDbVertex
100
AcDb2dVertex
 10
19.7457299492194
 20
71.58668679007044
 30
0.0
  0
VERTEX
  5
1C4
330
1B0
100
AcDbEntity
  8
Visible (ANSI)
100
AcDbVertex
100
AcDb2dVertex
 10
19.75411045027381
 20
71.58971752199251
 30
0.0
  0
VERTEX
  5
1C5
330
1B0
100
AcDbEntity
  8
Visible (ANSI)
100
AcDbVertex
100
AcDb2dVertex
 10
19.76272135026663
 20
71.59275125761318
 30
0.0
  0
VERTEX
  5
1C6
330
1B0
100
AcDbEntity
  8
Visible (ANSI)
100
AcDbVertex
100
AcDb2dVertex
 10
19.7715257776238
 20
71.59578499323389
 30
0.0
  0
VERTEX
  5
1C7
330
1B0
100
AcDbEntity
  8
Visible (ANSI)
100
AcDbVertex
100
AcDb2dVertex
 10
19.78048604531402
 20
71.59881572515594
 30
0.0
  0
VERTEX
  5
1C8
330
1B0
100
AcDbEntity
  8
Visible (ANSI)
100
AcDbVertex
100
AcDb2dVertex
 10
19.78956375058093
 20
71.60184946077665
 30
0.0
  0
VERTEX
  5
1C9
330
1B0
100
AcDbEntity
  8
Visible (ANSI)
100
AcDbVertex
100
AcDb2dVertex
 10
19.79872005653983
 20
71.60488319639734
 30
0.0
  0
VERTEX
  5
1CA
330
1B0
100
AcDbEntity
  8
Visible (ANSI)
100
AcDbVertex
100
AcDb2dVertex
 10
19.80791573911052
 20
71.60791693201803
 30
0.0
  0
SEQEND
  5
1B3
330
1B0
100
AcDbEntity
  8
Visible (ANSI)
  0
POLYLINE
  5
1CB
330
6C
100
AcDbEntity
  8
Visible (ANSI)
100
AcDb2dPolyline
 66
     1
 10
0.0
 20
0.0
 30
0.0
 70
   128
  0
VERTEX
  5
1CC
330
1CB
100
AcDbEntity
  8
Visible (ANSI)
100
AcDbVertex
100
AcDb2dVertex
 10
87.52671308631823
 20
41.00911566318138
 30
0.0
  0
VERTEX
  5
1CD
330
1CB
100
AcDbEntity
  8
Visible (ANSI)
100
AcDbVertex
100
AcDb2dVertex
 10
87.52368535809479
 20
40.9999199806107
 30
0.0
  0
VERTEX
  5
1CF
330
1CB
100
AcDbEntity
  8
Visible (ANSI)
100
AcDbVertex
100
AcDb2dVertex
 10
87.52065162247411
 20
40.99076367465179
 30
0.0
  0
VERTEX
  5
1D0
330
1CB
100
AcDbEntity
  8
Visible (ANSI)
100
AcDbVertex
100
AcDb2dVertex
 10
87.51761788685341
 20
40.98168596938488
 30
0.0
  0
VERTEX
  5
1D1
330
1CB
100
AcDbEntity
  8
Visible (ANSI)
100
AcDbVertex
100
AcDb2dVertex
 10
87.51458415123272
 20
40.97272570169465
 30
0.0
  0
VERTEX
  5
1D2
330
1CB
100
AcDbEntity
  8
Visible (ANSI)
100
AcDbVertex
100
AcDb2dVertex
 10
87.51155041561203
 20
40.96392127433749
 30
0.0
  0
VERTEX
  5
1D3
330
1CB
100
AcDbEntity
  8
Visible (ANSI)
100
AcDbVertex
100
AcDb2dVertex
 10
87.50851667999132
 20
40.95531037434467
 30
0.0
  0
VERTEX
  5
1D4
330
1CB
100
AcDbEntity
  8
Visible (ANSI)
100
AcDbVertex
100
AcDb2dVertex
 10
87.50548294437065
 20
40.94692987329027
 30
0.0
  0
VERTEX
  5
1D5
330
1CB
100
AcDbEntity
  8
Visible (ANSI)
100
AcDbVertex
100
AcDb2dVertex
 10
87.5024552161472
 20
40.93881566302632
 30
0.0
  0
VERTEX
  5
1D6
330
1CB
100
AcDbEntity
  8
Visible (ANSI)
100
AcDbVertex
100
AcDb2dVertex
 10
87.49942148052651
 20
40.93100248555148
 30
0.0
  0
VERTEX
  5
1D7
330
1CB
100
AcDbEntity
  8
Visible (ANSI)
100
AcDbVertex
100
AcDb2dVertex
 10
87.49638774490582
 20
40.92352380394585
 30
0.0
  0
VERTEX
  5
1D8
330
1CB
100
AcDbEntity
  8
Visible (ANSI)
100
AcDbVertex
100
AcDb2dVertex
 10
87.49335400928513
 20
40.9164116410395
 30
0.0
  0
VERTEX
  5
1D9
330
1CB
100
AcDbEntity
  8
Visible (ANSI)
100
AcDbVertex
100
AcDb2dVertex
 10
87.49032027366444
 20
40.90969645034728
 30
0.0
  0
VERTEX
  5
1DA
330
1CB
100
AcDbEntity
  8
Visible (ANSI)
100
AcDbVertex
100
AcDb2dVertex
 10
87.48728653804375
 20
40.9034069870037
 30
0.0
  0
VERTEX
  5
1DB
330
1CB
100
AcDbEntity
  8
Visible (ANSI)
100
AcDbVertex
100
AcDb2dVertex
 10
87.48425880982031
 20
40.89757018456427
 30
0.0
  0
VERTEX
  5
1DC
330
1CB
100
AcDbEntity
  8
Visible (ANSI)
100
AcDbVertex
100
AcDb2dVertex
 10
87.48122507419962
 20
40.8922110347403
 30
0.0
  0
VERTEX
  5
1DD
330
1CB
100
AcDbEntity
  8
Visible (ANSI)
100
AcDbVertex
100
AcDb2dVertex
 10
87.47819133857893
 20
40.88735249059994
 30
0.0
  0
VERTEX
  5
1DE
330
1CB
100
AcDbEntity
  8
Visible (ANSI)
100
AcDbVertex
100
AcDb2dVertex
 10
87.47515760295824
 20
40.8830153551029
 30
0.0
  0
VERTEX
  5
1DF
330
1CB
100
AcDbEntity
  8
Visible (ANSI)
100
AcDbVertex
100
AcDb2dVertex
 10
87.47212386733755
 20
40.87921820043463
 30
0.0
  0
VERTEX
  5
1E0
330
1CB
100
AcDbEntity
  8
Visible (ANSI)
100
AcDbVertex
100
AcDb2dVertex
 10
87.46909013171684
 20
40.87597728660727
 30
0.0
  0
VERTEX
  5
1E1
330
1CB
100
AcDbEntity
  8
Visible (ANSI)
100
AcDbVertex
100
AcDb2dVertex
 10
87.46605639609615
 20
40.87330649179385
 30
0.0
  0
VERTEX
  5
1E2
330
1CB
100
AcDbEntity
  8
Visible (ANSI)
100
AcDbVertex
100
AcDb2dVertex
 10
87.46302866787273
 20
40.87121725237893
 30
0.0
  0
VERTEX
  5
1E3
330
1CB
100
AcDbEntity
  8
Visible (ANSI)
100
AcDbVertex
100
AcDb2dVertex
 10
87.45999493225204
 20
40.86971851538414
 30
0.0
  0
VERTEX
  5
1E4
330
1CB
100
AcDbEntity
  8
Visible (ANSI)
100
AcDbVertex
100
AcDb2dVertex
 10
87.45696119663135
 20
40.86881669827283
 30
0.0
  0
VERTEX
  5
1E5
330
1CB
100
AcDbEntity
  8
Visible (ANSI)
100
AcDbVertex
100
AcDb2dVertex
 10
87.45392746101064
 20
40.86851566287125
 30
0.0
  0
SEQEND
  5
1CE
330
1CB
100
AcDbEntity
  8
Visible (ANSI)
  0
POLYLINE
  5
1E6
330
6C
100
AcDbEntity
  8
Visible (ANSI)
100
AcDb2dPolyline
 66
     1
 10
0.0
 20
0.0
 30
0.0
 70
   128
  0
VERTEX
  5
1E7
330
1E6
100
AcDbEntity
  8
Visible (ANSI)
100
AcDbVertex
100
AcDb2dVertex
 10
19.88070407478679
 20
40.86851566287125
 30
0.0
  0
VERTEX
  5
1E8
330
1E6
100
AcDbEntity
  8
Visible (ANSI)
100
AcDbVertex
100
AcDb2dVertex
 10
19.87767123088913
 20
40.86881669827283
 30
0.0
  0
VERTEX
  5
1EA
330
1E6
100
AcDbEntity
  8
Visible (ANSI)
100
AcDbVertex
100
AcDb2dVertex
 10
19.87463838699147
 20
40.86971851538414
 30
0.0
  0
VERTEX
  5
1EB
330
1E6
100
AcDbEntity
  8
Visible (ANSI)
100
AcDbVertex
100
AcDb2dVertex
 10
19.87160554309381
 20
40.87121725237893
 30
0.0
  0
VERTEX
  5
1EC
330
1E6
100
AcDbEntity
  8
Visible (ANSI)
100
AcDbVertex
100
AcDb2dVertex
 10
19.86857269919614
 20
40.87330649179385
 30
0.0
  0
VERTEX
  5
1ED
330
1E6
100
AcDbEntity
  8
Visible (ANSI)
100
AcDbVertex
100
AcDb2dVertex
 10
19.86553985529848
 20
40.87597728660727
 30
0.0
  0
VERTEX
  5
1EE
330
1E6
100
AcDbEntity
  8
Visible (ANSI)
100
AcDbVertex
100
AcDb2dVertex
 10
19.86250699966763
 20
40.87921820043463
 30
0.0
  0
VERTEX
  5
1EF
330
1E6
100
AcDbEntity
  8
Visible (ANSI)
100
AcDbVertex
100
AcDb2dVertex
 10
19.85947415576996
 20
40.8830153551029
 30
0.0
  0
VERTEX
  5
1F0
330
1E6
100
AcDbEntity
  8
Visible (ANSI)
100
AcDbVertex
100
AcDb2dVertex
 10
19.8564413001391
 20
40.88735249059994
 30
0.0
  0
VERTEX
  5
1F1
330
1E6
100
AcDbEntity
  8
Visible (ANSI)
100
AcDbVertex
100
AcDb2dVertex
 10
19.85340845624144
 20
40.8922110347403
 30
0.0
  0
VERTEX
  5
1F2
330
1E6
100
AcDbEntity
  8
Visible (ANSI)
100
AcDbVertex
100
AcDb2dVertex
 10
19.85037561234378
 20
40.89757018456427
 30
0.0
  0
VERTEX
  5
1F3
330
1E6
100
AcDbEntity
  8
Visible (ANSI)
100
AcDbVertex
100
AcDb2dVertex
 10
19.84734275671291
 20
40.9034069870037
 30
0.0
  0
VERTEX
  5
1F4
330
1E6
100
AcDbEntity
  8
Visible (ANSI)
100
AcDbVertex
100
AcDb2dVertex
 10
19.84430991281525
 20
40.90969645034728
 30
0.0
  0
VERTEX
  5
1F5
330
1E6
100
AcDbEntity
  8
Visible (ANSI)
100
AcDbVertex
100
AcDb2dVertex
 10
19.84127706891759
 20
40.9164116410395
 30
0.0
  0
VERTEX
  5
1F6
330
1E6
100
AcDbEntity
  8
Visible (ANSI)
100
AcDbVertex
100
AcDb2dVertex
 10
19.83824421328673
 20
40.92352380394585
 30
0.0
  0
VERTEX
  5
1F7
330
1E6
100
AcDbEntity
  8
Visible (ANSI)
100
AcDbVertex
100
AcDb2dVertex
 10
19.83521136938907
 20
40.93100248555148
 30
0.0
  0
VERTEX
  5
1F8
330
1E6
100
AcDbEntity
  8
Visible (ANSI)
100
AcDbVertex
100
AcDb2dVertex
 10
19.83217852549141
 20
40.93881566302632
 30
0.0
  0
VERTEX
  5
1F9
330
1E6
100
AcDbEntity
  8
Visible (ANSI)
100
AcDbVertex
100
AcDb2dVertex
 10
19.82914566986055
 20
40.94692987329027
 30
0.0
  0
VERTEX
  5
1FA
330
1E6
100
AcDbEntity
  8
Visible (ANSI)
100
AcDbVertex
100
AcDb2dVertex
 10
19.82611282596289
 20
40.95531037434467
 30
0.0
  0
VERTEX
  5
1FB
330
1E6
100
AcDbEntity
  8
Visible (ANSI)
100
AcDbVertex
100
AcDb2dVertex
 10
19.82307998206523
 20
40.96392127433749
 30
0.0
  0
VERTEX
  5
1FC
330
1E6
100
AcDbEntity
  8
Visible (ANSI)
100
AcDbVertex
100
AcDb2dVertex
 10
19.82004712643437
 20
40.97272570169465
 30
0.0
  0
VERTEX
  5
1FD
330
1E6
100
AcDbEntity
  8
Visible (ANSI)
100
AcDbVertex
100
AcDb2dVertex
 10
19.81701428253671
 20
40.98168596938488
 30
0.0
  0
VERTEX
  5
1FE
330
1E6
100
AcDbEntity
  8
Visible (ANSI)
100
AcDbVertex
100
AcDb2dVertex
 10
19.81398143863905
 20
40.99076367465179
 30
0.0
  0
VERTEX
  5
1FF
330
1E6
100
AcDbEntity
  8
Visible (ANSI)
100
AcDbVertex
100
AcDb2dVertex
 10
19.81094858300818
 20
40.9999199806107
 30
0.0
  0
VERTEX
  5
200
330
1E6
100
AcDbEntity
  8
Visible (ANSI)
100
AcDbVertex
100
AcDb2dVertex
 10
19.80791573911052
 20
41.00911566318138
 30
0.0
  0
SEQEND
  5
1E9
330
1E6
100
AcDbEntity
  8
Visible (ANSI)
  0
LINE
  5
201
330
6C
100
AcDbEntity
  8
Hidden (ANSI)
 48
0.0215442795306444
100
AcDbLine
 10
87.54231573880039
 20
41.08190401051957
 30
0.0
 11
87.66731573880036
 21
41.08190401051957
 31
0.0
  0
POLYLINE
  5
202
330
6C
100
AcDbEntity
  8
Hidden (ANSI)
 48
0.0131985787302256
100
AcDb2dPolyline
 66
     1
 10
0.0
 20
0.0
 30
0.0
 70
   128
  0
VERTEX
  5
203
330
202
100
AcDbEntity
  8
Hidden (ANSI)
 48
0.0131985787302256
100
AcDbVertex
100
AcDb2dVertex
 10
87.52671308631823
 20
41.00911566318138
 30
0.0
  0
VERTEX
  5
204
330
202
100
AcDbEntity
  8
Hidden (ANSI)
 48
0.0131985787302256
100
AcDbVertex
100
AcDb2dVertex
 10
87.52773434385391
 20
41.01214850707904
 30
0.0
  0
VERTEX
  5
206
330
202
100
AcDbEntity
  8
Hidden (ANSI)
 48
0.0131985787302256
100
AcDbVertex
100
AcDb2dVertex
 10
87.52874959399232
 20
41.0151813627099
 30
0.0
  0
VERTEX
  5
207
330
202
100
AcDbEntity
  8
Hidden (ANSI)
 48
0.0131985787302256
100
AcDbVertex
100
AcDb2dVertex
 10
87.52975883673345
 20
41.01821420660757
 30
0.0
  0
VERTEX
  5
208
330
202
100
AcDbEntity
  8
Hidden (ANSI)
 48
0.0131985787302256
100
AcDbVertex
100
AcDb2dVertex
 10
87.53075606468007
 20
41.02124705050523
 30
0.0
  0
VERTEX
  5
209
330
202
100
AcDbEntity
  8
Hidden (ANSI)
 48
0.0131985787302256
100
AcDbVertex
100
AcDb2dVertex
 10
87.5317292630376
 20
41.02427990613609
 30
0.0
  0
VERTEX
  5
20A
330
202
100
AcDbEntity
  8
Hidden (ANSI)
 48
0.0131985787302256
100
AcDbVertex
100
AcDb2dVertex
 10
87.53268443920331
 20
41.02731275003375
 30
0.0
  0
VERTEX
  5
20B
330
202
100
AcDbEntity
  8
Hidden (ANSI)
 48
0.0131985787302256
100
AcDbVertex
100
AcDb2dVertex
 10
87.53361558577996
 20
41.03034559393141
 30
0.0
  0
VERTEX
  5
20C
330
202
100
AcDbEntity
  8
Hidden (ANSI)
 48
0.0131985787302256
100
AcDbVertex
100
AcDb2dVertex
 10
87.53451669537026
 20
41.03337844956228
 30
0.0
  0
VERTEX
  5
20D
330
202
100
AcDbEntity
  8
Hidden (ANSI)
 48
0.0131985787302256
100
AcDbVertex
100
AcDb2dVertex
 10
87.53538176057697
 20
41.03641129345994
 30
0.0
  0
VERTEX
  5
20E
330
202
100
AcDbEntity
  8
Hidden (ANSI)
 48
0.0131985787302256
100
AcDbVertex
100
AcDb2dVertex
 10
87.53621078140005
 20
41.03944413735759
 30
0.0
  0
VERTEX
  5
20F
330
202
100
AcDbEntity
  8
Hidden (ANSI)
 48
0.0131985787302256
100
AcDbVertex
100
AcDb2dVertex
 10
87.53700375783951
 20
41.04247699298845
 30
0.0
  0
VERTEX
  5
210
330
202
100
AcDbEntity
  8
Hidden (ANSI)
 48
0.0131985787302256
100
AcDbVertex
100
AcDb2dVertex
 10
87.53774867510083
 20
41.04550983688612
 30
0.0
  0
VERTEX
  5
211
330
202
100
AcDbEntity
  8
Hidden (ANSI)
 48
0.0131985787302256
100
AcDbVertex
100
AcDb2dVertex
 10
87.53844553318399
 20
41.04854268078378
 30
0.0
  0
VERTEX
  5
212
330
202
100
AcDbEntity
  8
Hidden (ANSI)
 48
0.0131985787302256
100
AcDbVertex
100
AcDb2dVertex
 10
87.53909433208901
 20
41.05157553641464
 30
0.0
  0
VERTEX
  5
213
330
202
100
AcDbEntity
  8
Hidden (ANSI)
 48
0.0131985787302256
100
AcDbVertex
100
AcDb2dVertex
 10
87.53968906441862
 20
41.0546083803123
 30
0.0
  0
VERTEX
  5
214
330
202
100
AcDbEntity
  8
Hidden (ANSI)
 48
0.0131985787302256
100
AcDbVertex
100
AcDb2dVertex
 10
87.54022372277553
 20
41.05764122420995
 30
0.0
  0
VERTEX
  5
215
330
202
100
AcDbEntity
  8
Hidden (ANSI)
 48
0.0131985787302256
100
AcDbVertex
100
AcDb2dVertex
 10
87.54070431455703
 20
41.06067407984083
 30
0.0
  0
VERTEX
  5
216
330
202
100
AcDbEntity
  8
Hidden (ANSI)
 48
0.0131985787302256
100
AcDbVertex
100
AcDb2dVertex
 10
87.54113083976312
 20
41.06370692373848
 30
0.0
  0
VERTEX
  5
217
330
202
100
AcDbEntity
  8
Hidden (ANSI)
 48
0.0131985787302256
100
AcDbVertex
100
AcDb2dVertex
 10
87.54148527620195
 20
41.06673977936934
 30
0.0
  0
VERTEX
  5
218
330
202
100
AcDbEntity
  8
Hidden (ANSI)
 48
0.0131985787302256
100
AcDbVertex
100
AcDb2dVertex
 10
87.54178564606538
 20
41.069772623267
 30
0.0
  0
VERTEX
  5
219
330
202
100
AcDbEntity
  8
Hidden (ANSI)
 48
0.0131985787302256
100
AcDbVertex
100
AcDb2dVertex
 10
87.5420139271616
 20
41.07280546716467
 30
0.0
  0
VERTEX
  5
21A
330
202
100
AcDbEntity
  8
Hidden (ANSI)
 48
0.0131985787302256
100
AcDbVertex
100
AcDb2dVertex
 10
87.54218213428513
 20
41.07583831106233
 30
0.0
  0
VERTEX
  5
21B
330
202
100
AcDbEntity
  8
Hidden (ANSI)
 48
0.0131985787302256
100
AcDbVertex
100
AcDb2dVertex
 10
87.54228426003868
 20
41.07887115495999
 30
0.0
  0
VERTEX
  5
21C
330
202
100
AcDbEntity
  8
Hidden (ANSI)
 48
0.0131985787302256
100
AcDbVertex
100
AcDb2dVertex
 10
87.54231429702503
 20
41.08190399885765
 30
0.0
  0
SEQEND
  5
205
330
202
100
AcDbEntity
  8
Hidden (ANSI)
 48
0.0131985787302256
  0
LINE
  5
21D
330
6C
100
AcDbEntity
  8
Hidden (ANSI)
 48
0.0215442795306444
100
AcDbLine
 10
87.54231573880039
 20
71.53512731522295
 30
0.0
 11
87.66731573880036
 21
71.53512731522295
 31
0.0
  0
POLYLINE
  5
21E
330
6C
100
AcDbEntity
  8
Hidden (ANSI)
 48
0.0131986271589995
100
AcDb2dPolyline
 66
     1
 10
0.0
 20
0.0
 30
0.0
 70
   128
  0
VERTEX
  5
21F
330
21E
100
AcDbEntity
  8
Hidden (ANSI)
 48
0.0131986271589995
100
AcDbVertex
100
AcDb2dVertex
 10
87.52671308631823
 20
71.60791693201803
 30
0.0
  0
VERTEX
  5
220
330
21E
100
AcDbEntity
  8
Hidden (ANSI)
 48
0.0131986271589995
100
AcDbVertex
100
AcDb2dVertex
 10
87.52773434385391
 20
71.60488319639734
 30
0.0
  0
VERTEX
  5
222
330
21E
100
AcDbEntity
  8
Hidden (ANSI)
 48
0.0131986271589995
100
AcDbVertex
100
AcDb2dVertex
 10
87.52874959399232
 20
71.60184946077665
 30
0.0
  0
VERTEX
  5
223
330
21E
100
AcDbEntity
  8
Hidden (ANSI)
 48
0.0131986271589995
100
AcDbVertex
100
AcDb2dVertex
 10
87.52975883673345
 20
71.59881572515594
 30
0.0
  0
VERTEX
  5
224
330
21E
100
AcDbEntity
  8
Hidden (ANSI)
 48
0.0131986271589995
100
AcDbVertex
100
AcDb2dVertex
 10
87.53075606468007
 20
71.59578499323389
 30
0.0
  0
VERTEX
  5
225
330
21E
100
AcDbEntity
  8
Hidden (ANSI)
 48
0.0131986271589995
100
AcDbVertex
100
AcDb2dVertex
 10
87.5317292630376
 20
71.59275125761318
 30
0.0
  0
VERTEX
  5
226
330
21E
100
AcDbEntity
  8
Hidden (ANSI)
 48
0.0131986271589995
100
AcDbVertex
100
AcDb2dVertex
 10
87.53268443920331
 20
71.58971752199251
 30
0.0
  0
VERTEX
  5
227
330
21E
100
AcDbEntity
  8
Hidden (ANSI)
 48
0.0131986271589995
100
AcDbVertex
100
AcDb2dVertex
 10
87.53361558577996
 20
71.58668679007044
 30
0.0
  0
VERTEX
  5
228
330
21E
100
AcDbEntity
  8
Hidden (ANSI)
 48
0.0131986271589995
100
AcDbVertex
100
AcDb2dVertex
 10
87.53451669537026
 20
71.58365305444974
 30
0.0
  0
VERTEX
  5
229
330
21E
100
AcDbEntity
  8
Hidden (ANSI)
 48
0.0131986271589995
100
AcDbVertex
100
AcDb2dVertex
 10
87.53538176057697
 20
71.58061931882905
 30
0.0
  0
VERTEX
  5
22A
330
21E
100
AcDbEntity
  8
Hidden (ANSI)
 48
0.0131986271589995
100
AcDbVertex
100
AcDb2dVertex
 10
87.53621078140005
 20
71.57758858690698
 30
0.0
  0
VERTEX
  5
22B
330
21E
100
AcDbEntity
  8
Hidden (ANSI)
 48
0.0131986271589995
100
AcDbVertex
100
AcDb2dVertex
 10
87.53700375783951
 20
71.57455485128631
 30
0.0
  0
VERTEX
  5
22C
330
21E
100
AcDbEntity
  8
Hidden (ANSI)
 48
0.0131986271589995
100
AcDbVertex
100
AcDb2dVertex
 10
87.53774867510083
 20
71.5715211156656
 30
0.0
  0
VERTEX
  5
22D
330
21E
100
AcDbEntity
  8
Hidden (ANSI)
 48
0.0131986271589995
100
AcDbVertex
100
AcDb2dVertex
 10
87.53844553318399
 20
71.5684873800449
 30
0.0
  0
VERTEX
  5
22E
330
21E
100
AcDbEntity
  8
Hidden (ANSI)
 48
0.0131986271589995
100
AcDbVertex
100
AcDb2dVertex
 10
87.53909433208901
 20
71.56545664812284
 30
0.0
  0
VERTEX
  5
22F
330
21E
100
AcDbEntity
  8
Hidden (ANSI)
 48
0.0131986271589995
100
AcDbVertex
100
AcDb2dVertex
 10
87.53968906441862
 20
71.56242291250215
 30
0.0
  0
VERTEX
  5
230
330
21E
100
AcDbEntity
  8
Hidden (ANSI)
 48
0.0131986271589995
100
AcDbVertex
100
AcDb2dVertex
 10
87.54022372277553
 20
71.55938917688146
 30
0.0
  0
VERTEX
  5
231
330
21E
100
AcDbEntity
  8
Hidden (ANSI)
 48
0.0131986271589995
100
AcDbVertex
100
AcDb2dVertex
 10
87.54070431455703
 20
71.5563584449594
 30
0.0
  0
VERTEX
  5
232
330
21E
100
AcDbEntity
  8
Hidden (ANSI)
 48
0.0131986271589995
100
AcDbVertex
100
AcDb2dVertex
 10
87.54113083976312
 20
71.5533247093387
 30
0.0
  0
VERTEX
  5
233
330
21E
100
AcDbEntity
  8
Hidden (ANSI)
 48
0.0131986271589995
100
AcDbVertex
100
AcDb2dVertex
 10
87.54148527620195
 20
71.55029097371802
 30
0.0
  0
VERTEX
  5
234
330
21E
100
AcDbEntity
  8
Hidden (ANSI)
 48
0.0131986271589995
100
AcDbVertex
100
AcDb2dVertex
 10
87.54178564606538
 20
71.54725723809732
 30
0.0
  0
VERTEX
  5
235
330
21E
100
AcDbEntity
  8
Hidden (ANSI)
 48
0.0131986271589995
100
AcDbVertex
100
AcDb2dVertex
 10
87.5420139271616
 20
71.54422650617526
 30
0.0
  0
VERTEX
  5
236
330
21E
100
AcDbEntity
  8
Hidden (ANSI)
 48
0.0131986271589995
100
AcDbVertex
100
AcDb2dVertex
 10
87.54218213428513
 20
71.54119277055457
 30
0.0
  0
VERTEX
  5
237
330
21E
100
AcDbEntity
  8
Hidden (ANSI)
 48
0.0131986271589995
100
AcDbVertex
100
AcDb2dVertex
 10
87.54228426003868
 20
71.53815903493387
 30
0.0
  0
VERTEX
  5
238
330
21E
100
AcDbEntity
  8
Hidden (ANSI)
 48
0.0131986271589995
100
AcDbVertex
100
AcDb2dVertex
 10
87.54231429702503
 20
71.53512830301181
 30
0.0
  0
SEQEND
  5
221
330
21E
100
AcDbEntity
  8
Hidden (ANSI)
 48
0.0131986271589995
  0
LINE
  5
239
330
6C
100
AcDbEntity
  8
Hidden (ANSI)
 48
0.0215442795306444
100
AcDbLine
 10
87.45392739115205
 20
71.62351566287125
 30
0.0
 11
87.45392739115205
 21
71.74851566287125
 31
0.0
  0
POLYLINE
  5
23A
330
6C
100
AcDbEntity
  8
Hidden (ANSI)
 48
0.0131979044526816
100
AcDb2dPolyline
 66
     1
 10
0.0
 20
0.0
 30
0.0
 70
   128
  0
VERTEX
  5
23B
330
23A
100
AcDbEntity
  8
Hidden (ANSI)
 48
0.0131979044526816
100
AcDbVertex
100
AcDb2dVertex
 10
87.52671308631823
 20
71.60791693201803
 30
0.0
  0
VERTEX
  5
23C
330
23A
100
AcDbEntity
  8
Hidden (ANSI)
 48
0.0131979044526816
100
AcDbVertex
100
AcDb2dVertex
 10
87.52368535809479
 20
71.60893518585507
 30
0.0
  0
VERTEX
  5
23E
330
23A
100
AcDbEntity
  8
Hidden (ANSI)
 48
0.0131979044526816
100
AcDbVertex
100
AcDb2dVertex
 10
87.52065162247411
 20
71.60995043599348
 30
0.0
  0
VERTEX
  5
23F
330
23A
100
AcDbEntity
  8
Hidden (ANSI)
 48
0.0131979044526816
100
AcDbVertex
100
AcDb2dVertex
 10
87.51761788685341
 20
71.61095967873461
 30
0.0
  0
VERTEX
  5
240
330
23A
100
AcDbEntity
  8
Hidden (ANSI)
 48
0.0131979044526816
100
AcDbVertex
100
AcDb2dVertex
 10
87.51458415123272
 20
71.6119539029826
 30
0.0
  0
VERTEX
  5
241
330
23A
100
AcDbEntity
  8
Hidden (ANSI)
 48
0.0131979044526816
100
AcDbVertex
100
AcDb2dVertex
 10
87.51155041561203
 20
71.61293010503875
 30
0.0
  0
VERTEX
  5
242
330
23A
100
AcDbEntity
  8
Hidden (ANSI)
 48
0.0131979044526816
100
AcDbVertex
100
AcDb2dVertex
 10
87.50851667999132
 20
71.61388528120447
 30
0.0
  0
VERTEX
  5
243
330
23A
100
AcDbEntity
  8
Hidden (ANSI)
 48
0.0131979044526816
100
AcDbVertex
100
AcDb2dVertex
 10
87.50548294437065
 20
71.61481642778113
 30
0.0
  0
VERTEX
  5
244
330
23A
100
AcDbEntity
  8
Hidden (ANSI)
 48
0.0131979044526816
100
AcDbVertex
100
AcDb2dVertex
 10
87.5024552161472
 20
71.6157145336728
 30
0.0
  0
VERTEX
  5
245
330
23A
100
AcDbEntity
  8
Hidden (ANSI)
 48
0.0131979044526816
100
AcDbVertex
100
AcDb2dVertex
 10
87.49942148052651
 20
71.61658260257813
 30
0.0
  0
VERTEX
  5
246
330
23A
100
AcDbEntity
  8
Hidden (ANSI)
 48
0.0131979044526816
100
AcDbVertex
100
AcDb2dVertex
 10
87.49638774490582
 20
71.61741162340121
 30
0.0
  0
VERTEX
  5
247
330
23A
100
AcDbEntity
  8
Hidden (ANSI)
 48
0.0131979044526816
100
AcDbVertex
100
AcDb2dVertex
 10
87.49335400928513
 20
71.61820159614205
 30
0.0
  0
VERTEX
  5
248
330
23A
100
AcDbEntity
  8
Hidden (ANSI)
 48
0.0131979044526816
100
AcDbVertex
100
AcDb2dVertex
 10
87.49032027366444
 20
71.61894651340337
 30
0.0
  0
VERTEX
  5
249
330
23A
100
AcDbEntity
  8
Hidden (ANSI)
 48
0.0131979044526816
100
AcDbVertex
100
AcDb2dVertex
 10
87.48728653804375
 20
71.61964337148653
 30
0.0
  0
VERTEX
  5
24A
330
23A
100
AcDbEntity
  8
Hidden (ANSI)
 48
0.0131979044526816
100
AcDbVertex
100
AcDb2dVertex
 10
87.48425880982031
 20
71.62029217039155
 30
0.0
  0
VERTEX
  5
24B
330
23A
100
AcDbEntity
  8
Hidden (ANSI)
 48
0.0131979044526816
100
AcDbVertex
100
AcDb2dVertex
 10
87.48122507419962
 20
71.62088690272115
 30
0.0
  0
VERTEX
  5
24C
330
23A
100
AcDbEntity
  8
Hidden (ANSI)
 48
0.0131979044526816
100
AcDbVertex
100
AcDb2dVertex
 10
87.47819133857893
 20
71.62142456477671
 30
0.0
  0
VERTEX
  5
24D
330
23A
100
AcDbEntity
  8
Hidden (ANSI)
 48
0.0131979044526816
100
AcDbVertex
100
AcDb2dVertex
 10
87.47515760295824
 20
71.62190816025684
 30
0.0
  0
VERTEX
  5
24E
330
23A
100
AcDbEntity
  8
Hidden (ANSI)
 48
0.0131979044526816
100
AcDbVertex
100
AcDb2dVertex
 10
87.47212386733755
 20
71.62232867806565
 30
0.0
  0
VERTEX
  5
24F
330
23A
100
AcDbEntity
  8
Hidden (ANSI)
 48
0.0131979044526816
100
AcDbVertex
100
AcDb2dVertex
 10
87.46909013171684
 20
71.62268912190175
 30
0.0
  0
VERTEX
  5
250
330
23A
100
AcDbEntity
  8
Hidden (ANSI)
 48
0.0131979044526816
100
AcDbVertex
100
AcDb2dVertex
 10
87.46605639609615
 20
71.62298348436793
 30
0.0
  0
VERTEX
  5
251
330
23A
100
AcDbEntity
  8
Hidden (ANSI)
 48
0.0131979044526816
100
AcDbVertex
100
AcDb2dVertex
 10
87.46302866787273
 20
71.62321476916277
 30
0.0
  0
VERTEX
  5
252
330
23A
100
AcDbEntity
  8
Hidden (ANSI)
 48
0.0131979044526816
100
AcDbVertex
100
AcDb2dVertex
 10
87.45999493225204
 20
71.62338297628629
 30
0.0
  0
VERTEX
  5
253
330
23A
100
AcDbEntity
  8
Hidden (ANSI)
 48
0.0131979044526816
100
AcDbVertex
100
AcDb2dVertex
 10
87.45696119663135
 20
71.62348209834123
 30
0.0
  0
VERTEX
  5
254
330
23A
100
AcDbEntity
  8
Hidden (ANSI)
 48
0.0131979044526816
100
AcDbVertex
100
AcDb2dVertex
 10
87.45392746101064
 20
71.62351513902621
 30
0.0
  0
SEQEND
  5
23D
330
23A
100
AcDbEntity
  8
Hidden (ANSI)
 48
0.0131979044526816
  0
LINE
  5
255
330
6C
100
AcDbEntity
  8
Hidden (ANSI)
 48
0.0215442795306444
100
AcDbLine
 10
19.88070408644871
 20
71.62351566287121
 30
0.0
 11
19.88070408644871
 21
71.74851566287123
 31
0.0
  0
POLYLINE
  5
256
330
6C
100
AcDbEntity
  8
Hidden (ANSI)
 48
0.0131983496248722
100
AcDb2dPolyline
 66
     1
 10
0.0
 20
0.0
 30
0.0
 70
   128
  0
VERTEX
  5
257
330
256
100
AcDbEntity
  8
Hidden (ANSI)
 48
0.0131983496248722
100
AcDbVertex
100
AcDb2dVertex
 10
19.80791573911052
 20
71.60791693201803
 30
0.0
  0
VERTEX
  5
258
330
256
100
AcDbEntity
  8
Hidden (ANSI)
 48
0.0131983496248722
100
AcDbVertex
100
AcDb2dVertex
 10
19.81094858300818
 20
71.60893518585507
 30
0.0
  0
VERTEX
  5
25A
330
256
100
AcDbEntity
  8
Hidden (ANSI)
 48
0.0131983496248722
100
AcDbVertex
100
AcDb2dVertex
 10
19.81398143863905
 20
71.60995043599348
 30
0.0
  0
VERTEX
  5
25B
330
256
100
AcDbEntity
  8
Hidden (ANSI)
 48
0.0131983496248722
100
AcDbVertex
100
AcDb2dVertex
 10
19.81701428253671
 20
71.61095967873461
 30
0.0
  0
VERTEX
  5
25C
330
256
100
AcDbEntity
  8
Hidden (ANSI)
 48
0.0131983496248722
100
AcDbVertex
100
AcDb2dVertex
 10
19.82004712643437
 20
71.6119539029826
 30
0.0
  0
VERTEX
  5
25D
330
256
100
AcDbEntity
  8
Hidden (ANSI)
 48
0.0131983496248722
100
AcDbVertex
100
AcDb2dVertex
 10
19.82307998206523
 20
71.61293010503875
 30
0.0
  0
VERTEX
  5
25E
330
256
100
AcDbEntity
  8
Hidden (ANSI)
 48
0.0131983496248722
100
AcDbVertex
100
AcDb2dVertex
 10
19.82611282596289
 20
71.61388528120447
 30
0.0
  0
VERTEX
  5
25F
330
256
100
AcDbEntity
  8
Hidden (ANSI)
 48
0.0131983496248722
100
AcDbVertex
100
AcDb2dVertex
 10
19.82914566986055
 20
71.61481642778113
 30
0.0
  0
VERTEX
  5
260
330
256
100
AcDbEntity
  8
Hidden (ANSI)
 48
0.0131983496248722
100
AcDbVertex
100
AcDb2dVertex
 10
19.83217852549141
 20
71.6157145336728
 30
0.0
  0
VERTEX
  5
261
330
256
100
AcDbEntity
  8
Hidden (ANSI)
 48
0.0131983496248722
100
AcDbVertex
100
AcDb2dVertex
 10
19.83521136938907
 20
71.61658260257813
 30
0.0
  0
VERTEX
  5
262
330
256
100
AcDbEntity
  8
Hidden (ANSI)
 48
0.0131983496248722
100
AcDbVertex
100
AcDb2dVertex
 10
19.83824421328673
 20
71.61741162340121
 30
0.0
  0
VERTEX
  5
263
330
256
100
AcDbEntity
  8
Hidden (ANSI)
 48
0.0131983496248722
100
AcDbVertex
100
AcDb2dVertex
 10
19.84127706891759
 20
71.61820159614205
 30
0.0
  0
VERTEX
  5
264
330
256
100
AcDbEntity
  8
Hidden (ANSI)
 48
0.0131983496248722
100
AcDbVertex
100
AcDb2dVertex
 10
19.84430991281525
 20
71.61894651340337
 30
0.0
  0
VERTEX
  5
265
330
256
100
AcDbEntity
  8
Hidden (ANSI)
 48
0.0131983496248722
100
AcDbVertex
100
AcDb2dVertex
 10
19.84734275671291
 20
71.61964337148653
 30
0.0
  0
VERTEX
  5
266
330
256
100
AcDbEntity
  8
Hidden (ANSI)
 48
0.0131983496248722
100
AcDbVertex
100
AcDb2dVertex
 10
19.85037561234378
 20
71.62029217039155
 30
0.0
  0
VERTEX
  5
267
330
256
100
AcDbEntity
  8
Hidden (ANSI)
 48
0.0131983496248722
100
AcDbVertex
100
AcDb2dVertex
 10
19.85340845624144
 20
71.62088690272115
 30
0.0
  0
VERTEX
  5
268
330
256
100
AcDbEntity
  8
Hidden (ANSI)
 48
0.0131983496248722
100
AcDbVertex
100
AcDb2dVertex
 10
19.8564413001391
 20
71.62142456477671
 30
0.0
  0
VERTEX
  5
269
330
256
100
AcDbEntity
  8
Hidden (ANSI)
 48
0.0131983496248722
100
AcDbVertex
100
AcDb2dVertex
 10
19.85947415576996
 20
71.62190816025684
 30
0.0
  0
VERTEX
  5
26A
330
256
100
AcDbEntity
  8
Hidden (ANSI)
 48
0.0131983496248722
100
AcDbVertex
100
AcDb2dVertex
 10
19.86250699966763
 20
71.62232867806565
 30
0.0
  0
VERTEX
  5
26B
330
256
100
AcDbEntity
  8
Hidden (ANSI)
 48
0.0131983496248722
100
AcDbVertex
100
AcDb2dVertex
 10
19.86553985529848
 20
71.62268912190175
 30
0.0
  0
VERTEX
  5
26C
330
256
100
AcDbEntity
  8
Hidden (ANSI)
 48
0.0131983496248722
100
AcDbVertex
100
AcDb2dVertex
 10
19.86857269919614
 20
71.62298348436793
 30
0.0
  0
VERTEX
  5
26D
330
256
100
AcDbEntity
  8
Hidden (ANSI)
 48
0.0131983496248722
100
AcDbVertex
100
AcDb2dVertex
 10
19.87160554309381
 20
71.62321476916277
 30
0.0
  0
VERTEX
  5
26E
330
256
100
AcDbEntity
  8
Hidden (ANSI)
 48
0.0131983496248722
100
AcDbVertex
100
AcDb2dVertex
 10
19.87463838699147
 20
71.62338297628629
 30
0.0
  0
VERTEX
  5
26F
330
256
100
AcDbEntity
  8
Hidden (ANSI)
 48
0.0131983496248722
100
AcDbVertex
100
AcDb2dVertex
 10
19.87767123088913
 20
71.62348209834123
 30
0.0
  0
VERTEX
  5
270
330
256
100
AcDbEntity
  8
Hidden (ANSI)
 48
0.0131983496248722
100
AcDbVertex
100
AcDb2dVertex
 10
19.88070407478679
 20
71.62351513902621
 30
0.0
  0
SEQEND
  5
259
330
256
100
AcDbEntity
  8
Hidden (ANSI)
 48
0.0131983496248722
  0
LINE
  5
271
330
6C
100
AcDbEntity
  8
Hidden (ANSI)
 48
0.0215442795306444
100
AcDbLine
 10
19.79231573880038
 20
71.53512731522295
 30
0.0
 11
19.66731573880038
 21
71.53512731522295
 31
0.0
  0
POLYLINE
  5
272
330
6C
100
AcDbEntity
  8
Hidden (ANSI)
 48
0.0131984679028392
100
AcDb2dPolyline
 66
     1
 10
0.0
 20
0.0
 30
0.0
 70
   128
  0
VERTEX
  5
273
330
272
100
AcDbEntity
  8
Hidden (ANSI)
 48
0.0131984679028392
100
AcDbVertex
100
AcDb2dVertex
 10
19.80791573911052
 20
71.60791693201803
 30
0.0
  0
VERTEX
  5
274
330
272
100
AcDbEntity
  8
Hidden (ANSI)
 48
0.0131984679028392
100
AcDbVertex
100
AcDb2dVertex
 10
19.80689545543026
 20
71.60488319639734
 30
0.0
  0
VERTEX
  5
276
330
272
100
AcDbEntity
  8
Hidden (ANSI)
 48
0.0131984679028392
100
AcDbVertex
100
AcDb2dVertex
 10
19.80587952476638
 20
71.60184946077665
 30
0.0
  0
VERTEX
  5
277
330
272
100
AcDbEntity
  8
Hidden (ANSI)
 48
0.0131984679028392
100
AcDbVertex
100
AcDb2dVertex
 10
19.80487233533485
 20
71.59881572515594
 30
0.0
  0
VERTEX
  5
278
330
272
100
AcDbEntity
  8
Hidden (ANSI)
 48
0.0131984679028392
100
AcDbVertex
100
AcDb2dVertex
 10
19.80387815801967
 20
71.59578499323389
 30
0.0
  0
VERTEX
  5
279
330
272
100
AcDbEntity
  8
Hidden (ANSI)
 48
0.0131984679028392
100
AcDbVertex
100
AcDb2dVertex
 10
19.80290128717123
 20
71.59275125761318
 30
0.0
  0
VERTEX
  5
27A
330
272
100
AcDbEntity
  8
Hidden (ANSI)
 48
0.0131984679028392
100
AcDbVertex
100
AcDb2dVertex
 10
19.80194587634155
 20
71.58971752199251
 30
0.0
  0
VERTEX
  5
27B
330
272
100
AcDbEntity
  8
Hidden (ANSI)
 48
0.0131984679028392
100
AcDbVertex
100
AcDb2dVertex
 10
19.80101603214986
 20
71.58668679007044
 30
0.0
  0
VERTEX
  5
27C
330
272
100
AcDbEntity
  8
Hidden (ANSI)
 48
0.0131984679028392
100
AcDbVertex
100
AcDb2dVertex
 10
19.8001157438834
 20
71.58365305444974
 30
0.0
  0
VERTEX
  5
27D
330
272
100
AcDbEntity
  8
Hidden (ANSI)
 48
0.0131984679028392
100
AcDbVertex
100
AcDb2dVertex
 10
19.79924884829785
 20
71.58061931882905
 30
0.0
  0
VERTEX
  5
27E
330
272
100
AcDbEntity
  8
Hidden (ANSI)
 48
0.0131984679028392
100
AcDbVertex
100
AcDb2dVertex
 10
19.79841906481691
 20
71.57758858690698
 30
0.0
  0
VERTEX
  5
27F
330
272
100
AcDbEntity
  8
Hidden (ANSI)
 48
0.0131984679028392
100
AcDbVertex
100
AcDb2dVertex
 10
19.79762994859951
 20
71.57455485128631
 30
0.0
  0
VERTEX
  5
280
330
272
100
AcDbEntity
  8
Hidden (ANSI)
 48
0.0131984679028392
100
AcDbVertex
100
AcDb2dVertex
 10
19.79688487880663
 20
71.5715211156656
 30
0.0
  0
VERTEX
  5
281
330
272
100
AcDbEntity
  8
Hidden (ANSI)
 48
0.0131984679028392
100
AcDbVertex
100
AcDb2dVertex
 10
19.79618703513484
 20
71.5684873800449
 30
0.0
  0
VERTEX
  5
282
330
272
100
AcDbEntity
  8
Hidden (ANSI)
 48
0.0131984679028392
100
AcDbVertex
100
AcDb2dVertex
 10
19.7955394212828
 20
71.56545664812284
 30
0.0
  0
VERTEX
  5
283
330
272
100
AcDbEntity
  8
Hidden (ANSI)
 48
0.0131984679028392
100
AcDbVertex
100
AcDb2dVertex
 10
19.79494481801838
 20
71.56242291250215
 30
0.0
  0
VERTEX
  5
284
330
272
100
AcDbEntity
  8
Hidden (ANSI)
 48
0.0131984679028392
100
AcDbVertex
100
AcDb2dVertex
 10
19.79440574797909
 20
71.55938917688146
 30
0.0
  0
VERTEX
  5
285
330
272
100
AcDbEntity
  8
Hidden (ANSI)
 48
0.0131984679028392
100
AcDbVertex
100
AcDb2dVertex
 10
19.79392452260492
 20
71.5563584449594
 30
0.0
  0
VERTEX
  5
286
330
272
100
AcDbEntity
  8
Hidden (ANSI)
 48
0.0131984679028392
100
AcDbVertex
100
AcDb2dVertex
 10
19.79350321867185
 20
71.5533247093387
 30
0.0
  0
VERTEX
  5
287
330
272
100
AcDbEntity
  8
Hidden (ANSI)
 48
0.0131984679028392
100
AcDbVertex
100
AcDb2dVertex
 10
19.79314363135917
 20
71.55029097371802
 30
0.0
  0
VERTEX
  5
288
330
272
100
AcDbEntity
  8
Hidden (ANSI)
 48
0.0131984679028392
100
AcDbVertex
100
AcDb2dVertex
 10
19.79284729771578
 20
71.54725723809732
 30
0.0
  0
VERTEX
  5
289
330
272
100
AcDbEntity
  8
Hidden (ANSI)
 48
0.0131984679028392
100
AcDbVertex
100
AcDb2dVertex
 10
19.79261548492703
 20
71.54422650617526
 30
0.0
  0
VERTEX
  5
28A
330
272
100
AcDbEntity
  8
Hidden (ANSI)
 48
0.0131984679028392
100
AcDbVertex
100
AcDb2dVertex
 10
19.79244920204795
 20
71.54119277055457
 30
0.0
  0
VERTEX
  5
28B
330
272
100
AcDbEntity
  8
Hidden (ANSI)
 48
0.0131984679028392
100
AcDbVertex
100
AcDb2dVertex
 10
19.79234914133719
 20
71.53815903493387
 30
0.0
  0
VERTEX
  5
28C
330
272
100
AcDbEntity
  8
Hidden (ANSI)
 48
0.0131984679028392
100
AcDbVertex
100
AcDb2dVertex
 10
19.79231573692308
 20
71.53512830301181
 30
0.0
  0
SEQEND
  5
275
330
272
100
AcDbEntity
  8
Hidden (ANSI)
 48
0.0131984679028392
  0
LINE
  5
28D
330
6C
100
AcDbEntity
  8
Hidden (ANSI)
 48
0.0215442795306444
100
AcDbLine
 10
19.79231573880039
 20
41.08190401051957
 30
0.0
 11
19.66731573880039
 21
41.08190401051957
 31
0.0
  0
POLYLINE
  5
28E
330
6C
100
AcDbEntity
  8
Hidden (ANSI)
 48
0.0131984194740653
100
AcDb2dPolyline
 66
     1
 10
0.0
 20
0.0
 30
0.0
 70
   128
  0
VERTEX
  5
28F
330
28E
100
AcDbEntity
  8
Hidden (ANSI)
 48
0.0131984194740653
100
AcDbVertex
100
AcDb2dVertex
 10
19.80791573911052
 20
41.00911566318138
 30
0.0
  0
VERTEX
  5
290
330
28E
100
AcDbEntity
  8
Hidden (ANSI)
 48
0.0131984194740653
100
AcDbVertex
100
AcDb2dVertex
 10
19.80689545543026
 20
41.01214850707904
 30
0.0
  0
VERTEX
  5
292
330
28E
100
AcDbEntity
  8
Hidden (ANSI)
 48
0.0131984194740653
100
AcDbVertex
100
AcDb2dVertex
 10
19.80587952476638
 20
41.0151813627099
 30
0.0
  0
VERTEX
  5
293
330
28E
100
AcDbEntity
  8
Hidden (ANSI)
 48
0.0131984194740653
100
AcDbVertex
100
AcDb2dVertex
 10
19.80487233533485
 20
41.01821420660757
 30
0.0
  0
VERTEX
  5
294
330
28E
100
AcDbEntity
  8
Hidden (ANSI)
 48
0.0131984194740653
100
AcDbVertex
100
AcDb2dVertex
 10
19.80387815801967
 20
41.02124705050523
 30
0.0
  0
VERTEX
  5
295
330
28E
100
AcDbEntity
  8
Hidden (ANSI)
 48
0.0131984194740653
100
AcDbVertex
100
AcDb2dVertex
 10
19.80290128717123
 20
41.02427990613609
 30
0.0
  0
VERTEX
  5
296
330
28E
100
AcDbEntity
  8
Hidden (ANSI)
 48
0.0131984194740653
100
AcDbVertex
100
AcDb2dVertex
 10
19.80194587634155
 20
41.02731275003375
 30
0.0
  0
VERTEX
  5
297
330
28E
100
AcDbEntity
  8
Hidden (ANSI)
 48
0.0131984194740653
100
AcDbVertex
100
AcDb2dVertex
 10
19.80101603214986
 20
41.03034559393141
 30
0.0
  0
VERTEX
  5
298
330
28E
100
AcDbEntity
  8
Hidden (ANSI)
 48
0.0131984194740653
100
AcDbVertex
100
AcDb2dVertex
 10
19.8001157438834
 20
41.03337844956228
 30
0.0
  0
VERTEX
  5
299
330
28E
100
AcDbEntity
  8
Hidden (ANSI)
 48
0.0131984194740653
100
AcDbVertex
100
AcDb2dVertex
 10
19.79924884829785
 20
41.03641129345994
 30
0.0
  0
VERTEX
  5
29A
330
28E
100
AcDbEntity
  8
Hidden (ANSI)
 48
0.0131984194740653
100
AcDbVertex
100
AcDb2dVertex
 10
19.79841906481691
 20
41.03944413735759
 30
0.0
  0
VERTEX
  5
29B
330
28E
100
AcDbEntity
  8
Hidden (ANSI)
 48
0.0131984194740653
100
AcDbVertex
100
AcDb2dVertex
 10
19.79762994859951
 20
41.04247699298845
 30
0.0
  0
VERTEX
  5
29C
330
28E
100
AcDbEntity
  8
Hidden (ANSI)
 48
0.0131984194740653
100
AcDbVertex
100
AcDb2dVertex
 10
19.79688487880663
 20
41.04550983688612
 30
0.0
  0
VERTEX
  5
29D
330
28E
100
AcDbEntity
  8
Hidden (ANSI)
 48
0.0131984194740653
100
AcDbVertex
100
AcDb2dVertex
 10
19.79618703513484
 20
41.04854268078378
 30
0.0
  0
VERTEX
  5
29E
330
28E
100
AcDbEntity
  8
Hidden (ANSI)
 48
0.0131984194740653
100
AcDbVertex
100
AcDb2dVertex
 10
19.7955394212828
 20
41.05157553641464
 30
0.0
  0
VERTEX
  5
29F
330
28E
100
AcDbEntity
  8
Hidden (ANSI)
 48
0.0131984194740653
100
AcDbVertex
100
AcDb2dVertex
 10
19.79494481801838
 20
41.0546083803123
 30
0.0
  0
VERTEX
  5
2A0
330
28E
100
AcDbEntity
  8
Hidden (ANSI)
 48
0.0131984194740653
100
AcDbVertex
100
AcDb2dVertex
 10
19.79440574797909
 20
41.05764122420995
 30
0.0
  0
VERTEX
  5
2A1
330
28E
100
AcDbEntity
  8
Hidden (ANSI)
 48
0.0131984194740653
100
AcDbVertex
100
AcDb2dVertex
 10
19.79392452260492
 20
41.06067407984083
 30
0.0
  0
VERTEX
  5
2A2
330
28E
100
AcDbEntity
  8
Hidden (ANSI)
 48
0.0131984194740653
100
AcDbVertex
100
AcDb2dVertex
 10
19.79350321867185
 20
41.06370692373848
 30
0.0
  0
VERTEX
  5
2A3
330
28E
100
AcDbEntity
  8
Hidden (ANSI)
 48
0.0131984194740653
100
AcDbVertex
100
AcDb2dVertex
 10
19.79314363135917
 20
41.06673977936934
 30
0.0
  0
VERTEX
  5
2A4
330
28E
100
AcDbEntity
  8
Hidden (ANSI)
 48
0.0131984194740653
100
AcDbVertex
100
AcDb2dVertex
 10
19.79284729771578
 20
41.069772623267
 30
0.0
  0
VERTEX
  5
2A5
330
28E
100
AcDbEntity
  8
Hidden (ANSI)
 48
0.0131984194740653
100
AcDbVertex
100
AcDb2dVertex
 10
19.79261548492703
 20
41.07280546716467
 30
0.0
  0
VERTEX
  5
2A6
330
28E
100
AcDbEntity
  8
Hidden (ANSI)
 48
0.0131984194740653
100
AcDbVertex
100
AcDb2dVertex
 10
19.79244920204795
 20
41.07583831106233
 30
0.0
  0
VERTEX
  5
2A7
330
28E
100
AcDbEntity
  8
Hidden (ANSI)
 48
0.0131984194740653
100
AcDbVertex
100
AcDb2dVertex
 10
19.79234914133719
 20
41.07887115495999
 30
0.0
  0
VERTEX
  5
2A8
330
28E
100
AcDbEntity
  8
Hidden (ANSI)
 48
0.0131984194740653
100
AcDbVertex
100
AcDb2dVertex
 10
19.79231573692308
 20
41.08190399885765
 30
0.0
  0
SEQEND
  5
291
330
28E
100
AcDbEntity
  8
Hidden (ANSI)
 48
0.0131984194740653
  0
LINE
  5
2A9
330
6C
100
AcDbEntity
  8
Hidden (ANSI)
 48
0.0215442795306444
100
AcDbLine
 10
19.88070408644871
 20
40.99351566287126
 30
0.0
 11
19.88070408644871
 21
40.86851566287125
 31
0.0
  0
POLYLINE
  5
2AA
330
6C
100
AcDbEntity
  8
Hidden (ANSI)
 48
0.0131984194740653
100
AcDb2dPolyline
 66
     1
 10
0.0
 20
0.0
 30
0.0
 70
   128
  0
VERTEX
  5
2AB
330
2AA
100
AcDbEntity
  8
Hidden (ANSI)
 48
0.0131984194740653
100
AcDbVertex
100
AcDb2dVertex
 10
19.80791573911052
 20
41.00911566318138
 30
0.0
  0
VERTEX
  5
2AC
330
2AA
100
AcDbEntity
  8
Hidden (ANSI)
 48
0.0131984194740653
100
AcDbVertex
100
AcDb2dVertex
 10
19.81094858300818
 20
41.00809537950112
 30
0.0
  0
VERTEX
  5
2AE
330
2AA
100
AcDbEntity
  8
Hidden (ANSI)
 48
0.0131984194740653
100
AcDbVertex
100
AcDb2dVertex
 10
19.81398143863905
 20
41.00707944883724
 30
0.0
  0
VERTEX
  5
2AF
330
2AA
100
AcDbEntity
  8
Hidden (ANSI)
 48
0.0131984194740653
100
AcDbVertex
100
AcDb2dVertex
 10
19.81701428253671
 20
41.00607225940572
 30
0.0
  0
VERTEX
  5
2B0
330
2AA
100
AcDbEntity
  8
Hidden (ANSI)
 48
0.0131984194740653
100
AcDbVertex
100
AcDb2dVertex
 10
19.82004712643437
 20
41.00507808209053
 30
0.0
  0
VERTEX
  5
2B1
330
2AA
100
AcDbEntity
  8
Hidden (ANSI)
 48
0.0131984194740653
100
AcDbVertex
100
AcDb2dVertex
 10
19.82307998206523
 20
41.00410121124209
 30
0.0
  0
VERTEX
  5
2B2
330
2AA
100
AcDbEntity
  8
Hidden (ANSI)
 48
0.0131984194740653
100
AcDbVertex
100
AcDb2dVertex
 10
19.82611282596289
 20
41.00314580041241
 30
0.0
  0
VERTEX
  5
2B3
330
2AA
100
AcDbEntity
  8
Hidden (ANSI)
 48
0.0131984194740653
100
AcDbVertex
100
AcDb2dVertex
 10
19.82914566986055
 20
41.00221595622072
 30
0.0
  0
VERTEX
  5
2B4
330
2AA
100
AcDbEntity
  8
Hidden (ANSI)
 48
0.0131984194740653
100
AcDbVertex
100
AcDb2dVertex
 10
19.83217852549141
 20
41.00131566795426
 30
0.0
  0
VERTEX
  5
2B5
330
2AA
100
AcDbEntity
  8
Hidden (ANSI)
 48
0.0131984194740653
100
AcDbVertex
100
AcDb2dVertex
 10
19.83521136938907
 20
41.00044877236871
 30
0.0
  0
VERTEX
  5
2B6
330
2AA
100
AcDbEntity
  8
Hidden (ANSI)
 48
0.0131984194740653
100
AcDbVertex
100
AcDb2dVertex
 10
19.83824421328673
 20
40.99961898888778
 30
0.0
  0
VERTEX
  5
2B7
330
2AA
100
AcDbEntity
  8
Hidden (ANSI)
 48
0.0131984194740653
100
AcDbVertex
100
AcDb2dVertex
 10
19.84127706891759
 20
40.99882987267038
 30
0.0
  0
VERTEX
  5
2B8
330
2AA
100
AcDbEntity
  8
Hidden (ANSI)
 48
0.0131984194740653
100
AcDbVertex
100
AcDb2dVertex
 10
19.84430991281525
 20
40.99808480287749
 30
0.0
  0
VERTEX
  5
2B9
330
2AA
100
AcDbEntity
  8
Hidden (ANSI)
 48
0.0131984194740653
100
AcDbVertex
100
AcDb2dVertex
 10
19.84734275671291
 20
40.9973869592057
 30
0.0
  0
VERTEX
  5
2BA
330
2AA
100
AcDbEntity
  8
Hidden (ANSI)
 48
0.0131984194740653
100
AcDbVertex
100
AcDb2dVertex
 10
19.85037561234378
 20
40.99673934535366
 30
0.0
  0
VERTEX
  5
2BB
330
2AA
100
AcDbEntity
  8
Hidden (ANSI)
 48
0.0131984194740653
100
AcDbVertex
100
AcDb2dVertex
 10
19.85340845624144
 20
40.99614474208923
 30
0.0
  0
VERTEX
  5
2BC
330
2AA
100
AcDbEntity
  8
Hidden (ANSI)
 48
0.0131984194740653
100
AcDbVertex
100
AcDb2dVertex
 10
19.8564413001391
 20
40.99560567204996
 30
0.0
  0
VERTEX
  5
2BD
330
2AA
100
AcDbEntity
  8
Hidden (ANSI)
 48
0.0131984194740653
100
AcDbVertex
100
AcDb2dVertex
 10
19.85947415576996
 20
40.99512444667578
 30
0.0
  0
VERTEX
  5
2BE
330
2AA
100
AcDbEntity
  8
Hidden (ANSI)
 48
0.0131984194740653
100
AcDbVertex
100
AcDb2dVertex
 10
19.86250699966763
 20
40.99470314274272
 30
0.0
  0
VERTEX
  5
2BF
330
2AA
100
AcDbEntity
  8
Hidden (ANSI)
 48
0.0131984194740653
100
AcDbVertex
100
AcDb2dVertex
 10
19.86553985529848
 20
40.99434355543003
 30
0.0
  0
VERTEX
  5
2C0
330
2AA
100
AcDbEntity
  8
Hidden (ANSI)
 48
0.0131984194740653
100
AcDbVertex
100
AcDb2dVertex
 10
19.86857269919614
 20
40.99404722178664
 30
0.0
  0
VERTEX
  5
2C1
330
2AA
100
AcDbEntity
  8
Hidden (ANSI)
 48
0.0131984194740653
100
AcDbVertex
100
AcDb2dVertex
 10
19.87160554309381
 20
40.9938154089979
 30
0.0
  0
VERTEX
  5
2C2
330
2AA
100
AcDbEntity
  8
Hidden (ANSI)
 48
0.0131984194740653
100
AcDbVertex
100
AcDb2dVertex
 10
19.87463838699147
 20
40.99364912611881
 30
0.0
  0
VERTEX
  5
2C3
330
2AA
100
AcDbEntity
  8
Hidden (ANSI)
 48
0.0131984194740653
100
AcDbVertex
100
AcDb2dVertex
 10
19.87767123088913
 20
40.99354906540805
 30
0.0
  0
VERTEX
  5
2C4
330
2AA
100
AcDbEntity
  8
Hidden (ANSI)
 48
0.0131984194740653
100
AcDbVertex
100
AcDb2dVertex
 10
19.88070407478679
 20
40.99351566099395
 30
0.0
  0
SEQEND
  5
2AD
330
2AA
100
AcDbEntity
  8
Hidden (ANSI)
 48
0.0131984194740653
  0
LINE
  5
2C5
330
6C
100
AcDbEntity
  8
Hidden (ANSI)
 48
0.0215442795306444
100
AcDbLine
 10
87.45392739115205
 20
40.99351566287126
 30
0.0
 11
87.45392739115205
 21
40.86851566287125
 31
0.0
  0
POLYLINE
  5
2C6
330
6C
100
AcDbEntity
  8
Hidden (ANSI)
 48
0.0131979743018747
100
AcDb2dPolyline
 66
     1
 10
0.0
 20
0.0
 30
0.0
 70
   128
  0
VERTEX
  5
2C7
330
2C6
100
AcDbEntity
  8
Hidden (ANSI)
 48
0.0131979743018747
100
AcDbVertex
100
AcDb2dVertex
 10
87.52671308631823
 20
41.00911566318138
 30
0.0
  0
VERTEX
  5
2C8
330
2C6
100
AcDbEntity
  8
Hidden (ANSI)
 48
0.0131979743018747
100
AcDbVertex
100
AcDb2dVertex
 10
87.52368535809479
 20
41.00809537950112
 30
0.0
  0
VERTEX
  5
2CA
330
2C6
100
AcDbEntity
  8
Hidden (ANSI)
 48
0.0131979743018747
100
AcDbVertex
100
AcDb2dVertex
 10
87.52065162247411
 20
41.00707944883724
 30
0.0
  0
VERTEX
  5
2CB
330
2C6
100
AcDbEntity
  8
Hidden (ANSI)
 48
0.0131979743018747
100
AcDbVertex
100
AcDb2dVertex
 10
87.51761788685341
 20
41.00607225940572
 30
0.0
  0
VERTEX
  5
2CC
330
2C6
100
AcDbEntity
  8
Hidden (ANSI)
 48
0.0131979743018747
100
AcDbVertex
100
AcDb2dVertex
 10
87.51458415123272
 20
41.00507808209053
 30
0.0
  0
VERTEX
  5
2CD
330
2C6
100
AcDbEntity
  8
Hidden (ANSI)
 48
0.0131979743018747
100
AcDbVertex
100
AcDb2dVertex
 10
87.51155041561203
 20
41.00410121124209
 30
0.0
  0
VERTEX
  5
2CE
330
2C6
100
AcDbEntity
  8
Hidden (ANSI)
 48
0.0131979743018747
100
AcDbVertex
100
AcDb2dVertex
 10
87.50851667999132
 20
41.00314580041241
 30
0.0
  0
VERTEX
  5
2CF
330
2C6
100
AcDbEntity
  8
Hidden (ANSI)
 48
0.0131979743018747
100
AcDbVertex
100
AcDb2dVertex
 10
87.50548294437065
 20
41.00221595622072
 30
0.0
  0
VERTEX
  5
2D0
330
2C6
100
AcDbEntity
  8
Hidden (ANSI)
 48
0.0131979743018747
100
AcDbVertex
100
AcDb2dVertex
 10
87.5024552161472
 20
41.00131566795426
 30
0.0
  0
VERTEX
  5
2D1
330
2C6
100
AcDbEntity
  8
Hidden (ANSI)
 48
0.0131979743018747
100
AcDbVertex
100
AcDb2dVertex
 10
87.49942148052651
 20
41.00044877236871
 30
0.0
  0
VERTEX
  5
2D2
330
2C6
100
AcDbEntity
  8
Hidden (ANSI)
 48
0.0131979743018747
100
AcDbVertex
100
AcDb2dVertex
 10
87.49638774490582
 20
40.99961898888778
 30
0.0
  0
VERTEX
  5
2D3
330
2C6
100
AcDbEntity
  8
Hidden (ANSI)
 48
0.0131979743018747
100
AcDbVertex
100
AcDb2dVertex
 10
87.49335400928513
 20
40.99882987267038
 30
0.0
  0
VERTEX
  5
2D4
330
2C6
100
AcDbEntity
  8
Hidden (ANSI)
 48
0.0131979743018747
100
AcDbVertex
100
AcDb2dVertex
 10
87.49032027366444
 20
40.99808480287749
 30
0.0
  0
VERTEX
  5
2D5
330
2C6
100
AcDbEntity
  8
Hidden (ANSI)
 48
0.0131979743018747
100
AcDbVertex
100
AcDb2dVertex
 10
87.48728653804375
 20
40.9973869592057
 30
0.0
  0
VERTEX
  5
2D6
330
2C6
100
AcDbEntity
  8
Hidden (ANSI)
 48
0.0131979743018747
100
AcDbVertex
100
AcDb2dVertex
 10
87.48425880982031
 20
40.99673934535366
 30
0.0
  0
VERTEX
  5
2D7
330
2C6
100
AcDbEntity
  8
Hidden (ANSI)
 48
0.0131979743018747
100
AcDbVertex
100
AcDb2dVertex
 10
87.48122507419962
 20
40.99614474208923
 30
0.0
  0
VERTEX
  5
2D8
330
2C6
100
AcDbEntity
  8
Hidden (ANSI)
 48
0.0131979743018747
100
AcDbVertex
100
AcDb2dVertex
 10
87.47819133857893
 20
40.99560567204996
 30
0.0
  0
VERTEX
  5
2D9
330
2C6
100
AcDbEntity
  8
Hidden (ANSI)
 48
0.0131979743018747
100
AcDbVertex
100
AcDb2dVertex
 10
87.47515760295824
 20
40.99512444667578
 30
0.0
  0
VERTEX
  5
2DA
330
2C6
100
AcDbEntity
  8
Hidden (ANSI)
 48
0.0131979743018747
100
AcDbVertex
100
AcDb2dVertex
 10
87.47212386733755
 20
40.99470314274272
 30
0.0
  0
VERTEX
  5
2DB
330
2C6
100
AcDbEntity
  8
Hidden (ANSI)
 48
0.0131979743018747
100
AcDbVertex
100
AcDb2dVertex
 10
87.46909013171684
 20
40.99434355543003
 30
0.0
  0
VERTEX
  5
2DC
330
2C6
100
AcDbEntity
  8
Hidden (ANSI)
 48
0.0131979743018747
100
AcDbVertex
100
AcDb2dVertex
 10
87.46605639609615
 20
40.99404722178664
 30
0.0
  0
VERTEX
  5
2DD
330
2C6
100
AcDbEntity
  8
Hidden (ANSI)
 48
0.0131979743018747
100
AcDbVertex
100
AcDb2dVertex
 10
87.46302866787273
 20
40.9938154089979
 30
0.0
  0
VERTEX
  5
2DE
330
2C6
100
AcDbEntity
  8
Hidden (ANSI)
 48
0.0131979743018747
100
AcDbVertex
100
AcDb2dVertex
 10
87.45999493225204
 20
40.99364912611881
 30
0.0
  0
VERTEX
  5
2DF
330
2C6
100
AcDbEntity
  8
Hidden (ANSI)
 48
0.0131979743018747
100
AcDbVertex
100
AcDb2dVertex
 10
87.45696119663135
 20
40.99354906540805
 30
0.0
  0
VERTEX
  5
2E0
330
2C6
100
AcDbEntity
  8
Hidden (ANSI)
 48
0.0131979743018747
100
AcDbVertex
100
AcDb2dVertex
 10
87.45392746101064
 20
40.99351566099395
 30
0.0
  0
SEQEND
  5
2C9
330
2C6
100
AcDbEntity
  8
Hidden (ANSI)
 48
0.0131979743018747
  0
MTEXT
  5
2E2
330
6C
100
AcDbEntity
  8
Symbol (ANSI)
100
AcDbMText
 10
48.73826004741051
 20
35.72838171782808
 30
0.0
 40
1.320000016313838
 41
0.0
 46
0.0
 71
     7
 72
     1
  1
FRONT VIEW
  7
Text Style153
 73
     1
 44
1.0
  0
LINE
  5
2E4
330
6C
100
AcDbEntity
  8
Symbol (ANSI)
370
    30
100
AcDbLine
 10
48.60625970785825
 20
35.45919370670429
 30
0.0
 11
59.2186747550007
 21
35.45919370670429
 31
0.0
  0
POLYLINE
  5
2E5
330
6C
100
AcDbEntity
  8
Visible (ANSI)
100
AcDb2dPolyline
 66
     1
 10
0.0
 20
0.0
 30
0.0
 70
   128
  0
VERTEX
  5
2E6
330
2E5
100
AcDbEntity
  8
Visible (ANSI)
100
AcDbVertex
100
AcDb2dVertex
 10
108.0079345194333
 20
71.60791693201803
 30
0.0
  0
VERTEX
  5
2E7
330
2E5
100
AcDbEntity
  8
Visible (ANSI)
100
AcDbVertex
100
AcDb2dVertex
 10
108.0082355580891
 20
71.60488319639734
 30
0.0
  0
VERTEX
  5
2E9
330
2E5
100
AcDbEntity
  8
Visible (ANSI)
100
AcDbVertex
100
AcDb2dVertex
 10
108.0091373716712
 20
71.60184946077665
 30
0.0
  0
VERTEX
  5
2EA
330
2E5
100
AcDbEntity
  8
Visible (ANSI)
100
AcDbVertex
100
AcDb2dVertex
 10
108.010636111691
 20
71.59881572515594
 30
0.0
  0
VERTEX
  5
2EB
330
2E5
100
AcDbEntity
  8
Visible (ANSI)
100
AcDbVertex
100
AcDb2dVertex
 10
108.012725348356
 20
71.59578499323389
 30
0.0
  0
VERTEX
  5
2EC
330
2E5
100
AcDbEntity
  8
Visible (ANSI)
100
AcDbVertex
100
AcDb2dVertex
 10
108.0153961409694
 20
71.59275125761318
 30
0.0
  0
VERTEX
  5
2ED
330
2E5
100
AcDbEntity
  8
Visible (ANSI)
100
AcDbVertex
100
AcDb2dVertex
 10
108.0186370496635
 20
71.58971752199251
 30
0.0
  0
VERTEX
  5
2EE
330
2E5
100
AcDbEntity
  8
Visible (ANSI)
100
AcDbVertex
100
AcDb2dVertex
 10
108.0224342057984
 20
71.58668679007044
 30
0.0
  0
VERTEX
  5
2EF
330
2E5
100
AcDbEntity
  8
Visible (ANSI)
100
AcDbVertex
100
AcDb2dVertex
 10
108.026771347162
 20
71.58365305444974
 30
0.0
  0
VERTEX
  5
2F0
330
2E5
100
AcDbEntity
  8
Visible (ANSI)
100
AcDbVertex
100
AcDb2dVertex
 10
108.0316298883691
 20
71.58061931882905
 30
0.0
  0
VERTEX
  5
2F1
330
2E5
100
AcDbEntity
  8
Visible (ANSI)
100
AcDbVertex
100
AcDb2dVertex
 10
108.0369890381931
 20
71.57758858690698
 30
0.0
  0
VERTEX
  5
2F2
330
2E5
100
AcDbEntity
  8
Visible (ANSI)
100
AcDbVertex
100
AcDb2dVertex
 10
108.0428258406325
 20
71.57455485128631
 30
0.0
  0
VERTEX
  5
2F3
330
2E5
100
AcDbEntity
  8
Visible (ANSI)
100
AcDbVertex
100
AcDb2dVertex
 10
108.0491153039761
 20
71.5715211156656
 30
0.0
  0
VERTEX
  5
2F4
330
2E5
100
AcDbEntity
  8
Visible (ANSI)
100
AcDbVertex
100
AcDb2dVertex
 10
108.0558304946683
 20
71.5684873800449
 30
0.0
  0
VERTEX
  5
2F5
330
2E5
100
AcDbEntity
  8
Visible (ANSI)
100
AcDbVertex
100
AcDb2dVertex
 10
108.062942660508
 20
71.56545664812284
 30
0.0
  0
VERTEX
  5
2F6
330
2E5
100
AcDbEntity
  8
Visible (ANSI)
100
AcDbVertex
100
AcDb2dVertex
 10
108.0704213421136
 20
71.56242291250215
 30
0.0
  0
VERTEX
  5
2F7
330
2E5
100
AcDbEntity
  8
Visible (ANSI)
100
AcDbVertex
100
AcDb2dVertex
 10
108.0782345195885
 20
71.55938917688146
 30
0.0
  0
VERTEX
  5
2F8
330
2E5
100
AcDbEntity
  8
Visible (ANSI)
100
AcDbVertex
100
AcDb2dVertex
 10
108.0863487269191
 20
71.5563584449594
 30
0.0
  0
VERTEX
  5
2F9
330
2E5
100
AcDbEntity
  8
Visible (ANSI)
100
AcDbVertex
100
AcDb2dVertex
 10
108.0947292279735
 20
71.5533247093387
 30
0.0
  0
VERTEX
  5
2FA
330
2E5
100
AcDbEntity
  8
Visible (ANSI)
100
AcDbVertex
100
AcDb2dVertex
 10
108.1033401279663
 20
71.55029097371802
 30
0.0
  0
VERTEX
  5
2FB
330
2E5
100
AcDbEntity
  8
Visible (ANSI)
100
AcDbVertex
100
AcDb2dVertex
 10
108.1121445597235
 20
71.54725723809732
 30
0.0
  0
VERTEX
  5
2FC
330
2E5
100
AcDbEntity
  8
Visible (ANSI)
100
AcDbVertex
100
AcDb2dVertex
 10
108.1211048186138
 20
71.54422650617526
 30
0.0
  0
VERTEX
  5
2FD
330
2E5
100
AcDbEntity
  8
Visible (ANSI)
100
AcDbVertex
100
AcDb2dVertex
 10
108.1301825348805
 20
71.54119277055457
 30
0.0
  0
VERTEX
  5
2FE
330
2E5
100
AcDbEntity
  8
Visible (ANSI)
100
AcDbVertex
100
AcDb2dVertex
 10
108.1393388379061
 20
71.53815903493387
 30
0.0
  0
VERTEX
  5
2FF
330
2E5
100
AcDbEntity
  8
Visible (ANSI)
100
AcDbVertex
100
AcDb2dVertex
 10
108.1485345182769
 20
71.53512830301181
 30
0.0
  0
SEQEND
  5
2E8
330
2E5
100
AcDbEntity
  8
Visible (ANSI)
  0
POLYLINE
  5
300
330
6C
100
AcDbEntity
  8
Visible (ANSI)
100
AcDb2dPolyline
 66
     1
 10
0.0
 20
0.0
 30
0.0
 70
   128
  0
VERTEX
  5
301
330
300
100
AcDbEntity
  8
Visible (ANSI)
100
AcDbVertex
100
AcDb2dVertex
 10
108.1485345182769
 20
41.08190399885765
 30
0.0
  0
VERTEX
  5
302
330
300
100
AcDbEntity
  8
Visible (ANSI)
100
AcDbVertex
100
AcDb2dVertex
 10
108.1393388379061
 20
41.07887115495999
 30
0.0
  0
VERTEX
  5
304
330
300
100
AcDbEntity
  8
Visible (ANSI)
100
AcDbVertex
100
AcDb2dVertex
 10
108.1301825348805
 20
41.07583831106233
 30
0.0
  0
VERTEX
  5
305
330
300
100
AcDbEntity
  8
Visible (ANSI)
100
AcDbVertex
100
AcDb2dVertex
 10
108.1211048186138
 20
41.07280546716467
 30
0.0
  0
VERTEX
  5
306
330
300
100
AcDbEntity
  8
Visible (ANSI)
100
AcDbVertex
100
AcDb2dVertex
 10
108.1121445597235
 20
41.069772623267
 30
0.0
  0
VERTEX
  5
307
330
300
100
AcDbEntity
  8
Visible (ANSI)
100
AcDbVertex
100
AcDb2dVertex
 10
108.1033401279663
 20
41.06673977936934
 30
0.0
  0
VERTEX
  5
308
330
300
100
AcDbEntity
  8
Visible (ANSI)
100
AcDbVertex
100
AcDb2dVertex
 10
108.0947292279735
 20
41.06370692373848
 30
0.0
  0
VERTEX
  5
309
330
300
100
AcDbEntity
  8
Visible (ANSI)
100
AcDbVertex
100
AcDb2dVertex
 10
108.0863487269191
 20
41.06067407984083
 30
0.0
  0
VERTEX
  5
30A
330
300
100
AcDbEntity
  8
Visible (ANSI)
100
AcDbVertex
100
AcDb2dVertex
 10
108.0782345195885
 20
41.05764122420995
 30
0.0
  0
VERTEX
  5
30B
330
300
100
AcDbEntity
  8
Visible (ANSI)
100
AcDbVertex
100
AcDb2dVertex
 10
108.0704213421136
 20
41.0546083803123
 30
0.0
  0
VERTEX
  5
30C
330
300
100
AcDbEntity
  8
Visible (ANSI)
100
AcDbVertex
100
AcDb2dVertex
 10
108.062942660508
 20
41.05157553641464
 30
0.0
  0
VERTEX
  5
30D
330
300
100
AcDbEntity
  8
Visible (ANSI)
100
AcDbVertex
100
AcDb2dVertex
 10
108.0558304946683
 20
41.04854268078378
 30
0.0
  0
VERTEX
  5
30E
330
300
100
AcDbEntity
  8
Visible (ANSI)
100
AcDbVertex
100
AcDb2dVertex
 10
108.0491153039761
 20
41.04550983688612
 30
0.0
  0
VERTEX
  5
30F
330
300
100
AcDbEntity
  8
Visible (ANSI)
100
AcDbVertex
100
AcDb2dVertex
 10
108.0428258406325
 20
41.04247699298845
 30
0.0
  0
VERTEX
  5
310
330
300
100
AcDbEntity
  8
Visible (ANSI)
100
AcDbVertex
100
AcDb2dVertex
 10
108.0369890381931
 20
41.03944413735759
 30
0.0
  0
VERTEX
  5
311
330
300
100
AcDbEntity
  8
Visible (ANSI)
100
AcDbVertex
100
AcDb2dVertex
 10
108.0316298883691
 20
41.03641129345994
 30
0.0
  0
VERTEX
  5
312
330
300
100
AcDbEntity
  8
Visible (ANSI)
100
AcDbVertex
100
AcDb2dVertex
 10
108.026771347162
 20
41.03337844956228
 30
0.0
  0
VERTEX
  5
313
330
300
100
AcDbEntity
  8
Visible (ANSI)
100
AcDbVertex
100
AcDb2dVertex
 10
108.0224342057984
 20
41.03034559393141
 30
0.0
  0
VERTEX
  5
314
330
300
100
AcDbEntity
  8
Visible (ANSI)
100
AcDbVertex
100
AcDb2dVertex
 10
108.0186370496635
 20
41.02731275003375
 30
0.0
  0
VERTEX
  5
315
330
300
100
AcDbEntity
  8
Visible (ANSI)
100
AcDbVertex
100
AcDb2dVertex
 10
108.0153961409694
 20
41.02427990613609
 30
0.0
  0
VERTEX
  5
316
330
300
100
AcDbEntity
  8
Visible (ANSI)
100
AcDbVertex
100
AcDb2dVertex
 10
108.012725348356
 20
41.02124705050523
 30
0.0
  0
VERTEX
  5
317
330
300
100
AcDbEntity
  8
Visible (ANSI)
100
AcDbVertex
100
AcDb2dVertex
 10
108.010636111691
 20
41.01821420660757
 30
0.0
  0
VERTEX
  5
318
330
300
100
AcDbEntity
  8
Visible (ANSI)
100
AcDbVertex
100
AcDb2dVertex
 10
108.0091373716712
 20
41.0151813627099
 30
0.0
  0
VERTEX
  5
319
330
300
100
AcDbEntity
  8
Visible (ANSI)
100
AcDbVertex
100
AcDb2dVertex
 10
108.0082355580891
 20
41.01214850707904
 30
0.0
  0
VERTEX
  5
31A
330
300
100
AcDbEntity
  8
Visible (ANSI)
100
AcDbVertex
100
AcDb2dVertex
 10
108.0079345194333
 20
41.00911566318138
 30
0.0
  0
SEQEND
  5
303
330
300
100
AcDbEntity
  8
Visible (ANSI)
  0
LINE
  5
31B
330
6C
100
AcDbEntity
  8
Visible (ANSI)
100
AcDbLine
 10
108.8829345175561
 20
41.08190401051957
 30
0.0
 11
108.1485345175561
 21
41.08190401051957
 31
0.0
  0
LINE
  5
31C
330
6C
100
AcDbEntity
  8
Visible (ANSI)
100
AcDbLine
 10
108.1021960162452
 20
41.00911566287125
 30
0.0
 11
108.007934517556
 21
41.00911566287125
 31
0.0
  0
LINE
  5
31D
330
6C
100
AcDbEntity
  8
Visible (ANSI)
100
AcDbLine
 10
108.1329345175561
 20
41.00911566287125
 30
0.0
 11
108.1021960162452
 21
41.00911566287125
 31
0.0
  0
POLYLINE
  5
31E
330
6C
100
AcDbEntity
  8
Visible (ANSI)
100
AcDb2dPolyline
 66
     1
 10
0.0
 20
0.0
 30
0.0
 70
   128
  0
VERTEX
  5
31F
330
31E
100
AcDbEntity
  8
Visible (ANSI)
100
AcDbVertex
100
AcDb2dVertex
 10
108.1329345175561
 20
41.00911566318138
 30
0.0
  0
VERTEX
  5
320
330
31E
100
AcDbEntity
  8
Visible (ANSI)
100
AcDbVertex
100
AcDb2dVertex
 10
108.1329679183522
 20
41.01214850707904
 30
0.0
  0
VERTEX
  5
322
330
31E
100
AcDbEntity
  8
Visible (ANSI)
100
AcDbVertex
100
AcDb2dVertex
 10
108.1330679777195
 20
41.0151813627099
 30
0.0
  0
VERTEX
  5
323
330
31E
100
AcDbEntity
  8
Visible (ANSI)
100
AcDbVertex
100
AcDb2dVertex
 10
108.1332342671871
 20
41.01821420660757
 30
0.0
  0
VERTEX
  5
324
330
31E
100
AcDbEntity
  8
Visible (ANSI)
100
AcDbVertex
100
AcDb2dVertex
 10
108.1334660746821
 20
41.02124705050523
 30
0.0
  0
VERTEX
  5
325
330
31E
100
AcDbEntity
  8
Visible (ANSI)
100
AcDbVertex
100
AcDb2dVertex
 10
108.1337624075005
 20
41.02427990613609
 30
0.0
  0
VERTEX
  5
326
330
31E
100
AcDbEntity
  8
Visible (ANSI)
100
AcDbVertex
100
AcDb2dVertex
 10
108.1341219968299
 20
41.02731275003375
 30
0.0
  0
VERTEX
  5
327
330
31E
100
AcDbEntity
  8
Visible (ANSI)
100
AcDbVertex
100
AcDb2dVertex
 10
108.1345433028712
 20
41.03034559393141
 30
0.0
  0
VERTEX
  5
328
330
31E
100
AcDbEntity
  8
Visible (ANSI)
100
AcDbVertex
100
AcDb2dVertex
 10
108.1350245212788
 20
41.03337844956228
 30
0.0
  0
VERTEX
  5
329
330
31E
100
AcDbEntity
  8
Visible (ANSI)
100
AcDbVertex
100
AcDb2dVertex
 10
108.1355635916847
 20
41.03641129345994
 30
0.0
  0
VERTEX
  5
32A
330
31E
100
AcDbEntity
  8
Visible (ANSI)
100
AcDbVertex
100
AcDb2dVertex
 10
108.1361582055824
 20
41.03944413735759
 30
0.0
  0
VERTEX
  5
32B
330
31E
100
AcDbEntity
  8
Visible (ANSI)
100
AcDbVertex
100
AcDb2dVertex
 10
108.1368058165011
 20
41.04247699298845
 30
0.0
  0
VERTEX
  5
32C
330
31E
100
AcDbEntity
  8
Visible (ANSI)
100
AcDbVertex
100
AcDb2dVertex
 10
108.1375036517397
 20
41.04550983688612
 30
0.0
  0
VERTEX
  5
32D
330
31E
100
AcDbEntity
  8
Visible (ANSI)
100
AcDbVertex
100
AcDb2dVertex
 10
108.1382487229992
 20
41.04854268078378
 30
0.0
  0
VERTEX
  5
32E
330
31E
100
AcDbEntity
  8
Visible (ANSI)
100
AcDbVertex
100
AcDb2dVertex
 10
108.1390378392166
 20
41.05157553641464
 30
0.0
  0
VERTEX
  5
32F
330
31E
100
AcDbEntity
  8
Visible (ANSI)
100
AcDbVertex
100
AcDb2dVertex
 10
108.1398676215976
 20
41.0546083803123
 30
0.0
  0
VERTEX
  5
330
330
31E
100
AcDbEntity
  8
Visible (ANSI)
100
AcDbVertex
100
AcDb2dVertex
 10
108.1407345179164
 20
41.05764122420995
 30
0.0
  0
VERTEX
  5
331
330
31E
100
AcDbEntity
  8
Visible (ANSI)
100
AcDbVertex
100
AcDb2dVertex
 10
108.1416348142495
 20
41.06067407984083
 30
0.0
  0
VERTEX
  5
332
330
31E
100
AcDbEntity
  8
Visible (ANSI)
100
AcDbVertex
100
AcDb2dVertex
 10
108.1425646562412
 20
41.06370692373848
 30
0.0
  0
VERTEX
  5
333
330
31E
100
AcDbEntity
  8
Visible (ANSI)
100
AcDbVertex
100
AcDb2dVertex
 10
108.1435200619376
 20
41.06673977936934
 30
0.0
  0
VERTEX
  5
334
330
31E
100
AcDbEntity
  8
Visible (ANSI)
100
AcDbVertex
100
AcDb2dVertex
 10
108.1444969401193
 20
41.069772623267
 30
0.0
  0
VERTEX
  5
335
330
31E
100
AcDbEntity
  8
Visible (ANSI)
100
AcDbVertex
100
AcDb2dVertex
 10
108.1454911086346
 20
41.07280546716467
 30
0.0
  0
VERTEX
  5
336
330
31E
100
AcDbEntity
  8
Visible (ANSI)
100
AcDbVertex
100
AcDb2dVertex
 10
108.1464983083326
 20
41.07583831106233
 30
0.0
  0
VERTEX
  5
337
330
31E
100
AcDbEntity
  8
Visible (ANSI)
100
AcDbVertex
100
AcDb2dVertex
 10
108.14751422873
 20
41.07887115495999
 30
0.0
  0
VERTEX
  5
338
330
31E
100
AcDbEntity
  8
Visible (ANSI)
100
AcDbVertex
100
AcDb2dVertex
 10
108.1485345182768
 20
41.08190399885765
 30
0.0
  0
SEQEND
  5
321
330
31E
100
AcDbEntity
  8
Visible (ANSI)
  0
POLYLINE
  5
339
330
6C
100
AcDbEntity
  8
Visible (ANSI)
100
AcDb2dPolyline
 66
     1
 10
0.0
 20
0.0
 30
0.0
 70
   128
  0
VERTEX
  5
33A
330
339
100
AcDbEntity
  8
Visible (ANSI)
100
AcDbVertex
100
AcDb2dVertex
 10
108.1329345175561
 20
71.60791693201803
 30
0.0
  0
VERTEX
  5
33B
330
339
100
AcDbEntity
  8
Visible (ANSI)
100
AcDbVertex
100
AcDb2dVertex
 10
108.1329679183522
 20
71.60488319639734
 30
0.0
  0
VERTEX
  5
33D
330
339
100
AcDbEntity
  8
Visible (ANSI)
100
AcDbVertex
100
AcDb2dVertex
 10
108.1330679777195
 20
71.60184946077665
 30
0.0
  0
VERTEX
  5
33E
330
339
100
AcDbEntity
  8
Visible (ANSI)
100
AcDbVertex
100
AcDb2dVertex
 10
108.1332342671871
 20
71.59881572515594
 30
0.0
  0
VERTEX
  5
33F
330
339
100
AcDbEntity
  8
Visible (ANSI)
100
AcDbVertex
100
AcDb2dVertex
 10
108.1334660746821
 20
71.59578499323389
 30
0.0
  0
VERTEX
  5
340
330
339
100
AcDbEntity
  8
Visible (ANSI)
100
AcDbVertex
100
AcDb2dVertex
 10
108.1337624075005
 20
71.59275125761318
 30
0.0
  0
VERTEX
  5
341
330
339
100
AcDbEntity
  8
Visible (ANSI)
100
AcDbVertex
100
AcDb2dVertex
 10
108.1341219968299
 20
71.58971752199251
 30
0.0
  0
VERTEX
  5
342
330
339
100
AcDbEntity
  8
Visible (ANSI)
100
AcDbVertex
100
AcDb2dVertex
 10
108.1345433028712
 20
71.58668679007044
 30
0.0
  0
VERTEX
  5
343
330
339
100
AcDbEntity
  8
Visible (ANSI)
100
AcDbVertex
100
AcDb2dVertex
 10
108.1350245212788
 20
71.58365305444974
 30
0.0
  0
VERTEX
  5
344
330
339
100
AcDbEntity
  8
Visible (ANSI)
100
AcDbVertex
100
AcDb2dVertex
 10
108.1355635916847
 20
71.58061931882905
 30
0.0
  0
VERTEX
  5
345
330
339
100
AcDbEntity
  8
Visible (ANSI)
100
AcDbVertex
100
AcDb2dVertex
 10
108.1361582055824
 20
71.57758858690698
 30
0.0
  0
VERTEX
  5
346
330
339
100
AcDbEntity
  8
Visible (ANSI)
100
AcDbVertex
100
AcDb2dVertex
 10
108.1368058165011
 20
71.57455485128631
 30
0.0
  0
VERTEX
  5
347
330
339
100
AcDbEntity
  8
Visible (ANSI)
100
AcDbVertex
100
AcDb2dVertex
 10
108.1375036517397
 20
71.5715211156656
 30
0.0
  0
VERTEX
  5
348
330
339
100
AcDbEntity
  8
Visible (ANSI)
100
AcDbVertex
100
AcDb2dVertex
 10
108.1382487229992
 20
71.5684873800449
 30
0.0
  0
VERTEX
  5
349
330
339
100
AcDbEntity
  8
Visible (ANSI)
100
AcDbVertex
100
AcDb2dVertex
 10
108.1390378392166
 20
71.56545664812284
 30
0.0
  0
VERTEX
  5
34A
330
339
100
AcDbEntity
  8
Visible (ANSI)
100
AcDbVertex
100
AcDb2dVertex
 10
108.1398676215976
 20
71.56242291250215
 30
0.0
  0
VERTEX
  5
34B
330
339
100
AcDbEntity
  8
Visible (ANSI)
100
AcDbVertex
100
AcDb2dVertex
 10
108.1407345179164
 20
71.55938917688146
 30
0.0
  0
VERTEX
  5
34C
330
339
100
AcDbEntity
  8
Visible (ANSI)
100
AcDbVertex
100
AcDb2dVertex
 10
108.1416348142495
 20
71.5563584449594
 30
0.0
  0
VERTEX
  5
34D
330
339
100
AcDbEntity
  8
Visible (ANSI)
100
AcDbVertex
100
AcDb2dVertex
 10
108.1425646562412
 20
71.5533247093387
 30
0.0
  0
VERTEX
  5
34E
330
339
100
AcDbEntity
  8
Visible (ANSI)
100
AcDbVertex
100
AcDb2dVertex
 10
108.1435200619376
 20
71.55029097371802
 30
0.0
  0
VERTEX
  5
34F
330
339
100
AcDbEntity
  8
Visible (ANSI)
100
AcDbVertex
100
AcDb2dVertex
 10
108.1444969401193
 20
71.54725723809732
 30
0.0
  0
VERTEX
  5
350
330
339
100
AcDbEntity
  8
Visible (ANSI)
100
AcDbVertex
100
AcDb2dVertex
 10
108.1454911086346
 20
71.54422650617526
 30
0.0
  0
VERTEX
  5
351
330
339
100
AcDbEntity
  8
Visible (ANSI)
100
AcDbVertex
100
AcDb2dVertex
 10
108.1464983083326
 20
71.54119277055457
 30
0.0
  0
VERTEX
  5
352
330
339
100
AcDbEntity
  8
Visible (ANSI)
100
AcDbVertex
100
AcDb2dVertex
 10
108.14751422873
 20
71.53815903493387
 30
0.0
  0
VERTEX
  5
353
330
339
100
AcDbEntity
  8
Visible (ANSI)
100
AcDbVertex
100
AcDb2dVertex
 10
108.1485345182768
 20
71.53512830301181
 30
0.0
  0
SEQEND
  5
33C
330
339
100
AcDbEntity
  8
Visible (ANSI)
  0
LINE
  5
354
330
6C
100
AcDbEntity
  8
Visible (ANSI)
100
AcDbLine
 10
108.1329345175561
 20
71.60791566287125
 30
0.0
 11
108.1021960162452
 21
71.60791566287125
 31
0.0
  0
LINE
  5
355
330
6C
100
AcDbEntity
  8
Visible (ANSI)
100
AcDbLine
 10
108.1021960162452
 20
71.60791566287125
 30
0.0
 11
108.007934517556
 21
71.60791566287125
 31
0.0
  0
LINE
  5
356
330
6C
100
AcDbEntity
  8
Visible (ANSI)
100
AcDbLine
 10
108.1485345175561
 20
71.53512731522295
 30
0.0
 11
108.8829345175561
 21
71.53512731522295
 31
0.0
  0
POLYLINE
  5
357
330
6C
100
AcDbEntity
  8
Visible (ANSI)
100
AcDb2dPolyline
 66
     1
 10
0.0
 20
0.0
 30
0.0
 70
   128
  0
VERTEX
  5
358
330
357
100
AcDbEntity
  8
Visible (ANSI)
100
AcDbVertex
100
AcDb2dVertex
 10
108.1485345182768
 20
71.74851706139334
 30
0.0
  0
VERTEX
  5
359
330
357
100
AcDbEntity
  8
Visible (ANSI)
100
AcDbVertex
100
AcDb2dVertex
 10
108.1393388379061
 20
71.74821368783128
 30
0.0
  0
VERTEX
  5
35B
330
357
100
AcDbEntity
  8
Visible (ANSI)
100
AcDbVertex
100
AcDb2dVertex
 10
108.1301825348805
 20
71.74731257824096
 30
0.0
  0
VERTEX
  5
35C
330
357
100
AcDbEntity
  8
Visible (ANSI)
100
AcDbVertex
100
AcDb2dVertex
 10
108.1211048186137
 20
71.74581373262242
 30
0.0
  0
VERTEX
  5
35D
330
357
100
AcDbEntity
  8
Visible (ANSI)
100
AcDbVertex
100
AcDb2dVertex
 10
108.1121445597234
 20
71.74372616207155
 30
0.0
  0
VERTEX
  5
35E
330
357
100
AcDbEntity
  8
Visible (ANSI)
100
AcDbVertex
100
AcDb2dVertex
 10
108.1033401279663
 20
71.74105287028698
 30
0.0
  0
VERTEX
  5
35F
330
357
100
AcDbEntity
  8
Visible (ANSI)
100
AcDbVertex
100
AcDb2dVertex
 10
108.0947292279734
 20
71.73781187946051
 30
0.0
  0
VERTEX
  5
360
330
357
100
AcDbEntity
  8
Visible (ANSI)
100
AcDbVertex
100
AcDb2dVertex
 10
108.086348726919
 20
71.7340152043867
 30
0.0
  0
VERTEX
  5
361
330
357
100
AcDbEntity
  8
Visible (ANSI)
100
AcDbVertex
100
AcDb2dVertex
 10
108.0782345195884
 20
71.7296778635587
 30
0.0
  0
VERTEX
  5
362
330
357
100
AcDbEntity
  8
Visible (ANSI)
100
AcDbVertex
100
AcDb2dVertex
 10
108.0704213421135
 20
71.72482088286695
 30
0.0
  0
VERTEX
  5
363
330
357
100
AcDbEntity
  8
Visible (ANSI)
100
AcDbVertex
100
AcDb2dVertex
 10
108.0629426605079
 20
71.71946228450327
 30
0.0
  0
VERTEX
  5
364
330
357
100
AcDbEntity
  8
Visible (ANSI)
100
AcDbVertex
100
AcDb2dVertex
 10
108.0558304946683
 20
71.7136230943581
 30
0.0
  0
VERTEX
  5
365
330
357
100
AcDbEntity
  8
Visible (ANSI)
100
AcDbVertex
100
AcDb2dVertex
 10
108.0491153039761
 20
71.70733635311639
 30
0.0
  0
VERTEX
  5
366
330
357
100
AcDbEntity
  8
Visible (ANSI)
100
AcDbVertex
100
AcDb2dVertex
 10
108.0428258406325
 20
71.70062008296998
 30
0.0
  0
VERTEX
  5
367
330
357
100
AcDbEntity
  8
Visible (ANSI)
100
AcDbVertex
100
AcDb2dVertex
 10
108.036989038193
 20
71.69350732460384
 30
0.0
  0
VERTEX
  5
368
330
357
100
AcDbEntity
  8
Visible (ANSI)
100
AcDbVertex
100
AcDb2dVertex
 10
108.0316298883691
 20
71.68602811500431
 30
0.0
  0
VERTEX
  5
369
330
357
100
AcDbEntity
  8
Visible (ANSI)
100
AcDbVertex
100
AcDb2dVertex
 10
108.026771347162
 20
71.67821549485636
 30
0.0
  0
VERTEX
  5
36A
330
357
100
AcDbEntity
  8
Visible (ANSI)
100
AcDbVertex
100
AcDb2dVertex
 10
108.0224342057984
 20
71.67010250484498
 30
0.0
  0
VERTEX
  5
36B
330
357
100
AcDbEntity
  8
Visible (ANSI)
100
AcDbVertex
100
AcDb2dVertex
 10
108.0186370496635
 20
71.66172218565515
 30
0.0
  0
VERTEX
  5
36C
330
357
100
AcDbEntity
  8
Visible (ANSI)
100
AcDbVertex
100
AcDb2dVertex
 10
108.0153961409694
 20
71.65311058167048
 30
0.0
  0
VERTEX
  5
36D
330
357
100
AcDbEntity
  8
Visible (ANSI)
100
AcDbVertex
100
AcDb2dVertex
 10
108.0127253483559
 20
71.64430674097319
 30
0.0
  0
VERTEX
  5
36E
330
357
100
AcDbEntity
  8
Visible (ANSI)
100
AcDbVertex
100
AcDb2dVertex
 10
108.010636111691
 20
71.63534670794692
 30
0.0
  0
VERTEX
  5
36F
330
357
100
AcDbEntity
  8
Visible (ANSI)
100
AcDbVertex
100
AcDb2dVertex
 10
108.0091373716712
 20
71.62626652697527
 30
0.0
  0
VERTEX
  5
370
330
357
100
AcDbEntity
  8
Visible (ANSI)
100
AcDbVertex
100
AcDb2dVertex
 10
108.0082355580891
 20
71.61711125353779
 30
0.0
  0
VERTEX
  5
371
330
357
100
AcDbEntity
  8
Visible (ANSI)
100
AcDbVertex
100
AcDb2dVertex
 10
108.0079345194333
 20
71.60791693201803
 30
0.0
  0
SEQEND
  5
35A
330
357
100
AcDbEntity
  8
Visible (ANSI)
  0
LINE
  5
372
330
6C
100
AcDbEntity
  8
Visible (ANSI)
100
AcDbLine
 10
108.148534517556
 20
71.62351566287125
 30
0.0
 11
108.882934517556
 21
71.62351566287121
 31
0.0
  0
LINE
  5
373
330
6C
100
AcDbEntity
  8
Visible (ANSI)
100
AcDbLine
 10
108.882934517556
 20
71.74851566287121
 30
0.0
 11
108.148534517556
 21
71.74851566287125
 31
0.0
  0
LINE
  5
374
330
6C
100
AcDbEntity
  8
Visible (ANSI)
100
AcDbLine
 10
108.148534517556
 20
71.62351566287125
 30
0.0
 11
108.148534517556
 21
71.74851566287125
 31
0.0
  0
LINE
  5
375
330
6C
100
AcDbEntity
  8
Visible (ANSI)
100
AcDbLine
 10
108.882934517556
 20
71.62351566287121
 30
0.0
 11
108.882934517556
 21
71.74851566287121
 31
0.0
  0
POLYLINE
  5
376
330
6C
100
AcDbEntity
  8
Visible (ANSI)
100
AcDb2dPolyline
 66
     1
 10
0.0
 20
0.0
 30
0.0
 70
   128
  0
VERTEX
  5
377
330
376
100
AcDbEntity
  8
Visible (ANSI)
100
AcDbVertex
100
AcDb2dVertex
 10
108.1329345175561
 20
71.60791693201803
 30
0.0
  0
VERTEX
  5
378
330
376
100
AcDbEntity
  8
Visible (ANSI)
100
AcDbVertex
100
AcDb2dVertex
 10
108.1329679183522
 20
71.60893518585507
 30
0.0
  0
VERTEX
  5
37A
330
376
100
AcDbEntity
  8
Visible (ANSI)
100
AcDbVertex
100
AcDb2dVertex
 10
108.1330679777195
 20
71.60995043599348
 30
0.0
  0
VERTEX
  5
37B
330
376
100
AcDbEntity
  8
Visible (ANSI)
100
AcDbVertex
100
AcDb2dVertex
 10
108.133234267187
 20
71.61095967873461
 30
0.0
  0
VERTEX
  5
37C
330
376
100
AcDbEntity
  8
Visible (ANSI)
100
AcDbVertex
100
AcDb2dVertex
 10
108.1334660746821
 20
71.6119539029826
 30
0.0
  0
VERTEX
  5
37D
330
376
100
AcDbEntity
  8
Visible (ANSI)
100
AcDbVertex
100
AcDb2dVertex
 10
108.1337624075005
 20
71.61293010503875
 30
0.0
  0
VERTEX
  5
37E
330
376
100
AcDbEntity
  8
Visible (ANSI)
100
AcDbVertex
100
AcDb2dVertex
 10
108.1341219968298
 20
71.61388528120447
 30
0.0
  0
VERTEX
  5
37F
330
376
100
AcDbEntity
  8
Visible (ANSI)
100
AcDbVertex
100
AcDb2dVertex
 10
108.1345433028712
 20
71.61481642778113
 30
0.0
  0
VERTEX
  5
380
330
376
100
AcDbEntity
  8
Visible (ANSI)
100
AcDbVertex
100
AcDb2dVertex
 10
108.1350245212788
 20
71.6157145336728
 30
0.0
  0
VERTEX
  5
381
330
376
100
AcDbEntity
  8
Visible (ANSI)
100
AcDbVertex
100
AcDb2dVertex
 10
108.1355635916847
 20
71.61658260257813
 30
0.0
  0
VERTEX
  5
382
330
376
100
AcDbEntity
  8
Visible (ANSI)
100
AcDbVertex
100
AcDb2dVertex
 10
108.1361582055824
 20
71.61741162340121
 30
0.0
  0
VERTEX
  5
383
330
376
100
AcDbEntity
  8
Visible (ANSI)
100
AcDbVertex
100
AcDb2dVertex
 10
108.1368058165011
 20
71.61820159614205
 30
0.0
  0
VERTEX
  5
384
330
376
100
AcDbEntity
  8
Visible (ANSI)
100
AcDbVertex
100
AcDb2dVertex
 10
108.1375036517397
 20
71.61894651340337
 30
0.0
  0
VERTEX
  5
385
330
376
100
AcDbEntity
  8
Visible (ANSI)
100
AcDbVertex
100
AcDb2dVertex
 10
108.1382487229992
 20
71.61964337148653
 30
0.0
  0
VERTEX
  5
386
330
376
100
AcDbEntity
  8
Visible (ANSI)
100
AcDbVertex
100
AcDb2dVertex
 10
108.1390378392166
 20
71.62029217039155
 30
0.0
  0
VERTEX
  5
387
330
376
100
AcDbEntity
  8
Visible (ANSI)
100
AcDbVertex
100
AcDb2dVertex
 10
108.1398676215975
 20
71.62088690272115
 30
0.0
  0
VERTEX
  5
388
330
376
100
AcDbEntity
  8
Visible (ANSI)
100
AcDbVertex
100
AcDb2dVertex
 10
108.1407345179164
 20
71.62142456477671
 30
0.0
  0
VERTEX
  5
389
330
376
100
AcDbEntity
  8
Visible (ANSI)
100
AcDbVertex
100
AcDb2dVertex
 10
108.1416348142495
 20
71.62190816025684
 30
0.0
  0
VERTEX
  5
38A
330
376
100
AcDbEntity
  8
Visible (ANSI)
100
AcDbVertex
100
AcDb2dVertex
 10
108.1425646562412
 20
71.62232867806565
 30
0.0
  0
VERTEX
  5
38B
330
376
100
AcDbEntity
  8
Visible (ANSI)
100
AcDbVertex
100
AcDb2dVertex
 10
108.1435200619376
 20
71.62268912190175
 30
0.0
  0
VERTEX
  5
38C
330
376
100
AcDbEntity
  8
Visible (ANSI)
100
AcDbVertex
100
AcDb2dVertex
 10
108.1444969401193
 20
71.62298348436793
 30
0.0
  0
VERTEX
  5
38D
330
376
100
AcDbEntity
  8
Visible (ANSI)
100
AcDbVertex
100
AcDb2dVertex
 10
108.1454911086346
 20
71.62321476916277
 30
0.0
  0
VERTEX
  5
38E
330
376
100
AcDbEntity
  8
Visible (ANSI)
100
AcDbVertex
100
AcDb2dVertex
 10
108.1464983083326
 20
71.62338297628629
 30
0.0
  0
VERTEX
  5
38F
330
376
100
AcDbEntity
  8
Visible (ANSI)
100
AcDbVertex
100
AcDb2dVertex
 10
108.1475142287299
 20
71.62348209834123
 30
0.0
  0
VERTEX
  5
390
330
376
100
AcDbEntity
  8
Visible (ANSI)
100
AcDbVertex
100
AcDb2dVertex
 10
108.1485345182768
 20
71.62351513902621
 30
0.0
  0
SEQEND
  5
379
330
376
100
AcDbEntity
  8
Visible (ANSI)
  0
POLYLINE
  5
391
330
6C
100
AcDbEntity
  8
Visible (ANSI)
100
AcDb2dPolyline
 66
     1
 10
0.0
 20
0.0
 30
0.0
 70
   128
  0
VERTEX
  5
392
330
391
100
AcDbEntity
  8
Visible (ANSI)
100
AcDbVertex
100
AcDb2dVertex
 10
108.0079345194333
 20
41.00911566318138
 30
0.0
  0
VERTEX
  5
393
330
391
100
AcDbEntity
  8
Visible (ANSI)
100
AcDbVertex
100
AcDb2dVertex
 10
108.0082355580891
 20
40.9999199806107
 30
0.0
  0
VERTEX
  5
395
330
391
100
AcDbEntity
  8
Visible (ANSI)
100
AcDbVertex
100
AcDb2dVertex
 10
108.0091373716712
 20
40.99076367465179
 30
0.0
  0
VERTEX
  5
396
330
391
100
AcDbEntity
  8
Visible (ANSI)
100
AcDbVertex
100
AcDb2dVertex
 10
108.010636111691
 20
40.98168596938488
 30
0.0
  0
VERTEX
  5
397
330
391
100
AcDbEntity
  8
Visible (ANSI)
100
AcDbVertex
100
AcDb2dVertex
 10
108.0127253483559
 20
40.97272570169465
 30
0.0
  0
VERTEX
  5
398
330
391
100
AcDbEntity
  8
Visible (ANSI)
100
AcDbVertex
100
AcDb2dVertex
 10
108.0153961409694
 20
40.96392127433749
 30
0.0
  0
VERTEX
  5
399
330
391
100
AcDbEntity
  8
Visible (ANSI)
100
AcDbVertex
100
AcDb2dVertex
 10
108.0186370496635
 20
40.95531037434467
 30
0.0
  0
VERTEX
  5
39A
330
391
100
AcDbEntity
  8
Visible (ANSI)
100
AcDbVertex
100
AcDb2dVertex
 10
108.0224342057984
 20
40.94692987329027
 30
0.0
  0
VERTEX
  5
39B
330
391
100
AcDbEntity
  8
Visible (ANSI)
100
AcDbVertex
100
AcDb2dVertex
 10
108.026771347162
 20
40.93881566302632
 30
0.0
  0
VERTEX
  5
39C
330
391
100
AcDbEntity
  8
Visible (ANSI)
100
AcDbVertex
100
AcDb2dVertex
 10
108.0316298883691
 20
40.93100248555148
 30
0.0
  0
VERTEX
  5
39D
330
391
100
AcDbEntity
  8
Visible (ANSI)
100
AcDbVertex
100
AcDb2dVertex
 10
108.036989038193
 20
40.92352380394585
 30
0.0
  0
VERTEX
  5
39E
330
391
100
AcDbEntity
  8
Visible (ANSI)
100
AcDbVertex
100
AcDb2dVertex
 10
108.0428258406325
 20
40.9164116410395
 30
0.0
  0
VERTEX
  5
39F
330
391
100
AcDbEntity
  8
Visible (ANSI)
100
AcDbVertex
100
AcDb2dVertex
 10
108.0491153039761
 20
40.90969645034728
 30
0.0
  0
VERTEX
  5
3A0
330
391
100
AcDbEntity
  8
Visible (ANSI)
100
AcDbVertex
100
AcDb2dVertex
 10
108.0558304946683
 20
40.9034069870037
 30
0.0
  0
VERTEX
  5
3A1
330
391
100
AcDbEntity
  8
Visible (ANSI)
100
AcDbVertex
100
AcDb2dVertex
 10
108.0629426605079
 20
40.89757018456427
 30
0.0
  0
VERTEX
  5
3A2
330
391
100
AcDbEntity
  8
Visible (ANSI)
100
AcDbVertex
100
AcDb2dVertex
 10
108.0704213421135
 20
40.8922110347403
 30
0.0
  0
VERTEX
  5
3A3
330
391
100
AcDbEntity
  8
Visible (ANSI)
100
AcDbVertex
100
AcDb2dVertex
 10
108.0782345195884
 20
40.88735249059994
 30
0.0
  0
VERTEX
  5
3A4
330
391
100
AcDbEntity
  8
Visible (ANSI)
100
AcDbVertex
100
AcDb2dVertex
 10
108.086348726919
 20
40.8830153551029
 30
0.0
  0
VERTEX
  5
3A5
330
391
100
AcDbEntity
  8
Visible (ANSI)
100
AcDbVertex
100
AcDb2dVertex
 10
108.0947292279734
 20
40.87921820043463
 30
0.0
  0
VERTEX
  5
3A6
330
391
100
AcDbEntity
  8
Visible (ANSI)
100
AcDbVertex
100
AcDb2dVertex
 10
108.1033401279663
 20
40.87597728660727
 30
0.0
  0
VERTEX
  5
3A7
330
391
100
AcDbEntity
  8
Visible (ANSI)
100
AcDbVertex
100
AcDb2dVertex
 10
108.1121445597234
 20
40.87330649179385
 30
0.0
  0
VERTEX
  5
3A8
330
391
100
AcDbEntity
  8
Visible (ANSI)
100
AcDbVertex
100
AcDb2dVertex
 10
108.1211048186137
 20
40.87121725237893
 30
0.0
  0
VERTEX
  5
3A9
330
391
100
AcDbEntity
  8
Visible (ANSI)
100
AcDbVertex
100
AcDb2dVertex
 10
108.1301825348805
 20
40.86971851538414
 30
0.0
  0
VERTEX
  5
3AA
330
391
100
AcDbEntity
  8
Visible (ANSI)
100
AcDbVertex
100
AcDb2dVertex
 10
108.1393388379061
 20
40.86881669827283
 30
0.0
  0
VERTEX
  5
3AB
330
391
100
AcDbEntity
  8
Visible (ANSI)
100
AcDbVertex
100
AcDb2dVertex
 10
108.1485345182768
 20
40.86851566287125
 30
0.0
  0
SEQEND
  5
394
330
391
100
AcDbEntity
  8
Visible (ANSI)
  0
LINE
  5
3AC
330
6C
100
AcDbEntity
  8
Visible (ANSI)
100
AcDbLine
 10
108.148534517556
 20
40.99351566287126
 30
0.0
 11
108.882934517556
 21
40.99351566287126
 31
0.0
  0
LINE
  5
3AD
330
6C
100
AcDbEntity
  8
Visible (ANSI)
100
AcDbLine
 10
108.148534517556
 20
40.99351566287126
 30
0.0
 11
108.148534517556
 21
40.86851566287125
 31
0.0
  0
POLYLINE
  5
3AE
330
6C
100
AcDbEntity
  8
Visible (ANSI)
100
AcDb2dPolyline
 66
     1
 10
0.0
 20
0.0
 30
0.0
 70
   128
  0
VERTEX
  5
3AF
330
3AE
100
AcDbEntity
  8
Visible (ANSI)
100
AcDbVertex
100
AcDb2dVertex
 10
108.1329345175561
 20
41.00911566318138
 30
0.0
  0
VERTEX
  5
3B0
330
3AE
100
AcDbEntity
  8
Visible (ANSI)
100
AcDbVertex
100
AcDb2dVertex
 10
108.1329679183522
 20
41.00809537950112
 30
0.0
  0
VERTEX
  5
3B2
330
3AE
100
AcDbEntity
  8
Visible (ANSI)
100
AcDbVertex
100
AcDb2dVertex
 10
108.1330679777195
 20
41.00707944883724
 30
0.0
  0
VERTEX
  5
3B3
330
3AE
100
AcDbEntity
  8
Visible (ANSI)
100
AcDbVertex
100
AcDb2dVertex
 10
108.133234267187
 20
41.00607225940572
 30
0.0
  0
VERTEX
  5
3B4
330
3AE
100
AcDbEntity
  8
Visible (ANSI)
100
AcDbVertex
100
AcDb2dVertex
 10
108.1334660746821
 20
41.00507808209053
 30
0.0
  0
VERTEX
  5
3B5
330
3AE
100
AcDbEntity
  8
Visible (ANSI)
100
AcDbVertex
100
AcDb2dVertex
 10
108.1337624075005
 20
41.00410121124209
 30
0.0
  0
VERTEX
  5
3B6
330
3AE
100
AcDbEntity
  8
Visible (ANSI)
100
AcDbVertex
100
AcDb2dVertex
 10
108.1341219968298
 20
41.00314580041241
 30
0.0
  0
VERTEX
  5
3B7
330
3AE
100
AcDbEntity
  8
Visible (ANSI)
100
AcDbVertex
100
AcDb2dVertex
 10
108.1345433028712
 20
41.00221595622072
 30
0.0
  0
VERTEX
  5
3B8
330
3AE
100
AcDbEntity
  8
Visible (ANSI)
100
AcDbVertex
100
AcDb2dVertex
 10
108.1350245212788
 20
41.00131566795426
 30
0.0
  0
VERTEX
  5
3B9
330
3AE
100
AcDbEntity
  8
Visible (ANSI)
100
AcDbVertex
100
AcDb2dVertex
 10
108.1355635916847
 20
41.00044877236871
 30
0.0
  0
VERTEX
  5
3BA
330
3AE
100
AcDbEntity
  8
Visible (ANSI)
100
AcDbVertex
100
AcDb2dVertex
 10
108.1361582055824
 20
40.99961898888778
 30
0.0
  0
VERTEX
  5
3BB
330
3AE
100
AcDbEntity
  8
Visible (ANSI)
100
AcDbVertex
100
AcDb2dVertex
 10
108.1368058165011
 20
40.99882987267038
 30
0.0
  0
VERTEX
  5
3BC
330
3AE
100
AcDbEntity
  8
Visible (ANSI)
100
AcDbVertex
100
AcDb2dVertex
 10
108.1375036517397
 20
40.99808480287749
 30
0.0
  0
VERTEX
  5
3BD
330
3AE
100
AcDbEntity
  8
Visible (ANSI)
100
AcDbVertex
100
AcDb2dVertex
 10
108.1382487229992
 20
40.9973869592057
 30
0.0
  0
VERTEX
  5
3BE
330
3AE
100
AcDbEntity
  8
Visible (ANSI)
100
AcDbVertex
100
AcDb2dVertex
 10
108.1390378392166
 20
40.99673934535366
 30
0.0
  0
VERTEX
  5
3BF
330
3AE
100
AcDbEntity
  8
Visible (ANSI)
100
AcDbVertex
100
AcDb2dVertex
 10
108.1398676215975
 20
40.99614474208923
 30
0.0
  0
VERTEX
  5
3C0
330
3AE
100
AcDbEntity
  8
Visible (ANSI)
100
AcDbVertex
100
AcDb2dVertex
 10
108.1407345179164
 20
40.99560567204996
 30
0.0
  0
VERTEX
  5
3C1
330
3AE
100
AcDbEntity
  8
Visible (ANSI)
100
AcDbVertex
100
AcDb2dVertex
 10
108.1416348142495
 20
40.99512444667578
 30
0.0
  0
VERTEX
  5
3C2
330
3AE
100
AcDbEntity
  8
Visible (ANSI)
100
AcDbVertex
100
AcDb2dVertex
 10
108.1425646562412
 20
40.99470314274272
 30
0.0
  0
VERTEX
  5
3C3
330
3AE
100
AcDbEntity
  8
Visible (ANSI)
100
AcDbVertex
100
AcDb2dVertex
 10
108.1435200619376
 20
40.99434355543003
 30
0.0
  0
VERTEX
  5
3C4
330
3AE
100
AcDbEntity
  8
Visible (ANSI)
100
AcDbVertex
100
AcDb2dVertex
 10
108.1444969401193
 20
40.99404722178664
 30
0.0
  0
VERTEX
  5
3C5
330
3AE
100
AcDbEntity
  8
Visible (ANSI)
100
AcDbVertex
100
AcDb2dVertex
 10
108.1454911086346
 20
40.9938154089979
 30
0.0
  0
VERTEX
  5
3C6
330
3AE
100
AcDbEntity
  8
Visible (ANSI)
100
AcDbVertex
100
AcDb2dVertex
 10
108.1464983083326
 20
40.99364912611881
 30
0.0
  0
VERTEX
  5
3C7
330
3AE
100
AcDbEntity
  8
Visible (ANSI)
100
AcDbVertex
100
AcDb2dVertex
 10
108.1475142287299
 20
40.99354906540805
 30
0.0
  0
VERTEX
  5
3C8
330
3AE
100
AcDbEntity
  8
Visible (ANSI)
100
AcDbVertex
100
AcDb2dVertex
 10
108.1485345182768
 20
40.99351566099395
 30
0.0
  0
SEQEND
  5
3B1
330
3AE
100
AcDbEntity
  8
Visible (ANSI)
  0
LINE
  5
3C9
330
6C
100
AcDbEntity
  8
Visible (ANSI)
100
AcDbLine
 10
108.148534517556
 20
40.86851566287125
 30
0.0
 11
108.882934517556
 21
40.86851566287125
 31
0.0
  0
LINE
  5
3CA
330
6C
100
AcDbEntity
  8
Visible (ANSI)
100
AcDbLine
 10
108.882934517556
 20
40.99351566287126
 30
0.0
 11
108.882934517556
 21
40.86851566287125
 31
0.0
  0
LINE
  5
3CB
330
6C
100
AcDbEntity
  8
Visible (ANSI)
100
AcDbLine
 10
108.007934517556
 20
41.00911566287125
 30
0.0
 11
108.007934517556
 21
71.60791566287125
 31
0.0
  0
LINE
  5
3CC
330
6C
100
AcDbEntity
  8
Hidden (ANSI)
 48
1.121476054191589
100
AcDbLine
 10
108.1329345175561
 20
71.60791566287125
 30
0.0
 11
108.1329345175561
 21
41.00911566287125
 31
0.0
  0
LINE
  5
3CD
330
6C
100
AcDbEntity
  8
Visible (ANSI)
100
AcDbLine
 10
108.8829345175561
 20
71.53512731522295
 30
0.0
 11
108.8829345175561
 21
41.08190401051957
 31
0.0
  0
LINE
  5
3CE
330
6C
100
AcDbEntity
  8
Hidden (ANSI)
 48
0.0215442795306444
100
AcDbLine
 10
108.1329345175558
 20
70.59201566287121
 30
0.0
 11
108.0079345175558
 21
70.59201566287121
 31
0.0
  0
LINE
  5
3CF
330
6C
100
AcDbEntity
  8
Hidden (ANSI)
 48
0.0215442795306444
100
AcDbLine
 10
108.1329345175558
 20
71.15501566287123
 30
0.0
 11
108.0079345175558
 21
71.15501566287123
 31
0.0
  0
LINE
  5
3D0
330
6C
100
AcDbEntity
  8
Hidden (ANSI)
 48
0.0215442795306444
100
AcDbLine
 10
108.1329345175558
 20
41.46201566287125
 30
0.0
 11
108.0079345175558
 21
41.46201566287125
 31
0.0
  0
LINE
  5
3D1
330
6C
100
AcDbEntity
  8
Hidden (ANSI)
 48
0.0215442795306444
100
AcDbLine
 10
108.1329345175558
 20
42.02501566287125
 30
0.0
 11
108.0079345175558
 21
42.02501566287125
 31
0.0
  0
MTEXT
  5
3D2
330
6C
100
AcDbEntity
  8
Symbol (ANSI)
100
AcDbMText
 10
104.2980811433147
 20
35.7369392532207
 30
0.0
 40
1.320000016313838
 41
0.0
 46
0.0
 71
     7
 72
     1
  1
SIDE VIEW
  7
Text Style153
 73
     1
 44
1.0
  0
LINE
  5
3D3
330
6C
100
AcDbEntity
  8
Symbol (ANSI)
370
    30
100
AcDbLine
 10
104.230496969464
 20
35.46347247540892
 30
0.0
 11
113.1506589939244
 21
35.46347247540892
 31
0.0
  0
ELLIPSE
  5
3D4
330
6C
100
AcDbEntity
  8
Visible (ANSI)
100
AcDbEllipse
 10
147.9003763809496
 20
44.21646397575957
 30
0.0
 11
-0.1404775675610102
 21
0.2439432372748664
 31
0.0
210
0.0
220
0.0
230
1.0
 40
0.578093115915809
 41
0.0
 42
6.283185307179586
  0
ELLIPSE
  5
3D5
330
6C
100
AcDbEntity
  8
Visible (ANSI)
100
AcDbEllipse
 10
147.9887647285979
 20
44.26736343998362
 30
0.0
 11
-0.1404775675610103
 21
0.2439432372748666
 31
0.0
210
0.0
220
0.0
230
1.0
 40
0.5780931159158092
 41
0.3187556839588588
 42
2.822836969630799
  0
ELLIPSE
  5
3D6
330
6C
100
AcDbEntity
  8
Visible (ANSI)
100
AcDbEllipse
 10
147.9003763809497
 20
68.03161172242268
 30
0.0
 11
-0.1404775675610102
 21
0.2439432372748664
 31
0.0
210
0.0
220
0.0
230
1.0
 40
0.578093115915809
 41
0.0
 42
6.283185307179586
  0
ELLIPSE
  5
3D7
330
6C
100
AcDbEntity
  8
Visible (ANSI)
100
AcDbEllipse
 10
147.988764728598
 20
68.08251118664673
 30
0.0
 11
-0.1404775675610077
 21
0.2439432372748621
 31
0.0
210
0.0
220
0.0
230
0.9999999999999998
 40
0.5780931159158093
 41
0.3187556839588597
 42
2.82283696963083
  0
ELLIPSE
  5
3D8
330
6C
100
AcDbEntity
  8
Visible (ANSI)
100
AcDbEllipse
 10
171.3232885077575
 20
54.54325370305345
 30
0.0
 11
-0.1404775675610102
 21
0.2439432372748664
 31
0.0
210
0.0
220
0.0
230
1.0
 40
0.578093115915809
 41
0.0
 42
6.283185307179586
  0
ELLIPSE
  5
3D9
330
6C
100
AcDbEntity
  8
Visible (ANSI)
100
AcDbEllipse
 10
171.4116768554058
 20
54.59415316727749
 30
0.0
 11
-0.1404775675610114
 21
0.2439432372748685
 31
0.0
210
0.0
220
0.0
230
1.0
 40
0.5780931159158094
 41
0.3187556839588295
 42
2.822836969630815
  0
ELLIPSE
  5
3DA
330
6C
100
AcDbEntity
  8
Visible (ANSI)
100
AcDbEllipse
 10
124.4774642541418
 20
81.51996974179187
 30
0.0
 11
-0.1404775675610102
 21
0.2439432372748664
 31
0.0
210
0.0
220
0.0
230
1.0
 40
0.578093115915809
 41
0.0
 42
6.283185307179586
  0
ELLIPSE
  5
3DB
330
6C
100
AcDbEntity
  8
Visible (ANSI)
100
AcDbEllipse
 10
124.5658526017901
 20
81.57086920601592
 30
0.0
 11
-0.1404775675610103
 21
0.2439432372748666
 31
0.0
210
0.0
220
0.0
230
1.0
 40
0.5780931159158092
 41
0.3187556839589287
 42
2.822836969630916
  0
ELLIPSE
  5
3DC
330
6C
100
AcDbEntity
  8
Visible (ANSI)
100
AcDbEllipse
 10
124.4774642541417
 20
57.7048219951288
 30
0.0
 11
-0.1404775675610102
 21
0.2439432372748664
 31
0.0
210
0.0
220
0.0
230
1.0
 40
0.578093115915809
 41
0.0
 42
6.283185307179586
  0
ELLIPSE
  5
3DD
330
6C
100
AcDbEntity
  8
Visible (ANSI)
100
AcDbEllipse
 10
124.56585260179
 20
57.75572145935285
 30
0.0
 11
-0.1404775675610101
 21
0.2439432372748663
 31
0.0
210
0.0
220
0.0
230
1.0
 40
0.578093115915809
 41
0.3187556839589584
 42
2.8228369696309
  0
ELLIPSE
  5
3DE
330
6C
100
AcDbEntity
  8
Visible (ANSI)
100
AcDbEllipse
 10
171.3232885077574
 20
30.72810595639039
 30
0.0
 11
-0.1404775675610102
 21
0.2439432372748664
 31
0.0
210
0.0
220
0.0
230
1.0
 40
0.578093115915809
 41
0.0
 42
6.283185307179586
  0
ELLIPSE
  5
3DF
330
6C
100
AcDbEntity
  8
Visible (ANSI)
100
AcDbEllipse
 10
171.4116768554057
 20
30.77900542061443
 30
0.0
 11
-0.140477567561011
 21
0.2439432372748677
 31
0.0
210
0.0
220
0.0
230
1.0
 40
0.5780931159158093
 41
0.3187556839588437
 42
2.822836969630814
  0
LINE
  5
3E0
330
6C
100
AcDbEntity
  8
Visible Narrow (ANSI)
100
AcDbLine
 10
172.0414261547307
 20
54.7851078749869
 30
0.0
 11
172.0414261547306
 21
29.88816272003893
 31
0.0
  0
LINE
  5
3E1
330
6C
100
AcDbEntity
  8
Visible Narrow (ANSI)
100
AcDbLine
 10
171.8425877278609
 20
29.82865481569698
 30
0.0
 11
171.842587727861
 21
54.84461577932879
 31
0.0
  0
LINE
  5
3E2
330
6C
100
AcDbEntity
  8
Visible Narrow (ANSI)
100
AcDbLine
 10
124.1090533816866
 20
82.56198062242093
 30
0.0
 11
171.8905378070823
 21
55.04645372561729
 31
0.0
  0
LINE
  5
3E3
330
6C
100
AcDbEntity
  8
Visible Narrow (ANSI)
100
AcDbLine
 10
171.842587727861
 20
54.84461577932879
 30
0.0
 11
123.9581650340383
 21
82.4194208824853
 31
0.0
  0
LINE
  5
3E4
330
6C
100
AcDbEntity
  8
Visible Narrow (ANSI)
100
AcDbLine
 10
123.9581650340383
 20
82.4194208824853
 30
0.0
 11
123.9581650340383
 21
57.40345991885348
 31
0.0
  0
LINE
  5
3E5
330
6C
100
AcDbEntity
  8
Visible Narrow (ANSI)
100
AcDbLine
 10
123.9581650340383
 20
57.40345991885348
 30
0.0
 11
171.8425877278609
 21
29.82865481569698
 31
0.0
  0
LINE
  5
3E6
330
6C
100
AcDbEntity
  8
Visible (ANSI)
100
AcDbLine
 10
123.9169842474732
 20
82.44691864767354
 30
0.0
 11
123.9169842474731
 21
57.49046558838366
 31
0.0
  0
LINE
  5
3E7
330
6C
100
AcDbEntity
  8
Visible (ANSI)
100
AcDbLine
 10
124.0132182460405
 20
57.32401396666932
 30
0.0
 11
171.8460450848309
 21
29.7789209403555
 31
0.0
  0
POLYLINE
  5
3E8
330
6C
100
AcDbEntity
  8
Visible (ANSI)
100
AcDb2dPolyline
 66
     1
 10
0.0
 20
0.0
 30
0.0
 70
   128
  0
VERTEX
  5
3E9
330
3E8
100
AcDbEntity
  8
Visible (ANSI)
100
AcDbVertex
100
AcDb2dVertex
 10
171.8425858536003
 20
54.84461789775988
 30
0.0
  0
VERTEX
  5
3EA
330
3E8
100
AcDbEntity
  8
Visible (ANSI)
100
AcDbVertex
100
AcDb2dVertex
 10
171.8493022111059
 20
54.83851514616866
 30
0.0
  0
VERTEX
  5
3EC
330
3E8
100
AcDbEntity
  8
Visible (ANSI)
100
AcDbVertex
100
AcDb2dVertex
 10
171.8564136455365
 20
54.83267415085738
 30
0.0
  0
VERTEX
  5
3ED
330
3E8
100
AcDbEntity
  8
Visible (ANSI)
100
AcDbVertex
100
AcDb2dVertex
 10
171.8638919483715
 20
54.82710802185639
 30
0.0
  0
VERTEX
  5
3EE
330
3E8
100
AcDbEntity
  8
Visible (ANSI)
100
AcDbVertex
100
AcDb2dVertex
 10
171.871707085833
 20
54.82183127376547
 30
0.0
  0
VERTEX
  5
3EF
330
3E8
100
AcDbEntity
  8
Visible (ANSI)
100
AcDbVertex
100
AcDb2dVertex
 10
171.8798230007943
 20
54.81685247794581
 30
0.0
  0
VERTEX
  5
3F0
330
3E8
100
AcDbEntity
  8
Visible (ANSI)
100
AcDbVertex
100
AcDb2dVertex
 10
171.8882018689479
 20
54.81218655510237
 30
0.0
  0
VERTEX
  5
3F1
330
3E8
100
AcDbEntity
  8
Visible (ANSI)
100
AcDbVertex
100
AcDb2dVertex
 10
171.8968126443277
 20
54.80784254458175
 30
0.0
  0
VERTEX
  5
3F2
330
3E8
100
AcDbEntity
  8
Visible (ANSI)
100
AcDbVertex
100
AcDb2dVertex
 10
171.9056183405854
 20
54.80382359026902
 30
0.0
  0
VERTEX
  5
3F3
330
3E8
100
AcDbEntity
  8
Visible (ANSI)
100
AcDbVertex
100
AcDb2dVertex
 10
171.9145760807693
 20
54.80014170324507
 30
0.0
  0
VERTEX
  5
3F4
330
3E8
100
AcDbEntity
  8
Visible (ANSI)
100
AcDbVertex
100
AcDb2dVertex
 10
171.9236541717769
 20
54.79680065782243
 30
0.0
  0
VERTEX
  5
3F5
330
3E8
100
AcDbEntity
  8
Visible (ANSI)
100
AcDbVertex
100
AcDb2dVertex
 10
171.932810894036
 20
54.79380087220386
 30
0.0
  0
VERTEX
  5
3F6
330
3E8
100
AcDbEntity
  8
Visible (ANSI)
100
AcDbVertex
100
AcDb2dVertex
 10
171.942007336381
 20
54.7911468564689
 30
0.0
  0
VERTEX
  5
3F7
330
3E8
100
AcDbEntity
  8
Visible (ANSI)
100
AcDbVertex
100
AcDb2dVertex
 10
171.9512032145557
 20
54.78883987432128
 30
0.0
  0
VERTEX
  5
3F8
330
3E8
100
AcDbEntity
  8
Visible (ANSI)
100
AcDbVertex
100
AcDb2dVertex
 10
171.9603569583268
 20
54.78688290458521
 30
0.0
  0
VERTEX
  5
3F9
330
3E8
100
AcDbEntity
  8
Visible (ANSI)
100
AcDbVertex
100
AcDb2dVertex
 10
171.9694385339165
 20
54.78526352537357
 30
0.0
  0
VERTEX
  5
3FA
330
3E8
100
AcDbEntity
  8
Visible (ANSI)
100
AcDbVertex
100
AcDb2dVertex
 10
171.978395564739
 20
54.78398827729175
 30
0.0
  0
VERTEX
  5
3FB
330
3E8
100
AcDbEntity
  8
Visible (ANSI)
100
AcDbVertex
100
AcDb2dVertex
 10
171.9872001388783
 20
54.78304843497415
 30
0.0
  0
VERTEX
  5
3FC
330
3E8
100
AcDbEntity
  8
Visible (ANSI)
100
AcDbVertex
100
AcDb2dVertex
 10
171.9958107026943
 20
54.78243472743198
 30
0.0
  0
VERTEX
  5
3FD
330
3E8
100
AcDbEntity
  8
Visible (ANSI)
100
AcDbVertex
100
AcDb2dVertex
 10
172.0041933789981
 20
54.78213988650053
 30
0.0
  0
VERTEX
  5
3FE
330
3E8
100
AcDbEntity
  8
Visible (ANSI)
100
AcDbVertex
100
AcDb2dVertex
 10
172.0123051072757
 20
54.7821586847702
 30
0.0
  0
VERTEX
  5
3FF
330
3E8
100
AcDbEntity
  8
Visible (ANSI)
100
AcDbVertex
100
AcDb2dVertex
 10
172.0201192263266
 20
54.782478224742
 30
0.0
  0
VERTEX
  5
400
330
3E8
100
AcDbEntity
  8
Visible (ANSI)
100
AcDbVertex
100
AcDb2dVertex
 10
172.0276001088931
 20
54.78308286345791
 30
0.0
  0
VERTEX
  5
401
330
3E8
100
AcDbEntity
  8
Visible (ANSI)
100
AcDbVertex
100
AcDb2dVertex
 10
172.034711773555
 20
54.78396412100707
 30
0.0
  0
VERTEX
  5
402
330
3E8
100
AcDbEntity
  8
Visible (ANSI)
100
AcDbVertex
100
AcDb2dVertex
 10
172.04142649507
 20
54.78510848714943
 30
0.0
  0
SEQEND
  5
3EB
330
3E8
100
AcDbEntity
  8
Visible (ANSI)
  0
POLYLINE
  5
403
330
6C
100
AcDbEntity
  8
Visible (ANSI)
100
AcDb2dPolyline
 66
     1
 10
0.0
 20
0.0
 30
0.0
 70
   128
  0
VERTEX
  5
404
330
403
100
AcDbEntity
  8
Visible (ANSI)
100
AcDbVertex
100
AcDb2dVertex
 10
172.04142649507
 20
29.88816251510333
 30
0.0
  0
VERTEX
  5
405
330
403
100
AcDbEntity
  8
Visible (ANSI)
100
AcDbVertex
100
AcDb2dVertex
 10
172.0347117735549
 20
29.88206088998329
 30
0.0
  0
VERTEX
  5
407
330
403
100
AcDbEntity
  8
Visible (ANSI)
100
AcDbVertex
100
AcDb2dVertex
 10
172.027600108893
 20
29.87621991779128
 30
0.0
  0
VERTEX
  5
408
330
403
100
AcDbEntity
  8
Visible (ANSI)
100
AcDbVertex
100
AcDb2dVertex
 10
172.0201192263266
 20
29.8706555644325
 30
0.0
  0
VERTEX
  5
409
330
403
100
AcDbEntity
  8
Visible (ANSI)
100
AcDbVertex
100
AcDb2dVertex
 10
172.0123051072757
 20
29.86537876548303
 30
0.0
  0
VERTEX
  5
40A
330
403
100
AcDbEntity
  8
Visible (ANSI)
100
AcDbVertex
100
AcDb2dVertex
 10
172.0041933789981
 20
29.8604002525705
 30
0.0
  0
VERTEX
  5
40B
330
403
100
AcDbEntity
  8
Visible (ANSI)
100
AcDbVertex
100
AcDb2dVertex
 10
171.9958107026942
 20
29.85573536926664
 30
0.0
  0
VERTEX
  5
40C
330
403
100
AcDbEntity
  8
Visible (ANSI)
100
AcDbVertex
100
AcDb2dVertex
 10
171.9872001388782
 20
29.85138936216595
 30
0.0
  0
VERTEX
  5
40D
330
403
100
AcDbEntity
  8
Visible (ANSI)
100
AcDbVertex
100
AcDb2dVertex
 10
171.978395564739
 20
29.84737193591343
 30
0.0
  0
VERTEX
  5
40E
330
403
100
AcDbEntity
  8
Visible (ANSI)
100
AcDbVertex
100
AcDb2dVertex
 10
171.9694385339164
 20
29.84368746935239
 30
0.0
  0
VERTEX
  5
40F
330
403
100
AcDbEntity
  8
Visible (ANSI)
100
AcDbVertex
100
AcDb2dVertex
 10
171.9603569583267
 20
29.84034713392118
 30
0.0
  0
VERTEX
  5
410
330
403
100
AcDbEntity
  8
Visible (ANSI)
100
AcDbVertex
100
AcDb2dVertex
 10
171.9512032145556
 20
29.83734683508713
 30
0.0
  0
VERTEX
  5
411
330
403
100
AcDbEntity
  8
Visible (ANSI)
100
AcDbVertex
100
AcDb2dVertex
 10
171.942007336381
 20
29.83469410259188
 30
0.0
  0
VERTEX
  5
412
330
403
100
AcDbEntity
  8
Visible (ANSI)
100
AcDbVertex
100
AcDb2dVertex
 10
171.9328108940359
 20
29.83238840368398
 30
0.0
  0
VERTEX
  5
413
330
403
100
AcDbEntity
  8
Visible (ANSI)
100
AcDbVertex
100
AcDb2dVertex
 10
171.9236541717769
 20
29.83042846506725
 30
0.0
  0
VERTEX
  5
414
330
403
100
AcDbEntity
  8
Visible (ANSI)
100
AcDbVertex
100
AcDb2dVertex
 10
171.9145760807692
 20
29.82881225151221
 30
0.0
  0
VERTEX
  5
415
330
403
100
AcDbEntity
  8
Visible (ANSI)
100
AcDbVertex
100
AcDb2dVertex
 10
171.9056183405853
 20
29.82753442389331
 30
0.0
  0
VERTEX
  5
416
330
403
100
AcDbEntity
  8
Visible (ANSI)
100
AcDbVertex
100
AcDb2dVertex
 10
171.8968126443277
 20
29.82659365397073
 30
0.0
  0
VERTEX
  5
417
330
403
100
AcDbEntity
  8
Visible (ANSI)
100
AcDbVertex
100
AcDb2dVertex
 10
171.8882018689478
 20
29.82598040551367
 30
0.0
  0
VERTEX
  5
418
330
403
100
AcDbEntity
  8
Visible (ANSI)
100
AcDbVertex
100
AcDb2dVertex
 10
171.8798230007942
 20
29.82568661371426
 30
0.0
  0
VERTEX
  5
419
330
403
100
AcDbEntity
  8
Visible (ANSI)
100
AcDbVertex
100
AcDb2dVertex
 10
171.8717070858329
 20
29.82570568529861
 30
0.0
  0
VERTEX
  5
41A
330
403
100
AcDbEntity
  8
Visible (ANSI)
100
AcDbVertex
100
AcDb2dVertex
 10
171.8638919483714
 20
29.82602517441185
 30
0.0
  0
VERTEX
  5
41B
330
403
100
AcDbEntity
  8
Visible (ANSI)
100
AcDbVertex
100
AcDb2dVertex
 10
171.8564136455364
 20
29.82663158876999
 30
0.0
  0
VERTEX
  5
41C
330
403
100
AcDbEntity
  8
Visible (ANSI)
100
AcDbVertex
100
AcDb2dVertex
 10
171.8493022111058
 20
29.82751285984596
 30
0.0
  0
VERTEX
  5
41D
330
403
100
AcDbEntity
  8
Visible (ANSI)
100
AcDbVertex
100
AcDb2dVertex
 10
171.8425858536003
 20
29.82865589679433
 30
0.0
  0
SEQEND
  5
406
330
403
100
AcDbEntity
  8
Visible (ANSI)
  0
LINE
  5
41E
330
6C
100
AcDbEntity
  8
Visible (ANSI)
100
AcDbLine
 10
171.9564428381757
 20
54.83796816620827
 30
0.0
 11
172.4723370271855
 21
55.13505187142011
 31
0.0
  0
LINE
  5
41F
330
6C
100
AcDbEntity
  8
Visible (ANSI)
100
AcDbLine
 10
172.5607253748338
 20
30.1872072522481
 30
0.0
 11
172.0414261547306
 21
29.88816272003893
 31
0.0
  0
LINE
  5
420
330
6C
100
AcDbEntity
  8
Visible (ANSI)
100
AcDbLine
 10
171.974900176296
 20
54.82341763808797
 30
0.0
 11
172.0414261547307
 21
54.7851078749869
 31
0.0
  0
POLYLINE
  5
421
330
6C
100
AcDbEntity
  8
Visible (ANSI)
100
AcDb2dPolyline
 66
     1
 10
0.0
 20
0.0
 30
0.0
 70
   128
  0
VERTEX
  5
422
330
421
100
AcDbEntity
  8
Visible (ANSI)
100
AcDbVertex
100
AcDb2dVertex
 10
171.9309741999212
 20
54.89551736121949
 30
0.0
  0
VERTEX
  5
423
330
421
100
AcDbEntity
  8
Visible (ANSI)
100
AcDbVertex
100
AcDb2dVertex
 10
171.9314557685338
 20
54.89363334139969
 30
0.0
  0
VERTEX
  5
425
330
421
100
AcDbEntity
  8
Visible (ANSI)
100
AcDbVertex
100
AcDb2dVertex
 10
171.9319574286016
 20
54.89176089147949
 30
0.0
  0
VERTEX
  5
426
330
421
100
AcDbEntity
  8
Visible (ANSI)
100
AcDbVertex
100
AcDb2dVertex
 10
171.9324748772913
 20
54.88990242599472
 30
0.0
  0
VERTEX
  5
427
330
421
100
AcDbEntity
  8
Visible (ANSI)
100
AcDbVertex
100
AcDb2dVertex
 10
171.9330122709995
 20
54.88805790174748
 30
0.0
  0
VERTEX
  5
428
330
421
100
AcDbEntity
  8
Visible (ANSI)
100
AcDbVertex
100
AcDb2dVertex
 10
171.9335652340028
 20
54.88622477996859
 30
0.0
  0
VERTEX
  5
429
330
421
100
AcDbEntity
  8
Visible (ANSI)
100
AcDbVertex
100
AcDb2dVertex
 10
171.9341293544255
 20
54.88440786806594
 30
0.0
  0
VERTEX
  5
42A
330
421
100
AcDbEntity
  8
Visible (ANSI)
100
AcDbVertex
100
AcDb2dVertex
 10
171.9347129282756
 20
54.88260215864713
 30
0.0
  0
VERTEX
  5
42B
330
421
100
AcDbEntity
  8
Visible (ANSI)
100
AcDbVertex
100
AcDb2dVertex
 10
171.9353072245074
 20
54.88081486424801
 30
0.0
  0
VERTEX
  5
42C
330
421
100
AcDbEntity
  8
Visible (ANSI)
100
AcDbVertex
100
AcDb2dVertex
 10
171.935916220671
 20
54.87903847168438
 30
0.0
  0
VERTEX
  5
42D
330
421
100
AcDbEntity
  8
Visible (ANSI)
100
AcDbVertex
100
AcDb2dVertex
 10
171.9365353640592
 20
54.87727770726441
 30
0.0
  0
VERTEX
  5
42E
330
421
100
AcDbEntity
  8
Visible (ANSI)
100
AcDbVertex
100
AcDb2dVertex
 10
171.9371643158067
 20
54.87553237584859
 30
0.0
  0
VERTEX
  5
42F
330
421
100
AcDbEntity
  8
Visible (ANSI)
100
AcDbVertex
100
AcDb2dVertex
 10
171.937802703797
 20
54.87380471881444
 30
0.0
  0
VERTEX
  5
430
330
421
100
AcDbEntity
  8
Visible (ANSI)
100
AcDbVertex
100
AcDb2dVertex
 10
171.9384458751798
 20
54.87209203780616
 30
0.0
  0
VERTEX
  5
431
330
421
100
AcDbEntity
  8
Visible (ANSI)
100
AcDbVertex
100
AcDb2dVertex
 10
171.9390976410869
 20
54.87039409080097
 30
0.0
  0
VERTEX
  5
432
330
421
100
AcDbEntity
  8
Visible (ANSI)
100
AcDbVertex
100
AcDb2dVertex
 10
171.939753285536
 20
54.86871305441806
 30
0.0
  0
VERTEX
  5
433
330
421
100
AcDbEntity
  8
Visible (ANSI)
100
AcDbVertex
100
AcDb2dVertex
 10
171.9404165580824
 20
54.86704865117512
 30
0.0
  0
VERTEX
  5
434
330
421
100
AcDbEntity
  8
Visible (ANSI)
100
AcDbVertex
100
AcDb2dVertex
 10
171.9410784354997
 20
54.86540055835691
 30
0.0
  0
VERTEX
  5
435
330
421
100
AcDbEntity
  8
Visible (ANSI)
100
AcDbVertex
100
AcDb2dVertex
 10
171.9417468571383
 20
54.86376601885075
 30
0.0
  0
VERTEX
  5
436
330
421
100
AcDbEntity
  8
Visible (ANSI)
100
AcDbVertex
100
AcDb2dVertex
 10
171.942412743899
 20
54.86214958909688
 30
0.0
  0
VERTEX
  5
437
330
421
100
AcDbEntity
  8
Visible (ANSI)
100
AcDbVertex
100
AcDb2dVertex
 10
171.9430754857207
 20
54.86055337344967
 30
0.0
  0
VERTEX
  5
438
330
421
100
AcDbEntity
  8
Visible (ANSI)
100
AcDbVertex
100
AcDb2dVertex
 10
171.9437386952647
 20
54.85896964859907
 30
0.0
  0
VERTEX
  5
439
330
421
100
AcDbEntity
  8
Visible (ANSI)
100
AcDbVertex
100
AcDb2dVertex
 10
171.9444017134677
 20
54.8574004906811
 30
0.0
  0
VERTEX
  5
43A
330
421
100
AcDbEntity
  8
Visible (ANSI)
100
AcDbVertex
100
AcDb2dVertex
 10
171.9450553624492
 20
54.85585039925141
 30
0.0
  0
VERTEX
  5
43B
330
421
100
AcDbEntity
  8
Visible (ANSI)
100
AcDbVertex
100
AcDb2dVertex
 10
171.945707434035
 20
54.85431653224373
 30
0.0
  0
SEQEND
  5
424
330
421
100
AcDbEntity
  8
Visible (ANSI)
  0
LINE
  5
43C
330
6C
100
AcDbEntity
  8
Visible (ANSI)
100
AcDbLine
 10
171.9309760755093
 20
54.89551524355284
 30
0.0
 11
171.9092406727888
 21
54.88299865757064
 31
0.0
  0
LINE
  5
43D
330
6C
100
AcDbEntity
  8
Visible (ANSI)
100
AcDbLine
 10
171.9092406727888
 20
54.88299865757064
 30
0.0
 11
171.842587727861
 21
54.84461577932879
 31
0.0
  0
LINE
  5
43E
330
6C
100
AcDbEntity
  8
Visible (ANSI)
100
AcDbLine
 10
172.0414261547307
 20
54.7851078749869
 30
0.0
 11
172.5607253748339
 21
55.08415240719608
 31
0.0
  0
LINE
  5
43F
330
6C
100
AcDbEntity
  8
Visible (ANSI)
100
AcDbLine
 10
172.4723370271855
 20
55.13505187142011
 30
0.0
 11
172.5607253748339
 21
55.08415240719608
 31
0.0
  0
POLYLINE
  5
440
330
6C
100
AcDbEntity
  8
Visible (ANSI)
100
AcDb2dPolyline
 66
     1
 10
0.0
 20
0.0
 30
0.0
 70
   128
  0
VERTEX
  5
441
330
440
100
AcDbEntity
  8
Visible (ANSI)
100
AcDbVertex
100
AcDb2dVertex
 10
123.9581650355851
 20
82.41942192071075
 30
0.0
  0
VERTEX
  5
442
330
440
100
AcDbEntity
  8
Visible (ANSI)
100
AcDbVertex
100
AcDb2dVertex
 10
123.9605224465463
 20
82.42582633244865
 30
0.0
  0
VERTEX
  5
444
330
440
100
AcDbEntity
  8
Visible (ANSI)
100
AcDbVertex
100
AcDb2dVertex
 10
123.9633046778285
 20
82.4324434487365
 30
0.0
  0
VERTEX
  5
445
330
440
100
AcDbEntity
  8
Visible (ANSI)
100
AcDbVertex
100
AcDb2dVertex
 10
123.9665089915461
 20
82.43924224405931
 30
0.0
  0
VERTEX
  5
446
330
440
100
AcDbEntity
  8
Visible (ANSI)
100
AcDbVertex
100
AcDb2dVertex
 10
123.9701308494457
 20
82.44618326047778
 30
0.0
  0
VERTEX
  5
447
330
440
100
AcDbEntity
  8
Visible (ANSI)
100
AcDbVertex
100
AcDb2dVertex
 10
123.9741639377967
 20
82.45323338461858
 30
0.0
  0
VERTEX
  5
448
330
440
100
AcDbEntity
  8
Visible (ANSI)
100
AcDbVertex
100
AcDb2dVertex
 10
123.9786001507978
 20
82.46035849978984
 30
0.0
  0
VERTEX
  5
449
330
440
100
AcDbEntity
  8
Visible (ANSI)
100
AcDbVertex
100
AcDb2dVertex
 10
123.9834296901364
 20
82.46752103031578
 30
0.0
  0
VERTEX
  5
44A
330
440
100
AcDbEntity
  8
Visible (ANSI)
100
AcDbVertex
100
AcDb2dVertex
 10
123.9886410649885
 20
82.47468488153341
 30
0.0
  0
VERTEX
  5
44B
330
440
100
AcDbEntity
  8
Visible (ANSI)
100
AcDbVertex
100
AcDb2dVertex
 10
123.994221116909
 20
82.48181548279189
 30
0.0
  0
VERTEX
  5
44C
330
440
100
AcDbEntity
  8
Visible (ANSI)
100
AcDbVertex
100
AcDb2dVertex
 10
124.0001551525772
 20
82.48887735089827
 30
0.0
  0
VERTEX
  5
44D
330
440
100
AcDbEntity
  8
Visible (ANSI)
100
AcDbVertex
100
AcDb2dVertex
 10
124.0064269479456
 20
82.49583412117235
 30
0.0
  0
VERTEX
  5
44E
330
440
100
AcDbEntity
  8
Visible (ANSI)
100
AcDbVertex
100
AcDb2dVertex
 10
124.0130188146121
 20
82.50265107000005
 30
0.0
  0
VERTEX
  5
44F
330
440
100
AcDbEntity
  8
Visible (ANSI)
100
AcDbVertex
100
AcDb2dVertex
 10
124.0199117159739
 20
82.50929021305825
 30
0.0
  0
VERTEX
  5
450
330
440
100
AcDbEntity
  8
Visible (ANSI)
100
AcDbVertex
100
AcDb2dVertex
 10
124.027085329451
 20
82.5157251038051
 30
0.0
  0
VERTEX
  5
451
330
440
100
AcDbEntity
  8
Visible (ANSI)
100
AcDbVertex
100
AcDb2dVertex
 10
124.034518100415
 20
82.52191633654943
 30
0.0
  0
VERTEX
  5
452
330
440
100
AcDbEntity
  8
Visible (ANSI)
100
AcDbVertex
100
AcDb2dVertex
 10
124.0421873956764
 20
82.52783367849252
 30
0.0
  0
VERTEX
  5
453
330
440
100
AcDbEntity
  8
Visible (ANSI)
100
AcDbVertex
100
AcDb2dVertex
 10
124.0500695594867
 20
82.53344876364833
 30
0.0
  0
VERTEX
  5
454
330
440
100
AcDbEntity
  8
Visible (ANSI)
100
AcDbVertex
100
AcDb2dVertex
 10
124.0581400130984
 20
82.53873026751195
 30
0.0
  0
VERTEX
  5
455
330
440
100
AcDbEntity
  8
Visible (ANSI)
100
AcDbVertex
100
AcDb2dVertex
 10
124.0663733916584
 20
82.5436512859993
 30
0.0
  0
VERTEX
  5
456
330
440
100
AcDbEntity
  8
Visible (ANSI)
100
AcDbVertex
100
AcDb2dVertex
 10
124.0747436095446
 20
82.54818699384978
 30
0.0
  0
VERTEX
  5
457
330
440
100
AcDbEntity
  8
Visible (ANSI)
100
AcDbVertex
100
AcDb2dVertex
 10
124.0832240138535
 20
82.55230729913044
 30
0.0
  0
VERTEX
  5
458
330
440
100
AcDbEntity
  8
Visible (ANSI)
100
AcDbVertex
100
AcDb2dVertex
 10
124.0917874730697
 20
82.55599412217559
 30
0.0
  0
VERTEX
  5
459
330
440
100
AcDbEntity
  8
Visible (ANSI)
100
AcDbVertex
100
AcDb2dVertex
 10
124.100406501516
 20
82.5592242680408
 30
0.0
  0
VERTEX
  5
45A
330
440
100
AcDbEntity
  8
Visible (ANSI)
100
AcDbVertex
100
AcDb2dVertex
 10
124.1090533739501
 20
82.56198177082083
 30
0.0
  0
SEQEND
  5
443
330
440
100
AcDbEntity
  8
Visible (ANSI)
  0
POLYLINE
  5
45B
330
6C
100
AcDbEntity
  8
Visible (ANSI)
100
AcDb2dPolyline
 66
     1
 10
0.0
 20
0.0
 30
0.0
 70
   128
  0
VERTEX
  5
45C
330
45B
100
AcDbEntity
  8
Visible (ANSI)
100
AcDbVertex
100
AcDb2dVertex
 10
171.8905378569895
 20
55.04645484082238
 30
0.0
  0
VERTEX
  5
45D
330
45B
100
AcDbEntity
  8
Visible (ANSI)
100
AcDbVertex
100
AcDb2dVertex
 10
171.8861807040714
 20
55.04122705286506
 30
0.0
  0
VERTEX
  5
45F
330
45B
100
AcDbEntity
  8
Visible (ANSI)
100
AcDbVertex
100
AcDb2dVertex
 10
171.8818513951411
 20
55.03552662182261
 30
0.0
  0
VERTEX
  5
460
330
45B
100
AcDbEntity
  8
Visible (ANSI)
100
AcDbVertex
100
AcDb2dVertex
 10
171.877577655441
 20
55.0293695136002
 30
0.0
  0
VERTEX
  5
461
330
45B
100
AcDbEntity
  8
Visible (ANSI)
100
AcDbVertex
100
AcDb2dVertex
 10
171.8733827227768
 20
55.02278136932871
 30
0.0
  0
VERTEX
  5
462
330
45B
100
AcDbEntity
  8
Visible (ANSI)
100
AcDbVertex
100
AcDb2dVertex
 10
171.8693022244065
 20
55.01577537630097
 30
0.0
  0
VERTEX
  5
463
330
45B
100
AcDbEntity
  8
Visible (ANSI)
100
AcDbVertex
100
AcDb2dVertex
 10
171.8653585736592
 20
55.00838406785866
 30
0.0
  0
VERTEX
  5
464
330
45B
100
AcDbEntity
  8
Visible (ANSI)
100
AcDbVertex
100
AcDb2dVertex
 10
171.8615778395636
 20
55.00063227881778
 30
0.0
  0
VERTEX
  5
465
330
45B
100
AcDbEntity
  8
Visible (ANSI)
100
AcDbVertex
100
AcDb2dVertex
 10
171.8579854035659
 20
54.992546903707
 30
0.0
  0
VERTEX
  5
466
330
45B
100
AcDbEntity
  8
Visible (ANSI)
100
AcDbVertex
100
AcDb2dVertex
 10
171.8546058278205
 20
54.98415927658666
 30
0.0
  0
VERTEX
  5
467
330
45B
100
AcDbEntity
  8
Visible (ANSI)
100
AcDbVertex
100
AcDb2dVertex
 10
171.8514627763726
 20
54.97549775866509
 30
0.0
  0
VERTEX
  5
468
330
45B
100
AcDbEntity
  8
Visible (ANSI)
100
AcDbVertex
100
AcDb2dVertex
 10
171.8485746428368
 20
54.96659502414971
 30
0.0
  0
VERTEX
  5
469
330
45B
100
AcDbEntity
  8
Visible (ANSI)
100
AcDbVertex
100
AcDb2dVertex
 10
171.8459714609911
 20
54.95748559591423
 30
0.0
  0
VERTEX
  5
46A
330
45B
100
AcDbEntity
  8
Visible (ANSI)
100
AcDbVertex
100
AcDb2dVertex
 10
171.8436693138406
 20
54.94819836190929
 30
0.0
  0
VERTEX
  5
46B
330
45B
100
AcDbEntity
  8
Visible (ANSI)
100
AcDbVertex
100
AcDb2dVertex
 10
171.8416872462849
 20
54.93877130168023
 30
0.0
  0
VERTEX
  5
46C
330
45B
100
AcDbEntity
  8
Visible (ANSI)
100
AcDbVertex
100
AcDb2dVertex
 10
171.8400429301327
 20
54.92923914839662
 30
0.0
  0
VERTEX
  5
46D
330
45B
100
AcDbEntity
  8
Visible (ANSI)
100
AcDbVertex
100
AcDb2dVertex
 10
171.8387525977282
 20
54.91963826196086
 30
0.0
  0
VERTEX
  5
46E
330
45B
100
AcDbEntity
  8
Visible (ANSI)
100
AcDbVertex
100
AcDb2dVertex
 10
171.8378267028174
 20
54.91000656697469
 30
0.0
  0
VERTEX
  5
46F
330
45B
100
AcDbEntity
  8
Visible (ANSI)
100
AcDbVertex
100
AcDb2dVertex
 10
171.8372868829949
 20
54.90037375127151
 30
0.0
  0
VERTEX
  5
470
330
45B
100
AcDbEntity
  8
Visible (ANSI)
100
AcDbVertex
100
AcDb2dVertex
 10
171.8371403895099
 20
54.890778350923
 30
0.0
  0
VERTEX
  5
471
330
45B
100
AcDbEntity
  8
Visible (ANSI)
100
AcDbVertex
100
AcDb2dVertex
 10
171.8373970289715
 20
54.88125793682722
 30
0.0
  0
VERTEX
  5
472
330
45B
100
AcDbEntity
  8
Visible (ANSI)
100
AcDbVertex
100
AcDb2dVertex
 10
171.8380648905879
 20
54.87184663523151
 30
0.0
  0
VERTEX
  5
473
330
45B
100
AcDbEntity
  8
Visible (ANSI)
100
AcDbVertex
100
AcDb2dVertex
 10
171.8391502963864
 20
54.86257755473142
 30
0.0
  0
VERTEX
  5
474
330
45B
100
AcDbEntity
  8
Visible (ANSI)
100
AcDbVertex
100
AcDb2dVertex
 10
171.8406577929168
 20
54.85349014848862
 30
0.0
  0
VERTEX
  5
475
330
45B
100
AcDbEntity
  8
Visible (ANSI)
100
AcDbVertex
100
AcDb2dVertex
 10
171.8425858536003
 20
54.84461789775988
 30
0.0
  0
SEQEND
  5
45E
330
45B
100
AcDbEntity
  8
Visible (ANSI)
  0
LINE
  5
476
330
6C
100
AcDbEntity
  8
Visible (ANSI)
100
AcDbLine
 10
171.8939295486254
 20
54.94621350906628
 30
0.0
 11
172.4098370271857
 21
55.24330486722107
 31
0.0
  0
LINE
  5
477
330
6C
100
AcDbEntity
  8
Visible (ANSI)
100
AcDbLine
 10
172.4098370271857
 20
55.34549825782638
 30
0.0
 11
171.8905378070823
 21
55.04645372561729
 31
0.0
  0
LINE
  5
478
330
6C
100
AcDbEntity
  8
Visible (ANSI)
100
AcDbLine
 10
171.8905378070823
 20
54.96939050838065
 30
0.0
 11
171.8905378070823
 21
55.04645372561729
 31
0.0
  0
LINE
  5
479
330
6C
100
AcDbEntity
  8
Visible (ANSI)
100
AcDbLine
 10
172.4098370271857
 20
55.24330486722107
 30
0.0
 11
172.4098370271857
 21
55.34549825782638
 31
0.0
  0
POLYLINE
  5
47A
330
6C
100
AcDbEntity
  8
Visible (ANSI)
100
AcDb2dPolyline
 66
     1
 10
0.0
 20
0.0
 30
0.0
 70
   128
  0
VERTEX
  5
47B
330
47A
100
AcDbEntity
  8
Visible (ANSI)
100
AcDbVertex
100
AcDb2dVertex
 10
171.9309741999212
 20
54.89551736121949
 30
0.0
  0
VERTEX
  5
47C
330
47A
100
AcDbEntity
  8
Visible (ANSI)
100
AcDbVertex
100
AcDb2dVertex
 10
171.9295866950543
 20
54.89687064297569
 30
0.0
  0
VERTEX
  5
47E
330
47A
100
AcDbEntity
  8
Visible (ANSI)
100
AcDbVertex
100
AcDb2dVertex
 10
171.9282192615048
 20
54.89823548303478
 30
0.0
  0
VERTEX
  5
47F
330
47A
100
AcDbEntity
  8
Visible (ANSI)
100
AcDbVertex
100
AcDb2dVertex
 10
171.9268718444279
 20
54.89961184981389
 30
0.0
  0
VERTEX
  5
480
330
47A
100
AcDbEntity
  8
Visible (ANSI)
100
AcDbVertex
100
AcDb2dVertex
 10
171.9255443525072
 20
54.90099477939692
 30
0.0
  0
VERTEX
  5
481
330
47A
100
AcDbEntity
  8
Visible (ANSI)
100
AcDbVertex
100
AcDb2dVertex
 10
171.9242324103147
 20
54.90238664451541
 30
0.0
  0
VERTEX
  5
482
330
47A
100
AcDbEntity
  8
Visible (ANSI)
100
AcDbVertex
100
AcDb2dVertex
 10
171.9229443498888
 20
54.90378491419058
 30
0.0
  0
VERTEX
  5
483
330
47A
100
AcDbEntity
  8
Visible (ANSI)
100
AcDbVertex
100
AcDb2dVertex
 10
171.9216757240123
 20
54.90518700848287
 30
0.0
  0
VERTEX
  5
484
330
47A
100
AcDbEntity
  8
Visible (ANSI)
100
AcDbVertex
100
AcDb2dVertex
 10
171.9204262978518
 20
54.90659524782596
 30
0.0
  0
VERTEX
  5
485
330
47A
100
AcDbEntity
  8
Visible (ANSI)
100
AcDbVertex
100
AcDb2dVertex
 10
171.9191958016699
 20
54.90800456555796
 30
0.0
  0
VERTEX
  5
486
330
47A
100
AcDbEntity
  8
Visible (ANSI)
100
AcDbVertex
100
AcDb2dVertex
 10
171.9179796833425
 20
54.90941723265779
 30
0.0
  0
VERTEX
  5
487
330
47A
100
AcDbEntity
  8
Visible (ANSI)
100
AcDbVertex
100
AcDb2dVertex
 10
171.9167861003951
 20
54.91083061765156
 30
0.0
  0
VERTEX
  5
488
330
47A
100
AcDbEntity
  8
Visible (ANSI)
100
AcDbVertex
100
AcDb2dVertex
 10
171.9156104336826
 20
54.91224449725805
 30
0.0
  0
VERTEX
  5
489
330
47A
100
AcDbEntity
  8
Visible (ANSI)
100
AcDbVertex
100
AcDb2dVertex
 10
171.9144522788094
 20
54.91365618293619
 30
0.0
  0
VERTEX
  5
48A
330
47A
100
AcDbEntity
  8
Visible (ANSI)
100
AcDbVertex
100
AcDb2dVertex
 10
171.913311200073
 20
54.91506296811646
 30
0.0
  0
VERTEX
  5
48B
330
47A
100
AcDbEntity
  8
Visible (ANSI)
100
AcDbVertex
100
AcDb2dVertex
 10
171.9121824822688
 20
54.9164719411963
 30
0.0
  0
VERTEX
  5
48C
330
47A
100
AcDbEntity
  8
Visible (ANSI)
100
AcDbVertex
100
AcDb2dVertex
 10
171.9110741238608
 20
54.91787301210869
 30
0.0
  0
VERTEX
  5
48D
330
47A
100
AcDbEntity
  8
Visible (ANSI)
100
AcDbVertex
100
AcDb2dVertex
 10
171.9099813504012
 20
54.91926832380486
 30
0.0
  0
VERTEX
  5
48E
330
47A
100
AcDbEntity
  8
Visible (ANSI)
100
AcDbVertex
100
AcDb2dVertex
 10
171.9089036070532
 20
54.92065510111044
 30
0.0
  0
VERTEX
  5
48F
330
47A
100
AcDbEntity
  8
Visible (ANSI)
100
AcDbVertex
100
AcDb2dVertex
 10
171.9078403107198
 20
54.92203546390732
 30
0.0
  0
VERTEX
  5
490
330
47A
100
AcDbEntity
  8
Visible (ANSI)
100
AcDbVertex
100
AcDb2dVertex
 10
171.9067866052835
 20
54.92341150811622
 30
0.0
  0
VERTEX
  5
491
330
47A
100
AcDbEntity
  8
Visible (ANSI)
100
AcDbVertex
100
AcDb2dVertex
 10
171.9057503525729
 20
54.92477306498719
 30
0.0
  0
VERTEX
  5
492
330
47A
100
AcDbEntity
  8
Visible (ANSI)
100
AcDbVertex
100
AcDb2dVertex
 10
171.9047266464316
 20
54.9261222016254
 30
0.0
  0
VERTEX
  5
493
330
47A
100
AcDbEntity
  8
Visible (ANSI)
100
AcDbVertex
100
AcDb2dVertex
 10
171.9037148062771
 20
54.92746343743987
 30
0.0
  0
VERTEX
  5
494
330
47A
100
AcDbEntity
  8
Visible (ANSI)
100
AcDbVertex
100
AcDb2dVertex
 10
171.9027098813585
 20
54.92879144686002
 30
0.0
  0
SEQEND
  5
47D
330
47A
100
AcDbEntity
  8
Visible (ANSI)
  0
LINE
  5
495
330
6C
100
AcDbEntity
  8
Visible (ANSI)
100
AcDbLine
 10
124.1090533816866
 20
82.56198062242093
 30
0.0
 11
124.62835260179
 21
82.86102515463005
 31
0.0
  0
POLYLINE
  5
496
330
6C
100
AcDbEntity
  8
Visible (ANSI)
100
AcDb2dPolyline
 66
     1
 10
0.0
 20
0.0
 30
0.0
 70
   128
  0
VERTEX
  5
497
330
496
100
AcDbEntity
  8
Visible (ANSI)
100
AcDbVertex
100
AcDb2dVertex
 10
123.958165035585
 20
57.40345991974518
 30
0.0
  0
VERTEX
  5
498
330
496
100
AcDbEntity
  8
Visible (ANSI)
100
AcDbVertex
100
AcDb2dVertex
 10
123.9549653596802
 20
57.4066035445058
 30
0.0
  0
VERTEX
  5
49A
330
496
100
AcDbEntity
  8
Visible (ANSI)
100
AcDbVertex
100
AcDb2dVertex
 10
123.9518755725565
 20
57.40980643673228
 30
0.0
  0
VERTEX
  5
49B
330
496
100
AcDbEntity
  8
Visible (ANSI)
100
AcDbVertex
100
AcDb2dVertex
 10
123.9488989762703
 20
57.41306649423318
 30
0.0
  0
VERTEX
  5
49C
330
496
100
AcDbEntity
  8
Visible (ANSI)
100
AcDbVertex
100
AcDb2dVertex
 10
123.9460387650217
 20
57.41638156229928
 30
0.0
  0
VERTEX
  5
49D
330
496
100
AcDbEntity
  8
Visible (ANSI)
100
AcDbVertex
100
AcDb2dVertex
 10
123.9432980002648
 20
57.41974940011157
 30
0.0
  0
VERTEX
  5
49E
330
496
100
AcDbEntity
  8
Visible (ANSI)
100
AcDbVertex
100
AcDb2dVertex
 10
123.940679627301
 20
57.42316773829581
 30
0.0
  0
VERTEX
  5
49F
330
496
100
AcDbEntity
  8
Visible (ANSI)
100
AcDbVertex
100
AcDb2dVertex
 10
123.9381864172028
 20
57.42663424533059
 30
0.0
  0
VERTEX
  5
4A0
330
496
100
AcDbEntity
  8
Visible (ANSI)
100
AcDbVertex
100
AcDb2dVertex
 10
123.9358210746693
 20
57.43014654191739
 30
0.0
  0
VERTEX
  5
4A1
330
496
100
AcDbEntity
  8
Visible (ANSI)
100
AcDbVertex
100
AcDb2dVertex
 10
123.9335861218743
 20
57.43370218186981
 30
0.0
  0
VERTEX
  5
4A2
330
496
100
AcDbEntity
  8
Visible (ANSI)
100
AcDbVertex
100
AcDb2dVertex
 10
123.9314839399487
 20
57.43729870470533
 30
0.0
  0
VERTEX
  5
4A3
330
496
100
AcDbEntity
  8
Visible (ANSI)
100
AcDbVertex
100
AcDb2dVertex
 10
123.9295167938708
 20
57.4409335638316
 30
0.0
  0
VERTEX
  5
4A4
330
496
100
AcDbEntity
  8
Visible (ANSI)
100
AcDbVertex
100
AcDb2dVertex
 10
123.9276867826865
 20
57.44460420321195
 30
0.0
  0
VERTEX
  5
4A5
330
496
100
AcDbEntity
  8
Visible (ANSI)
100
AcDbVertex
100
AcDb2dVertex
 10
123.9259958768437
 20
57.44830802616217
 30
0.0
  0
VERTEX
  5
4A6
330
496
100
AcDbEntity
  8
Visible (ANSI)
100
AcDbVertex
100
AcDb2dVertex
 10
123.9244458684134
 20
57.4520423858321
 30
0.0
  0
VERTEX
  5
4A7
330
496
100
AcDbEntity
  8
Visible (ANSI)
100
AcDbVertex
100
AcDb2dVertex
 10
123.9230384333134
 20
57.45580461626078
 30
0.0
  0
VERTEX
  5
4A8
330
496
100
AcDbEntity
  8
Visible (ANSI)
100
AcDbVertex
100
AcDb2dVertex
 10
123.921775077381
 20
57.45959202524685
 30
0.0
  0
VERTEX
  5
4A9
330
496
100
AcDbEntity
  8
Visible (ANSI)
100
AcDbVertex
100
AcDb2dVertex
 10
123.9206571446691
 20
57.46340186075654
 30
0.0
  0
VERTEX
  5
4AA
330
496
100
AcDbEntity
  8
Visible (ANSI)
100
AcDbVertex
100
AcDb2dVertex
 10
123.9196858340401
 20
57.46723138758913
 30
0.0
  0
VERTEX
  5
4AB
330
496
100
AcDbEntity
  8
Visible (ANSI)
100
AcDbVertex
100
AcDb2dVertex
 10
123.9188621908683
 20
57.47107782511864
 30
0.0
  0
VERTEX
  5
4AC
330
496
100
AcDbEntity
  8
Visible (ANSI)
100
AcDbVertex
100
AcDb2dVertex
 10
123.9181870987443
 20
57.47493839033029
 30
0.0
  0
VERTEX
  5
4AD
330
496
100
AcDbEntity
  8
Visible (ANSI)
100
AcDbVertex
100
AcDb2dVertex
 10
123.917661275326
 20
57.47881026676525
 30
0.0
  0
VERTEX
  5
4AE
330
496
100
AcDbEntity
  8
Visible (ANSI)
100
AcDbVertex
100
AcDb2dVertex
 10
123.9172852827097
 20
57.4826906559182
 30
0.0
  0
VERTEX
  5
4AF
330
496
100
AcDbEntity
  8
Visible (ANSI)
100
AcDbVertex
100
AcDb2dVertex
 10
123.9170595274299
 20
57.4865767054235
 30
0.0
  0
VERTEX
  5
4B0
330
496
100
AcDbEntity
  8
Visible (ANSI)
100
AcDbVertex
100
AcDb2dVertex
 10
123.9169842480145
 20
57.49046558810956
 30
0.0
  0
SEQEND
  5
499
330
496
100
AcDbEntity
  8
Visible (ANSI)
  0
POLYLINE
  5
4B1
330
6C
100
AcDbEntity
  8
Visible (ANSI)
100
AcDb2dPolyline
 66
     1
 10
0.0
 20
0.0
 30
0.0
 70
   128
  0
VERTEX
  5
4B2
330
4B1
100
AcDbEntity
  8
Visible (ANSI)
100
AcDbVertex
100
AcDb2dVertex
 10
123.958165034548
 20
82.47441722071924
 30
0.0
  0
VERTEX
  5
4B3
330
4B1
100
AcDbEntity
  8
Visible (ANSI)
100
AcDbVertex
100
AcDb2dVertex
 10
123.9518755707741
 20
82.47302796493071
 30
0.0
  0
VERTEX
  5
4B5
330
4B1
100
AcDbEntity
  8
Visible (ANSI)
100
AcDbVertex
100
AcDb2dVertex
 10
123.9460387678089
 20
82.47141256335638
 30
0.0
  0
VERTEX
  5
4B6
330
4B1
100
AcDbEntity
  8
Visible (ANSI)
100
AcDbVertex
100
AcDb2dVertex
 10
123.9406796201712
 20
82.46958609875537
 30
0.0
  0
VERTEX
  5
4B7
330
4B1
100
AcDbEntity
  8
Visible (ANSI)
100
AcDbVertex
100
AcDb2dVertex
 10
123.9358210757064
 20
82.46756455657495
 30
0.0
  0
VERTEX
  5
4B8
330
4B1
100
AcDbEntity
  8
Visible (ANSI)
100
AcDbVertex
100
AcDb2dVertex
 10
123.9314839394302
 20
82.46537211533489
 30
0.0
  0
VERTEX
  5
4B9
330
4B1
100
AcDbEntity
  8
Visible (ANSI)
100
AcDbVertex
100
AcDb2dVertex
 10
123.9276867857977
 20
82.46302632938087
 30
0.0
  0
VERTEX
  5
4BA
330
4B1
100
AcDbEntity
  8
Visible (ANSI)
100
AcDbVertex
100
AcDb2dVertex
 10
123.9244458704876
 20
82.46054786200078
 30
0.0
  0
VERTEX
  5
4BB
330
4B1
100
AcDbEntity
  8
Visible (ANSI)
100
AcDbVertex
100
AcDb2dVertex
 10
123.921775077381
 20
82.45795549473944
 30
0.0
  0
VERTEX
  5
4BC
330
4B1
100
AcDbEntity
  8
Visible (ANSI)
100
AcDbVertex
100
AcDb2dVertex
 10
123.9196858361143
 20
82.45527584584561
 30
0.0
  0
VERTEX
  5
4BD
330
4B1
100
AcDbEntity
  8
Visible (ANSI)
100
AcDbVertex
100
AcDb2dVertex
 10
123.9181871008185
 20
82.45252855774729
 30
0.0
  0
VERTEX
  5
4BE
330
4B1
100
AcDbEntity
  8
Visible (ANSI)
100
AcDbVertex
100
AcDb2dVertex
 10
123.9172852827097
 20
82.44973355953508
 30
0.0
  0
VERTEX
  5
4BF
330
4B1
100
AcDbEntity
  8
Visible (ANSI)
100
AcDbVertex
100
AcDb2dVertex
 10
123.9169842480146
 20
82.44691834198659
 30
0.0
  0
VERTEX
  5
4C0
330
4B1
100
AcDbEntity
  8
Visible (ANSI)
100
AcDbVertex
100
AcDb2dVertex
 10
123.9172852827097
 20
82.44410312443807
 30
0.0
  0
VERTEX
  5
4C1
330
4B1
100
AcDbEntity
  8
Visible (ANSI)
100
AcDbVertex
100
AcDb2dVertex
 10
123.9181870987444
 20
82.44131058308544
 30
0.0
  0
VERTEX
  5
4C2
330
4B1
100
AcDbEntity
  8
Visible (ANSI)
100
AcDbVertex
100
AcDb2dVertex
 10
123.9196858340401
 20
82.43856083932199
 30
0.0
  0
VERTEX
  5
4C3
330
4B1
100
AcDbEntity
  8
Visible (ANSI)
100
AcDbVertex
100
AcDb2dVertex
 10
123.921775077381
 20
82.43588119162257
 30
0.0
  0
VERTEX
  5
4C4
330
4B1
100
AcDbEntity
  8
Visible (ANSI)
100
AcDbVertex
100
AcDb2dVertex
 10
123.9244458684134
 20
82.43329127644313
 30
0.0
  0
VERTEX
  5
4C5
330
4B1
100
AcDbEntity
  8
Visible (ANSI)
100
AcDbVertex
100
AcDb2dVertex
 10
123.9276867826865
 20
82.43081035280065
 30
0.0
  0
VERTEX
  5
4C6
330
4B1
100
AcDbEntity
  8
Visible (ANSI)
100
AcDbVertex
100
AcDb2dVertex
 10
123.9314839399488
 20
82.42846456893687
 30
0.0
  0
VERTEX
  5
4C7
330
4B1
100
AcDbEntity
  8
Visible (ANSI)
100
AcDbVertex
100
AcDb2dVertex
 10
123.9358210746694
 20
82.42627213038426
 30
0.0
  0
VERTEX
  5
4C8
330
4B1
100
AcDbEntity
  8
Visible (ANSI)
100
AcDbVertex
100
AcDb2dVertex
 10
123.9406796273011
 20
82.42425058574035
 30
0.0
  0
VERTEX
  5
4C9
330
4B1
100
AcDbEntity
  8
Visible (ANSI)
100
AcDbVertex
100
AcDb2dVertex
 10
123.9460387650217
 20
82.42242412438669
 30
0.0
  0
VERTEX
  5
4CA
330
4B1
100
AcDbEntity
  8
Visible (ANSI)
100
AcDbVertex
100
AcDb2dVertex
 10
123.9518755725566
 20
82.42080872305498
 30
0.0
  0
VERTEX
  5
4CB
330
4B1
100
AcDbEntity
  8
Visible (ANSI)
100
AcDbVertex
100
AcDb2dVertex
 10
123.9581650355851
 20
82.41942192071075
 30
0.0
  0
SEQEND
  5
4B4
330
4B1
100
AcDbEntity
  8
Visible (ANSI)
  0
LINE
  5
4CC
330
6C
100
AcDbEntity
  8
Visible (ANSI)
100
AcDbLine
 10
124.3979075903392
 20
57.72890322593287
 30
0.0
 11
124.5658526017899
 21
57.8256163258989
 31
0.0
  0
LINE
  5
4CD
330
6C
100
AcDbEntity
  8
Visible (ANSI)
100
AcDbLine
 10
124.0218928790383
 20
82.51111483808363
 30
0.0
 11
123.9581650340383
 21
82.47441641286178
 31
0.0
  0
LINE
  5
4CE
330
6C
100
AcDbEntity
  8
Visible (ANSI)
100
AcDbLine
 10
123.9796889191939
 20
82.46202163174425
 30
0.0
 11
123.9581650340383
 21
82.47441641286178
 31
0.0
  0
POLYLINE
  5
4CF
330
6C
100
AcDbEntity
  8
Visible (ANSI)
100
AcDb2dPolyline
 66
     1
 10
0.0
 20
0.0
 30
0.0
 70
   128
  0
VERTEX
  5
4D0
330
4CF
100
AcDbEntity
  8
Visible (ANSI)
100
AcDbVertex
100
AcDb2dVertex
 10
171.8425858536003
 20
29.82865589679433
 30
0.0
  0
VERTEX
  5
4D1
330
4CF
100
AcDbEntity
  8
Visible (ANSI)
100
AcDbVertex
100
AcDb2dVertex
 10
171.8406577929167
 20
29.82249345255308
 30
0.0
  0
VERTEX
  5
4D3
330
4CF
100
AcDbEntity
  8
Visible (ANSI)
100
AcDbVertex
100
AcDb2dVertex
 10
171.8391502963863
 20
29.81661027970903
 30
0.0
  0
VERTEX
  5
4D4
330
4CF
100
AcDbEntity
  8
Visible (ANSI)
100
AcDbVertex
100
AcDb2dVertex
 10
171.8380648905878
 20
29.81103443252156
 30
0.0
  0
VERTEX
  5
4D5
330
4CF
100
AcDbEntity
  8
Visible (ANSI)
100
AcDbVertex
100
AcDb2dVertex
 10
171.8373970289714
 20
29.80579504379019
 30
0.0
  0
VERTEX
  5
4D6
330
4CF
100
AcDbEntity
  8
Visible (ANSI)
100
AcDbVertex
100
AcDb2dVertex
 10
171.8371403895098
 20
29.80091986896461
 30
0.0
  0
VERTEX
  5
4D7
330
4CF
100
AcDbEntity
  8
Visible (ANSI)
100
AcDbVertex
100
AcDb2dVertex
 10
171.8372868829949
 20
29.79643506070372
 30
0.0
  0
VERTEX
  5
4D8
330
4CF
100
AcDbEntity
  8
Visible (ANSI)
100
AcDbVertex
100
AcDb2dVertex
 10
171.8378267028174
 20
29.79236511600621
 30
0.0
  0
VERTEX
  5
4D9
330
4CF
100
AcDbEntity
  8
Visible (ANSI)
100
AcDbVertex
100
AcDb2dVertex
 10
171.8387525977282
 20
29.78873031006305
 30
0.0
  0
VERTEX
  5
4DA
330
4CF
100
AcDbEntity
  8
Visible (ANSI)
100
AcDbVertex
100
AcDb2dVertex
 10
171.8400429301326
 20
29.78555637057893
 30
0.0
  0
VERTEX
  5
4DB
330
4CF
100
AcDbEntity
  8
Visible (ANSI)
100
AcDbVertex
100
AcDb2dVertex
 10
171.8416872462849
 20
29.78285974291405
 30
0.0
  0
VERTEX
  5
4DC
330
4CF
100
AcDbEntity
  8
Visible (ANSI)
100
AcDbVertex
100
AcDb2dVertex
 10
171.8436693138405
 20
29.78065725965567
 30
0.0
  0
VERTEX
  5
4DD
330
4CF
100
AcDbEntity
  8
Visible (ANSI)
100
AcDbVertex
100
AcDb2dVertex
 10
171.845971460991
 20
29.77896364146957
 30
0.0
  0
VERTEX
  5
4DE
330
4CF
100
AcDbEntity
  8
Visible (ANSI)
100
AcDbVertex
100
AcDb2dVertex
 10
171.8485746428368
 20
29.77779142980491
 30
0.0
  0
VERTEX
  5
4DF
330
4CF
100
AcDbEntity
  8
Visible (ANSI)
100
AcDbVertex
100
AcDb2dVertex
 10
171.8514627763725
 20
29.77714849015308
 30
0.0
  0
VERTEX
  5
4E0
330
4CF
100
AcDbEntity
  8
Visible (ANSI)
100
AcDbVertex
100
AcDb2dVertex
 10
171.8546058278205
 20
29.77704774385904
 30
0.0
  0
VERTEX
  5
4E1
330
4CF
100
AcDbEntity
  8
Visible (ANSI)
100
AcDbVertex
100
AcDb2dVertex
 10
171.8579854035658
 20
29.77749247158656
 30
0.0
  0
VERTEX
  5
4E2
330
4CF
100
AcDbEntity
  8
Visible (ANSI)
100
AcDbVertex
100
AcDb2dVertex
 10
171.8615778395635
 20
29.77848605351829
 30
0.0
  0
VERTEX
  5
4E3
330
4CF
100
AcDbEntity
  8
Visible (ANSI)
100
AcDbVertex
100
AcDb2dVertex
 10
171.8653585736591
 20
29.78002952888697
 30
0.0
  0
VERTEX
  5
4E4
330
4CF
100
AcDbEntity
  8
Visible (ANSI)
100
AcDbVertex
100
AcDb2dVertex
 10
171.8693022244065
 20
29.78212157481605
 30
0.0
  0
VERTEX
  5
4E5
330
4CF
100
AcDbEntity
  8
Visible (ANSI)
100
AcDbVertex
100
AcDb2dVertex
 10
171.8733827227767
 20
29.7847585252107
 30
0.0
  0
VERTEX
  5
4E6
330
4CF
100
AcDbEntity
  8
Visible (ANSI)
100
AcDbVertex
100
AcDb2dVertex
 10
171.8775776554409
 20
29.78793193050363
 30
0.0
  0
VERTEX
  5
4E7
330
4CF
100
AcDbEntity
  8
Visible (ANSI)
100
AcDbVertex
100
AcDb2dVertex
 10
171.881851395141
 20
29.79163837367902
 30
0.0
  0
VERTEX
  5
4E8
330
4CF
100
AcDbEntity
  8
Visible (ANSI)
100
AcDbVertex
100
AcDb2dVertex
 10
171.8861807040714
 20
29.79586482718028
 30
0.0
  0
VERTEX
  5
4E9
330
4CF
100
AcDbEntity
  8
Visible (ANSI)
100
AcDbVertex
100
AcDb2dVertex
 10
171.8905378569894
 20
29.80059848232713
 30
0.0
  0
SEQEND
  5
4D2
330
4CF
100
AcDbEntity
  8
Visible (ANSI)
  0
POLYLINE
  5
4EA
330
6C
100
AcDbEntity
  8
Visible (ANSI)
100
AcDb2dPolyline
 66
     1
 10
0.0
 20
0.0
 30
0.0
 70
   128
  0
VERTEX
  5
4EB
330
4EA
100
AcDbEntity
  8
Visible (ANSI)
100
AcDbVertex
100
AcDb2dVertex
 10
124.0132182488531
 20
57.32401396630382
 30
0.0
  0
VERTEX
  5
4EC
330
4EA
100
AcDbEntity
  8
Visible (ANSI)
100
AcDbVertex
100
AcDb2dVertex
 10
124.0098708225247
 20
57.3260289171845
 30
0.0
  0
VERTEX
  5
4EE
330
4EA
100
AcDbEntity
  8
Visible (ANSI)
100
AcDbVertex
100
AcDb2dVertex
 10
124.0066013346795
 20
57.32817348465313
 30
0.0
  0
VERTEX
  5
4EF
330
4EA
100
AcDbEntity
  8
Visible (ANSI)
100
AcDbVertex
100
AcDb2dVertex
 10
124.0034121705969
 20
57.33044601835741
 30
0.0
  0
VERTEX
  5
4F0
330
4EA
100
AcDbEntity
  8
Visible (ANSI)
100
AcDbVertex
100
AcDb2dVertex
 10
124.0003055828102
 20
57.33284474818761
 30
0.0
  0
VERTEX
  5
4F1
330
4EA
100
AcDbEntity
  8
Visible (ANSI)
100
AcDbVertex
100
AcDb2dVertex
 10
123.997283774073
 20
57.33536774841597
 30
0.0
  0
VERTEX
  5
4F2
330
4EA
100
AcDbEntity
  8
Visible (ANSI)
100
AcDbVertex
100
AcDb2dVertex
 10
123.9943488351345
 20
57.3380129759462
 30
0.0
  0
VERTEX
  5
4F3
330
4EA
100
AcDbEntity
  8
Visible (ANSI)
100
AcDbVertex
100
AcDb2dVertex
 10
123.9915027530361
 20
57.34077825601733
 30
0.0
  0
VERTEX
  5
4F4
330
4EA
100
AcDbEntity
  8
Visible (ANSI)
100
AcDbVertex
100
AcDb2dVertex
 10
123.9887474525944
 20
57.34366126303734
 30
0.0
  0
VERTEX
  5
4F5
330
4EA
100
AcDbEntity
  8
Visible (ANSI)
100
AcDbVertex
100
AcDb2dVertex
 10
123.9860847424735
 20
57.34665958043414
 30
0.0
  0
VERTEX
  5
4F6
330
4EA
100
AcDbEntity
  8
Visible (ANSI)
100
AcDbVertex
100
AcDb2dVertex
 10
123.9835163151846
 20
57.34977063841576
 30
0.0
  0
VERTEX
  5
4F7
330
4EA
100
AcDbEntity
  8
Visible (ANSI)
100
AcDbVertex
100
AcDb2dVertex
 10
123.9810437885693
 20
57.35299174756235
 30
0.0
  0
VERTEX
  5
4F8
330
4EA
100
AcDbEntity
  8
Visible (ANSI)
100
AcDbVertex
100
AcDb2dVertex
 10
123.9786686560198
 20
57.35632011786307
 30
0.0
  0
VERTEX
  5
4F9
330
4EA
100
AcDbEntity
  8
Visible (ANSI)
100
AcDbVertex
100
AcDb2dVertex
 10
123.9763923445556
 20
57.35975283490152
 30
0.0
  0
VERTEX
  5
4FA
330
4EA
100
AcDbEntity
  8
Visible (ANSI)
100
AcDbVertex
100
AcDb2dVertex
 10
123.9742161152632
 20
57.36328685502248
 30
0.0
  0
VERTEX
  5
4FB
330
4EA
100
AcDbEntity
  8
Visible (ANSI)
100
AcDbVertex
100
AcDb2dVertex
 10
123.9721411628567
 20
57.36691906277558
 30
0.0
  0
VERTEX
  5
4FC
330
4EA
100
AcDbEntity
  8
Visible (ANSI)
100
AcDbVertex
100
AcDb2dVertex
 10
123.9701685741936
 20
57.37064620397177
 30
0.0
  0
VERTEX
  5
4FD
330
4EA
100
AcDbEntity
  8
Visible (ANSI)
100
AcDbVertex
100
AcDb2dVertex
 10
123.9682993116825
 20
57.37446494305284
 30
0.0
  0
VERTEX
  5
4FE
330
4EA
100
AcDbEntity
  8
Visible (ANSI)
100
AcDbVertex
100
AcDb2dVertex
 10
123.9665342132821
 20
57.37837182003654
 30
0.0
  0
VERTEX
  5
4FF
330
4EA
100
AcDbEntity
  8
Visible (ANSI)
100
AcDbVertex
100
AcDb2dVertex
 10
123.964874042282
 20
57.38236331286747
 30
0.0
  0
VERTEX
  5
500
330
4EA
100
AcDbEntity
  8
Visible (ANSI)
100
AcDbVertex
100
AcDb2dVertex
 10
123.9633194209288
 20
57.38643578934373
 30
0.0
  0
VERTEX
  5
501
330
4EA
100
AcDbEntity
  8
Visible (ANSI)
100
AcDbVertex
100
AcDb2dVertex
 10
123.9618708636133
 20
57.39058551693158
 30
0.0
  0
VERTEX
  5
502
330
4EA
100
AcDbEntity
  8
Visible (ANSI)
100
AcDbVertex
100
AcDb2dVertex
 10
123.9605287768701
 20
57.39480871046843
 30
0.0
  0
VERTEX
  5
503
330
4EA
100
AcDbEntity
  8
Visible (ANSI)
100
AcDbVertex
100
AcDb2dVertex
 10
123.9592934344877
 20
57.39910149875592
 30
0.0
  0
VERTEX
  5
504
330
4EA
100
AcDbEntity
  8
Visible (ANSI)
100
AcDbVertex
100
AcDb2dVertex
 10
123.958165035585
 20
57.40345991974518
 30
0.0
  0
SEQEND
  5
4ED
330
4EA
100
AcDbEntity
  8
Visible (ANSI)
  0
LINE
  5
505
330
6C
100
AcDbEntity
  8
Visible (ANSI)
100
AcDbLine
 10
124.4607268707577
 20
57.62083409149671
 30
0.0
 11
124.6283526017899
 21
57.71736333009787
 31
0.0
  0
LINE
  5
506
330
6C
100
AcDbEntity
  8
Visible (ANSI)
100
AcDbLine
 10
171.8905378070822
 20
29.82611620705458
 30
0.0
 11
171.8905378070822
 21
29.80059851047974
 31
0.0
  0
LINE
  5
507
330
6C
100
AcDbEntity
  8
Visible (ANSI)
100
AcDbLine
 10
171.8905378070822
 20
29.80059851047974
 30
0.0
 11
171.9583826356501
 21
29.83966774886188
 31
0.0
  0
LINE
  5
508
330
6C
100
AcDbEntity
  8
Visible (ANSI)
100
AcDbLine
 10
172.0395922572537
 20
29.88643325969494
 30
0.0
 11
172.4098370271855
 21
30.09964304268887
 31
0.0
  0
LINE
  5
509
330
6C
100
AcDbEntity
  8
Visible (ANSI)
100
AcDbLine
 10
172.4098370271855
 20
30.10031643171246
 30
0.0
 11
172.4098370271855
 21
30.09964304268887
 31
0.0
  0
POLYLINE
  5
50A
330
6C
100
AcDbEntity
  8
Visible (ANSI)
100
AcDb2dPolyline
 66
     1
 10
0.0
 20
0.0
 30
0.0
 70
   128
  0
VERTEX
  5
50B
330
50A
100
AcDbEntity
  8
Visible (ANSI)
100
AcDbVertex
100
AcDb2dVertex
 10
171.945707434035
 20
54.85431653224373
 30
0.0
  0
VERTEX
  5
50C
330
50A
100
AcDbEntity
  8
Visible (ANSI)
100
AcDbVertex
100
AcDb2dVertex
 10
171.9508827994661
 20
54.84492849670808
 30
0.0
  0
VERTEX
  5
50E
330
50A
100
AcDbEntity
  8
Visible (ANSI)
100
AcDbVertex
100
AcDb2dVertex
 10
171.9578256490953
 20
54.83651183852363
 30
0.0
  0
VERTEX
  5
50F
330
50A
100
AcDbEntity
  8
Visible (ANSI)
100
AcDbVertex
100
AcDb2dVertex
 10
171.9660407911578
 20
54.82928281654032
 30
0.0
  0
VERTEX
  5
510
330
50A
100
AcDbEntity
  8
Visible (ANSI)
100
AcDbVertex
100
AcDb2dVertex
 10
171.9749005819206
 20
54.82341821265524
 30
0.0
  0
SEQEND
  5
50D
330
50A
100
AcDbEntity
  8
Visible (ANSI)
  0
POLYLINE
  5
511
330
6C
100
AcDbEntity
  8
Visible (ANSI)
100
AcDb2dPolyline
 66
     1
 10
0.0
 20
0.0
 30
0.0
 70
   128
  0
VERTEX
  5
512
330
511
100
AcDbEntity
  8
Visible (ANSI)
100
AcDbVertex
100
AcDb2dVertex
 10
171.8905378569895
 20
54.96939115606809
 30
0.0
  0
VERTEX
  5
513
330
511
100
AcDbEntity
  8
Visible (ANSI)
100
AcDbVertex
100
AcDb2dVertex
 10
171.8912024595884
 20
54.95880722941617
 30
0.0
  0
VERTEX
  5
515
330
511
100
AcDbEntity
  8
Visible (ANSI)
100
AcDbVertex
100
AcDb2dVertex
 10
171.8933567572744
 20
54.94813078077043
 30
0.0
  0
VERTEX
  5
516
330
511
100
AcDbEntity
  8
Visible (ANSI)
100
AcDbVertex
100
AcDb2dVertex
 10
171.8971817178191
 20
54.93792530775881
 30
0.0
  0
VERTEX
  5
517
330
511
100
AcDbEntity
  8
Visible (ANSI)
100
AcDbVertex
100
AcDb2dVertex
 10
171.9027098813585
 20
54.92879144686002
 30
0.0
  0
SEQEND
  5
514
330
511
100
AcDbEntity
  8
Visible (ANSI)
  0
LINE
  5
518
330
6C
100
AcDbEntity
  8
Visible (ANSI)
100
AcDbLine
 10
172.5607253748339
 20
55.08415240719608
 30
0.0
 11
172.5607253748338
 21
30.1872072522481
 31
0.0
  0
LINE
  5
519
330
6C
100
AcDbEntity
  8
Visible (ANSI)
100
AcDbLine
 10
124.62835260179
 20
82.86102515463005
 30
0.0
 11
172.4098370271857
 21
55.34549825782638
 31
0.0
  0
LINE
  5
51A
330
6C
100
AcDbEntity
  8
Visible (ANSI)
100
AcDbLine
 10
124.5658526017899
 20
57.8256163258989
 30
0.0
 11
124.5658526017899
 21
57.86012802932113
 31
0.0
  0
LINE
  5
51B
330
6C
100
AcDbEntity
  8
Visible (ANSI)
100
AcDbLine
 10
124.56585260179
 20
81.34072969037282
 30
0.0
 11
124.56585260179
 21
81.6752757759842
 31
0.0
  0
LINE
  5
51C
330
6C
100
AcDbEntity
  8
Visible (ANSI)
100
AcDbLine
 10
171.5028020288006
 20
30.72416315031724
 30
0.0
 11
171.2126368228005
 21
30.89125817941117
 31
0.0
  0
LINE
  5
51D
330
6C
100
AcDbEntity
  8
Visible (ANSI)
100
AcDbLine
 10
148.0798899019927
 20
44.21252116968643
 30
0.0
 11
147.7897246959926
 21
44.37961619878037
 31
0.0
  0
LINE
  5
51E
330
6C
100
AcDbEntity
  8
Visible (ANSI)
100
AcDbLine
 10
124.6569777751849
 20
57.70087918905566
 30
0.0
 11
124.6283526017899
 21
57.71736333009787
 31
0.0
  0
SPLINE
  5
51F
330
6C
100
AcDbEntity
  8
Visible (ANSI)
100
AcDbSpline
210
0.0
220
0.0
230
1.0
 70
     8
 71
     3
 72
    11
 73
     7
 74
     0
 42
0.0000000001
 43
0.0000000001
 40
0.0
 40
0.0
 40
0.0
 40
0.0
 40
1.018582815488257
 40
1.018582815488257
 40
1.018582815488257
 40
1.57079632679492
 40
1.57079632679492
 40
1.57079632679492
 40
1.57079632679492
 10
87.52671573881341
 20
99.71150128133389
 30
0.0
 10
87.57445332009927
 20
99.71150128133389
 30
0.0
 10
87.62137587538147
 20
99.737704186913
 30
0.0
 10
87.64641772254362
 20
99.77834631478215
 30
0.0
 10
87.65999388556222
 20
99.80037999903082
 30
0.0
 10
87.66731573881342
 20
99.82622087477064
 30
0.0
 10
87.66731573881342
 20
99.85210128133388
 30
0.0
  0
LINE
  5
520
330
6C
100
AcDbEntity
  8
Visible (ANSI)
100
AcDbLine
 10
87.54231573881339
 20
99.85210128133388
 30
0.0
 11
87.54231573881328
 21
100.5865012813338
 31
0.0
  0
LINE
  5
521
330
6C
100
AcDbEntity
  8
Visible (ANSI)
100
AcDbLine
 10
87.54231573881339
 20
99.85210128133388
 30
0.0
 11
87.66731573881338
 21
99.8521012813339
 31
0.0
  0
SPLINE
  5
522
330
6C
100
AcDbEntity
  8
Visible (ANSI)
100
AcDbSpline
210
0.0
220
0.0
230
1.0
 70
     8
 71
     3
 72
     8
 73
     4
 74
     0
 42
0.0000000001
 43
0.0000000001
 40
0.0
 40
0.0
 40
0.0
 40
0.0
 40
1.57079632679492
 40
1.57079632679492
 40
1.57079632679492
 40
1.57079632679492
 10
87.52671573881341
 20
99.8365012813339
 30
0.0
 10
87.53488387971273
 20
99.8365012813339
 30
0.0
 10
87.54231573881339
 20
99.84393314043455
 30
0.0
 10
87.54231573881339
 20
99.85210128133388
 30
0.0
  0
LINE
  5
523
330
6C
100
AcDbEntity
  8
Visible (ANSI)
100
AcDbLine
 10
87.52671573881341
 20
99.8365012813339
 30
0.0
 11
87.52671573881341
 21
99.80576278002303
 31
0.0
  0
LINE
  5
524
330
6C
100
AcDbEntity
  8
Visible (ANSI)
100
AcDbLine
 10
87.52671573881341
 20
99.80576278002303
 30
0.0
 11
87.52671573881341
 21
99.71150128133389
 31
0.0
  0
LINE
  5
525
330
6C
100
AcDbEntity
  8
Visible (ANSI)
100
AcDbLine
 10
87.66731573881338
 20
99.8521012813339
 30
0.0
 11
87.66731573881328
 21
100.5865012813339
 31
0.0
  0
LINE
  5
526
330
6C
100
AcDbEntity
  8
Visible (ANSI)
100
AcDbLine
 10
87.54231573881328
 20
100.5865012813338
 30
0.0
 11
87.66731573881328
 21
100.5865012813339
 31
0.0
  0
SPLINE
  5
527
330
6C
100
AcDbEntity
  8
Visible (ANSI)
100
AcDbSpline
210
0.0
220
0.0
230
1.0
 70
     8
 71
     3
 72
    11
 73
     7
 74
     0
 42
0.0000000001
 43
0.0000000001
 40
0.0
 40
0.0
 40
0.0
 40
0.0
 40
1.018582815488494
 40
1.018582815488494
 40
1.018582815488494
 40
1.57079632679492
 40
1.57079632679492
 40
1.57079632679492
 40
1.57079632679492
 10
19.80791573881341
 20
99.71150128133389
 30
0.0
 10
19.82364893919033
 20
99.71150128133391
 30
0.0
 10
19.83938213956725
 20
99.73770418691303
 30
0.0
 10
19.85511533994417
 20
99.77834631478224
 30
0.0
 10
19.86364492211668
 20
99.80037999903089
 30
0.0
 10
19.87217450428921
 20
99.82622087477071
 30
0.0
 10
19.88070408646173
 20
99.85210128133394
 30
0.0
  0
SPLINE
  5
528
330
6C
100
AcDbEntity
  8
Visible (ANSI)
100
AcDbSpline
210
0.0
220
0.0
230
1.0
 70
     8
 71
     3
 72
    11
 73
     7
 74
     0
 42
0.0000000001
 43
0.0000000001
 40
0.0
 40
0.0
 40
0.0
 40
0.0
 40
1.018582815488745
 40
1.018582815488745
 40
1.018582815488745
 40
1.570796326795323
 40
1.570796326795323
 40
1.570796326795323
 40
1.570796326795323
 10
87.45392739116507
 20
99.85210128133397
 30
0.0
 10
87.469660591542
 20
99.80436370004806
 30
0.0
 10
87.48539379191893
 20
99.75744114476583
 30
0.0
 10
87.50112699229582
 20
99.73239929760365
 30
0.0
 10
87.50965657446833
 20
99.71882313458502
 30
0.0
 10
87.51818615664086
 20
99.71150128133388
 30
0.0
 10
87.5267157388134
 20
99.71150128133388
 30
0.0
  0
LINE
  5
529
330
6C
100
AcDbEntity
  8
Visible (ANSI)
100
AcDbLine
 10
87.45392739116507
 20
100.5865012813339
 30
0.0
 11
87.45392739116507
 21
99.85210128133395
 31
0.0
  0
SPLINE
  5
52A
330
6C
100
AcDbEntity
  8
Visible (ANSI)
100
AcDbSpline
210
0.0
220
0.0
230
1.0
 70
     8
 71
     3
 72
     8
 73
     4
 74
     0
 42
0.0000000001
 43
0.0000000001
 40
0.0
 40
0.0
 40
0.0
 40
0.0
 40
1.570796326795323
 40
1.570796326795323
 40
1.570796326795323
 40
1.570796326795323
 10
87.5267157388134
 20
99.8365012813339
 30
0.0
 10
87.50245295626397
 20
99.8365012813339
 30
0.0
 10
87.47819017371451
 20
99.84393314043458
 30
0.0
 10
87.45392739116507
 20
99.8521012813339
 30
0.0
  0
SPLINE
  5
52B
330
6C
100
AcDbEntity
  8
Visible (ANSI)
100
AcDbSpline
210
0.0
220
0.0
230
1.0
 70
     8
 71
     3
 72
     8
 73
     4
 74
     0
 42
0.0000000001
 43
0.0000000001
 40
0.0
 40
0.0
 40
0.0
 40
0.0
 40
1.57079632679492
 40
1.57079632679492
 40
1.57079632679492
 40
1.57079632679492
 10
19.80791573881341
 20
99.8365012813339
 30
0.0
 10
19.83217852136285
 20
99.8365012813339
 30
0.0
 10
19.85644130391229
 20
99.84393314043456
 30
0.0
 10
19.88070408646173
 20
99.8521012813339
 30
0.0
  0
LINE
  5
52C
330
6C
100
AcDbEntity
  8
Visible (ANSI)
100
AcDbLine
 10
19.8079157388134
 20
99.8365012813339
 30
0.0
 11
19.80791573881341
 21
99.80576278002303
 31
0.0
  0
LINE
  5
52D
330
6C
100
AcDbEntity
  8
Visible (ANSI)
100
AcDbLine
 10
19.80791573881341
 20
99.80576278002303
 30
0.0
 11
19.8079157388134
 21
99.71150128133389
 31
0.0
  0
LINE
  5
52E
330
6C
100
AcDbEntity
  8
Visible (ANSI)
100
AcDbLine
 10
19.88070408646172
 20
99.85210128133395
 30
0.0
 11
19.88070408646172
 21
100.5865012813339
 31
0.0
  0
SPLINE
  5
52F
330
6C
100
AcDbEntity
  8
Visible (ANSI)
100
AcDbSpline
210
0.0
220
0.0
230
1.0
 70
     8
 71
     3
 72
    11
 73
     7
 74
     0
 42
0.0000000001
 43
0.0000000001
 40
0.0
 40
0.0
 40
0.0
 40
0.0
 40
1.018582815488559
 40
1.018582815488559
 40
1.018582815488559
 40
1.570796326794929
 40
1.570796326794929
 40
1.570796326794929
 40
1.570796326794929
 10
19.6673157388134
 20
99.85210128133388
 30
0.0
 10
19.6673157388134
 20
99.80436370004799
 30
0.0
 10
19.69351864439252
 20
99.75744114476579
 30
0.0
 10
19.7341607722617
 20
99.73239929760362
 30
0.0
 10
19.75619445651037
 20
99.71882313458504
 30
0.0
 10
19.78203533225017
 20
99.71150128133389
 30
0.0
 10
19.8079157388134
 20
99.71150128133389
 30
0.0
  0
LINE
  5
530
330
6C
100
AcDbEntity
  8
Visible (ANSI)
100
AcDbLine
 10
19.7923157388134
 20
99.85210128133388
 30
0.0
 11
19.7923157388134
 21
100.5865012813338
 31
0.0
  0
LINE
  5
531
330
6C
100
AcDbEntity
  8
Visible (ANSI)
100
AcDbLine
 10
19.6673157388134
 20
100.5865012813338
 30
0.0
 11
19.6673157388134
 21
99.85210128133388
 31
0.0
  0
LINE
  5
532
330
6C
100
AcDbEntity
  8
Visible (ANSI)
100
AcDbLine
 10
19.7923157388134
 20
99.85210128133388
 30
0.0
 11
19.6673157388134
 21
99.85210128133388
 31
0.0
  0
LINE
  5
533
330
6C
100
AcDbEntity
  8
Visible (ANSI)
100
AcDbLine
 10
19.7923157388134
 20
100.5865012813338
 30
0.0
 11
19.6673157388134
 21
100.5865012813338
 31
0.0
  0
SPLINE
  5
534
330
6C
100
AcDbEntity
  8
Visible (ANSI)
100
AcDbSpline
210
0.0
220
0.0
230
1.0
 70
     8
 71
     3
 72
     8
 73
     4
 74
     0
 42
0.0000000001
 43
0.0000000001
 40
0.0
 40
0.0
 40
0.0
 40
0.0
 40
1.570796326794929
 40
1.570796326794929
 40
1.570796326794929
 40
1.570796326794929
 10
19.8079157388134
 20
99.8365012813339
 30
0.0
 10
19.79974759791407
 20
99.8365012813339
 30
0.0
 10
19.7923157388134
 20
99.84393314043455
 30
0.0
 10
19.7923157388134
 20
99.85210128133388
 30
0.0
  0
LINE
  5
535
330
6C
100
AcDbEntity
  8
Visible (ANSI)
100
AcDbLine
 10
87.52671573881341
 20
99.71150128133389
 30
0.0
 11
19.8079157388134
 21
99.71150128133389
 31
0.0
  0
LINE
  5
536
330
6C
100
AcDbEntity
  8
Hidden (ANSI)
 48
1.1030935049057
100
AcDbLine
 10
19.8079157388134
 20
99.8365012813339
 30
0.0
 11
87.52671573881341
 21
99.8365012813339
 31
0.0
  0
LINE
  5
537
330
6C
100
AcDbEntity
  8
Visible (ANSI)
100
AcDbLine
 10
19.88070408646172
 20
100.5865012813339
 30
0.0
 11
87.45392739116507
 21
100.5865012813339
 31
0.0
  0
LINE
  5
538
330
6C
100
AcDbEntity
  8
Hidden (ANSI)
 48
0.0215442795306444
100
AcDbLine
 10
53.94881573881339
 20
99.83650128133369
 30
0.0
 11
53.94881573881339
 21
99.71150128133368
 31
0.0
  0
LINE
  5
539
330
6C
100
AcDbEntity
  8
Hidden (ANSI)
 48
0.0215442795306444
100
AcDbLine
 10
53.38581573881339
 20
99.83650128133369
 30
0.0
 11
53.38581573881339
 21
99.71150128133368
 31
0.0
  0
LINE
  5
53A
330
6C
100
AcDbEntity
  8
Hidden (ANSI)
 48
0.0215442795306444
100
AcDbLine
 10
87.0738157388134
 20
99.83650128133369
 30
0.0
 11
87.0738157388134
 21
99.71150128133368
 31
0.0
  0
LINE
  5
53B
330
6C
100
AcDbEntity
  8
Hidden (ANSI)
 48
0.0215442795306444
100
AcDbLine
 10
86.5108157388134
 20
99.83650128133369
 30
0.0
 11
86.5108157388134
 21
99.71150128133368
 31
0.0
  0
LINE
  5
53C
330
6C
100
AcDbEntity
  8
Hidden (ANSI)
 48
0.0215442795306444
100
AcDbLine
 10
20.8238157388134
 20
99.83650128133369
 30
0.0
 11
20.8238157388134
 21
99.71150128133368
 31
0.0
  0
LINE
  5
53D
330
6C
100
AcDbEntity
  8
Hidden (ANSI)
 48
0.0215442795306444
100
AcDbLine
 10
20.2608157388134
 20
99.83650128133369
 30
0.0
 11
20.2608157388134
 21
99.71150128133368
 31
0.0
  0
MTEXT
  5
53E
330
6C
100
AcDbEntity
  8
Symbol (ANSI)
100
AcDbMText
 10
49.37941878147128
 20
94.03306774332271
 30
0.0
 40
1.320000016313838
 41
0.0
 46
0.0
 71
     7
 72
     1
  1
TOP VIEW
  7
Text Style153
 73
     1
 44
1.0
  0
LINE
  5
53F
330
6C
100
AcDbEntity
  8
Symbol (ANSI)
370
    30
100
AcDbLine
 10
49.3804747841877
 20
93.76387973219891
 30
0.0
 11
57.70909703523275
 21
93.76387973219891
 31
0.0
  0
LINE
  5
540
330
6C
100
AcDbEntity
  8
Center Mark (ANSI)
  6
CHAIN
 48
0.1672141253948212
100
AcDbLine
 10
20.54231573880039
 20
72.53001566287122
 30
0.0
 11
20.54231573880039
 21
69.21701566287122
 31
0.0
  0
LINE
  5
541
330
6C
100
AcDbEntity
  8
Center Mark (ANSI)
  6
CHAIN
 48
0.1672141253948212
100
AcDbLine
 10
86.79231573880038
 20
72.53001566287122
 30
0.0
 11
86.79231573880038
 21
69.21701566287122
 31
0.0
  0
LINE
  5
542
330
6C
100
AcDbEntity
  8
Centerline (ANSI)
  6
CHAIN
 48
0.9524481296539306
100
AcDbLine
 10
18.88581573880038
 20
70.87351566287122
 30
0.0
 11
88.44881573880035
 21
70.87351566287122
 31
0.0
  0
LINE
  5
543
330
6C
100
AcDbEntity
  8
Center Mark (ANSI)
  6
CHAIN
 48
0.1672141253948212
100
AcDbLine
 10
88.44881573880035
 20
70.87351566287122
 30
0.0
 11
85.13581573880038
 21
70.87351566287122
 31
0.0
  0
LINE
  5
544
330
6C
100
AcDbEntity
  8
Center Mark (ANSI)
  6
CHAIN
 48
0.1672141253948212
100
AcDbLine
 10
88.44881573880035
 20
41.74351566287125
 30
0.0
 11
85.13581573880038
 21
41.74351566287125
 31
0.0
  0
LINE
  5
545
330
6C
100
AcDbEntity
  8
Centerline (ANSI)
  6
CHAIN
 48
0.9524481296539306
100
AcDbLine
 10
86.79231573880038
 20
72.53001566287122
 30
0.0
 11
86.79231573880038
 21
40.08701566287125
 31
0.0
  0
LINE
  5
546
330
6C
100
AcDbEntity
  8
Center Mark (ANSI)
  6
CHAIN
 48
0.1672141253948212
100
AcDbLine
 10
86.79231573880038
 20
40.08701566287125
 30
0.0
 11
86.79231573880038
 21
43.40001566287125
 31
0.0
  0
LINE
  5
547
330
6C
100
AcDbEntity
  8
Center Mark (ANSI)
  6
CHAIN
 48
0.1672141253948212
100
AcDbLine
 10
20.54231573880037
 20
40.08701566287125
 30
0.0
 11
20.54231573880037
 21
43.40001566287125
 31
0.0
  0
LINE
  5
548
330
6C
100
AcDbEntity
  8
Centerline (ANSI)
  6
CHAIN
 48
0.9524481296539306
100
AcDbLine
 10
88.44881573880035
 20
41.74351566287125
 30
0.0
 11
18.88581573880036
 21
41.74351566287125
 31
0.0
  0
LINE
  5
549
330
6C
100
AcDbEntity
  8
Center Mark (ANSI)
  6
CHAIN
 48
0.1672141253948212
100
AcDbLine
 10
18.88581573880037
 20
41.74351566287125
 30
0.0
 11
22.19881573880037
 21
41.74351566287125
 31
0.0
  0
LINE
  5
54A
330
6C
100
AcDbEntity
  8
Center Mark (ANSI)
  6
CHAIN
 48
0.1672141253948212
100
AcDbLine
 10
18.88581573880038
 20
70.87351566287122
 30
0.0
 11
22.19881573880039
 21
70.87351566287122
 31
0.0
  0
LINE
  5
54B
330
6C
100
AcDbEntity
  8
Centerline (ANSI)
  6
CHAIN
 48
0.9524481296539306
100
AcDbLine
 10
20.54231573880037
 20
40.08701566287125
 30
0.0
 11
20.54231573880039
 21
72.53001566287122
 31
0.0
  0
DIMENSION
  5
54C
330
6C
100
AcDbEntity
  8
Dimension (ANSI)
100
AcDbDimension
280
     0
  2
*D4
 10
87.66731573880038
 20
84.94693932922762
 30
0.0
 11
53.6673157388004
 21
84.94693932922762
 31
0.0
 70
   160
  1
<>
 42
68.0
 73
     0
 74
     0
 75
     0
  3
Default (ANSI)
100
AcDbAlignedDimension
 13
19.66731573880038
 23
71.53512731522292
 33
0.0
 14
87.66731573880038
 24
71.53512731522292
 34
0.0
100
AcDbRotatedDimension
1001
ACAD
1000
DSTYLE
1002
{
1070
   289
1070
     1
1070
    73
1070
     0
1070
    74
1070
     0
1070
   271
1070
     2
1070
   272
1070
     2
1070
    48
1040
0.0
1070
    47
1040
0.0
1002
}
  0
DIMENSION
  5
638
330
6C
100
AcDbEntity
  8
Dimension (ANSI)
100
AcDbDimension
280
     0
  2
*D5
 10
20.54231573880039
 20
76.25751151753568
 30
0.0
 11
13.94664735025587
 21
76.25751151753568
 31
0.0
 70
   160
  1
<>
 42
0.8750000000000035
 73
     0
 74
     0
 75
     0
  3
Default (ANSI)
100
AcDbAlignedDimension
 13
19.66731573880038
 23
71.53512731522292
 33
0.0
 14
20.54231573880039
 24
72.53001566287122
 34
0.0
100
AcDbRotatedDimension
1001
ACAD
1000
DSTYLE
1002
{
1070
   289
1070
     1
1070
    73
1070
     0
1070
    74
1070
     0
1070
   271
1070
     2
1070
   272
1070
     2
1070
    48
1040
0.0
1070
    47
1040
0.0
1002
}
  0
DIMENSION
  5
722
330
6C
100
AcDbEntity
  8
Dimension (ANSI)
100
AcDbDimension
280
     0
  2
*D6
 10
86.79231573880038
 20
80.37857187881638
 30
0.0
 11
53.66731573880038
 21
80.37857187881638
 31
0.0
 70
   160
  1
<>
 42
66.25
 73
     0
 74
     0
 75
     0
  3
Default (ANSI)
100
AcDbAlignedDimension
 13
20.54231573880039
 23
72.53001566287122
 33
0.0
 14
86.79231573880038
 24
72.53001566287122
 34
0.0
 50
180.0
100
AcDbRotatedDimension
1001
ACAD
1000
DSTYLE
1002
{
1070
   289
1070
     1
1070
    73
1070
     0
1070
    74
1070
     0
1070
   271
1070
     2
1070
   272
1070
     2
1070
    48
1040
0.0
1070
    47
1040
0.0
1002
}
  0
DIMENSION
  5
80C
330
6C
100
AcDbEntity
  8
Dimension (ANSI)
100
AcDbDimension
280
     0
  2
*D7
 10
18.25243053906367
 20
41.74351566287125
 30
0.0
 11
15.13140947642108
 21
37.71154133816772
 31
0.0
 70
   160
  1
<>
 42
0.875
 73
     0
 74
     0
 75
     0
  3
Default (ANSI)
100
AcDbAlignedDimension
 13
19.88070408644871
 23
40.86851566287125
 33
0.0
 14
18.88581573880036
 24
41.74351566287125
 34
0.0
 50
90.0
100
AcDbRotatedDimension
1001
ACAD
1000
DSTYLE
1002
{
1070
   289
1070
     1
1070
   271
1070
     2
1070
   272
1070
     2
1070
    48
1040
0.0
1070
    47
1040
0.0
1002
}
  0
DIMENSION
  5
90C
330
6C
100
AcDbEntity
  8
Dimension (ANSI)
100
AcDbDimension
280
     0
  2
*D8
 10
15.1314094764211
 20
70.87351566287122
 30
0.0
 11
15.13140947642108
 21
56.30851566287125
 31
0.0
 70
   160
  1
<>
 42
29.12999999999997
 73
     0
 74
     0
 75
     0
  3
Default (ANSI)
100
AcDbAlignedDimension
 13
18.88581573880036
 23
41.74351566287125
 33
0.0
 14
18.88581573880038
 24
70.87351566287122
 34
0.0
 50
90.0
100
AcDbRotatedDimension
1001
ACAD
1000
DSTYLE
1002
{
1070
   289
1070
     1
1070
   271
1070
     2
1070
   272
1070
     2
1070
    48
1040
0.0
1070
    47
1040
0.0
1002
}
  0
DIMENSION
  5
9F6
330
6C
100
AcDbEntity
  8
Dimension (ANSI)
100
AcDbDimension
280
     0
  2
*D9
 10
8.071071121068786
 20
71.74851566287123
 30
0.0
 11
8.071071121068774
 21
56.30851566287125
 31
0.0
 70
   160
  1
<>
 42
30.87999999999997
 73
     0
 74
     0
 75
     0
  3
Default (ANSI)
100
AcDbAlignedDimension
 13
19.88070408644871
 23
40.86851566287125
 33
0.0
 14
19.88070408644873
 24
71.74851566287123
 34
0.0
 50
90.0
100
AcDbRotatedDimension
1001
ACAD
1000
DSTYLE
1002
{
1070
   289
1070
     1
1070
   271
1070
     2
1070
   272
1070
     2
1070
    48
1040
0.0
1070
    47
1040
0.0
1002
}
  0
DIMENSION
  5
AE0
330
6C
100
AcDbEntity
  8
Dimension (ANSI)
100
AcDbDimension
280
     0
  2
*D10
 10
86.62030586198737
 20
41.96634935035763
 30
0.0
 11
93.73957243049545
 21
38.75619529272302
 31
0.0
 70
   163
  1
<>{\P(6 PL.)}
 71
     4
 42
0.5629999999999999
 73
     0
 74
     0
 75
     0
  3
Default (ANSI)
100
AcDbDiametricDimension
 15
86.96432561561341
 25
41.52068197538489
 35
0.0
 40
0.0
1001
ACAD
1000
DSTYLE
1002
{
1070
   144
1040
0.9999999999999957
1070
   271
1070
     3
1070
   272
1070
     3
1070
    48
1040
0.0
1070
    47
1040
0.0
1002
}
1001
ACAD_DSTYLE_DIMRADIAL_EXTENSION
1070
   387
1070
     1
1070
   388
1040
0.0
1070
   390
1040
0.0
  0
DIMENSION
  5
B9A
330
6C
100
AcDbEntity
  8
Dimension (ANSI)
100
AcDbDimension
280
     0
  2
*D11
 10
76.17618236944913
 20
99.71150128133389
 30
0.0
 11
79.34906374274953
 21
105.2284756243905
 31
0.0
 70
   160
  1
<>{\PTYP.}
 71
     5
 42
0.875000000000071
 73
     0
 74
     0
 75
     0
  3
Default (ANSI)
100
AcDbAlignedDimension
 13
79.34906374274953
 23
100.5865012813339
 33
0.0
 14
79.31306378674546
 24
99.71150128133389
 34
0.0
 50
270.0
100
AcDbRotatedDimension
1001
ACAD
1000
DSTYLE
1002
{
1070
   289
1070
     1
1070
   271
1070
     2
1070
    76
1070
     1
1070
    75
1070
     1
1070
   272
1070
     2
1070
    48
1040
0.0
1070
    47
1040
0.0
1002
}
  0
DIMENSION
  5
CA3
330
6C
100
AcDbEntity
  8
Dimension (ANSI)
100
AcDbDimension
280
     0
  2
*D12
 10
108.007934517556
 20
70.09889020871087
 30
0.0
 11
113.7479395371683
 21
70.09889020871087
 31
0.0
 70
   160
  1
<>{\PTYP.}
 71
     4
 42
0.875000000000071
 73
     0
 74
     0
 75
     0
  3
Default (ANSI)
100
AcDbAlignedDimension
 13
108.8829345175561
 23
70.09889020871087
 33
0.0
 14
108.007934517556
 24
70.14447601494964
 34
0.0
 50
180.0
100
AcDbRotatedDimension
1001
ACAD
1000
DSTYLE
1002
{
1070
   289
1070
     1
1070
    73
1070
     0
1070
    74
1070
     0
1070
   271
1070
     2
1070
    76
1070
     1
1070
    75
1070
     1
1070
   272
1070
     2
1070
    48
1040
0.0
1070
    47
1040
0.0
1002
}
  0
LINE
  5
D92
330
6C
100
AcDbEntity
  8
Center Mark (ANSI)
  6
CHAIN
 48
0.1672141253948212
100
AcDbLine
 10
55.32381573880038
 20
70.87351566287124
 30
0.0
 11
52.01081573880038
 21
70.87351566287124
 31
0.0
  0
LINE
  5
D93
330
6C
100
AcDbEntity
  8
Center Mark (ANSI)
  6
CHAIN
 48
0.1672141253948212
100
AcDbLine
 10
55.3238157388004
 20
41.74351566287124
 30
0.0
 11
52.01081573880039
 21
41.74351566287124
 31
0.0
  0
LINE
  5
D94
330
6C
100
AcDbEntity
  8
Centerline (ANSI)
  6
CHAIN
 48
0.9524481296539306
100
AcDbLine
 10
53.66731573880038
 20
72.53001566287124
 30
0.0
 11
53.6673157388004
 21
40.08701566287125
 31
0.0
  0
DIMENSION
  5
D95
330
6C
100
AcDbEntity
  8
Dimension (ANSI)
100
AcDbDimension
280
     0
  2
*D13
 10
53.66731573880038
 20
76.25751151753566
 30
0.0
 11
37.10481573880038
 21
76.25751151753566
 31
0.0
 70
   160
  1
<>
 42
33.125
 73
     0
 74
     0
 75
     0
  3
Default (ANSI)
100
AcDbAlignedDimension
 13
20.54231573880039
 23
72.53001566287122
 33
0.0
 14
53.66731573880038
 24
72.53001566287124
 34
0.0
 50
180.0
100
AcDbRotatedDimension
1001
ACAD
1000
DSTYLE
1002
{
1070
   289
1070
     1
1070
    73
1070
     0
1070
    74
1070
     0
1070
   271
1070
     2
1070
   272
1070
     2
1070
    48
1040
0.0
1070
    47
1040
0.0
1002
}
  0
MTEXT
  5
E7F
102
{ACAD_XDICTIONARY
360
E86
102
}
330
6C
100
AcDbEntity
  8
Symbol (ANSI)
100
AcDbMText
 10
99.90458377790622
 20
11.67504738629121
 30
0.0
 40
1.100000035105727
 41
81.21725818303628
 46
0.0
 71
     4
 72
     1
  3
{\fRomanS|b0|i0|c0|p2;\H2x;PART#: WA72P72F2G\P(DATA SUBJECT TO CHANGE WITHOUT NOTICE)\H1.6157x; \H0.61894x;\P \H1.352x; \H0.73963x;\P\H0.6x;THIS DRAWING IS PROPERTY OF HUBBELL INC. WIEGMANN\H1.5633x; \H0.63966x;\PALL INFORMATION IS PROPRIETARY AND NO
  1
T TO BE DUPLICATED\H1.234x; \H0.81039x;\P\H1.2571x; }
  7
Note Text (ANSI)
 73
     1
 44
0.8026435375213623
  0
ENDSEC
  0
SECTION
  2
OBJECTS
  0
DICTIONARY
  5
C
330
0
100
AcDbDictionary
281
     1
  3
ACAD_CIP_PREVIOUS_PRODUCT_INFO
350
E81
  3
ACAD_COLOR
350
63
  3
ACAD_GROUP
350
D
  3
ACAD_LAYOUT
350
62
  3
ACAD_MATERIAL
350
10
  3
ACAD_MLEADERSTYLE
350
66
  3
ACAD_MLINESTYLE
350
5F
  3
ACAD_PLOTSETTINGS
350
61
  3
ACAD_PLOTSTYLENAME
350
E
  3
ACAD_SCALELIST
350
42
  3
ACAD_TABLESTYLE
350
64
  3
ACAD_VISUALSTYLE
350
29
  3
ACDB_RECOMPOSE_DATA
350
E88
  3
AcDbVariableDictionary
350
76
  0
DICTIONARY
  5
E86
330
E7F
100
AcDbDictionary
280
     1
281
     1
  3
ACAD_MTEXT_2008_RT
360
E87
  0
XRECORD
  5
E81
102
{ACAD_REACTORS
330
C
102
}
330
C
100
AcDbXrecord
280
     1
300
INVNTOR
300
2012
300
PDSP_F_S
  0
DICTIONARY
  5
63
102
{ACAD_REACTORS
330
C
102
}
330
C
100
AcDbDictionary
281
     1
  0
DICTIONARY
  5
D
102
{ACAD_REACTORS
330
C
102
}
330
C
100
AcDbDictionary
281
     1
  0
DICTIONARY
  5
62
102
{ACAD_REACTORS
330
C
102
}
330
C
100
AcDbDictionary
281
     1
  3
Layout1
350
6B
  3
Layout2
350
73
  3
Model
350
6F
  0
DICTIONARY
  5
10
102
{ACAD_REACTORS
330
C
102
}
330
C
100
AcDbDictionary
281
     1
  3
ByBlock
350
19
  3
ByLayer
350
11
  3
Global
350
21
  0
DICTIONARY
  5
66
102
{ACAD_REACTORS
330
C
102
}
330
C
100
AcDbDictionary
281
     1
  3
Standard
350
67
  0
DICTIONARY
  5
5F
102
{ACAD_REACTORS
330
C
102
}
330
C
100
AcDbDictionary
281
     1
  3
Standard
350
60
  0
DICTIONARY
  5
61
102
{ACAD_REACTORS
330
C
102
}
330
C
100
AcDbDictionary
281
     1
  0
ACDBDICTIONARYWDFLT
  5
E
102
{ACAD_REACTORS
330
C
102
}
330
C
100
AcDbDictionary
281
     1
  3
Normal
350
F
100
AcDbDictionaryWithDefault
340
F
  0
DICTIONARY
  5
42
102
{ACAD_REACTORS
330
C
102
}
330
C
100
AcDbDictionary
281
     1
  3
A0
350
43
  3
A1
350
44
  3
A2
350
45
  3
A3
350
46
  3
A4
350
47
  3
A5
350
48
  3
A6
350
49
  3
A7
350
4A
  3
A8
350
4B
  3
A9
350
4C
  3
B0
350
4D
  3
B1
350
4E
  3
B2
350
4F
  3
B3
350
50
  3
B4
350
51
  3
B5
350
52
  3
B6
350
53
  0
DICTIONARY
  5
64
102
{ACAD_REACTORS
330
C
102
}
330
C
100
AcDbDictionary
281
     1
  3
Standard
350
65
  0
DICTIONARY
  5
29
102
{ACAD_REACTORS
330
C
102
}
330
C
100
AcDbDictionary
281
     1
  3
2dWireframe
350
2F
  3
Basic
350
2E
  3
Brighten
350
35
  3
ColorChange
350
39
  3
Conceptual
350
32
  3
Dim
350
34
  3
EdgeColorOff
350
41
  3
Facepattern
350
38
  3
Flat
350
2A
  3
FlatWithEdges
350
2B
  3
Gouraud
350
2C
  3
GouraudWithEdges
350
2D
  3
Hidden
350
31
  3
JitterOff
350
3F
  3
Linepattern
350
37
  3
OverhangOff
350
40
  3
Realistic
350
33
  3
Shaded
350
3E
  3
Shaded with edges
350
3D
  3
Shades of Gray
350
3A
  3
Sketchy
350
3B
  3
Thicken
350
36
  3
Wireframe
350
30
  3
X-Ray
350
3C
  0
XRECORD
  5
E88
102
{ACAD_REACTORS
330
C
102
}
330
C
100
AcDbXrecord
280
     1
 90
        1
330
65
330
E7F
  0
DICTIONARY
  5
76
102
{ACAD_REACTORS
330
C
102
}
330
C
100
AcDbDictionary
281
     1
  3
CANNOSCALE
350
79
  3
CMLEADERSTYLE
350
78
  3
CTABLESTYLE
350
77
  0
XRECORD
  5
E87
102
{ACAD_REACTORS
330
E86
102
}
330
E86
100
AcDbXrecord
280
     1
 40
3109233.0
  1
\pxsm0.94;{\fRomanS|b0|i0;\H2.2000;PART#: WA72P72F2G\P(DATA SUBJECT TO CHANGE WITHOUT NOTICE)\P \P\fRomanS|b0|i0;\H1.3200;THIS DRAWING IS PROPERTY OF HUBBELL INC. WIEGMANN\PALL INFORMATION IS PROPRIETARY AND NOT TO BE DUPLICATED\P}
  0
LAYOUT
  5
6B
102
{ACAD_REACTORS
330
62
102
}
330
62
100
AcDbPlotSettings
  1

  2

  4

  6

 40
0.0
 41
0.0
 42
0.0
 43
0.0
 44
0.0
 45
0.0
 46
0.0
 47
0.0
 48
0.0
 49
0.0
140
0.0
141
0.0
142
1.0
143
1.0
 70
   688
 72
     0
 73
     0
 74
     5
  7

 75
    16
147
1.0
 76
     0
 77
     2
 78
   300
148
0.0
149
0.0
100
AcDbLayout
  1
Layout1
 70
     1
 71
     1
 10
0.0
 20
0.0
 11
12.0
 21
9.0
 12
0.0
 22
0.0
 32
0.0
 14
0.0
 24
0.0
 34
0.0
 15
0.0
 25
0.0
 35
0.0
146
0.0
 13
0.0
 23
0.0
 33
0.0
 16
1.0
 26
0.0
 36
0.0
 17
0.0
 27
1.0
 37
0.0
 76
     0
330
68
  0
LAYOUT
  5
73
102
{ACAD_REACTORS
330
62
102
}
330
62
100
AcDbPlotSettings
  1

  2

  4

  6

 40
0.0
 41
0.0
 42
0.0
 43
0.0
 44
0.0
 45
0.0
 46
0.0
 47
0.0
 48
0.0
 49
0.0
140
0.0
141
0.0
142
1.0
143
1.0
 70
   688
 72
     0
 73
     0
 74
     5
  7

 75
    16
147
1.0
 76
     0
 77
     2
 78
   300
148
0.0
149
0.0
100
AcDbLayout
  1
Layout2
 70
     1
 71
     2
 10
0.0
 20
0.0
 11
12.0
 21
9.0
 12
0.0
 22
0.0
 32
0.0
 14
0.0
 24
0.0
 34
0.0
 15
0.0
 25
0.0
 35
0.0
146
0.0
 13
0.0
 23
0.0
 33
0.0
 16
1.0
 26
0.0
 36
0.0
 17
0.0
 27
1.0
 37
0.0
 76
     0
330
70
  0
LAYOUT
  5
6F
102
{ACAD_REACTORS
330
62
102
}
330
62
100
AcDbPlotSettings
  1

  2

  4

  6

 40
0.0
 41
0.0
 42
0.0
 43
0.0
 44
0.0
 45
0.0
 46
0.0
 47
0.0
 48
0.0
 49
0.0
140
0.0
141
0.0
142
1.0
143
1.0
 70
  1712
 72
     0
 73
     0
 74
     0
  7

 75
     0
147
1.0
 76
     0
 77
     2
 78
   300
148
0.0
149
0.0
100
AcDbLayout
  1
Model
 70
     1
 71
     0
 10
0.0
 20
0.0
 11
12.0
 21
9.0
 12
0.0
 22
0.0
 32
0.0
 14
0.0
 24
0.0
 34
0.0
 15
0.0
 25
0.0
 35
0.0
146
0.0
 13
0.0
 23
0.0
 33
0.0
 16
1.0
 26
0.0
 36
0.0
 17
0.0
 27
1.0
 37
0.0
 76
     0
330
6C
  0
MATERIAL
  5
19
102
{ACAD_XDICTIONARY
360
1A
102
}
102
{ACAD_REACTORS
330
10
102
}
330
10
100
AcDbMaterial
  1
ByBlock
 72
     0
 43
0.0208333333333333
 43
0.0
 43
0.0
 43
0.0
 43
0.0
 43
0.0208333333333333
 43
0.0
 43
0.0
 43
0.0
 43
0.0
 43
1.0
 43
0.0
 43
0.0
 43
0.0
 43
0.0
 43
1.0
 77
     0
 47
0.0208333333333333
 47
0.0
 47
0.0
 47
0.0
 47
0.0
 47
0.0208333333333333
 47
0.0
 47
0.0
 47
0.0
 47
0.0
 47
1.0
 47
0.0
 47
0.0
 47
0.0
 47
0.0
 47
1.0
171
     0
 49
0.0208333333333333
 49
0.0
 49
0.0
 49
0.0
 49
0.0
 49
0.0208333333333333
 49
0.0
 49
0.0
 49
0.0
 49
0.0
 49
1.0
 49
0.0
 49
0.0
 49
0.0
 49
0.0
 49
1.0
175
     0
142
0.0208333333333333
142
0.0
142
0.0
142
0.0
142
0.0
142
0.0208333333333333
142
0.0
142
0.0
142
0.0
142
0.0
142
1.0
142
0.0
142
0.0
142
0.0
142
0.0
142
1.0
179
     0
144
0.0208333333333333
144
0.0
144
0.0
144
0.0
144
0.0
144
0.0208333333333333
144
0.0
144
0.0
144
0.0
144
0.0
144
1.0
144
0.0
144
0.0
144
0.0
144
0.0
144
1.0
147
0.0208333333333333
147
0.0
147
0.0
147
0.0
147
0.0
147
0.0208333333333333
147
0.0
147
0.0
147
0.0
147
0.0
147
1.0
147
0.0
147
0.0
147
0.0
147
0.0
147
1.0
  0
MATERIAL
  5
11
102
{ACAD_XDICTIONARY
360
12
102
}
102
{ACAD_REACTORS
330
10
102
}
330
10
100
AcDbMaterial
  1
ByLayer
 72
     0
 43
0.0208333333333333
 43
0.0
 43
0.0
 43
0.0
 43
0.0
 43
0.0208333333333333
 43
0.0
 43
0.0
 43
0.0
 43
0.0
 43
1.0
 43
0.0
 43
0.0
 43
0.0
 43
0.0
 43
1.0
 77
     0
 47
0.0208333333333333
 47
0.0
 47
0.0
 47
0.0
 47
0.0
 47
0.0208333333333333
 47
0.0
 47
0.0
 47
0.0
 47
0.0
 47
1.0
 47
0.0
 47
0.0
 47
0.0
 47
0.0
 47
1.0
171
     0
 49
0.0208333333333333
 49
0.0
 49
0.0
 49
0.0
 49
0.0
 49
0.0208333333333333
 49
0.0
 49
0.0
 49
0.0
 49
0.0
 49
1.0
 49
0.0
 49
0.0
 49
0.0
 49
0.0
 49
1.0
175
     0
142
0.0208333333333333
142
0.0
142
0.0
142
0.0
142
0.0
142
0.0208333333333333
142
0.0
142
0.0
142
0.0
142
0.0
142
1.0
142
0.0
142
0.0
142
0.0
142
0.0
142
1.0
179
     0
144
0.0208333333333333
144
0.0
144
0.0
144
0.0
144
0.0
144
0.0208333333333333
144
0.0
144
0.0
144
0.0
144
0.0
144
1.0
144
0.0
144
0.0
144
0.0
144
0.0
144
1.0
147
0.0208333333333333
147
0.0
147
0.0
147
0.0
147
0.0
147
0.0208333333333333
147
0.0
147
0.0
147
0.0
147
0.0
147
1.0
147
0.0
147
0.0
147
0.0
147
0.0
147
1.0
  0
MATERIAL
  5
21
102
{ACAD_XDICTIONARY
360
22
102
}
102
{ACAD_REACTORS
330
10
102
}
330
10
100
AcDbMaterial
  1
Global
 72
     0
 43
0.0208333333333333
 43
0.0
 43
0.0
 43
0.0
 43
0.0
 43
0.0208333333333333
 43
0.0
 43
0.0
 43
0.0
 43
0.0
 43
1.0
 43
0.0
 43
0.0
 43
0.0
 43
0.0
 43
1.0
 77
     0
 47
0.0208333333333333
 47
0.0
 47
0.0
 47
0.0
 47
0.0
 47
0.0208333333333333
 47
0.0
 47
0.0
 47
0.0
 47
0.0
 47
1.0
 47
0.0
 47
0.0
 47
0.0
 47
0.0
 47
1.0
171
     0
 49
0.0208333333333333
 49
0.0
 49
0.0
 49
0.0
 49
0.0
 49
0.0208333333333333
 49
0.0
 49
0.0
 49
0.0
 49
0.0
 49
1.0
 49
0.0
 49
0.0
 49
0.0
 49
0.0
 49
1.0
175
     0
142
0.0208333333333333
142
0.0
142
0.0
142
0.0
142
0.0
142
0.0208333333333333
142
0.0
142
0.0
142
0.0
142
0.0
142
1.0
142
0.0
142
0.0
142
0.0
142
0.0
142
1.0
179
     0
144
0.0208333333333333
144
0.0
144
0.0
144
0.0
144
0.0
144
0.0208333333333333
144
0.0
144
0.0
144
0.0
144
0.0
144
1.0
144
0.0
144
0.0
144
0.0
144
0.0
144
1.0
147
0.0208333333333333
147
0.0
147
0.0
147
0.0
147
0.0
147
0.0208333333333333
147
0.0
147
0.0
147
0.0
147
0.0
147
1.0
147
0.0
147
0.0
147
0.0
147
0.0
147
1.0
  0
MLEADERSTYLE
  5
67
102
{ACAD_XDICTIONARY
360
E84
102
}
102
{ACAD_REACTORS
330
66
102
}
330
66
100
AcDbMLeaderStyle
179
     2
170
     2
171
     1
172
     0
 90
        2
 40
0.0
 41
0.0
173
     1
 91
-1056964608
340
5B
 92
       -2
290
     1
 42
0.09
291
     1
 43
0.36
  3
Standard
 44
0.18
300

342
55
174
     1
178
     6
175
     1
176
     0
 93
-1056964608
 45
0.18
292
     0
297
     0
 46
0.18
 94
-1056964608
 47
1.0
 49
1.0
140
1.0
293
     1
141
0.0
294
     1
177
     0
142
1.0
295
     0
296
     0
143
0.125
271
     0
272
     9
273
     9
  0
MLINESTYLE
  5
60
102
{ACAD_REACTORS
330
5F
102
}
330
5F
100
AcDbMlineStyle
  2
STANDARD
 70
     0
  3

 62
   256
 51
90.0
 52
90.0
 71
     2
 49
0.5
 62
   256
  6
BYLAYER
 49
-0.5
 62
   256
  6
BYLAYER
  0
ACDBPLACEHOLDER
  5
F
102
{ACAD_REACTORS
330
E
102
}
330
E
  0
SCALE
  5
43
102
{ACAD_REACTORS
330
42
102
}
330
42
100
AcDbScale
 70
     0
300
1:1
140
1.0
141
1.0
290
     1
  0
SCALE
  5
44
102
{ACAD_REACTORS
330
42
102
}
330
42
100
AcDbScale
 70
     0
300
1/128" = 1'-0"
140
0.0078125
141
12.0
290
     0
  0
SCALE
  5
45
102
{ACAD_REACTORS
330
42
102
}
330
42
100
AcDbScale
 70
     0
300
1/64" = 1'-0"
140
0.015625
141
12.0
290
     0
  0
SCALE
  5
46
102
{ACAD_REACTORS
330
42
102
}
330
42
100
AcDbScale
 70
     0
300
1/32" = 1'-0"
140
0.03125
141
12.0
290
     0
  0
SCALE
  5
47
102
{ACAD_REACTORS
330
42
102
}
330
42
100
AcDbScale
 70
     0
300
1/16" = 1'-0"
140
0.0625
141
12.0
290
     0
  0
SCALE
  5
48
102
{ACAD_REACTORS
330
42
102
}
330
42
100
AcDbScale
 70
     0
300
3/32" = 1'-0"
140
0.09375
141
12.0
290
     0
  0
SCALE
  5
49
102
{ACAD_REACTORS
330
42
102
}
330
42
100
AcDbScale
 70
     0
300
1/8" = 1'-0"
140
0.125
141
12.0
290
     0
  0
SCALE
  5
4A
102
{ACAD_REACTORS
330
42
102
}
330
42
100
AcDbScale
 70
     0
300
3/16" = 1'-0"
140
0.1875
141
12.0
290
     0
  0
SCALE
  5
4B
102
{ACAD_REACTORS
330
42
102
}
330
42
100
AcDbScale
 70
     0
300
1/4" = 1'-0"
140
0.25
141
12.0
290
     0
  0
SCALE
  5
4C
102
{ACAD_REACTORS
330
42
102
}
330
42
100
AcDbScale
 70
     0
300
3/8" = 1'-0"
140
0.375
141
12.0
290
     0
  0
SCALE
  5
4D
102
{ACAD_REACTORS
330
42
102
}
330
42
100
AcDbScale
 70
     0
300
1/2" = 1'-0"
140
0.5
141
12.0
290
     0
  0
SCALE
  5
4E
102
{ACAD_REACTORS
330
42
102
}
330
42
100
AcDbScale
 70
     0
300
3/4" = 1'-0"
140
0.75
141
12.0
290
     0
  0
SCALE
  5
4F
102
{ACAD_REACTORS
330
42
102
}
330
42
100
AcDbScale
 70
     0
300
1" = 1'-0"
140
1.0
141
12.0
290
     0
  0
SCALE
  5
50
102
{ACAD_REACTORS
330
42
102
}
330
42
100
AcDbScale
 70
     0
300
1-1/2" = 1'-0"
140
1.5
141
12.0
290
     0
  0
SCALE
  5
51
102
{ACAD_REACTORS
330
42
102
}
330
42
100
AcDbScale
 70
     0
300
3" = 1'-0"
140
3.0
141
12.0
290
     0
  0
SCALE
  5
52
102
{ACAD_REACTORS
330
42
102
}
330
42
100
AcDbScale
 70
     0
300
6" = 1'-0"
140
6.0
141
12.0
290
     0
  0
SCALE
  5
53
102
{ACAD_REACTORS
330
42
102
}
330
42
100
AcDbScale
 70
     0
300
1'-0" = 1'-0"
140
12.0
141
12.0
290
     0
  0
TABLESTYLE
  5
65
102
{ACAD_XDICTIONARY
360
E82
102
}
102
{ACAD_REACTORS
330
64
102
}
330
64
100
AcDbTableStyle
280
     0
  3
Standard
 70
     0
 71
     0
 40
0.06
 41
0.06
280
     0
281
     0
  7
Standard
140
0.18
170
     2
 62
     0
 63
     7
283
     0
 90
      512
 91
        0
  1

274
    -2
284
     1
 64
     0
275
    -2
285
     1
 65
     0
276
    -2
286
     1
 66
     0
277
    -2
287
     1
 67
     0
278
    -2
288
     1
 68
     0
279
    -2
289
     1
 69
     0
  7
Standard
140
0.25
170
     5
 62
     0
 63
     7
283
     0
 90
      512
 91
        0
  1

274
    -2
284
     1
 64
     0
275
    -2
285
     1
 65
     0
276
    -2
286
     1
 66
     0
277
    -2
287
     1
 67
     0
278
    -2
288
     1
 68
     0
279
    -2
289
     1
 69
     0
  7
Standard
140
0.18
170
     5
 62
     0
 63
     7
283
     0
 90
      512
 91
        0
  1

274
    -2
284
     1
 64
     0
275
    -2
285
     1
 65
     0
276
    -2
286
     1
 66
     0
277
    -2
287
     1
 67
     0
278
    -2
288
     1
 68
     0
279
    -2
289
     1
 69
     0
  0
VISUALSTYLE
  5
2F
102
{ACAD_REACTORS
330
29
102
}
330
29
100
AcDbVisualStyle
  2
2dWireframe
 70
     4
177
     2
291
     0
 71
     0
176
     1
 72
     2
176
     1
 73
     0
176
     1
 90
        0
176
     1
 40
0.6
176
     1
 41
30.0
176
     1
 63
     7
421
 16777215
176
     1
 74
     1
176
     1
 91
        4
176
     1
 64
     7
176
     1
 65
   257
176
     1
 75
     1
176
     1
175
     1
176
     1
 42
1.0
176
     1
 92
        0
176
     1
 66
   257
176
     1
 43
1.0
176
     1
 76
     1
176
     1
 77
     6
176
     1
 78
     2
176
     1
 67
     7
176
     1
 79
     5
176
     1
170
     0
176
     1
171
     0
176
     1
290
     0
176
     1
 93
        1
176
     1
 44
0.0
176
     1
173
     0
176
     1
  0
VISUALSTYLE
  5
2E
102
{ACAD_REACTORS
330
29
102
}
330
29
100
AcDbVisualStyle
  2
Basic
 70
     7
177
     2
291
     1
 71
     1
176
     1
 72
     0
176
     1
 73
     1
176
     1
 90
        0
176
     1
 40
0.6
176
     1
 41
30.0
176
     1
 63
     7
421
 16777215
176
     1
 74
     0
176
     1
 91
        4
176
     1
 64
     7
176
     1
 65
   257
176
     1
 75
     1
176
     1
175
     1
176
     1
 42
1.0
176
     1
 92
        8
176
     1
 66
     7
176
     1
 43
1.0
176
     1
 76
     1
176
     1
 77
     6
176
     1
 78
     2
176
     1
 67
     7
176
     1
 79
     5
176
     1
170
     0
176
     1
171
     0
176
     1
290
     0
176
     1
 93
        1
176
     1
 44
0.0
176
     1
173
     0
176
     1
  0
VISUALSTYLE
  5
35
102
{ACAD_REACTORS
330
29
102
}
330
29
100
AcDbVisualStyle
  2
Brighten
 70
    12
177
     2
291
     1
 71
     2
176
     1
 72
     2
176
     1
 73
     0
176
     1
 90
        0
176
     1
 40
0.6
176
     1
 41
30.0
176
     1
 63
     7
421
 16777215
176
     1
 74
     1
176
     1
 91
        4
176
     1
 64
     7
176
     1
 65
   257
176
     1
 75
     1
176
     1
175
     1
176
     1
 42
1.0
176
     1
 92
        8
176
     1
 66
     7
176
     1
 43
1.0
176
     1
 76
     1
176
     1
 77
     6
176
     1
 78
     2
176
     1
 67
     7
176
     1
 79
     5
176
     1
170
     0
176
     1
171
     0
176
     1
290
     0
176
     1
 93
        1
176
     1
 44
50.0
176
     1
173
     0
176
     1
  0
VISUALSTYLE
  5
39
102
{ACAD_REACTORS
330
29
102
}
330
29
100
AcDbVisualStyle
  2
ColorChange
 70
    16
177
     2
291
     1
 71
     2
176
     1
 72
     2
176
     1
 73
     3
176
     1
 90
        0
176
     1
 40
0.6
176
     1
 41
30.0
176
     1
 63
     8
421
  8421504
176
     1
 74
     1
176
     1
 91
        4
176
     1
 64
     7
176
     1
 65
   257
176
     1
 75
     1
176
     1
175
     1
176
     1
 42
1.0
176
     1
 92
        8
176
     1
 66
     8
424
  8421504
176
     1
 43
1.0
176
     1
 76
     1
176
     1
 77
     6
176
     1
 78
     2
176
     1
 67
     7
176
     1
 79
     5
176
     1
170
     0
176
     1
171
     0
176
     1
290
     0
176
     1
 93
        1
176
     1
 44
0.0
176
     1
173
     0
176
     1
  0
VISUALSTYLE
  5
32
102
{ACAD_REACTORS
330
29
102
}
330
29
100
AcDbVisualStyle
  2
Conceptual
 70
     9
177
     2
291
     0
 71
     3
176
     1
 72
     2
176
     1
 73
     0
176
     1
 90
        0
176
     1
 40
0.6
176
     1
 41
30.0
176
     1
 63
     7
421
 16777215
176
     1
 74
     2
176
     1
 91
        2
176
     1
 64
     7
176
     1
 65
   257
176
     1
 75
     1
176
     1
175
     1
176
     1
 42
179.0
176
     1
 92
        8
176
     1
 66
     7
176
     1
 43
1.0
176
     1
 76
     1
176
     1
 77
     6
176
     1
 78
     2
176
     1
 67
     7
176
     1
 79
     3
176
     1
170
     0
176
     1
171
     0
176
     1
290
     0
176
     1
 93
        1
176
     1
 44
0.0
176
     1
173
     0
176
     1
  0
VISUALSTYLE
  5
34
102
{ACAD_REACTORS
330
29
102
}
330
29
100
AcDbVisualStyle
  2
Dim
 70
    11
177
     2
291
     1
 71
     2
176
     1
 72
     2
176
     1
 73
     0
176
     1
 90
        0
176
     1
 40
0.6
176
     1
 41
30.0
176
     1
 63
     7
421
 16777215
176
     1
 74
     1
176
     1
 91
        4
176
     1
 64
     7
176
     1
 65
   257
176
     1
 75
     1
176
     1
175
     1
176
     1
 42
1.0
176
     1
 92
        8
176
     1
 66
     7
176
     1
 43
1.0
176
     1
 76
     1
176
     1
 77
     6
176
     1
 78
     2
176
     1
 67
     7
176
     1
 79
     5
176
     1
170
     0
176
     1
171
     0
176
     1
290
     0
176
     1
 93
        1
176
     1
 44
-50.0
176
     1
173
     0
176
     1
  0
VISUALSTYLE
  5
41
102
{ACAD_REACTORS
330
29
102
}
330
29
100
AcDbVisualStyle
  2
EdgeColorOff
 70
    22
177
     2
291
     1
 71
     2
176
     0
 72
     2
176
     0
 73
     0
176
     0
 90
        0
176
     0
 40
0.6
176
     0
 41
30.0
176
     0
 63
     7
421
 16777215
176
     0
 74
     1
176
     0
 91
        4
176
     0
 64
     7
176
     0
 65
   257
176
     0
 75
     1
176
     0
175
     1
176
     0
 42
1.0
176
     0
 92
        8
176
     2
 66
     7
176
     0
 43
1.0
176
     0
 76
     1
176
     0
 77
     6
176
     0
 78
     2
176
     0
 67
     7
176
     0
 79
     5
176
     0
170
     0
176
     0
171
     0
176
     0
290
     0
176
     0
 93
        1
176
     0
 44
0.0
176
     0
173
     0
176
     0
  0
VISUALSTYLE
  5
38
102
{ACAD_REACTORS
330
29
102
}
330
29
100
AcDbVisualStyle
  2
Facepattern
 70
    15
177
     2
291
     1
 71
     2
176
     1
 72
     2
176
     1
 73
     0
176
     1
 90
        0
176
     1
 40
0.6
176
     1
 41
30.0
176
     1
 63
     7
421
 16777215
176
     1
 74
     1
176
     1
 91
        4
176
     1
 64
     7
176
     1
 65
   257
176
     1
 75
     1
176
     1
175
     1
176
     1
 42
1.0
176
     1
 92
        8
176
     1
 66
     7
176
     1
 43
1.0
176
     1
 76
     1
176
     1
 77
     6
176
     1
 78
     2
176
     1
 67
     7
176
     1
 79
     5
176
     1
170
     0
176
     1
171
     0
176
     1
290
     0
176
     1
 93
        1
176
     1
 44
0.0
176
     1
173
     0
176
     1
  0
VISUALSTYLE
  5
2A
102
{ACAD_REACTORS
330
29
102
}
330
29
100
AcDbVisualStyle
  2
Flat
 70
     0
177
     2
291
     1
 71
     2
176
     1
 72
     1
176
     1
 73
     1
176
     1
 90
        2
176
     1
 40
0.6
176
     1
 41
30.0
176
     1
 63
     7
421
 16777215
176
     1
 74
     0
176
     1
 91
        0
176
     1
 64
     7
176
     1
 65
   257
176
     1
 75
     1
176
     1
175
     1
176
     1
 42
1.0
176
     1
 92
        8
176
     1
 66
     7
176
     1
 43
1.0
176
     1
 76
     1
176
     1
 77
     6
176
     1
 78
     2
176
     1
 67
     7
176
     1
 79
     5
176
     1
170
     0
176
     1
171
     0
176
     1
290
     0
176
     1
 93
       13
176
     1
 44
0.0
176
     1
173
     0
176
     1
  0
VISUALSTYLE
  5
2B
102
{ACAD_REACTORS
330
29
102
}
330
29
100
AcDbVisualStyle
  2
FlatWithEdges
 70
     1
177
     2
291
     1
 71
     2
176
     1
 72
     1
176
     1
 73
     1
176
     1
 90
        2
176
     1
 40
0.6
176
     1
 41
30.0
176
     1
 63
     7
421
 16777215
176
     1
 74
     1
176
     1
 91
        0
176
     1
 64
     7
176
     1
 65
   257
176
     1
 75
     1
176
     1
175
     1
176
     1
 42
1.0
176
     1
 92
        0
176
     1
 66
   257
176
     1
 43
1.0
176
     1
 76
     1
176
     1
 77
     6
176
     1
 78
     2
176
     1
 67
     7
176
     1
 79
     5
176
     1
170
     0
176
     1
171
     0
176
     1
290
     0
176
     1
 93
       13
176
     1
 44
0.0
176
     1
173
     0
176
     1
  0
VISUALSTYLE
  5
2C
102
{ACAD_REACTORS
330
29
102
}
330
29
100
AcDbVisualStyle
  2
Gouraud
 70
     2
177
     2
291
     1
 71
     2
176
     1
 72
     2
176
     1
 73
     1
176
     1
 90
        2
176
     1
 40
0.6
176
     1
 41
30.0
176
     1
 63
     7
421
 16777215
176
     1
 74
     0
176
     1
 91
        0
176
     1
 64
     7
176
     1
 65
   257
176
     1
 75
     1
176
     1
175
     1
176
     1
 42
1.0
176
     1
 92
        0
176
     1
 66
     7
176
     1
 43
1.0
176
     1
 76
     1
176
     1
 77
     6
176
     1
 78
     2
176
     1
 67
     7
176
     1
 79
     5
176
     1
170
     0
176
     1
171
     0
176
     1
290
     0
176
     1
 93
       13
176
     1
 44
0.0
176
     1
173
     0
176
     1
  0
VISUALSTYLE
  5
2D
102
{ACAD_REACTORS
330
29
102
}
330
29
100
AcDbVisualStyle
  2
GouraudWithEdges
 70
     3
177
     2
291
     1
 71
     2
176
     1
 72
     2
176
     1
 73
     1
176
     1
 90
        2
176
     1
 40
0.6
176
     1
 41
30.0
176
     1
 63
     7
421
 16777215
176
     1
 74
     1
176
     1
 91
        0
176
     1
 64
     7
176
     1
 65
   257
176
     1
 75
     1
176
     1
175
     1
176
     1
 42
1.0
176
     1
 92
        0
176
     1
 66
   257
176
     1
 43
1.0
176
     1
 76
     1
176
     1
 77
     6
176
     1
 78
     2
176
     1
 67
     7
176
     1
 79
     5
176
     1
170
     0
176
     1
171
     0
176
     1
290
     0
176
     1
 93
       13
176
     1
 44
0.0
176
     1
173
     0
176
     1
  0
VISUALSTYLE
  5
31
102
{ACAD_REACTORS
330
29
102
}
330
29
100
AcDbVisualStyle
  2
Hidden
 70
     6
177
     2
291
     0
 71
     1
176
     1
 72
     2
176
     1
 73
     2
176
     1
 90
        0
176
     1
 40
0.6
176
     1
 41
30.0
176
     1
 63
     7
421
 16777215
176
     1
 74
     2
176
     1
 91
        2
176
     1
 64
     7
176
     1
 65
   257
176
     1
 75
     2
176
     1
175
     1
176
     1
 42
40.0
176
     1
 92
        0
176
     1
 66
   257
176
     1
 43
1.0
176
     1
 76
     1
176
     1
 77
     6
176
     1
 78
     2
176
     1
 67
     7
176
     1
 79
     3
176
     1
170
     0
176
     1
171
     0
176
     1
290
     0
176
     1
 93
        1
176
     1
 44
0.0
176
     1
173
     0
176
     1
  0
VISUALSTYLE
  5
3F
102
{ACAD_REACTORS
330
29
102
}
330
29
100
AcDbVisualStyle
  2
JitterOff
 70
    20
177
     2
291
     1
 71
     2
176
     0
 72
     2
176
     0
 73
     0
176
     0
 90
        0
176
     0
 40
0.6
176
     0
 41
30.0
176
     0
 63
     7
421
 16777215
176
     0
 74
     1
176
     0
 91
        4
176
     0
 64
     7
176
     0
 65
   257
176
     0
 75
     1
176
     0
175
     1
176
     0
 42
1.0
176
     0
 92
       10
176
     2
 66
     7
176
     0
 43
1.0
176
     0
 76
     1
176
     0
 77
     6
176
     0
 78
     2
176
     0
 67
     7
176
     0
 79
     5
176
     0
170
     0
176
     0
171
     0
176
     0
290
     0
176
     0
 93
        1
176
     0
 44
0.0
176
     0
173
     0
176
     0
  0
VISUALSTYLE
  5
37
102
{ACAD_REACTORS
330
29
102
}
330
29
100
AcDbVisualStyle
  2
Linepattern
 70
    14
177
     2
291
     1
 71
     2
176
     1
 72
     2
176
     1
 73
     0
176
     1
 90
        0
176
     1
 40
0.6
176
     1
 41
30.0
176
     1
 63
     7
421
 16777215
176
     1
 74
     1
176
     1
 91
        4
176
     1
 64
     7
176
     1
 65
   257
176
     1
 75
     7
176
     1
175
     7
176
     1
 42
1.0
176
     1
 92
        8
176
     1
 66
     7
176
     1
 43
1.0
176
     1
 76
     1
176
     1
 77
     6
176
     1
 78
     2
176
     1
 67
     7
176
     1
 79
     5
176
     1
170
     0
176
     1
171
     0
176
     1
290
     0
176
     1
 93
        1
176
     1
 44
0.0
176
     1
173
     0
176
     1
  0
VISUALSTYLE
  5
40
102
{ACAD_REACTORS
330
29
102
}
330
29
100
AcDbVisualStyle
  2
OverhangOff
 70
    21
177
     2
291
     1
 71
     2
176
     0
 72
     2
176
     0
 73
     0
176
     0
 90
        0
176
     0
 40
0.6
176
     0
 41
30.0
176
     0
 63
     7
421
 16777215
176
     0
 74
     1
176
     0
 91
        4
176
     0
 64
     7
176
     0
 65
   257
176
     0
 75
     1
176
     0
175
     1
176
     0
 42
1.0
176
     0
 92
        9
176
     2
 66
     7
176
     0
 43
1.0
176
     0
 76
     1
176
     0
 77
     6
176
     0
 78
     2
176
     0
 67
     7
176
     0
 79
     5
176
     0
170
     0
176
     0
171
     0
176
     0
290
     0
176
     0
 93
        1
176
     0
 44
0.0
176
     0
173
     0
176
     0
  0
VISUALSTYLE
  5
33
102
{ACAD_REACTORS
330
29
102
}
330
29
100
AcDbVisualStyle
  2
Realistic
 70
     8
177
     2
291
     0
 71
     2
176
     1
 72
     3
176
     1
 73
     0
176
     1
 90
        2
176
     1
 40
0.6
176
     1
 41
30.0
176
     1
 63
     7
421
 16777215
176
     1
 74
     0
176
     1
 91
        0
176
     1
 64
     7
176
     1
 65
   257
176
     1
 75
     1
176
     1
175
     1
176
     1
 42
1.0
176
     1
 92
        8
176
     1
 66
   257
176
     1
 43
1.0
176
     1
 76
     1
176
     1
 77
     6
176
     1
 78
     2
176
     1
 67
     7
176
     1
 79
     3
176
     1
170
     0
176
     1
171
     0
176
     1
290
     0
176
     1
 93
       13
176
     1
 44
0.0
176
     1
173
     0
176
     1
  0
VISUALSTYLE
  5
3E
102
{ACAD_REACTORS
330
29
102
}
330
29
100
AcDbVisualStyle
  2
Shaded
 70
    27
177
     2
291
     0
 71
     2
176
     1
 72
     2
176
     1
 73
     1
176
     1
 90
        2
176
     1
 40
0.6
176
     1
 41
30.0
176
     1
 63
     7
421
 16777215
176
     1
 74
     0
176
     1
 91
        4
176
     1
 64
     7
176
     1
 65
   257
176
     1
 75
     1
176
     1
175
     1
176
     1
 42
1.0
176
     1
 92
        8
176
     1
 66
   257
176
     1
 43
1.0
176
     1
 76
     1
176
     1
 77
     6
176
     1
 78
     2
176
     1
 67
     8
425
  7895160
176
     1
 79
     3
176
     1
170
     0
176
     1
171
     0
176
     1
290
     0
176
     1
 93
        5
176
     1
 44
0.0
176
     1
173
     0
176
     1
  0
VISUALSTYLE
  5
3D
102
{ACAD_REACTORS
330
29
102
}
330
29
100
AcDbVisualStyle
  2
Shaded with edges
 70
    26
177
     2
291
     0
 71
     2
176
     1
 72
     2
176
     1
 73
     1
176
     1
 90
        2
176
     1
 40
0.6
176
     1
 41
30.0
176
     1
 63
     7
421
 16777215
176
     1
 74
     1
176
     1
 91
       10
176
     1
 64
     7
176
     1
 65
   257
176
     1
 75
     2
176
     1
175
     1
176
     1
 42
1.0
176
     1
 92
        8
176
     1
 66
   257
176
     1
 43
1.0
176
     1
 76
     1
176
     1
 77
     6
176
     1
 78
     2
176
     1
 67
     7
176
     1
 79
     3
176
     1
170
     0
176
     1
171
     0
176
     1
290
     0
176
     1
 93
        5
176
     1
 44
0.0
176
     1
173
     0
176
     1
  0
VISUALSTYLE
  5
3A
102
{ACAD_REACTORS
330
29
102
}
330
29
100
AcDbVisualStyle
  2
Shades of Gray
 70
    23
177
     2
291
     0
 71
     2
176
     1
 72
     2
176
     1
 73
     3
176
     1
 90
        0
176
     1
 40
0.6
176
     1
 41
30.0
176
     1
 63
     7
421
 16777215
176
     1
 74
     2
176
     1
 91
        2
176
     1
 64
     7
176
     1
 65
     7
176
     1
 75
     1
176
     1
175
     1
176
     1
 42
40.0
176
     1
 92
        8
176
     1
 66
     7
176
     1
 43
1.0
176
     1
 76
     1
176
     1
 77
     6
176
     1
 78
     2
176
     1
 67
     7
176
     1
 79
     3
176
     1
170
     0
176
     1
171
     0
176
     1
290
     0
176
     1
 93
        1
176
     1
 44
0.0
176
     1
173
     0
176
     1
  0
VISUALSTYLE
  5
3B
102
{ACAD_REACTORS
330
29
102
}
330
29
100
AcDbVisualStyle
  2
Sketchy
 70
    24
177
     2
291
     0
 71
     1
176
     1
 72
     2
176
     1
 73
     2
176
     1
 90
        0
176
     1
 40
0.6
176
     1
 41
30.0
176
     1
 63
     7
421
 16777215
176
     1
 74
     2
176
     1
 91
        2
176
     1
 64
     7
176
     1
 65
     7
176
     1
 75
     1
176
     1
175
     1
176
     1
 42
40.0
176
     1
 92
       11
176
     1
 66
     7
176
     1
 43
1.0
176
     1
 76
     1
176
     1
 77
     6
176
     1
 78
     2
176
     1
 67
     7
176
     1
 79
     6
176
     1
170
     0
176
     1
171
     0
176
     1
290
     0
176
     1
 93
        1
176
     1
 44
0.0
176
     1
173
     0
176
     1
  0
VISUALSTYLE
  5
36
102
{ACAD_REACTORS
330
29
102
}
330
29
100
AcDbVisualStyle
  2
Thicken
 70
    13
177
     2
291
     1
 71
     2
176
     1
 72
     2
176
     1
 73
     0
176
     1
 90
        0
176
     1
 40
0.6
176
     1
 41
30.0
176
     1
 63
     7
421
 16777215
176
     1
 74
     1
176
     1
 91
        4
176
     1
 64
     7
176
     1
 65
   257
176
     1
 75
     1
176
     1
175
     1
176
     1
 42
1.0
176
     1
 92
       12
176
     1
 66
     7
176
     1
 43
1.0
176
     1
 76
     1
176
     1
 77
     6
176
     1
 78
     2
176
     1
 67
     7
176
     1
 79
     5
176
     1
170
     0
176
     1
171
     0
176
     1
290
     0
176
     1
 93
        1
176
     1
 44
0.0
176
     1
173
     0
176
     1
  0
VISUALSTYLE
  5
30
102
{ACAD_REACTORS
330
29
102
}
330
29
100
AcDbVisualStyle
  2
Wireframe
 70
     5
177
     2
291
     0
 71
     0
176
     1
 72
     2
176
     1
 73
     0
176
     1
 90
        0
176
     1
 40
0.6
176
     1
 41
30.0
176
     1
 63
     7
421
 16777215
176
     1
 74
     1
176
     1
 91
        4
176
     1
 64
     7
176
     1
 65
   257
176
     1
 75
     1
176
     1
175
     1
176
     1
 42
1.0
176
     1
 92
        0
176
     1
 66
   257
176
     1
 43
1.0
176
     1
 76
     1
176
     1
 77
     6
176
     1
 78
     2
176
     1
 67
     7
176
     1
 79
     3
176
     1
170
     0
176
     1
171
     0
176
     1
290
     0
176
     1
 93
        1
176
     1
 44
0.0
176
     1
173
     0
176
     1
  0
VISUALSTYLE
  5
3C
102
{ACAD_REACTORS
330
29
102
}
330
29
100
AcDbVisualStyle
  2
X-Ray
 70
    25
177
     2
291
     0
 71
     2
176
     1
 72
     2
176
     1
 73
     1
176
     1
 90
        1
176
     1
 40
0.5
176
     1
 41
30.0
176
     1
 63
     7
421
 16777215
176
     1
 74
     1
176
     1
 91
        0
176
     1
 64
     7
176
     1
 65
   257
176
     1
 75
     1
176
     1
175
     1
176
     1
 42
1.0
176
     1
 92
        8
176
     1
 66
     7
176
     1
 43
1.0
176
     1
 76
     1
176
     1
 77
     6
176
     1
 78
     2
176
     1
 67
     7
176
     1
 79
     3
176
     1
170
     0
176
     1
171
     0
176
     1
290
     0
176
     1
 93
       13
176
     1
 44
0.0
176
     1
173
     0
176
     1
  0
DICTIONARYVAR
  5
79
102
{ACAD_REACTORS
330
76
102
}
330
76
100
DictionaryVariables
280
     0
  1
1:1
  0
DICTIONARYVAR
  5
78
102
{ACAD_REACTORS
330
76
102
}
330
76
100
DictionaryVariables
280
     0
  1
STANDARD
  0
DICTIONARYVAR
  5
77
102
{ACAD_REACTORS
330
76
102
}
330
76
100
DictionaryVariables
280
     0
  1
STANDARD
  0
DICTIONARY
  5
1A
330
19
100
AcDbDictionary
280
     1
281
     1
  3
BUMPTILE
360
1C
  3
DIFFUSETILE
360
1B
  3
OPACITYTILE
360
1F
  3
REFLECTIONTILE
360
1E
  3
REFRACTIONTILE
360
20
  3
SPECULARTILE
360
1D
  0
DICTIONARY
  5
12
330
11
100
AcDbDictionary
280
     1
281
     1
  3
BUMPTILE
360
14
  3
DIFFUSETILE
360
13
  3
FBXASSET
360
109
  3
OPACITYTILE
360
17
  3
REFLECTIONTILE
360
16
  3
REFRACTIONTILE
360
18
  3
SPECULARTILE
360
15
  0
DICTIONARY
  5
22
330
21
100
AcDbDictionary
280
     1
281
     1
  3
BUMPTILE
360
24
  3
DIFFUSETILE
360
23
  3
FBXASSET
360
BA
  3
OPACITYTILE
360
27
  3
REFLECTIONTILE
360
26
  3
REFRACTIONTILE
360
28
  3
SPECULARTILE
360
25
  0
DICTIONARY
  5
E84
330
67
100
AcDbDictionary
280
     1
281
     1
  3
ACAD_XREC_ROUNDTRIP
360
E85
  0
DICTIONARY
  5
E82
330
65
100
AcDbDictionary
280
     1
281
     1
  3
ACAD_ROUNDTRIP_2008_TABLESTYLE_CELLSTYLEMAP
360
E83
  0
XRECORD
  5
1C
102
{ACAD_REACTORS
330
1A
102
}
330
1A
100
AcDbXrecord
280
     1
270
     1
271
     1
  0
XRECORD
  5
1B
102
{ACAD_REACTORS
330
1A
102
}
330
1A
100
AcDbXrecord
280
     1
270
     1
271
     1
  0
XRECORD
  5
1F
102
{ACAD_REACTORS
330
1A
102
}
330
1A
100
AcDbXrecord
280
     1
270
     1
271
     1
  0
XRECORD
  5
1E
102
{ACAD_REACTORS
330
1A
102
}
330
1A
100
AcDbXrecord
280
     1
270
     1
271
     1
  0
XRECORD
  5
20
102
{ACAD_REACTORS
330
1A
102
}
330
1A
100
AcDbXrecord
280
     1
270
     1
271
     1
  0
XRECORD
  5
1D
102
{ACAD_REACTORS
330
1A
102
}
330
1A
100
AcDbXrecord
280
     1
270
     1
271
     1
  0
XRECORD
  5
14
102
{ACAD_REACTORS
330
12
102
}
330
12
100
AcDbXrecord
280
     1
270
     1
271
     1
  0
XRECORD
  5
13
102
{ACAD_REACTORS
330
12
102
}
330
12
100
AcDbXrecord
280
     1
270
     1
271
     1
  0
XRECORD
  5
109
102
{ACAD_REACTORS
330
12
102
}
330
12
100
AcDbXrecord
280
     1
 70
     1
 90
1959938040
 71
     1
  1
5B1C2D69-04F8-442A-885F-F7538FEC0416
311
504B03040A00000800000F9AD5423DEE336E79000000790000001B0000006175746F6465736B2D64657369676E2D7061636B6167652E786D6C3C3F786D6C2076657273696F6E3D22312E302220656E636F64696E673D227574662D3822203F3E3C666F726D6174733E3C666F726D61743E687474703A2F2F736368656D612E
311
6175746F6465736B2E636F6D2F64657369676E2D7061636B6167652F323030393C2F666F726D61743E3C2F666F726D6174733E504B03041400060808000F9AD542D486FD9CA0000000F4000000130000005B436F6E74656E745F54797065735D2E786D6C7D8EC10E82300C865F65E91D8A1E8C310C0EEA1BF002731658846E
311
D98AC1B77784ABF1D8FE5FBFBF75BBCE937A534CCEB38643598122B6FEE978D0B0485F9C41B54DDD7D022595594E1A469170414C76A4D9A4D207E29CF43ECE46F218070CC6BECC4078ACAA135ACF422C856C0E68EA1BF5669944DDD7BCDE7B1F8E415D77AECB980613C2E4AC91FC167A2B244592486606FC29C8FD7F045B9A
311
EF7053A7E60B504B03041400060808000F9AD5422E5BA01DEB0000007C01000008000000636F72652E786D6C8D90416EC3201045AF82665B6183EDB8498489E2D83E412F8080B828315806AA1EBF3871A476D70D33FAFC3733FAECF43DDDD1975EBC71B6019A1140DA4AA78C1D1B88E18AF7804E9C2DCE855F3640564CBA81
311
5506CEC6C5C57993A4B341DB9054EB94DE44E1BD0E80E43D350D78F9A92791891892C3DFB259C89B1875465F5D8263340A3D971895E699ABD10BF0F67DB7BF0CB4C4D579A871D5EF096E2F5D8BDBF35091BE6AFBAEE858BEC29C0533BDF6CB458BA015F0822496D4B8A01FF470A4F5B1246F64975E96AFF63F509CD53FA168
311
6C288BEDDC27E681D374C8E383B37CCD22954750A9AEB9F11F504B03041400060808000F9AD54255019EA25F0000007C00000007000000636E782E786D6C4DCB3B0E80201045D1AD90E915ED2CF8AC45050C11660C8261F98AB1B07AC9C97D42D718D865D3E909258CFD00CCE24AC6E326A164D74DC0B4128928FF32603847
311
2BA13128B1252AC747C6BAB984FC68F0B87FE8960A5C09FE86CFB69FBA01504B03041400060808000F9AD54214C3558F67010000020300000C0000006662782F636F72652E786D6C8D52ED8E8230107C95A67F2FD082E879A6D4881F4F702F50A1724468493F888F7FCB87E1BC1863484A33B3B33B3BC0B6B7A6469D34B6D2
311
2AC5514831922AD745A5CA147B7709D6186D39335ABB3F651829D1C814F730E6AC34DAB713946BE5A472802A5DC80914D64A87515EC325C536FF918D0885775061AF612BF2AB2865188540431D67D6193080C621FD89F9E57C6364C439F3BE2A26B62A605A75A9A4C13CFB5CAEF7A7681124BBD32A488E6B1A64FB431664BB
311
53428F49763CC407467A3167AE6AEEEE7223859305E631052D5D0571F41D7D6DA2D566413FE8124E46FAF207916F8B3745BE526E114F764799C53C022303F16F5B88C8212B3AF04338237D88F01A127E0C1A0281909D38D7F73DAE00753277DA24C014DACF54276A2F612A45C3C3C8C842E7A1016CF6B44FFCA2CFEB1EF001
311
852AC19A70703D7BD74F67E3D4298A569AA07337A4B469443D9B1B2DCEE73CE8A93CD7B536EFA8C9B42A99C224FDDFCB7F01504B03041400060808000F9AD542EB4EA9F57E0000009D0000000B0000006662782F636E782E786D6C4DCCD10A83201886E15B91FFDC65EC6F4C30C39ADE472C0B99E9703A76F9ABD1C18E3E78
311
F87845F7593D79DBF47231B4509F18101BEE71726169A1E4995E817452A418F3DF0D481857DBC2CE20C59262791E34D9792C3E6FEA5D781C884AD5C87AA44A998122368672D320E59CB3FEAC077DD137A8A4A87EA56DF7B0FC02504B03041400060808000F9AD542A5A0FB1A2B01000014020000310000006662782F344141
311
31343042342D414146432D343435462D394635342D3939393042334543453645442F636F72652E786D6C8D515B6EC32010BC0AE22B55850D36B6EA0813396972825EC00592A2C460F1A872FC42ED48ED5F7E58343B333BDA65BBFB7403DFCA796D4D0F498121504658A9CDA587319CD11B043BCE9CB5E10F0D02334EAA8719
311
869C5D9C8DF30A096B823221A1C64AB582A3F72A40206EE9D3432FBED43416630C89E1AFC53C8AEB78510529523BF138F3C1A5006019925FC8E930108AF7140DC3E980286D4EA83B3514755D87F7F5F1706C8FEFAC5C849CC5A8E52AD732C5D167ADDCB32659CC59D0D323BE706A0C4A425E615223DCA28A7C906E4BDA6D8D
311
5F71935E5666FA3F519CE593A2A84DA8AB35EE22F39013562E0DCEA48D9FB74718759FAD0B20CFDB78255E20C7052615C6754559B950D30292674B574F1FAC4B0BDE5C3F139B348B714B392BF38D52F93D60AAF99EFC07504B03041400060808000F9AD5420D8BA9A64E01000033030000300000006662782F344141313430
311
42342D414146432D343435462D394635342D3939393042334543453645442F636E782E786D6CD593BB6E032110457F05D146FBC0765689C5622945BE20455A0CE3989885158F28FEFB0C3676DCB8489966B4BA7367EEE888E59BEFC9922F08D1783752D6F69480535E1BF731D29C76CD13251BC183F7E9C6468993138CB4C8
311
54F08FE0F35C250D3B996D42D51A77A86280E8735010512E93C47A252D2E00D7641461DA82D6A0C9D5885F3B08780A8ADB23497B20AF2FEFC46F3F41A5C8BBB245F0AE64085E6A4DBA3151A2AC8C71A451ED6192ADCCC96B888756CB245BD65EB2EEDCF4BB8994814B640E8694F091964A45BDA8458EBCC3A6E03105A4574D
311
E9380315729EAD513221E4EE643C7B04CFC6A56155BD06C10774B361B95AE1B2534FF06426A80E154026D0542C7AB66CFAA159B037F6BC66C37AD93FF48F587957EC826FBDB77508D740F03351DE2570890AC6BBD2BE87AFFA88360159FB70FC0348045053CF74AE3BFE339FEEF4BE1157C0BF40FC00504B03041400060808
311
000F9AD542ECDCF7B3A505000081100000340000006662782F34414131343042342D414146432D343435462D394635342D3939393042334543453645442F6F626A656374732E786D6CAD575B6FDB3614FE2B82F6B23DF822DB499D41D190D8756174698B1A2DF660C0A0244AE1425D4052A9B35FBF8F22254BAE9D7A435F74
311
E1E5F09CEF7CE742FF8F7DC69D672A242BF25BD71B8E5D87E65111B33CBD752B950CE6AEF347E08BA2509D65AE93938CDEBA7AD80DFC5414556987629A908AABA3D1D5FD5F8E8C684E5D27E244CA5B57468F34234352A922A6F2691813458669B21F7A43B3B02F3615A47C3C125A124173054D319E438A6394F2FABF637714
311
F8233D1FF8FA69574DCFAF1AD5F6F4CF67B954248FBE3BEC48CCD49B2DDF4EAE6E0657B3D97430BB9E7883FBD5FD72E0BD998E17D78BC5CDDDDB1B1C2C958024AB89A0891BBC03368245FEC84C057EC572359DD825D64123419F99F6941B4C1CCF1F9935AD75D6C853EA47459ED3A8C60A68D4F659D1312D691EC3E78C4A68
311
D64168DCFFF5348E9DE9A9FEB74776872F43A0BBA323A8D1BD7977352DC2BF6182BC84414252CD4083A535D470757C40382C0A6EE7987432A2A860843B9C8582881737C052BD24F07B623493858E066D811BC00B66BA4F1784D18F797E4ACBA4E25CD3D80DEA28D82156A892B566EC1F2A0EDA7791814EF09566C3DC1AA45E
311
4AEA06378622F3233619209D8493142E87997AE7747264E842C7E97AE906EF57E17EA363F7F4E1A5284A2A94A60FA8D538AE796B94AC4EDE459ED31BDC23550EA07C06F21F10EA0755E037C1F6B3FDCC9EA204C96552880CBE71C6CE608CC7D8F1EAA7FEEE7CF9A37673DF7BE7F084B335543F01CFBE0D5D5F76E00CFC6710
311
BE10536BDA26221C69E381E5004893C4E1058690879370EF066B64396465EC223CF06032D47DC6A73FB2629028EA933AEF1C581EA5C50B123460AB1909350CF9AD82073F7D97CEEA83EDB273F05EFD14BADE2D37EF37954848441F6C4C2F69C272A650E20EBCE92AD4C3BC67D1137DF9568818867E8FF7A68B77668F92405B
311
63AE814F9B9CAE7F0E27F70E88B02F2D74BAF17F70028CD085B523FF81C988724E725A54CDB9AFD60F940D03B10E76CDE4B6C01C0A0B4863668E6210453A12ACD420B6D5AA4D9AC333D67D597F0023DDE0FEE54FF2D2CD5EE121F746052FC42E7CD999B47412EAAF7D6E5B0C465A0AE85E074913FF16F45DCC92A492488227
311
70FDBA5E747DA7D302524423D544CB0CF623B888B0A46DE4A25A0B824A5AE43B86BA89B83B7940573E20B50CA8059ED358529EEC18E755B64B184735DA65A43C03C7FFD73FACB27247B2A2CAD519D93DD5511DFABAF7D82BBF11153DBAC1A67E0FEE917B631A9F2183AE2527B0EAB9F6EADE5B4C96D73783F16C351FCC6693
311
BBC17C7EB51AACDE5C4DE7ABB78BF1CCBB6EFC643409FCA6D474231A5E4269F32BC1ACFBBEAC113F3609B8C1035172FBCE8467F3FEB21EA217F647D8837AD96EBC8B9FD1F7D1F8C7020E2B4F0A5A6725A719CD15D131F4A03FF867823EA3A78C195F6724A51748F9F86E73640C462ED8F749C73BFD76B4D78E2E74409E14A2
311
1EAB2CCC09E3471B5383E4B0CC538B5FE393F66D0A4DF3ABFFAC63D099CA82B318793076525A6454211B5E5084444625A8D7EDE9637BF7B860F7B3E9101509396D3479246892B94458805A55A4FAE3CE2F68EA745F75EBA2DC0E9FF0B099C275C0995B174DBA621195C310055AB742B57070A9DBC9A3F12779CAD16B9B4DED
311
7FBB4B63D32BC9ED924BFA276B9749E1D600A491127D031A2278A75626F06BDDEC7CF49F0C6FD47188C26758A9D696C3406B4C7D0C42D418656F0B68629EECD17B04EAEB6679C37A4D0F918B6E59AF92C0481D2822D2FAA6A0F5B32ADD2D3F8DD0A138EB8F4EC9AB14BEBC5CD2405090B9D2010E16811556664914A8BAF87D
311
FB4914B8C966CE8A8102CEAFFBF9F56FDB459165456E86B677F63EEC6C1E71BB8DB7480E545F4BE47632F626DBFA3A606F28BB90483A24B17CC2003C2B580B74CFFDE0A5B933A20E998976DD48BBE288A1EBA5630BDB0C422D5DBAB9558383C623A70E62485F2975C4741794AFDE0846F552A820D0CB07FF02504B03041400
311
060800000F9AD542000000000000000000000000350000006662782F34414131343042342D414146432D343435462D394635342D3939393042334543453645442F76657274696365732E62696E504B03041400060808000F9AD542F270F1330600000004000000360000006662782F34414131343042342D414146432D3434
311
35462D394635342D3939393042334543453645442F747269616E676C65732E62696E636660600000504B03041400060800000F9AD542000000000000000000000000370000006662782F34414131343042342D414146432D343435462D394635342D3939393042334543453645442F617474726962757465732E62696E504B
311
03041400060808000F9AD542D5987DFC8F00000041010000360000006662782F34414131343042342D414146432D343435462D394635342D3939393042334543453645442F6469726563746F72792E786D6C858F410EC2201045AF4266AF15DDB800BA74E7C21B903225242D6328188F2FA5C4183471359997F9FF81E89FF3
311
C41E1816475E02DF1F80A11FC8386F25A438EECEC07A250251FC3803E6F58C12560C4AD840E95E91C151A72936F496F35732D860FE635F62C8F2DA16B505C545B74125BAA2FA9E05D7CC053D063734D5C7665FD55B6B8D15D5E9BFEAFD8490FFA45E504B03041400060808000F9AD5423DF08E85FE000000A00100003B0000
311
006662782F34414131343042342D414146432D343435462D394635342D3939393042334543453645442F7265736F75726365732F636F72652E786D6C8D504B6E833010BD0A9A6D65B081A434328E420827E8052C33A156828DFCA97AFC9A844AEDAE9B99D1FB689E1E3F7ECDF7EC139DD7D6B4C0720A191A65476DA61662B8
311
9206B2A3E0CEDAF04B06999133B6B0C220F8E46C5C36485913D084841A3BE2064AEF3140A6EEE968C1AB0F9C652E63480A7FCB17A96E72C29CE5894E3AC17D702940F67CB24E100EBD8D4EA1E7C593153C463D6E1A3DA69FFAAAD181E85E77CD796025A94FC39ED4978692EEDC77A43B0D35BDD4DDA52F7B5EAC66C1839E7F
311
322A8732E008A2A4AC22744F4AF6CEDE0E6C7FA8E80BDDA5C98B55FEC71497F19FA6A84DA8CA2DEED3E641B014E441085EAC7DA5F52833EDB55BF10D504B010214000A00000800000F9AD5423DEE336E79000000790000001B00000000000000000000000000000000006175746F6465736B2D64657369676E2D7061636B61
311
67652E786D6C504B010214001400060808000F9AD542D486FD9CA0000000F40000001300000000000000000000000000B20000005B436F6E74656E745F54797065735D2E786D6C504B010214001400060808000F9AD5422E5BA01DEB0000007C010000080000000000000000000000000083010000636F72652E786D6C504B
311
010214001400060808000F9AD54255019EA25F0000007C000000070000000000000000000000000094020000636E782E786D6C504B010214001400060808000F9AD54214C3558F67010000020300000C00000000000000000000000000180300006662782F636F72652E786D6C504B010214001400060808000F9AD542EB4E
311
A9F57E0000009D0000000B00000000000000000000000000A90400006662782F636E782E786D6C504B010214001400060808000F9AD542A5A0FB1A2B010000140200003100000000000000000000000000500500006662782F34414131343042342D414146432D343435462D394635342D3939393042334543453645442F63
311
6F72652E786D6C504B010214001400060808000F9AD5420D8BA9A64E010000330300003000000000000000000000000000CA0600006662782F34414131343042342D414146432D343435462D394635342D3939393042334543453645442F636E782E786D6C504B010214001400060808000F9AD542ECDCF7B3A50500008110
311
00003400000000000000000000000000660800006662782F34414131343042342D414146432D343435462D394635342D3939393042334543453645442F6F626A656374732E786D6C504B010214001400060800000F9AD54200000000000000000000000035000000000000000000000000005D0E00006662782F3441413134
311
3042342D414146432D343435462D394635342D3939393042334543453645442F76657274696365732E62696E504B010214001400060808000F9AD542F270F13306000000040000003600000000000000000000000000B00E00006662782F34414131343042342D414146432D343435462D394635342D393939304233454345
311
3645442F747269616E676C65732E62696E504B010214001400060800000F9AD54200000000000000000000000037000000000000000000000000000A0F00006662782F34414131343042342D414146432D343435462D394635342D3939393042334543453645442F617474726962757465732E62696E504B01021400140006
311
0808000F9AD542D5987DFC8F0000004101000036000000000000000000000000005F0F00006662782F34414131343042342D414146432D343435462D394635342D3939393042334543453645442F6469726563746F72792E786D6C504B010214001400060808000F9AD5423DF08E85FE000000A00100003B00000000000000
311
000000000000421000006662782F34414131343042342D414146432D343435462D394635342D3939393042334543453645442F7265736F75726365732F636F72652E786D6C504B0506000000000E000E0080040000991100000000
310
504B03040A00000800000F9AD5423DEE336E79000000790000001B0000006175746F6465736B2D64657369676E2D7061636B6167652E786D6C3C3F786D6C2076657273696F6E3D22312E302220656E636F64696E673D227574662D3822203F3E3C666F726D6174733E3C666F726D61743E687474703A2F2F736368656D612E
310
6175746F6465736B2E636F6D2F64657369676E2D7061636B6167652F323030393C2F666F726D61743E3C2F666F726D6174733E504B03041400060808000F9AD542D486FD9CA0000000F4000000130000005B436F6E74656E745F54797065735D2E786D6C7D8EC10E82300C865F65E91D8A1E8C310C0EEA1BF002731658846E
310
D98AC1B77784ABF1D8FE5FBFBF75BBCE937A534CCEB38643598122B6FEE978D0B0485F9C41B54DDD7D022595594E1A469170414C76A4D9A4D207E29CF43ECE46F218070CC6BECC4078ACAA135ACF422C856C0E68EA1BF5669944DDD7BCDE7B1F8E415D77AECB980613C2E4AC91FC167A2B244592486606FC29C8FD7F045B9A
310
EF7053A7E60B504B03041400060808000F9AD54280CC8F3AEB0000007C01000008000000636F72652E786D6C8D904D6EC3201085AF82665BE1F0E3244E8489EC5639412F80803828315806AA1EBF3871A476D70D337ABC6F66F4C4E97BBCA32F3B47177C0BB42280ACD7C1383FB490D30537804E52CC21A45F36405E8DB685
310
4506298639E4699574F0C9FA54541F8C5D4515A34D80F4BD342D447DB5A3AA544EC5116FD5A4F44D0DB6A2AFAEC0393B839E4B9C29F3DCC5D91964D3F47B46CE35EEE907C3F5961F70D3D51C9F0979E74DCFBA7EDF89CD024B91DCF8DAAF67AB92352019A11C931D66F4931E8E7477E4E48D6CCB2B368BFD0F9427F34F283B
310
9F385BCF7D6211242D873C3EA4D82C5994F208AAD42537F903504B03041400060808000F9AD54255019EA25F0000007C00000007000000636E782E786D6C4DCB3B0E80201045D1AD90E915ED2CF8AC45050C11660C8261F98AB1B07AC9C97D42D718D865D3E909258CFD00CCE24AC6E326A164D74DC0B4128928FF32603847
310
2BA13128B1252AC747C6BAB984FC68F0B87FE8960A5C09FE86CFB69FBA01504B03041400060808000F9AD542DD7D356F67010000020300000C0000006662782F636F72652E786D6C8D52ED8E8230107C95A67F2FA5E54345536AE42E3EC1BD4085CA11A125A5253EFE2D1FC6F3628C2129CDCCCEEEEC00DF5FDB060DCAF6B5
310
D1190E038691D285296B5D65D8BB334931DA0B6E8D717FCA30D2B255191E612C78658DEF16A830DA29ED00D5A6540B28FB5E398C8A062E19EE8B1FD5CA407A0715FD25E8647191950AC20068A813BC77160CA079C87862713E5D399D71C1BDAFCB85AD4B98569F6B65B148D37C13B16342F2F02B22C92ADE92F490C4E4C8D8
310
679CE6D121DF1C381DC582BBBABDB92BAC924E9558442C8C095B9328FC0EB7BB70BD8BD9075BC1C9E958FE20F25DF9A6C8D7DAC5D1627796F55884606422FE6D0B1139D4CB01FC50C1E91822BCA6841F8386402064274FCD6D8F0B40832A9CB10930A5F1776A908D573095A1E9E17466A1F3D400367BDA277AD1E7750FF880
310
5257604D3AB89EBC1BA7F379EA1245A72C19DC1569635BD9DCCDCD16EFE77DD05379611A63DF51D36555BA8449C7BF57FC02504B03041400060808000F9AD5423AF36C537E0000009D0000000B0000006662782F636E782E786D6C4DCCD10A83201886E15B91FFDCB59CA6033598ADFB886521990EA76397BF1A1DECE88387
310
8F57B69FD5A3B74D2F178382FA740664C3238E2ECC0A4A9EB000D46A9962CC7F37406158AD829D41CB39C5F23C68B4D3507CDED4BBB01CD8F45C186328A617C230ADBB1E5F296F30318C747746051737A8B4AC7EA56DF7B0FE02504B03041400060808000F9AD54205FD12FC2A01000014020000310000006662782F364637
310
38434343342D343332352D343144462D393437362D3243353244453534383738422F636F72652E786D6C8D515B6EC32010BC0AE22B55E50736769C0813A94E73825E806092A2C460F1A872FC2EB52BB57FF96017EDCECC8E76D9E131DDD197725E5BD3639297182923EDA8CDB5C7315CB20EA30367CEDAF00786911193EA71
310
2A63CEAECEC6792D496B823201AAC68E6A2D0AEF55C048DEE1D3632F3FD52472110320FC2D9F85BC89ABCA490E6DC071E683030368199222E6ED69DB0DC340335A574D46C9F194EDE8B6CDAAA1A98EEF0DEDB6DD1B2B16226731EA71A5EB11ECE88B56EE599144E62CE8E9D7BE744A0435625E95A4CE4A184A3EC86E4FDA7D
310
5DBE960D445624F83F529CC72749519B5057ABDD85E63127AC581A9C8D369EEFBF66D463B62EA0346FE3957CC1BCCC4B52910E1E2B16282C00345BBA6AFA601D2C78733B03BA5E855BCA59916E04E9E78090D33DF937504B03041400060808000F9AD5426B2C66B15501000033030000300000006662782F36463738434343
310
342D343332352D343144462D393437362D3243353244453534383738422F636E782E786D6CBD934D6EC3201085AF82D856FE214EAD34C244EAA227E8A25B029386068305B86A6EDF212169365954AABA19596FDECC1B7DC27CF3355AF209211AEF06CAEA961270CA6BE3DE073AA75DB5A2642378F03EDDD828717284816699
310
0AFE1EFC3C1549C34ECE36A16A8D3B143140F473501051CE93C47A252D2E0057CD28C2B805AD4193AB11BF7610F01414B74792F6405E9EDF88DF7E804A9137798BE04DCE103CD7927463A2445919E340A3DAC3286B3927AF211E6A2D93AC597DC9BA73D3CF2692072E91733024870F34572ACA453572E40D36058F2920BD62
310
4AC709A890D3648D9209213727E3D923F86C5CEA97C56B107C4077B7E8572B5C76EA099ECC08C5A102C8049A8A45CBBAAAEDAB057B654F6BD6AFBBF6A17DC4CA9B6C177CEBBD2D43B806829F88F22E814B5430DEE4F63D7CC547B409C8DA87E32F402280927AA673DDF1977C58DF2D97FFC8A739BD6FC415F02F10DF504B03
310
041400060808000F9AD542B49F4525640700009A1B0000340000006662782F36463738434343342D343332352D343144462D393437362D3243353244453534383738422F6F626A656374732E786D6CED595B73A33614FE2B0C7D691F8C8D2FD9A443D8499CCD8E679BED4EDDEDF4C1338C0C3251230423896CDC5FDFA30B18
310
8849709BBEED830D08E9E89CEF5C7508DE3F65D479C45C909C5DBABE37711DCCE23C212CBD744BB91B9DBBCEFB30E0792E1BD35C87A10C5FBA6AD80D8394E765618712BC4325959DD1DBEB3F1D1163865D27A648884B57C4F738431E2A659E60F1E02548222FDD3D79BE6726B6C9A61C15F71DA205E29849E014C61950710C
310
537EFB71E28EC360ACDE8781FAB7B3668366CDFB678DB5D46D2E091312B1F8194B1D32B3412CCDFCF9CD87E9E262B498CF67A3F9D9D41F5DDF5EDF8CFC77B3C9F26CB9BCB8FA7001EC6DF39C5A99125C609680FEF66EE80763F5A616DD22708CEB38670CC71A48804A8BD52548B080AD1AF04DDA8FBE92A8F15A4BD8789EAB
310
F79685C6F0AC4DA56FD630205A744110BB5D2571756DCA976FFF02C1C510A3E4024BE056480EDAB5F070F00A379C0463331A06DB832E887032243127883A946C39E2A01498AAA684815960C928E7E040CA511268CD99D76DDB02CF7CDD758E71B92B29559EE186DAB122703F2C85E68CFC8DF981FB2632C013485B1226CF2D
310
97725F6037BC08C67A300CD46536B52F0D90CE8EA2546844CCDB8EA04BE5FAAB1B37FC74BB7D5AAB70707CF382E705E652199DD2A3E60B0CD95E154A765B7F90E6D40210C6806A571E40F90D90FF0CD1E3C00AE88D93A7F9D3DCCE951C31B1CB7906BA7126CE68027F13C7D7FFEABE71178CEBC56DEDF5E1096EAAA03AFFEF
310
78B665D05859FE1B7086C123187CCE67F6D53A4614ECF98E300048198943731882D0BEDB3EB9E10A0227047A588568E883C8C0EE23DC06634BE6A095CABDACD73140D4EE311BA224804D5B24B0D1A3A78F903D38890F6A6A8AD807EFE24DCCF5EA66FD695DF21D8AF19DF5E91BBC238C48C89AC7196A61DE92E801EFBFE53C
310
01419FE3BD6EE29DD9AD04A0AD3057C0A71508EAE1B0736B8318D6A5B90A37C12B3B80102A5737E8DF1111634A11C37959ED5B473765A8B5C7DB9AC10DA706E2D9B463C21C3F12555580D31C66B41885BC1F73522810DDF0A391AC0E9A5E8F745F579FC122EBF93DB3560C422F43F4771DB48EE0D0B2EC0A690B442DF0F610
310
CEE39CE63CDAEE2313E95CA825808DB6B7FCD1220AB1DE284951010FD27E578594D4481B2564B72B05C4D5232CFEB15A36CD61E2CDFC85D3FCEF38E31CA22DF82EE2D6EF3A7B442443298E7628E9DBAEB95B4D5B68923DA439DE51908B3C12B98F908C26094E4F81E624E2176F4A3DA5B910846101F9EA28F84D34261E0412
310
A3CD8A65A5D50ED044441996889E828022D303AE4E3BBAC68DA174789DC7DA7A5FD25893E8FF64111C412D99B38840290A39E455C67D6F0131A48DAE41B9832F585B455B8B414B2821E27DF40D93F45E9E82BA21DF837B0C4792524679816230EB01649FF98A526A87F72D8A1F54FE88E292BE9581084C7711A1B4CC22F811
310
06278F21AE5D07A61751681037B14FE20C8A32244B3E6493B3C5E4D93EA666E886C0C6463B42216C47192A7A506F05445D8F3835F8967A8F52B765564428CB4B36C850BC59D79B2CF9AE5A15D981FCAA5211CAC68AB025180684C93AAB56311B4C5D075670231DA8F691405941CD29EC95C4E3D7DEA429F76EC0AD9FBEED06
310
19147E3DDA6B46D4790583E5B15518886F48C6F76EB8D6D7D135D4DF094E0EA9BEAA359B152020A62279C98955D1D7159437B64673C33B24C5E6A3C9BAD5F5EBCA83EE4730863550BBD40B570AE80C3389546572A76EE86F0842708B86195FA99C7A0A95AB24D15523A2B7A44F9DAD32A2B56946BCE21EB33C831FDB1016D3
310
32C11B948887E84ED2684D14EB564A2F2315C62F0AF8EBC775071E181920D21755E0E16F9DB57674A9CAA5A344E47D996D192210045BA2A546375EC152AB914ACBF5559D29A0EE0203B32A9E7F3F5934DB11DF4F16A9358CFF74B2B8DEFF82F6CDBE48239DC7CAAE4F3A06D4F94951798B63806E3BD454EB2C6292B995DF3A
310
530441B18AF283ABB12A6818827D1CFFEBACDD9705CD761DFE4FCBDAFEB38AE3A4ACD29AACBA54472AD75533872DAEFDE5F4E6EC623499DF9E8FE6F3E9D5E8FC7C713BBA7DB7989DDF7E584EE6FE598DA676D430A88399CE5DF06C825A35AC9E2C06D095153925099CE61327C510F3259CE907B4CF79860524CF66B33BB14D
310
F901AB1F4D9F53A22DC51527F7081AC454405A078CCA58B6C79D1FA03529E1A07DE942D3C87B803F6B95AE0399E7D2855681243116DE16DA4CAAA1A78943CAD5B9DF12037C104B554A348BEAE77A95C2A615FEEB2943D28095ABD5C380C2AD80EE57AB43A179B33CC527095EB1E32009B7DB5242B56664390CD4C2E86D0EEA
310
37B251C21EECD64FE0BA2F8BE57B7A4E0B91419F0C5E3402437524114F75BF5B316659BABAF932863E9BB3FAD5296899822E87531A710CC65CAA820AAC08ACC2D22C9004535DFEBCF9C273F8C49339BA2A727E7C3A3FFB69B3CCB32C6766687305A7B2043E1439EB7BF8EC936CA078C0AAB92E36D3893FDDE8A6B6EDB3475B
310
24B0A7AA2218A88A092548C7E4C02E9F35A86CFB72AC54D199BEBA716C10856680B1A3673D5EF391CB011F529F5394C7683FAFA47DB1AF3DD653C1263874A4C37F00504B03041400060800000F9AD542000000000000000000000000350000006662782F36463738434343342D343332352D343144462D393437362D324335
310
3244453534383738422F76657274696365732E62696E504B03041400060808000F9AD542F270F1330600000004000000360000006662782F36463738434343342D343332352D343144462D393437362D3243353244453534383738422F747269616E676C65732E62696E636660600000504B03041400060800000F9AD54200
310
0000000000000000000000370000006662782F36463738434343342D343332352D343144462D393437362D3243353244453534383738422F617474726962757465732E62696E504B03041400060808000F9AD542D5987DFC8F00000041010000360000006662782F36463738434343342D343332352D343144462D39343736
310
2D3243353244453534383738422F6469726563746F72792E786D6C858F410EC2201045AF4266AF15DDB800BA74E7C21B903225242D6328188F2FA5C4183471359997F9FF81E89FF3C41E1816475E02DF1F80A11FC8386F25A438EECEC07A250251FC3803E6F58C12560C4AD840E95E91C151A72936F496F35732D860FE635F
310
62C8F2DA16B505C545B74125BAA2FA9E05D7CC053D063734D5C7665FD55B6B8D15D5E9BFEAFD8490FFA45E504B03041400060808000F9AD5425FA24582FD000000A00100003B0000006662782F36463738434343342D343332352D343144462D393437362D3243353244453534383738422F7265736F75726365732F636F72
310
652E786D6C8D50596E833010BD0A9ADFCA60E32C24328EA0554ED00B586642AD041B79A97AFC9A40A5F6AF3F33A3B7689E9EB87C4D8FE2137D30CEB6C04A0A055AED0663C71652BC91068A8B14DEB9F84B06855513B6B0C020C5E85D9A37483B1BD1C68C5A37E006AA103042A11FF96821E80F9C54A952CC8A702F67A5EF6A
310
C4929599CE3A2942F43940B13E5926488FC125AF31886A65A548C90C9BC60CF9A7B919F4209BA63FD6F4CA49CFDE6AB2DBF31369BA1D27574A5F79D3D75D7FEC44B598A58866FAC9A83DAA8803C89A324EE881D4EC9D9DCEEC70E6F485EEF314D522FF634AF3F04F533236F27A8BBBDA024896833C0929AAA5AFBC9E65E6BD
310
742BBF01504B010214000A00000800000F9AD5423DEE336E79000000790000001B00000000000000000000000000000000006175746F6465736B2D64657369676E2D7061636B6167652E786D6C504B010214001400060808000F9AD542D486FD9CA0000000F40000001300000000000000000000000000B20000005B436F6E
310
74656E745F54797065735D2E786D6C504B010214001400060808000F9AD54280CC8F3AEB0000007C010000080000000000000000000000000083010000636F72652E786D6C504B010214001400060808000F9AD54255019EA25F0000007C000000070000000000000000000000000094020000636E782E786D6C504B010214
310
001400060808000F9AD542DD7D356F67010000020300000C00000000000000000000000000180300006662782F636F72652E786D6C504B010214001400060808000F9AD5423AF36C537E0000009D0000000B00000000000000000000000000A90400006662782F636E782E786D6C504B010214001400060808000F9AD54205
310
FD12FC2A010000140200003100000000000000000000000000500500006662782F36463738434343342D343332352D343144462D393437362D3243353244453534383738422F636F72652E786D6C504B010214001400060808000F9AD5426B2C66B155010000330300003000000000000000000000000000C9060000666278
310
2F36463738434343342D343332352D343144462D393437362D3243353244453534383738422F636E782E786D6C504B010214001400060808000F9AD542B49F4525640700009A1B000034000000000000000000000000006C0800006662782F36463738434343342D343332352D343144462D393437362D3243353244453534
310
383738422F6F626A656374732E786D6C504B010214001400060800000F9AD5420000000000000000000000003500000000000000000000000000221000006662782F36463738434343342D343332352D343144462D393437362D3243353244453534383738422F76657274696365732E62696E504B01021400140006080800
310
0F9AD542F270F13306000000040000003600000000000000000000000000751000006662782F36463738434343342D343332352D343144462D393437362D3243353244453534383738422F747269616E676C65732E62696E504B010214001400060800000F9AD5420000000000000000000000003700000000000000000000
310
000000CF1000006662782F36463738434343342D343332352D343144462D393437362D3243353244453534383738422F617474726962757465732E62696E504B010214001400060808000F9AD542D5987DFC8F000000410100003600000000000000000000000000241100006662782F36463738434343342D343332352D34
310
3144462D393437362D3243353244453534383738422F6469726563746F72792E786D6C504B010214001400060808000F9AD5425FA24582FD000000A00100003B00000000000000000000000000071200006662782F36463738434343342D343332352D343144462D393437362D3243353244453534383738422F7265736F75
310
726365732F636F72652E786D6C504B0506000000000E000E00800400005D1300000000
  0
XRECORD
  5
17
102
{ACAD_REACTORS
330
12
102
}
330
12
100
AcDbXrecord
280
     1
270
     1
271
     1
  0
XRECORD
  5
16
102
{ACAD_REACTORS
330
12
102
}
330
12
100
AcDbXrecord
280
     1
270
     1
271
     1
  0
XRECORD
  5
18
102
{ACAD_REACTORS
330
12
102
}
330
12
100
AcDbXrecord
280
     1
270
     1
271
     1
  0
XRECORD
  5
15
102
{ACAD_REACTORS
330
12
102
}
330
12
100
AcDbXrecord
280
     1
270
     1
271
     1
  0
XRECORD
  5
24
102
{ACAD_REACTORS
330
22
102
}
330
22
100
AcDbXrecord
280
     1
270
     1
271
     1
  0
XRECORD
  5
23
102
{ACAD_REACTORS
330
22
102
}
330
22
100
AcDbXrecord
280
     1
270
     1
271
     1
  0
XRECORD
  5
BA
102
{ACAD_REACTORS
330
22
102
}
330
22
100
AcDbXrecord
280
     1
 70
     1
 90
1959938040
 71
     1
  1
621C17EE-D3DC-49D7-B2E1-B30A63AACB38
311
504B03040A00000800000D9AD5423DEE336E79000000790000001B0000006175746F6465736B2D64657369676E2D7061636B6167652E786D6C3C3F786D6C2076657273696F6E3D22312E302220656E636F64696E673D227574662D3822203F3E3C666F726D6174733E3C666F726D61743E687474703A2F2F736368656D612E
311
6175746F6465736B2E636F6D2F64657369676E2D7061636B6167652F323030393C2F666F726D61743E3C2F666F726D6174733E504B03041400060808000D9AD542D486FD9CA0000000F4000000130000005B436F6E74656E745F54797065735D2E786D6C7D8EC10E82300C865F65E91D8A1E8C310C0EEA1BF002731658846E
311
D98AC1B77784ABF1D8FE5FBFBF75BBCE937A534CCEB38643598122B6FEE978D0B0485F9C41B54DDD7D022595594E1A469170414C76A4D9A4D207E29CF43ECE46F218070CC6BECC4078ACAA135ACF422C856C0E68EA1BF5669944DDD7BCDE7B1F8E415D77AECB980613C2E4AC91FC167A2B244592486606FC29C8FD7F045B9A
311
EF7053A7E60B504B03041400060808000D9AD542B466C5D1EC0000007C01000008000000636F72652E786D6C8D904D6EC3201085AF82665BE1004EFD274CE4A4E9097A0104C44589C13250F5F8C58923B5BBAE66F4E67D33A3C70FDFD30D7D992558EF7AA00501649CF2DABAB187142FB80174107CF13EFEB2017272323DAC
311
32083E2E3ECD9BA4BC8BC6C5AC3AAFCD26CA104C04A46EB9E921A84F33C942A6981DE15ACC525DE5680AFAEC329C92D5E871C4EABCCF5EAC594034C3F97CAAC980DFAAEA1DEF8786E1A16E286ED991B6FBF248E8A9E6BB15163CDAE9795F2D4646A34130424B4C2ACCE8076D3B5A75AC7E21AF5D49F86EB5FF81D2ACFF0925
311
EB62C9B6771F580041F323F781E0BB358B5CEE41E5BAE6267E00504B03041400060808000D9AD54255019EA25F0000007C00000007000000636E782E786D6C4DCB3B0E80201045D1AD90E915ED2CF8AC45050C11660C8261F98AB1B07AC9C97D42D718D865D3E909258CFD00CCE24AC6E326A164D74DC0B4128928FF326038
311
472BA13128B1252AC747C6BAB984FC68F0B87FE8960A5C09FE86CFB69FBA01504B03041400060808000D9AD54266354A9468010000020300000C0000006662782F636F72652E786D6C8D525B6E833010BC8AE5DF0A8C2105121947244D4FD00B38E05014B091B1518EDFE511D154515421196B6667777680ED6F6D830669FA
311
5AAB0C533FC048AA4297B5AA32ECECC54B31DA7366B4B6BFCA3052A295191E61CC5965B4EB16A8D0CA4A650155BA940B28FA5E5A8C8A062E19EE8B6FD90A5F380B15FDD5EF44711595F4A90F34D471D65B0306D03C643C31BF9C6F8CCC3867CED5E5C2D6254CAB2FB53498A7F9E9744C82DCFB88E34F6F93A7A1972729F5B6
311
E1816E37D121A0C7849151CC99ADDBBBBBC2486165897918D0C80B622FA45F74BBA3F12E4CDE82F75D143032963F885C57FE53E46A65A370B13BCB7ACC291899883FDB424416F562003F8433328608AF29E1C7A0211008D98A7373DFE30AD0200BABCD069852BB951A44E3244C0DD0F43032B3D0796A009B3DED13BEE8F3BA
311
077C40A12AB0262C5CCFCE8ED3D93C7589A293C61BEC0D296D5AD1ACE6668BEBB90E7A2A2F74A3CD7FD46459952C6192F1EFE53F504B03041400060808000D9AD542F5642C797C0000009D0000000B0000006662782F636E782E786D6C4DCCD10AC2201886E15B91FFDCF60F251CA8C36ADDC7686E484E876974F9B9D84147
311
1F3C7CBCB2FFAC9EBC6D7AB91814B4270462C3234E2E2C0A4A9EA900D26B9962CC7F3720615CAD829D41CB25C5B21D34D9792C3E57F52E3C0F6428D8857748C59521E5DC30DA99C1D01BE25D541BCE2D8346CBE657AABB87F517504B03041400060808000D9AD542D63BAAEA2B01000014020000310000006662782F333038
311
33423439302D384333302D343441332D394145412D4430304638384333453631332F636F72652E786D6C8D515B6EC32010BC0AE22B55850DC671EC0813A56D7A825EC0B149821283C5A3CAF1BBD48ED4FEE58745B333B3A35DB1BB8F37F4AD9CD7D6B498651423657A3B68736E710C275263B493C2591BFED03032DDA85A9C
311
602CC5D9D9382D506F4D5026006AECA016B0F35E058CFA1B7C5AECFB8B1ABBAC8B0118FE9A4D5D7FEDCE2A6319B48127850F0E02A079487AB1E4B4E66F654349FDCE2929CB3D27CDFEB0271F947ED6801D2AC6453E0BA588510F8B5C0F10479FB472CF9A24B114418F8FF8BD535D50039605659CD08A14EC8B355B566D8BCD
311
2B5D6F391579A2FF13C569785214B509BC58E2CE328F2513F9DC9062B0F1787B8451F7C9BA80D2BC9557FD0B9634A38C550DDD8064A6C202C0B32A174F1FAC8305AFAE4760B3F56C5C9552E4E946507E0F0835DD53FE00504B03041400060808000D9AD542C852325E4F01000033030000300000006662782F333038334234
311
39302D384333302D343441332D394145412D4430304638384333453631332F636E782E786D6CD593CD6EC32010845F0571ADFC4392BA6D8489D4439FA0875E316C121A0C16E0AA79FB2E094973C9A1C75E90353BCCAC3E61BEF91E2DF982108D773D65754B0938E5B571BB9ECE695B3D53B2113C789F6E6C943839424FB34C
311
05DF053F4F45D2B095B34DA85AE30E450C10FD1C144494F34D62BD921603C055338A300EA035687235E2D71602AE82E27024690FE4EDF583F8E113548ABCC9298237B943F07C96A61B1325CACA187B1AD51E4659CB39790DF1506B9964CDEA4BD79D9D7E9348BE70A99C8321B9BCA7F9A4A26C542347DEE050F09802D22BA6
311
749C800A394DD62899107273329E3D82CFC6A56E55BC06C10774B36EB95A61D8692678322314870A2013682A162D5B566D572DD83B7B59B36EBD787A681FD7CB9637D92EF8E0BD2D973006829F88F22E814B5430DEE4F13D7CC547B409C8DA87E31F402280D27AA673CDF8CF7C9AD3FB465C01FF02F103504B030414000608
311
08000D9AD542534E8DC4A405000080100000340000006662782F33303833423439302D384333302D343441332D394145412D4430304638384333453631332F6F626A656374732E786D6CAD57DB6EDB3810FD1541FBB2FBE08B6C374D168A0AC74E0AA3485BD468B10F060C4AA2146D285120A9D4D9AFDF43919225C74EBC8B
311
BE5816351CCE9C3973A1FF619733E7890A99F1E2DAF58663D7A145C4E3AC48AFDD4A25834BD7F910F88273D511739D82E4F4DAD5CB6EE0A78257A55D8A69422AA60E56EF6EFE7264440BEA3A1123525EBB327AA03919924AF198CAC7614C1419A6C96EE80D8D605F6D2A48F970A0B42482160A9662BD8016C718E5F55FC7EE
311
28F047FA7BE0EB5F2B353D2D35AAFDE99F9F155291227A71D8819AA9375BDE4EDE5D0DDECD66D3C1EC62E20D6EEE6E9603EFFD74BCB8582CAEE6B75738582A014DD612411337F8086C4416F923F329F0ABAC50D38915B1011A09FA94E948B9C1C4F1FC919169BDB34E1E333FE24541A31A2BA051FB6755C7B4A4458C986754
311
C2B20E42E3FEABA771EC7C9EEA777B6477F93C04BA3B3A8A1ADB9B67D7521EFE0D17E4390C12926A061A2CADA386ABE33DC221E7CC7ECBA4931345454698C3B25010F1EC0610D52281DF53A3992C7436680FDC0051309FFB74411ABDCDF363562615639AC66E5067C116B94295AC2DCBFEA1626F7D1719D8845869365C5A87
311
D47349DDE0CA50E4F2804D064827612445C8E1A6DE399D1C38BAD079BA5ABAC1A7BB70B7D6B97BFCF052F0920AA5E9036A35816B9E1A256B937756E4F406F7C0943D28DF80FC67A4FADE14C44D64BBD96E664F51821432E122476C9CB13318E367EC78F5AFFEDFF9E78FDACDFDE89DC213C1D650FD023CFB3E7463D98133F0
311
9F40782EA6D6B5754418CAC67D5600204D1287712CA10E27E1CE0D56A872A8CAD84558E0C16598FB84BFFEC8AA41A1A84FEA3C0B60795016CF28D080AD6624CC30E4B706EEE3F4A29CD5075BB153F0BEFB25749D2FD79FD695484844EF6D4E2F69921599428BDBF3A66B500FF39E478FF4F92717311C7D89F7BA8B776E8F92
311
405B63AE814F9B9AAE5FF627F70E88B02FE5BADCF86F9C00277463EDE8BFCF6444192305E55573EEABFD036DC340AC935D33B96D30FBC602D2982F073988261D89ACD420B6DDAA2D9AC313DE7D5F7D062321CF7848D85E28DC97DE88332EB6E1F3D654A5A348FFE853DB4230D25AC0F63A479AF4B7986FE32C492A891A7804
311
D61FAB453774BA2AA042345A4DB2CCE03E728B08CBD9462F9AB52068A4BCD866689B48BBA30774F503514B805AE1298B2565C93663ACCAB749C6D08CB639294FC0F1FFED0FABBCDC929C57853AA1BB673A9A43DFF61E79E54FA2A2073758D7CFC10D4A6F4CE37D987BC2BA951CC1AA175ACC4B0BEFFDEDED60395D2E06B3AB
311
E5FBC1CDE41633D4743CBF98CEE78B9BE9651327A33CF09B4ED34D6844099DCDAF4466C3F77D85F4B135C00DEE89929B8F263B9BE7F7D510A3B03FC21EB4CB76E33C7EC2D847E3B715EC258F2A5AE525A3392D14D12974AFFFB06F046346CF18B3BECA494ACFD0F2E5E3FAC019AC9CB1EFAB4E77FAF360AF5D5DE8843CAA44
311
3D547958908C1D6C4C0D92C3B2482D7E4D4CDAA7E933CDAB7EB381C1602A39CB6294C1D84929CFA942313CA307899C4A50AF3BD2C7F6EA71C6EE2733202A1232DA58F24030233389B400B5AA48F5D79DDF30D3E9B1EADA45B71D3EE2C7560AD70167AE5DCCE82A8BA81C86E8CF7A12AA95834BDD411E733F29528651DB6C6A
311
DFDB5D1A9B5E476E45CE199FAC5FA6825B0750464A8C0D9887109DDA98C0AF6DB3DFA3FFE478638E4314FE86956A7DD92FB4CED4C720458D53F6B28019E6D11EBD43A2BEEE9637AC657A889C75C97A950446EB401191D617056D9F3569BEFC3AC280E2ACBE3825AB52C4F27C4D034141E64A2738580456589D2551A0EAE2CF
311
CD57C17191CD9DBB0C14707EDF5D5EFCB159F03CE78559DACCED75D8593FE0721B6F501CA8BE95C8CD64EC4D36F56DC05E50B62191744862F988054456642DD0BDF08397E6CA883E643EB472231D8A0386AE968E6D6C3328B574E9D6560D0EE68E823AC8217DA3D419D315285FBD108C6A51982030CA07FF02504B03041400
311
060800000D9AD542000000000000000000000000350000006662782F33303833423439302D384333302D343441332D394145412D4430304638384333453631332F76657274696365732E62696E504B03041400060808000D9AD542F270F1330600000004000000360000006662782F33303833423439302D384333302D3434
311
41332D394145412D4430304638384333453631332F747269616E676C65732E62696E636660600000504B03041400060800000D9AD542000000000000000000000000370000006662782F33303833423439302D384333302D343441332D394145412D4430304638384333453631332F617474726962757465732E62696E504B
311
03041400060808000D9AD542D5987DFC8F00000041010000360000006662782F33303833423439302D384333302D343441332D394145412D4430304638384333453631332F6469726563746F72792E786D6C858F410EC2201045AF4266AF15DDB800BA74E7C21B903225242D6328188F2FA5C4183471359997F9FF81E89FF3
311
C41E1816475E02DF1F80A11FC8386F25A438EECEC07A250251FC3803E6F58C12560C4AD840E95E91C151A72936F496F35732D860FE635F62C8F2DA16B505C545B74125BAA2FA9E05D7CC053D063734D5C7665FD55B6B8D15D5E9BFEAFD8490FFA45E504B03041400060808000D9AD54209AFA610FF000000A00100003B0000
311
006662782F33303833423439302D384333302D343441332D394145412D4430304638384333453631332F7265736F75726365732F636F72652E786D6C8D50596E833010BD0A9ADFCA6043CA121947244D4FD00B586642AC041B79A97AFC9A844AED5F7F66466FD13C3D7EF89AEFD9273AAFADE981E5143234CA8EDA4C3DC470
311
212D6407C19DB5E1970C322367EC618541F0C9D9B86C90B226A009093576C40D94DE63804CDDD3D18357579C652E63480A7FCB17A96E72C29CE5894E3AC17D702940F67CB24E100EBD8D4EA1E7C593153C463D6E1A3DA69FFAA2D1816887F3F9D4D08EBCD5F53BD90D6D4986A665A42B8FACDB5547CA4E0D2F56B3E041CF3F
311
199543197004515256115A93927DB06ECFEA7DD9BCD0D77D4579B1CAFF98E232FED314B50955B9C57DDA3C0896823C08C18BB5AFB41E65A6BD762BBE01504B010214000A00000800000D9AD5423DEE336E79000000790000001B00000000000000000000000000000000006175746F6465736B2D64657369676E2D7061636B
311
6167652E786D6C504B010214001400060808000D9AD542D486FD9CA0000000F40000001300000000000000000000000000B20000005B436F6E74656E745F54797065735D2E786D6C504B010214001400060808000D9AD542B466C5D1EC0000007C010000080000000000000000000000000083010000636F72652E786D6C50
311
4B010214001400060808000D9AD54255019EA25F0000007C000000070000000000000000000000000095020000636E782E786D6C504B010214001400060808000D9AD54266354A9468010000020300000C00000000000000000000000000190300006662782F636F72652E786D6C504B010214001400060808000D9AD542F5
311
642C797C0000009D0000000B00000000000000000000000000AB0400006662782F636E782E786D6C504B010214001400060808000D9AD542D63BAAEA2B010000140200003100000000000000000000000000500500006662782F33303833423439302D384333302D343441332D394145412D4430304638384333453631332F
311
636F72652E786D6C504B010214001400060808000D9AD542C852325E4F010000330300003000000000000000000000000000CA0600006662782F33303833423439302D384333302D343441332D394145412D4430304638384333453631332F636E782E786D6C504B010214001400060808000D9AD542534E8DC4A405000080
311
1000003400000000000000000000000000670800006662782F33303833423439302D384333302D343441332D394145412D4430304638384333453631332F6F626A656374732E786D6C504B010214001400060800000D9AD54200000000000000000000000035000000000000000000000000005D0E00006662782F33303833
311
423439302D384333302D343441332D394145412D4430304638384333453631332F76657274696365732E62696E504B010214001400060808000D9AD542F270F13306000000040000003600000000000000000000000000B00E00006662782F33303833423439302D384333302D343441332D394145412D4430304638384333
311
453631332F747269616E676C65732E62696E504B010214001400060800000D9AD54200000000000000000000000037000000000000000000000000000A0F00006662782F33303833423439302D384333302D343441332D394145412D4430304638384333453631332F617474726962757465732E62696E504B010214001400
311
060808000D9AD542D5987DFC8F0000004101000036000000000000000000000000005F0F00006662782F33303833423439302D384333302D343441332D394145412D4430304638384333453631332F6469726563746F72792E786D6C504B010214001400060808000D9AD54209AFA610FF000000A00100003B000000000000
311
00000000000000421000006662782F33303833423439302D384333302D343441332D394145412D4430304638384333453631332F7265736F75726365732F636F72652E786D6C504B0506000000000E000E00800400009A1100000000
310
504B03040A00000800000D9AD5423DEE336E79000000790000001B0000006175746F6465736B2D64657369676E2D7061636B6167652E786D6C3C3F786D6C2076657273696F6E3D22312E302220656E636F64696E673D227574662D3822203F3E3C666F726D6174733E3C666F726D61743E687474703A2F2F736368656D612E
310
6175746F6465736B2E636F6D2F64657369676E2D7061636B6167652F323030393C2F666F726D61743E3C2F666F726D6174733E504B03041400060808000D9AD542D486FD9CA0000000F4000000130000005B436F6E74656E745F54797065735D2E786D6C7D8EC10E82300C865F65E91D8A1E8C310C0EEA1BF002731658846E
310
D98AC1B77784ABF1D8FE5FBFBF75BBCE937A534CCEB38643598122B6FEE978D0B0485F9C41B54DDD7D022595594E1A469170414C76A4D9A4D207E29CF43ECE46F218070CC6BECC4078ACAA135ACF422C856C0E68EA1BF5669944DDD7BCDE7B1F8E415D77AECB980613C2E4AC91FC167A2B244592486606FC29C8FD7F045B9A
310
EF7053A7E60B504B03041400060808000D9AD54263C35164EC0000007C01000008000000636F72652E786D6C8D904D6EC3201085AF82665B6103FE8B2D4C24B7EE097A0184898B128365A0EAF18B13476A775DCDE8CDFB66468F9FBF971BFAD29B37CEF6403302485BE52663E71E62B8E013A0B3E09B73E1970D90958BEE61
310
9741F07973713D24E56CD03624D5BA491FA2F45E0740EA969A1EBCFAD48BCC640CC9E1AFD92AD555CE3AA3CF2EC1319A093D8E9829ED3317A33710EFCD1B29CBD38019196A5C8E458B8757DAE2F154546C6CAA7A1C6B9EEFB0E0C12CCFFB6AD332E8090423B4C0A4C68C7ED0B6A375C79A17527505E1F96EFF03C575FA2714
310
8D0D053BDE7D601E044D8FDC0782E77B16A9DC834A75CF4DFC00504B03041400060808000D9AD54255019EA25F0000007C00000007000000636E782E786D6C4DCB3B0E80201045D1AD90E915ED2CF8AC45050C11660C8261F98AB1B07AC9C97D42D718D865D3E909258CFD00CCE24AC6E326A164D74DC0B4128928FF326038
310
472BA13128B1252AC747C6BAB984FC68F0B87FE8960A5C09FE86CFB69FBA01504B03041400060808000D9AD5423E91AC4868010000020300000C0000006662782F636F72652E786D6C8D52D96E833010FC15CBAF15D81C21878C23A5A55FD01F70C0A12860231F289FDFE58868AA28AA908C35B3B33B3BC08EB7AE458334B6
310
D12AC751483192AAD455A3EA1C7B770976181D39335ABB5F651829D1C91C8F30E6AC36DAF70B546AE5A472802A5DC90514D64A8751D9C225C7B6FC969D0885775061AF612FCAABA865188540431D67D6193080E621E389F9E57C6364C639F3BEA916B6A9605A7369A4C1FC73FB41D374770A627ACA82B448F6C1E93DDA07C5
310
2ED9C4C576931545C6C828E6CC35DDDD5D69A470B2C23CA65112D02C88A3AF687F88B243BC7DA39B43421919CB1F44BEAFFE29F28D7249BCD89D6516F3088C4CC49F6D212287AC18C00FE18C8C21C26B4AF8316808044276E2DCDEF7B80234C8D26993025369BF528368BD84A9144D0F23330B9DA706B0D9D33EF18B3EAF7B
310
C00714AA066BC2C1F5ECDD389DCD5397287A6982C1DD90D2A613ED6A6EB6B89EEBA0A7F252B7DAFC474D9655C9122619FF5EFE03504B03041400060808000D9AD542190159BD7D0000009D0000000B0000006662782F636E782E786D6C4DCCD10A83201886E15B91FFDCA5E44A418DB0761FB12C64A6C3E9D8E5AF46073BFA
310
E0E1E395DD67F3E86DD3CBC5A0805E08201BEE7176615550F28239A04ECB1463FEBB010AD366151C0C5AAE2996E749B35DA6E2F3AEDE85C789754FF820788F49633866CCDCB0A062C4ADB992918AC6B46C804ACBEA57DAF708EB2F504B03041400060808000D9AD542217A7C132A01000013020000310000006662782F3341
310
3038443938412D303643382D343443462D393139452D3743353045313936433734442F636F72652E786D6C8D515B6EC32010BC0AE22B55651B6CC78F0813454E7A825E8000495162B07854397EA176A4F62F3F2C9A9D991D58B27F4C77F02DAD53460F10E70802A9B9114A5F0718FC25EB20D853628DF17F68106836C90126
310
185272B526CC2BC48DF652FB886A23E40A32E7A48780DFE365808E7FC989E52CF8C870B77C66FCC6AE32C7796C471E25CEDB18002C43D209697540DDB1EF0E196AC62EABEBF123EB717FCADA718B4EB86FC6B63E92621152128212AB5C8918475D94B4AF9A2431255E4DCFF8DC4AE6A580B444B88A01B2127FE27E879B5DD9
310
BEA3EDAE42A448F47FA2308B174541695F956BDC45E620C5A4581A940813CEF76718F9988DF520CDDB38C9DF204539C265D3E39A140B33BE3F5A36F56AE9BCB1F17F37B7732457AB6F535352A415C5F2BBBF58D33AE90F504B03041400060808000D9AD542AEF5FD495701000033030000300000006662782F334130384439
310
38412D303643382D343443462D393139452D3743353045313936433734442F636E782E786D6CBD93CD6EC32010845F0571ADFC839DBA698489D4439FA0875E096C121A1B2CC055F3F65D1292E69243A5AA1764CD0E33AB4F98AFBFC6817C820FC6D99EB2B2A604AC72DAD85D4FE7B82D9694AC05F7CEC51B1B25568ED0D324
310
53C177DECD5396346CE53C445407630F59F410DCEC150494D34D323825070C005BCC28C2B801AD4193AB11BFB6E0711514374712F7405E5FDE89DB7C808A81572945F02A75089ECEDC7463A2440D32849E06B5875196728E4E4338945A4659B2F2D27567A79F24922E5C2A676F482AEF693AA9C81B95C8915738143C448FF4
310
B2291E27A0424ED360948C08B93A19CF1EC1676363B7C85E83E03DBADBA65B2E31EC34133C9A11B24379901134154DCDDAA2EE8A86BDB1E715EB56CDD343FDB86A6B5E25BBE01BE7867C0963C0BB89286723D84805E3551ADFC3977D441B8FAC9D3FFE022402C8AD673AD78CBFE4C3BA76B1F8473ED5E97D232E8F7F81F806
310
504B03041400060808000D9AD54285D0ED8E61070000991B0000340000006662782F33413038443938412D303643382D343443462D393139452D3743353045313936433734442F6F626A656374732E786D6CED595B73A33614FE2B0C7D691F8C4DEC64930EA193D849C6B393DD9D7577A70F9E616490891A211849E4D25FDF
310
A30B18884970377DDB071B10D2D139DFB9EA10FCF19451E70173417276EEFADEC475308BF384B0F4DC2DE57674EA3A7F8401CF73D998E63A0C65F8DC55C36E18A43C2F0B3B94E02D2AA9EC8C5E5FFEE5881833EC3A3145429CBB22BEC319F25029F3048B7B2F411279E9F6C9F33D33B14D36E5A8B8EB102D10C74C02A730CE
310
808A6398F2DB8F13771C0663F53E0CD4BF9D351D346BD63F6BACA56E7349989088C52F58EA90990E6269EACF165747C767A3E3D96C3A9A9D1CF9A3CBEBCBC5C8FF309DCC4FE6F3B38BAB33606F93E7D4CA94E002B304F4F7EC867E30566F6AD12D02FBB88E73C670AC8104A8B4585D82040BD8AA01DFA4FDE82B891AAFB584
310
8DE7997A6F59680C4FDB54FA660D03A2451704B1DB551257D7A67CF9E66F105C0C314A2EB0046E85E4A05D0B0F07AF70C3493036A361B0D9E982082743127382A843C986230E4A81A96A4A189805968C720E0EA41C2581D69C79DDB62DF0CCB75D671F97DB9252E5196EA81D2B02F7C35268CEC83F98EFB86F22033C81B425
310
61F2D472299F0BEC8667C1580F8681BA4C8FEC4B03A4B3A528151A11F3B623E85CB9FE72E1861FAF374F2B150EF66F5EF0BCC05C2AA3537AD47C8121DBAB42C96EEB0FD29C5A00C21850EDCA1D285F01F94F103D76AC80DE38799A3DCDEC5CC91113DB9C67A01B67E28C26F037717CFDAFEE1B77C1B85EDCD65E1F9EE0A60A
310
AAD31FC7B32D83C6CAF2DF80330C1EC0E0733EB5AF5631A260CFB7840140CA481C9AC31084F6EDE6C90D97103821D0C32A44431F4406761FE036185B323BAD54EE65BD8E01A2768FE91025016CDA22818D1E3DDD40F6E024DEA9A929621FBCC7EF62AE178BD5C755C9B728C6B7D6A717784B18919035F733D4C2BC25D13D7E
310
7ECC790282BEC47BD5C43BB35B09405B61AE804F2B10D4C36EE7D60631AC4B73156E823776002154AE6ED0BF2522C6942286F3B2DAB78E6ECA506B8FB735831B1E1988A7471D13E6F881A8AA029C6637A3C528E4FD98934281E8863746B23A687A3DD27D5B7E028BACE7F7CC5A3208BD0CD13F75D0DA8343CBB22BA42D10B5
310
C09B5D388F739AF368F31C9948E7422D016CB4BDE57B8B28C47AA32445053C48FB5D155252236D9490EDB6141057F7B0F87D396F9AC3C49BFAC74EF3BFE38C3388B6E0BB885BBFEBEC11910CA538DAA2A46FBBE66E356DA149F690E6784B412EF240E47384643449707A083407113F7B57EA29CD85200C0BC8577BC16FA231
310
F12090186D562C2BAD76802622CAB044F4100414991E7075DAD1356E0CA5C3DB3CD6D6FB9AC69A44FF278BE0086AC99C45044A51C8216F32EE7BC71043DAE81A943BF882B555B4B518B48412227E8E1E3149EFE421A81BF23DB8C77024296594172806B31E40F685AF28A57678DFA0F85EE58F282EE97B1988C0741B114ACB
310
2C821F6170F218E2DA75607A1585067113FB24CEA02843B2E4433639399EBCD8C7D40CDD10D8D8684B2884ED2843450FEAAD80A8EB11A706DF52EF51EAA6CC8A086579C906198A37ED7A9325DF55AB223B905F552A42D95811B604C380305967D52A6683A9EBC00A6EA403D57324505650730A7B23F1F8B53769CABD1B70EB
310
A7EFBB4106855F8FF69A117556C160796C1506E211C9F8CE0D57FA3ABA84FA3BC1C92ED557B566B30204C454242F39B12AFAB684F2C6D6686E788BA458DF98AC5B5DBF2D3DE87E04635803B54BBD70A980CE3093485526B7EA867E4510825B34CCF852E5D443A85C2489AE1A11BD267DEA6C9511AD4D33E2157798E519FCD8
310
9AB09896095EA344DC47B792462BA258B7527A19A9307E55C0CF37AB0E3C303240A42FAAC0C38F9DB57674AECAA5BD44E45D996D182210045BA2A546375EC152AB914ACBF5559D29A0EE0203B32A9EFD3C5934DB113F4F16A9358C1F3B59D07C83E82EDA34B279ACCCFAA053409D9E1495F73805E8AE434DB54E2226975BF1
310
AD2F451013AB203FB818AB628621D8C7F17F4EDA7D49D06CD7E1FFB0A4EDBF28380E4A2AADC9AA49B5A7705D3653183464E7FE87ABABD162BA988F66678B0FA3CBA32B68D24E271727D38B8BF9E5F4B44653FB6918D4B14CA72E783631AD1A564F160368CA8A9C92040EF389936208F9128EF403BAE73CC3027267B3D79DD8
310
9EFC80D50FA6CD29D186E28A933B04FD612A20AB0346652CDBE3CE2FD0999470CE3E77A167E4DDC39FB54AD781C473EE42A74092180B6F035D26D5CFD3C421E3EAD46F89013E88A52A239A45F573BD4A61D38AFEF5942159C0CAD56A6140DD5640F3ABD5A0D0BC599EE28304AFD8719084DB4D29A15833B2EC066A61F4363B
310
F51BD92861F776EB2770DDD7C5F23D3DA785C8A02F06AF1A81A13A9288A7BADDAD18B32C5D2CBE8CA1CDE62C3F3B052D53D0E5704A238EC1984B554F81158155589A059260AAF3DFD75F780E5F7832471745CEAF4FA727BFADE77996E5CC0CAD2FE05096C077226775075F7D9235D40E58F5D6C5FA68E21FAD754FDBB6D9A3
310
0D12D85345110C54B58412A4637260972FFA53B67B3956AAE84C5F2E1C1B44A11760ECE8458BD77CE372C087D4D714E531DACF2B695F6D6B8FF554B0090E0DE9F05F504B03041400060800000D9AD542000000000000000000000000350000006662782F33413038443938412D303643382D343443462D393139452D374335
310
3045313936433734442F76657274696365732E62696E504B03041400060808000D9AD542F270F1330600000004000000360000006662782F33413038443938412D303643382D343443462D393139452D3743353045313936433734442F747269616E676C65732E62696E636660600000504B03041400060800000D9AD54200
310
0000000000000000000000370000006662782F33413038443938412D303643382D343443462D393139452D3743353045313936433734442F617474726962757465732E62696E504B03041400060808000D9AD542D5987DFC8F00000041010000360000006662782F33413038443938412D303643382D343443462D39313945
310
2D3743353045313936433734442F6469726563746F72792E786D6C858F410EC2201045AF4266AF15DDB800BA74E7C21B903225242D6328188F2FA5C4183471359997F9FF81E89FF3C41E1816475E02DF1F80A11FC8386F25A438EECEC07A250251FC3803E6F58C12560C4AD840E95E91C151A72936F496F35732D860FE635F
310
62C8F2DA16B505C545B74125BAA2FA9E05D7CC053D063734D5C7665FD55B6B8D15D5E9BFEAFD8490FFA45E504B03041400060808000D9AD5420B290C55FE000000A00100003B0000006662782F33413038443938412D303643382D343443462D393139452D3743353045313936433734442F7265736F75726365732F636F72
310
652E786D6C8D50594EC33010BD4A34BFC8899DB58D1C5714C209B880E54C8BD5C68EBC208E8FD30409FEF89919BD45F3F4F8E96BBE679FE8BCB666009653C8D0283B69731D20860B39407612DC591B7EC9203372C601561804BF3A1B971D52D6043421A1C64EB883D27B0C90A97B3A06F0EA036799CB1892C2DFF245AA9BBC
310
62CEF244279DE03EB81420DB9EAC1384436FA353E879B1B182C7A8A75DA3A7F4535F343A106FDD2BADEBC33329E9B925F5581DC9F9851DC978A89A72EC9A761C5B5EAC66C1839E7F322A8732E004A2A4AC22B425257B67C79EB57DD93DD1A6AF282F56F91F535CA67F9AA236A12AF7B89BCD836029C88310BC58FB4AEB5166
310
DA6BB7E21B504B010214000A00000800000D9AD5423DEE336E79000000790000001B00000000000000000000000000000000006175746F6465736B2D64657369676E2D7061636B6167652E786D6C504B010214001400060808000D9AD542D486FD9CA0000000F40000001300000000000000000000000000B20000005B436F
310
6E74656E745F54797065735D2E786D6C504B010214001400060808000D9AD54263C35164EC0000007C010000080000000000000000000000000083010000636F72652E786D6C504B010214001400060808000D9AD54255019EA25F0000007C000000070000000000000000000000000095020000636E782E786D6C504B0102
310
14001400060808000D9AD5423E91AC4868010000020300000C00000000000000000000000000190300006662782F636F72652E786D6C504B010214001400060808000D9AD542190159BD7D0000009D0000000B00000000000000000000000000AB0400006662782F636E782E786D6C504B010214001400060808000D9AD542
310
217A7C132A010000130200003100000000000000000000000000510500006662782F33413038443938412D303643382D343443462D393139452D3743353045313936433734442F636F72652E786D6C504B010214001400060808000D9AD542AEF5FD4957010000330300003000000000000000000000000000CA0600006662
310
782F33413038443938412D303643382D343443462D393139452D3743353045313936433734442F636E782E786D6C504B010214001400060808000D9AD54285D0ED8E61070000991B000034000000000000000000000000006F0800006662782F33413038443938412D303643382D343443462D393139452D37433530453139
310
36433734442F6F626A656374732E786D6C504B010214001400060800000D9AD5420000000000000000000000003500000000000000000000000000221000006662782F33413038443938412D303643382D343443462D393139452D3743353045313936433734442F76657274696365732E62696E504B010214001400060808
310
000D9AD542F270F13306000000040000003600000000000000000000000000751000006662782F33413038443938412D303643382D343443462D393139452D3743353045313936433734442F747269616E676C65732E62696E504B010214001400060800000D9AD54200000000000000000000000037000000000000000000
310
00000000CF1000006662782F33413038443938412D303643382D343443462D393139452D3743353045313936433734442F617474726962757465732E62696E504B010214001400060808000D9AD542D5987DFC8F000000410100003600000000000000000000000000241100006662782F33413038443938412D303643382D
310
343443462D393139452D3743353045313936433734442F6469726563746F72792E786D6C504B010214001400060808000D9AD5420B290C55FE000000A00100003B00000000000000000000000000071200006662782F33413038443938412D303643382D343443462D393139452D3743353045313936433734442F7265736F
310
75726365732F636F72652E786D6C504B0506000000000E000E00800400005E1300000000
  0
XRECORD
  5
27
102
{ACAD_REACTORS
330
22
102
}
330
22
100
AcDbXrecord
280
     1
270
     1
271
     1
  0
XRECORD
  5
26
102
{ACAD_REACTORS
330
22
102
}
330
22
100
AcDbXrecord
280
     1
270
     1
271
     1
  0
XRECORD
  5
28
102
{ACAD_REACTORS
330
22
102
}
330
22
100
AcDbXrecord
280
     1
270
     1
271
     1
  0
XRECORD
  5
25
102
{ACAD_REACTORS
330
22
102
}
330
22
100
AcDbXrecord
280
     1
270
     1
271
     1
  0
XRECORD
  5
E85
102
{ACAD_REACTORS
330
E84
102
}
330
E84
100
AcDbXrecord
280
     1
102
ACAD_ROUNDTRIP_2012_MLEADER_STYLE
298
     1
  0
CELLSTYLEMAP
  5
E83
102
{ACAD_REACTORS
330
E82
102
}
330
E82
100
AcDbCellStyleMap
 90
        3
300
CELLSTYLE
  1
TABLEFORMAT_BEGIN
 90
        5
170
     1
 91
        0
 92
    32768
 62
   257
 93
        1
300
CONTENTFORMAT
  1
CONTENTFORMAT_BEGIN
 90
        0
 91
        0
 92
      512
 93
        0
300

 40
0.0
140
1.0
 94
        5
 62
     0
340
55
144
0.25
309
CONTENTFORMAT_END
171
     0
 94
        0
309
TABLEFORMAT_END
  1
CELLSTYLE_BEGIN
 90
        1
 91
        1
300
_TITLE
309
CELLSTYLE_END
300
CELLSTYLE
  1
TABLEFORMAT_BEGIN
 90
        5
170
     1
 91
        0
 92
        0
 62
   257
 93
        1
300
CONTENTFORMAT
  1
CONTENTFORMAT_BEGIN
 90
        0
 91
        0
 92
      512
 93
        0
300

 40
0.0
140
1.0
 94
        5
 62
     0
340
55
144
0.18
309
CONTENTFORMAT_END
171
     0
 94
        0
309
TABLEFORMAT_END
  1
CELLSTYLE_BEGIN
 90
        2
 91
        1
300
_HEADER
309
CELLSTYLE_END
300
CELLSTYLE
  1
TABLEFORMAT_BEGIN
 90
        5
170
     1
 91
        0
 92
        0
 62
   257
 93
        1
300
CONTENTFORMAT
  1
CONTENTFORMAT_BEGIN
 90
        0
 91
        0
 92
      512
 93
        0
300

 40
0.0
140
1.0
 94
        2
 62
     0
340
55
144
0.18
309
CONTENTFORMAT_END
171
     0
 94
        0
309
TABLEFORMAT_END
  1
CELLSTYLE_BEGIN
 90
        3
 91
        2
300
_DATA
309
CELLSTYLE_END
  0
ENDSEC
  0
EOF
