  0
SECTION
  2
HEADER
  9
$ACADVER
  1
AC1024
  9
$ACADMAINTVER
 70
    63
  9
$DWGCODEPAGE
  3
ANSI_1252
  9
$AUTHOR
  1
VR
  9
$REVISIONNUMBER
  1
-
  9
$CUSTOMPROPERTYTAG
  1
Manager
  9
$CUSTOMPROPERTY
  1

  9
$CUSTOMPROPERTYTAG
  1
Company
  9
$CUSTOMPROPERTY
  1

  9
$CUSTOMPROPERTYTAG
  1
Category
  9
$CUSTOMPROPERTY
  1

  9
$CUSTOMPROPERTYTAG
  1
Part Number
  9
$CUSTOMPROPERTY
  1
HWDWA90P24F2
  9
$CUSTOMPROPERTYTAG
  1
Description
  9
$CUSTOMPROPERTY
  1
N1P PANEL MASTER VIEW
  9
$CUSTOMPROPERTYTAG
  1
Project
  9
$CUSTOMPROPERTY
  1

  9
$CUSTOMPROPERTYTAG
  1
Designer
  9
$CUSTOMPROPERTY
  1
VR
  9
$CUSTOMPROPERTYTAG
  1
Engineer
  9
$CUSTOMPROPERTY
  1

  9
$CUSTOMPROPERTYTAG
  1
Authority
  9
$CUSTOMPROPERTY
  1

  9
$CUSTOMPROPERTYTAG
  1
Cost Center
  9
$CUSTOMPROPERTY
  1

  9
$CUSTOMPROPERTYTAG
  1
Vendor
  9
$CUSTOMPROPERTY
  1

  9
$CUSTOMPROPERTYTAG
  1
User Status
  9
$CUSTOMPROPERTY
  1

  9
$CUSTOMPROPERTYTAG
  1
Design Status
  9
$CUSTOMPROPERTY
  1
WorkInProgress
  9
$CUSTOMPROPERTYTAG
  1
Checked by
  9
$CUSTOMPROPERTY
  1
NJ
  9
$CUSTOMPROPERTYTAG
  1
Engr Approved by
  9
$CUSTOMPROPERTY
  1

  9
$CUSTOMPROPERTYTAG
  1
Date Eng Approved
  9
$CUSTOMPROPERTY
  1
06/10/2013
  9
$CUSTOMPROPERTYTAG
  1
Mfg Approved by
  9
$CUSTOMPROPERTY
  1

  9
$CUSTOMPROPERTYTAG
  1
DWG. NO
  9
$CUSTOMPROPERTY
  1

  9
$CUSTOMPROPERTYTAG
  1
NUMBER OF SHEETS
  9
$CUSTOMPROPERTY
  1
1
  9
$CUSTOMPROPERTYTAG
  1
DRAWING #
  9
$CUSTOMPROPERTY
  1
1
  9
$INSBASE
 10
0.0
 20
0.0
 30
0.0
  9
$EXTMIN
 10
0.0
 20
0.0
 30
0.0
  9
$EXTMAX
 10
170.0
 20
110.0
 30
0.0
  9
$LIMMIN
 10
0.0
 20
0.0
  9
$LIMMAX
 10
170.0
 20
110.0
  9
$ORTHOMODE
 70
     0
  9
$REGENMODE
 70
     1
  9
$FILLMODE
 70
     1
  9
$QTEXTMODE
 70
     0
  9
$MIRRTEXT
 70
     0
  9
$LTSCALE
 40
10.0
  9
$ATTMODE
 70
     1
  9
$TEXTSIZE
 40
0.2
  9
$TRACEWID
 40
0.05
  9
$TEXTSTYLE
  7
Standard
  9
$CLAYER
  8
0
  9
$CELTYPE
  6
ByLayer
  9
$CECOLOR
 62
   256
  9
$CELTSCALE
 40
1.0
  9
$DISPSILH
 70
     0
  9
$DIMSCALE
 40
1.0
  9
$DIMASZ
 40
0.0708661417322835
  9
$DIMEXO
 40
0.0625
  9
$DIMDLI
 40
0.38
  9
$DIMRND
 40
0.0
  9
$DIMDLE
 40
0.0
  9
$DIMEXE
 40
0.18
  9
$DIMTP
 40
0.0
  9
$DIMTM
 40
0.0
  9
$DIMTXT
 40
0.0708661417322835
  9
$DIMCEN
 40
0.09
  9
$DIMTSZ
 40
0.0
  9
$DIMTOL
 70
     0
  9
$DIMLIM
 70
     0
  9
$DIMTIH
 70
     1
  9
$DIMTOH
 70
     1
  9
$DIMSE1
 70
     0
  9
$DIMSE2
 70
     0
  9
$DIMTAD
 70
     0
  9
$DIMZIN
 70
     0
  9
$DIMBLK
  1

  9
$DIMASO
 70
     1
  9
$DIMSHO
 70
     1
  9
$DIMPOST
  1

  9
$DIMAPOST
  1

  9
$DIMALT
 70
     0
  9
$DIMALTD
 70
     2
  9
$DIMALTF
 40
25.4
  9
$DIMLFAC
 40
1.0
  9
$DIMTOFL
 70
     0
  9
$DIMTVP
 40
0.0
  9
$DIMTIX
 70
     0
  9
$DIMSOXD
 70
     0
  9
$DIMSAH
 70
     0
  9
$DIMBLK1
  1

  9
$DIMBLK2
  1

  9
$DIMSTYLE
  2
STANDARD
  9
$DIMCLRD
 70
     0
  9
$DIMCLRE
 70
     0
  9
$DIMCLRT
 70
     0
  9
$DIMTFAC
 40
1.0
  9
$DIMGAP
 40
0.09
  9
$DIMJUST
 70
     0
  9
$DIMSD1
 70
     0
  9
$DIMSD2
 70
     0
  9
$DIMTOLJ
 70
     1
  9
$DIMTZIN
 70
     0
  9
$DIMALTZ
 70
     0
  9
$DIMALTTZ
 70
     0
  9
$DIMUPT
 70
     0
  9
$DIMDEC
 70
     4
  9
$DIMTDEC
 70
     4
  9
$DIMALTU
 70
     2
  9
$DIMALTTD
 70
     2
  9
$DIMTXSTY
  7
Standard
  9
$DIMAUNIT
 70
     0
  9
$DIMADEC
 70
     0
  9
$DIMALTRND
 40
0.0
  9
$DIMAZIN
 70
     0
  9
$DIMDSEP
 70
    46
  9
$DIMATFIT
 70
     3
  9
$DIMFRAC
 70
     0
  9
$DIMLDRBLK
  1

  9
$DIMLUNIT
 70
     2
  9
$DIMLWD
 70
    -2
  9
$DIMLWE
 70
    -2
  9
$DIMTMOVE
 70
     0
  9
$DIMFXL
 40
1.0
  9
$DIMFXLON
 70
     0
  9
$DIMJOGANG
 40
0.7853981633974483
  9
$DIMTFILL
 70
     0
  9
$DIMTFILLCLR
 70
     0
  9
$DIMARCSYM
 70
     0
  9
$DIMLTYPE
  6

  9
$DIMLTEX1
  6

  9
$DIMLTEX2
  6

  9
$DIMTXTDIRECTION
 70
     0
  9
$LUNITS
 70
     2
  9
$LUPREC
 70
     4
  9
$SKETCHINC
 40
0.1
  9
$FILLETRAD
 40
0.0
  9
$AUNITS
 70
     0
  9
$AUPREC
 70
     0
  9
$MENU
  1
.
  9
$ELEVATION
 40
0.0
  9
$PELEVATION
 40
0.0
  9
$THICKNESS
 40
0.0
  9
$LIMCHECK
 70
     0
  9
$CHAMFERA
 40
0.0
  9
$CHAMFERB
 40
0.0
  9
$CHAMFERC
 40
0.0
  9
$CHAMFERD
 40
0.0
  9
$SKPOLY
 70
     0
  9
$TDCREATE
 40
2456461.721287720
  9
$TDUCREATE
 40
2456461.492121054
  9
$TDUPDATE
 40
2456461.721287732
  9
$TDUUPDATE
 40
2456461.492121065
  9
$TDINDWG
 40
0.0000449537
  9
$TDUSRTIMER
 40
0.0000449537
  9
$USRTIMER
 70
     1
  9
$ANGBASE
 50
0.0
  9
$ANGDIR
 70
     0
  9
$PDMODE
 70
     0
  9
$PDSIZE
 40
0.0
  9
$PLINEWID
 40
0.0
  9
$SPLFRAME
 70
     0
  9
$SPLINETYPE
 70
     6
  9
$SPLINESEGS
 70
     8
  9
$HANDSEED
  5
D81
  9
$SURFTAB1
 70
     6
  9
$SURFTAB2
 70
     6
  9
$SURFTYPE
 70
     6
  9
$SURFU
 70
     6
  9
$SURFV
 70
     6
  9
$UCSBASE
  2

  9
$UCSNAME
  2

  9
$UCSORG
 10
0.0
 20
0.0
 30
0.0
  9
$UCSXDIR
 10
1.0
 20
0.0
 30
0.0
  9
$UCSYDIR
 10
0.0
 20
1.0
 30
0.0
  9
$UCSORTHOREF
  2

  9
$UCSORTHOVIEW
 70
     0
  9
$UCSORGTOP
 10
0.0
 20
0.0
 30
0.0
  9
$UCSORGBOTTOM
 10
0.0
 20
0.0
 30
0.0
  9
$UCSORGLEFT
 10
0.0
 20
0.0
 30
0.0
  9
$UCSORGRIGHT
 10
0.0
 20
0.0
 30
0.0
  9
$UCSORGFRONT
 10
0.0
 20
0.0
 30
0.0
  9
$UCSORGBACK
 10
0.0
 20
0.0
 30
0.0
  9
$PUCSBASE
  2

  9
$PUCSNAME
  2

  9
$PUCSORG
 10
0.0
 20
0.0
 30
0.0
  9
$PUCSXDIR
 10
1.0
 20
0.0
 30
0.0
  9
$PUCSYDIR
 10
0.0
 20
1.0
 30
0.0
  9
$PUCSORTHOREF
  2

  9
$PUCSORTHOVIEW
 70
     0
  9
$PUCSORGTOP
 10
0.0
 20
0.0
 30
0.0
  9
$PUCSORGBOTTOM
 10
0.0
 20
0.0
 30
0.0
  9
$PUCSORGLEFT
 10
0.0
 20
0.0
 30
0.0
  9
$PUCSORGRIGHT
 10
0.0
 20
0.0
 30
0.0
  9
$PUCSORGFRONT
 10
0.0
 20
0.0
 30
0.0
  9
$PUCSORGBACK
 10
0.0
 20
0.0
 30
0.0
  9
$USERI1
 70
     0
  9
$USERI2
 70
     0
  9
$USERI3
 70
     0
  9
$USERI4
 70
     0
  9
$USERI5
 70
     0
  9
$USERR1
 40
0.0
  9
$USERR2
 40
0.0
  9
$USERR3
 40
0.0
  9
$USERR4
 40
0.0
  9
$USERR5
 40
0.0
  9
$WORLDVIEW
 70
     1
  9
$SHADEDGE
 70
     3
  9
$SHADEDIF
 70
    70
  9
$TILEMODE
 70
     1
  9
$MAXACTVP
 70
    64
  9
$PINSBASE
 10
0.0
 20
0.0
 30
0.0
  9
$PLIMCHECK
 70
     0
  9
$PEXTMIN
 10
0.0
 20
0.0
 30
0.0
  9
$PEXTMAX
 10
170.0
 20
110.0
 30
0.0
  9
$PLIMMIN
 10
0.0
 20
0.0
  9
$PLIMMAX
 10
170.0
 20
110.0
  9
$UNITMODE
 70
     0
  9
$VISRETAIN
 70
     1
  9
$PLINEGEN
 70
     0
  9
$PSLTSCALE
 70
     1
  9
$TREEDEPTH
 70
  3020
  9
$CMLSTYLE
  2
Standard
  9
$CMLJUST
 70
     0
  9
$CMLSCALE
 40
1.0
  9
$PROXYGRAPHICS
 70
     1
  9
$MEASUREMENT
 70
     0
  9
$CELWEIGHT
370
    -1
  9
$ENDCAPS
280
     0
  9
$JOINSTYLE
280
     0
  9
$LWDISPLAY
290
     0
  9
$INSUNITS
 70
     1
  9
$HYPERLINKBASE
  1

  9
$STYLESHEET
  1

  9
$XEDIT
290
     1
  9
$CEPSNTYPE
380
     0
  9
$PSTYLEMODE
290
     1
  9
$FINGERPRINTGUID
  2
{6169C287-2D12-4D18-A1ED-191254D9B9F1}
  9
$VERSIONGUID
  2
{B4EC42A6-1281-47AB-AA4E-C1ED0D5608FC}
  9
$EXTNAMES
290
     1
  9
$PSVPSCALE
 40
0.0
  9
$OLESTARTUP
290
     0
  9
$SORTENTS
280
   127
  9
$INDEXCTL
280
     0
  9
$HIDETEXT
280
     1
  9
$XCLIPFRAME
280
     2
  9
$HALOGAP
280
     0
  9
$OBSCOLOR
 70
   257
  9
$OBSLTYPE
280
     0
  9
$INTERSECTIONDISPLAY
280
     0
  9
$INTERSECTIONCOLOR
 70
   257
  9
$DIMASSOC
280
     1
  9
$PROJECTNAME
  1

  9
$CAMERADISPLAY
290
     0
  9
$LENSLENGTH
 40
50.0
  9
$CAMERAHEIGHT
 40
0.0
  9
$STEPSPERSEC
 40
2.0
  9
$STEPSIZE
 40
6.0
  9
$3DDWFPREC
 40
2.0
  9
$PSOLWIDTH
 40
0.25
  9
$PSOLHEIGHT
 40
4.0
  9
$LOFTANG1
 40
1.570796326794896
  9
$LOFTANG2
 40
1.570796326794896
  9
$LOFTMAG1
 40
0.0
  9
$LOFTMAG2
 40
0.0
  9
$LOFTPARAM
 70
     7
  9
$LOFTNORMALS
280
     1
  9
$LATITUDE
 40
37.795
  9
$LONGITUDE
 40
-122.394
  9
$NORTHDIRECTION
 40
0.0
  9
$TIMEZONE
 70
 -8000
  9
$LIGHTGLYPHDISPLAY
280
     1
  9
$TILEMODELIGHTSYNCH
280
     1
  9
$CMATERIAL
347
11
  9
$SOLIDHIST
280
     0
  9
$SHOWHIST
280
     1
  9
$DWFFRAME
280
     2
  9
$DGNFRAME
280
     0
  9
$REALWORLDSCALE
290
     1
  9
$INTERFERECOLOR
 62
     1
  9
$INTERFEREOBJVS
345
33
  9
$INTERFEREVPVS
346
30
  9
$CSHADOW
280
     0
  9
$SHADOWPLANELOCATION
 40
0.0
  0
ENDSEC
  0
SECTION
  2
CLASSES
  0
CLASS
  1
ACDBDICTIONARYWDFLT
  2
AcDbDictionaryWithDefault
  3
ObjectDBX Classes
 90
        0
 91
        1
280
     0
281
     0
  0
CLASS
  1
MATERIAL
  2
AcDbMaterial
  3
ObjectDBX Classes
 90
     1153
 91
        3
280
     0
281
     0
  0
CLASS
  1
VISUALSTYLE
  2
AcDbVisualStyle
  3
ObjectDBX Classes
 90
     4095
 91
       24
280
     0
281
     0
  0
CLASS
  1
SCALE
  2
AcDbScale
  3
ObjectDBX Classes
 90
     1153
 91
       17
280
     0
281
     0
  0
CLASS
  1
TABLESTYLE
  2
AcDbTableStyle
  3
ObjectDBX Classes
 90
     4095
 91
        1
280
     0
281
     0
  0
CLASS
  1
MLEADERSTYLE
  2
AcDbMLeaderStyle
  3
ACDB_MLEADERSTYLE_CLASS
 90
     4095
 91
        1
280
     0
281
     0
  0
CLASS
  1
DICTIONARYVAR
  2
AcDbDictionaryVar
  3
ObjectDBX Classes
 90
        0
 91
        3
280
     0
281
     0
  0
CLASS
  1
CELLSTYLEMAP
  2
AcDbCellStyleMap
  3
ObjectDBX Classes
 90
     1152
 91
        1
280
     0
281
     0
  0
ENDSEC
  0
SECTION
  2
TABLES
  0
TABLE
  2
VPORT
  5
8
330
0
100
AcDbSymbolTable
 70
     1
  0
VPORT
  5
57
330
8
100
AcDbSymbolTableRecord
100
AcDbViewportTableRecord
  2
*Active
 70
     0
 10
0.0
 20
0.0
 11
1.0
 21
1.0
 12
85.0
 22
55.0
 13
0.0
 23
0.0
 14
1.0
 24
1.0
 15
0.0
 25
0.0
 16
0.0
 26
0.0
 36
1.0
 17
0.0
 27
0.0
 37
0.0
 40
110.0
 41
1.545454545454545
 42
50.0
 43
0.0
 44
0.0
 50
0.0
 51
0.0
 71
     0
 72
   100
 73
     1
 74
     1
 75
     0
 76
     0
 77
     0
 78
     0
281
     0
 65
     1
110
0.0
120
0.0
130
0.0
111
1.0
121
0.0
131
0.0
112
0.0
122
1.0
132
0.0
 79
     0
146
0.0
 60
     3
 61
     5
292
     1
282
     1
141
0.0
142
0.0
 63
   250
421
  3355443
  0
ENDTAB
  0
TABLE
  2
LTYPE
  5
5
330
0
100
AcDbSymbolTable
 70
    59
  0
LTYPE
  5
5B
330
5
100
AcDbSymbolTableRecord
100
AcDbLinetypeTableRecord
  2
ByBlock
 70
     0
  3

 72
    65
 73
     0
 40
0.0
  0
LTYPE
  5
5C
330
5
100
AcDbSymbolTableRecord
100
AcDbLinetypeTableRecord
  2
ByLayer
 70
     0
  3

 72
    65
 73
     0
 40
0.0
  0
LTYPE
  5
5D
330
5
100
AcDbSymbolTableRecord
100
AcDbLinetypeTableRecord
  2
Continuous
 70
     0
  3
Solid line
 72
    65
 73
     0
 40
0.0
  0
LTYPE
  5
7C
330
5
100
AcDbSymbolTableRecord
100
AcDbLinetypeTableRecord
  2
BY_STANDARD
 70
     0
  3
By Standard ____________    ____    ____   _
 72
    65
 73
     6
 40
1.240299999999999
 49
0.6614
 74
     0
 49
-0.0827
 74
     0
 49
0.1654
 74
     0
 49
-0.0827
 74
     0
 49
0.1654
 74
     0
 49
-0.0827
 74
     0
  0
LTYPE
  5
7D
330
5
100
AcDbSymbolTableRecord
100
AcDbLinetypeTableRecord
  2
CHAIN
 70
     0
  3
Chain ____ _ ____ _ ____ _ ____ _ ____ _ ____
 72
    65
 73
     4
 40
0.7087
 49
0.4724000000000001
 74
     0
 49
-0.0591
 74
     0
 49
0.1181
 74
     0
 49
-0.0591
 74
     0
  0
LTYPE
  5
7E
330
5
100
AcDbSymbolTableRecord
100
AcDbLinetypeTableRecord
  2
DASH_DOT
 70
     0
  3
Dash dot __ . __ . __ . __ . __ . __ . __ . __
 72
    65
 73
     4
 40
0.37
 49
0.24
 74
     0
 49
-0.06
 74
     0
 49
0.01
 74
     0
 49
-0.06
 74
     0
  0
LTYPE
  5
7F
330
5
100
AcDbSymbolTableRecord
100
AcDbLinetypeTableRecord
  2
DOUBLE_DASH_DOT
 70
     0
  3
Double-Dash Dot __ __ . __ __ . __ __ . __ _
 72
    65
 73
     6
 40
0.4398
 49
0.24
 74
     0
 49
-0.06
 74
     0
 49
0.0098
 74
     0
 49
-0.06
 74
     0
 49
0.01
 74
     0
 49
-0.06
 74
     0
  0
LTYPE
  5
80
330
5
100
AcDbSymbolTableRecord
100
AcDbLinetypeTableRecord
  2
DASH_TRIPLE_DOT
 70
     0
  3
Dash Triple-Dot _ . . . _ . . . _ . . . _
 72
    65
 73
     8
 40
0.51
 49
0.24
 74
     0
 49
-0.06
 74
     0
 49
0.01
 74
     0
 49
-0.06
 74
     0
 49
0.01
 74
     0
 49
-0.06
 74
     0
 49
0.01
 74
     0
 49
-0.06
 74
     0
  0
LTYPE
  5
81
330
5
100
AcDbSymbolTableRecord
100
AcDbLinetypeTableRecord
  2
DASHED
 70
     0
  3
Dashed __ __ __ __ __ __ __ __ __ __ __ __ __ _
 72
    65
 73
     2
 40
0.2067
 49
0.1654
 74
     0
 49
-0.0413
 74
     0
  0
LTYPE
  5
82
330
5
100
AcDbSymbolTableRecord
100
AcDbLinetypeTableRecord
  2
DASH_DOUBLE_DOT
 70
     0
  3
Dash Double-Dot __ . . __ . . __ . . __ . .
 72
    65
 73
     6
 40
0.4398
 49
0.24
 74
     0
 49
-0.06
 74
     0
 49
0.0098
 74
     0
 49
-0.06
 74
     0
 49
0.01
 74
     0
 49
-0.06
 74
     0
  0
LTYPE
  5
83
330
5
100
AcDbSymbolTableRecord
100
AcDbLinetypeTableRecord
  2
DASHED_SPACE
 70
     0
  3
Dashed Space __ __ __ __ __ __ __ __ __ __ __ _
 72
    65
 73
     2
 40
0.2067
 49
0.1654
 74
     0
 49
-0.0413
 74
     0
  0
LTYPE
  5
84
330
5
100
AcDbSymbolTableRecord
100
AcDbLinetypeTableRecord
  2
DOTTED
 70
     0
  3
Dotted . . . . . . . . . . . . . . . . . . . . 
 72
    65
 73
     2
 40
0.0482
 49
0.0069
 74
     0
 49
-0.0413
 74
     0
  0
LTYPE
  5
85
330
5
100
AcDbSymbolTableRecord
100
AcDbLinetypeTableRecord
  2
DOUBLE_DASH_CHAIN
 70
     0
  3
Double-Dash Chain ______  __  __  ______  __  _
 72
    65
 73
     6
 40
1.240299999999999
 49
0.6614
 74
     0
 49
-0.0827
 74
     0
 49
0.1654
 74
     0
 49
-0.0827
 74
     0
 49
0.1654
 74
     0
 49
-0.0827
 74
     0
  0
LTYPE
  5
87
330
5
100
AcDbSymbolTableRecord
100
AcDbLinetypeTableRecord
  2
DOUBLE_DASH_DOUBLE_DOT
 70
     0
  3
Double-Dash Double-dot _ _ . . _ _ . . _
 72
    65
 73
     8
 40
0.7400000000000001
 49
0.24
 74
     0
 49
-0.06
 74
     0
 49
0.24
 74
     0
 49
-0.06
 74
     0
 49
0.01
 74
     0
 49
-0.06
 74
     0
 49
0.01
 74
     0
 49
-0.06
 74
     0
  0
LTYPE
  5
88
330
5
100
AcDbSymbolTableRecord
100
AcDbLinetypeTableRecord
  2
DOUBLE_DASH_TRIPLE_DOT
 70
     0
  3
Double Dash Triple Dot __ __ . . . __ __ . .
 72
    65
 73
    10
 40
0.8100000000000001
 49
0.24
 74
     0
 49
-0.06
 74
     0
 49
0.24
 74
     0
 49
-0.06
 74
     0
 49
0.01
 74
     0
 49
-0.06
 74
     0
 49
0.01
 74
     0
 49
-0.06
 74
     0
 49
0.01
 74
     0
 49
-0.06
 74
     0
  0
LTYPE
  5
89
330
5
100
AcDbSymbolTableRecord
100
AcDbLinetypeTableRecord
  2
LONG_DASH_DOTTED
 70
     0
  3
Long Dash Dotted ____ . ____ . ____ . ____ . _
 72
    65
 73
     4
 40
0.3543
 49
0.2362
 74
     0
 49
-0.0295
 74
     0
 49
0.0591
 74
     0
 49
-0.0295
 74
     0
  0
LTYPE
  5
8A
330
5
100
AcDbSymbolTableRecord
100
AcDbLinetypeTableRecord
  2
LONG_DASH_DOUBLE_DOT
 70
     0
  3
Long Dash Double Dot ________  .  .  ________  
 72
    65
 73
     6
 40
0.6799999999999999
 49
0.48
 74
     0
 49
-0.06
 74
     0
 49
0.01
 74
     0
 49
-0.06
 74
     0
 49
0.01
 74
     0
 49
-0.06
 74
     0
  0
LTYPE
  5
8B
330
5
100
AcDbSymbolTableRecord
100
AcDbLinetypeTableRecord
  2
LONG_DASH_TRIPLE_DOT
 70
     0
  3
Long Dash Triple Dot ____ ... ____ ... ____
 72
    65
 73
     8
 40
0.3689
 49
0.2362
 74
     0
 49
-0.0295
 74
     0
 49
0.0049
 74
     0
 49
-0.0295
 74
     0
 49
0.0049
 74
     0
 49
-0.0295
 74
     0
 49
0.0049
 74
     0
 49
-0.0295
 74
     0
  0
LTYPE
  5
8C
330
5
100
AcDbSymbolTableRecord
100
AcDbLinetypeTableRecord
  2
BORDER
 70
     0
  3
Border __ __ . __ __ . __ __ . __ __ . __ __ .
 72
    65
 73
     6
 40
1.75
 49
0.5
 74
     0
 49
-0.25
 74
     0
 49
0.5
 74
     0
 49
-0.25
 74
     0
 49
0.0
 74
     0
 49
-0.25
 74
     0
  0
LTYPE
  5
8D
330
5
100
AcDbSymbolTableRecord
100
AcDbLinetypeTableRecord
  2
BORDER2
 70
     0
  3
Border (.5x) __.__.__.__.__.__.__.__.__.__.__.
 72
    65
 73
     6
 40
0.875
 49
0.25
 74
     0
 49
-0.125
 74
     0
 49
0.25
 74
     0
 49
-0.125
 74
     0
 49
0.0
 74
     0
 49
-0.125
 74
     0
  0
LTYPE
  5
8E
330
5
100
AcDbSymbolTableRecord
100
AcDbLinetypeTableRecord
  2
BORDERX2
 70
     0
  3
Border (2x) ____  ____  .  ____  ____  .  ___
 72
    65
 73
     6
 40
3.5
 49
1.0
 74
     0
 49
-0.5
 74
     0
 49
1.0
 74
     0
 49
-0.5
 74
     0
 49
0.0
 74
     0
 49
-0.5
 74
     0
  0
LTYPE
  5
8F
330
5
100
AcDbSymbolTableRecord
100
AcDbLinetypeTableRecord
  2
CENTER
 70
     0
  3
Center ____ _ ____ _ ____ _ ____ _ ____ _ ____
 72
    65
 73
     4
 40
2.0
 49
1.25
 74
     0
 49
-0.25
 74
     0
 49
0.25
 74
     0
 49
-0.25
 74
     0
  0
LTYPE
  5
90
330
5
100
AcDbSymbolTableRecord
100
AcDbLinetypeTableRecord
  2
CENTER2
 70
     0
  3
Center (.5x) ___ _ ___ _ ___ _ ___ _ ___ _ ___
 72
    65
 73
     4
 40
1.125
 49
0.75
 74
     0
 49
-0.125
 74
     0
 49
0.125
 74
     0
 49
-0.125
 74
     0
  0
LTYPE
  5
91
330
5
100
AcDbSymbolTableRecord
100
AcDbLinetypeTableRecord
  2
CENTERX2
 70
     0
  3
Center (2x) ________  __  ________  __  _____
 72
    65
 73
     4
 40
4.0
 49
2.5
 74
     0
 49
-0.5
 74
     0
 49
0.5
 74
     0
 49
-0.5
 74
     0
  0
LTYPE
  5
92
330
5
100
AcDbSymbolTableRecord
100
AcDbLinetypeTableRecord
  2
DASHDOT2
 70
     0
  3
Dash dot (.5x) _._._._._._._._._._._._._._._.
 72
    65
 73
     4
 40
0.5
 49
0.25
 74
     0
 49
-0.125
 74
     0
 49
0.0
 74
     0
 49
-0.125
 74
     0
  0
LTYPE
  5
93
330
5
100
AcDbSymbolTableRecord
100
AcDbLinetypeTableRecord
  2
DASHDOTX2
 70
     0
  3
Dash dot (2x) ____  .  ____  .  ____  .  ___
 72
    65
 73
     4
 40
2.0
 49
1.0
 74
     0
 49
-0.5
 74
     0
 49
0.0
 74
     0
 49
-0.5
 74
     0
  0
LTYPE
  5
95
330
5
100
AcDbSymbolTableRecord
100
AcDbLinetypeTableRecord
  2
DASHED2
 70
     0
  3
Dashed (.5x) _ _ _ _ _ _ _ _ _ _ _ _ _ _ _ _ _
 72
    65
 73
     2
 40
0.375
 49
0.25
 74
     0
 49
-0.125
 74
     0
  0
LTYPE
  5
96
330
5
100
AcDbSymbolTableRecord
100
AcDbLinetypeTableRecord
  2
DASHEDX2
 70
     0
  3
Dashed (2x) ____  ____  ____  ____  ____  ___
 72
    65
 73
     2
 40
1.5
 49
1.0
 74
     0
 49
-0.5
 74
     0
  0
LTYPE
  5
97
330
5
100
AcDbSymbolTableRecord
100
AcDbLinetypeTableRecord
  2
DIVIDE
 70
     0
  3
Divide ____ . . ____ . . ____ . . ____ . . ____
 72
    65
 73
     6
 40
1.25
 49
0.5
 74
     0
 49
-0.25
 74
     0
 49
0.0
 74
     0
 49
-0.25
 74
     0
 49
0.0
 74
     0
 49
-0.25
 74
     0
  0
LTYPE
  5
98
330
5
100
AcDbSymbolTableRecord
100
AcDbLinetypeTableRecord
  2
DIVIDE2
 70
     0
  3
Divide (.5x) __..__..__..__..__..__..__..__.._
 72
    65
 73
     6
 40
0.625
 49
0.25
 74
     0
 49
-0.125
 74
     0
 49
0.0
 74
     0
 49
-0.125
 74
     0
 49
0.0
 74
     0
 49
-0.125
 74
     0
  0
LTYPE
  5
99
330
5
100
AcDbSymbolTableRecord
100
AcDbLinetypeTableRecord
  2
DIVIDEX2
 70
     0
  3
Divide (2x) ________  .  .  ________  .  .  _
 72
    65
 73
     6
 40
2.5
 49
1.0
 74
     0
 49
-0.5
 74
     0
 49
0.0
 74
     0
 49
-0.5
 74
     0
 49
0.0
 74
     0
 49
-0.5
 74
     0
  0
LTYPE
  5
9A
330
5
100
AcDbSymbolTableRecord
100
AcDbLinetypeTableRecord
  2
DOT
 70
     0
  3
Dot . . . . . . . . . . . . . . . . . . . . . .
 72
    65
 73
     2
 40
0.25
 49
0.0
 74
     0
 49
-0.25
 74
     0
  0
LTYPE
  5
9B
330
5
100
AcDbSymbolTableRecord
100
AcDbLinetypeTableRecord
  2
DOT2
 70
     0
  3
Dot (.5x) .....................................
 72
    65
 73
     2
 40
0.125
 49
0.0
 74
     0
 49
-0.125
 74
     0
  0
LTYPE
  5
9C
330
5
100
AcDbSymbolTableRecord
100
AcDbLinetypeTableRecord
  2
DOTX2
 70
     0
  3
Dot (2x) .  .  .  .  .  .  .  .  .  .  .  .  . 
 72
    65
 73
     2
 40
0.5
 49
0.0
 74
     0
 49
-0.5
 74
     0
  0
LTYPE
  5
9D
330
5
100
AcDbSymbolTableRecord
100
AcDbLinetypeTableRecord
  2
HIDDEN
 70
     0
  3
Hidden __ __ __ __ __ __ __ __ __ __ __ __ __ _
 72
    65
 73
     2
 40
0.375
 49
0.25
 74
     0
 49
-0.125
 74
     0
  0
LTYPE
  5
9E
330
5
100
AcDbSymbolTableRecord
100
AcDbLinetypeTableRecord
  2
HIDDEN2
 70
     0
  3
Hidden (.5x) _ _ _ _ _ _ _ _ _ _ _ _ _ _ _ _ _
 72
    65
 73
     2
 40
0.1875
 49
0.125
 74
     0
 49
-0.0625
 74
     0
  0
LTYPE
  5
9F
330
5
100
AcDbSymbolTableRecord
100
AcDbLinetypeTableRecord
  2
HIDDENX2
 70
     0
  3
Hidden (2x) ____ ____ ____ ____ ____ ____ ____
 72
    65
 73
     2
 40
0.75
 49
0.5
 74
     0
 49
-0.25
 74
     0
  0
LTYPE
  5
A0
330
5
100
AcDbSymbolTableRecord
100
AcDbLinetypeTableRecord
  2
PHANTOM
 70
     0
  3
Phantom ______  __  __  ______  __  __  ______
 72
    65
 73
     6
 40
2.5
 49
1.25
 74
     0
 49
-0.25
 74
     0
 49
0.25
 74
     0
 49
-0.25
 74
     0
 49
0.25
 74
     0
 49
-0.25
 74
     0
  0
LTYPE
  5
A1
330
5
100
AcDbSymbolTableRecord
100
AcDbLinetypeTableRecord
  2
PHANTOM2
 70
     0
  3
Phantom (.5x) ___ _ _ ___ _ _ ___ _ _ ___ _ _
 72
    65
 73
     6
 40
1.25
 49
0.625
 74
     0
 49
-0.125
 74
     0
 49
0.125
 74
     0
 49
-0.125
 74
     0
 49
0.125
 74
     0
 49
-0.125
 74
     0
  0
LTYPE
  5
A2
330
5
100
AcDbSymbolTableRecord
100
AcDbLinetypeTableRecord
  2
PHANTOMX2
 70
     0
  3
Phantom (2x) ____________    ____    ____   _
 72
    65
 73
     6
 40
5.0
 49
2.5
 74
     0
 49
-0.5
 74
     0
 49
0.5
 74
     0
 49
-0.5
 74
     0
 49
0.5
 74
     0
 49
-0.5
 74
     0
  0
LTYPE
  5
A3
330
5
100
AcDbSymbolTableRecord
100
AcDbLinetypeTableRecord
  2
ACAD_ISO02W100
 70
     0
  3
ISO dash __ __ __ __ __ __ __ __ __ __ __ __ __
 72
    65
 73
     2
 40
0.59
 49
0.47
 74
     0
 49
-0.12
 74
     0
  0
LTYPE
  5
A4
330
5
100
AcDbSymbolTableRecord
100
AcDbLinetypeTableRecord
  2
ACAD_ISO03W100
 70
     0
  3
ISO dash space __    __    __    __    __    __
 72
    65
 73
     2
 40
1.179999999999999
 49
0.47
 74
     0
 49
-0.71
 74
     0
  0
LTYPE
  5
A5
330
5
100
AcDbSymbolTableRecord
100
AcDbLinetypeTableRecord
  2
ACAD_ISO04W100
 70
     0
  3
ISO long-dash dot ____ . ____ . ____ . ____ . _
 72
    65
 73
     4
 40
1.179999999999999
 49
0.9399999999999998
 74
     0
 49
-0.12
 74
     0
 49
0.0
 74
     0
 49
-0.12
 74
     0
  0
LTYPE
  5
A6
330
5
100
AcDbSymbolTableRecord
100
AcDbLinetypeTableRecord
  2
ACAD_ISO05W100
 70
     0
  3
ISO long-dash double-dot ____ .. ____ .. ____ .
 72
    65
 73
     6
 40
1.299999999999999
 49
0.9399999999999998
 74
     0
 49
-0.12
 74
     0
 49
0.0
 74
     0
 49
-0.12
 74
     0
 49
0.0
 74
     0
 49
-0.12
 74
     0
  0
LTYPE
  5
A7
330
5
100
AcDbSymbolTableRecord
100
AcDbLinetypeTableRecord
  2
ACAD_ISO06W100
 70
     0
  3
ISO long-dash triple-dot ____ ... ____ ... ____
 72
    65
 73
     8
 40
1.419999999999999
 49
0.9399999999999998
 74
     0
 49
-0.12
 74
     0
 49
0.0
 74
     0
 49
-0.12
 74
     0
 49
0.0
 74
     0
 49
-0.12
 74
     0
 49
0.0
 74
     0
 49
-0.12
 74
     0
  0
LTYPE
  5
A8
330
5
100
AcDbSymbolTableRecord
100
AcDbLinetypeTableRecord
  2
ACAD_ISO07W100
 70
     0
  3
ISO dot . . . . . . . . . . . . . . . . . . . .
 72
    65
 73
     2
 40
0.12
 49
0.0
 74
     0
 49
-0.12
 74
     0
  0
LTYPE
  5
A9
330
5
100
AcDbSymbolTableRecord
100
AcDbLinetypeTableRecord
  2
ACAD_ISO08W100
 70
     0
  3
ISO long-dash short-dash ____ __ ____ __ ____ _
 72
    65
 73
     4
 40
0.95
 49
0.47
 74
     0
 49
-0.12
 74
     0
 49
0.24
 74
     0
 49
-0.12
 74
     0
  0
LTYPE
  5
AA
330
5
100
AcDbSymbolTableRecord
100
AcDbLinetypeTableRecord
  2
ACAD_ISO09W100
 70
     0
  3
ISO long-dash double-short-dash ____ __ __ ____
 72
    65
 73
     6
 40
1.31
 49
0.47
 74
     0
 49
-0.12
 74
     0
 49
0.24
 74
     0
 49
-0.12
 74
     0
 49
0.24
 74
     0
 49
-0.12
 74
     0
  0
LTYPE
  5
AB
330
5
100
AcDbSymbolTableRecord
100
AcDbLinetypeTableRecord
  2
ACAD_ISO10W100
 70
     0
  3
ISO dash dot __ . __ . __ . __ . __ . __ . __ .
 72
    65
 73
     4
 40
0.71
 49
0.47
 74
     0
 49
-0.12
 74
     0
 49
0.0
 74
     0
 49
-0.12
 74
     0
  0
LTYPE
  5
AC
330
5
100
AcDbSymbolTableRecord
100
AcDbLinetypeTableRecord
  2
ACAD_ISO11W100
 70
     0
  3
ISO double-dash dot __ __ . __ __ . __ __ . __ 
 72
    65
 73
     6
 40
1.299999999999999
 49
0.47
 74
     0
 49
-0.12
 74
     0
 49
0.47
 74
     0
 49
-0.12
 74
     0
 49
0.0
 74
     0
 49
-0.12
 74
     0
  0
LTYPE
  5
AD
330
5
100
AcDbSymbolTableRecord
100
AcDbLinetypeTableRecord
  2
ACAD_ISO12W100
 70
     0
  3
ISO dash double-dot __ . . __ . . __ . . __ . .
 72
    65
 73
     6
 40
0.8299999999999998
 49
0.47
 74
     0
 49
-0.12
 74
     0
 49
0.0
 74
     0
 49
-0.12
 74
     0
 49
0.0
 74
     0
 49
-0.12
 74
     0
  0
LTYPE
  5
AE
330
5
100
AcDbSymbolTableRecord
100
AcDbLinetypeTableRecord
  2
ACAD_ISO13W100
 70
     0
  3
ISO double-dash double-dot __ __ . . __ __ . . 
 72
    65
 73
     8
 40
1.419999999999999
 49
0.47
 74
     0
 49
-0.12
 74
     0
 49
0.47
 74
     0
 49
-0.12
 74
     0
 49
0.0
 74
     0
 49
-0.12
 74
     0
 49
0.0
 74
     0
 49
-0.12
 74
     0
  0
LTYPE
  5
AF
330
5
100
AcDbSymbolTableRecord
100
AcDbLinetypeTableRecord
  2
ACAD_ISO14W100
 70
     0
  3
ISO dash triple-dot __ . . . __ . . . __ . . . 
 72
    65
 73
     8
 40
0.95
 49
0.47
 74
     0
 49
-0.12
 74
     0
 49
0.0
 74
     0
 49
-0.12
 74
     0
 49
0.0
 74
     0
 49
-0.12
 74
     0
 49
0.0
 74
     0
 49
-0.12
 74
     0
  0
LTYPE
  5
B0
330
5
100
AcDbSymbolTableRecord
100
AcDbLinetypeTableRecord
  2
ACAD_ISO15W100
 70
     0
  3
ISO double-dash triple-dot __ __ . . . __ __ . 
 72
    65
 73
    10
 40
1.539999999999999
 49
0.47
 74
     0
 49
-0.12
 74
     0
 49
0.47
 74
     0
 49
-0.12
 74
     0
 49
0.0
 74
     0
 49
-0.12
 74
     0
 49
0.0
 74
     0
 49
-0.12
 74
     0
 49
0.0
 74
     0
 49
-0.12
 74
     0
  0
LTYPE
  5
B3
330
5
100
AcDbSymbolTableRecord
100
AcDbLinetypeTableRecord
  2
FENCELINE1
 70
     0
  3
Fenceline circle ----0-----0----0-----0----0---
 72
    65
 73
     4
 40
1.45
 49
0.25
 74
     0
 49
-0.1
 74
     4
 75
   133
340
B2
 46
0.1
 50
0.0
 44
-0.1
 45
0.0
 49
-0.1
 74
     0
 49
1.0
 74
     0
  0
LTYPE
  5
B4
330
5
100
AcDbSymbolTableRecord
100
AcDbLinetypeTableRecord
  2
FENCELINE2
 70
     0
  3
Fenceline square ----[]-----[]----[]-----[]----
 72
    65
 73
     4
 40
1.45
 49
0.25
 74
     0
 49
-0.1
 74
     4
 75
   132
340
B2
 46
0.1
 50
0.0
 44
-0.1
 45
0.0
 49
-0.1
 74
     0
 49
1.0
 74
     0
  0
LTYPE
  5
B5
330
5
100
AcDbSymbolTableRecord
100
AcDbLinetypeTableRecord
  2
TRACKS
 70
     0
  3
Tracks -|-|-|-|-|-|-|-|-|-|-|-|-|-|-|-|-|-|-|-|
 72
    65
 73
     2
 40
0.3
 49
0.15
 74
     4
 75
   130
340
B2
 46
0.25
 50
0.0
 44
0.0
 45
0.0
 49
0.15
 74
     0
  0
LTYPE
  5
B6
330
5
100
AcDbSymbolTableRecord
100
AcDbLinetypeTableRecord
  2
BATTING
 70
     0
  3
Batting SSSSSSSSSSSSSSSSSSSSSSSSSSSSSSSSSSSSSSS
 72
    65
 73
     4
 40
0.4001000000000001
 49
0.0001
 74
     0
 49
-0.1
 74
     4
 75
   134
340
B2
 46
0.1
 50
0.0
 44
-0.1
 45
0.0
 49
-0.2
 74
     4
 75
   134
340
B2
 46
0.1
 50
180.0
 44
0.1
 45
0.0
 49
-0.1
 74
     0
  0
LTYPE
  5
B7
330
5
100
AcDbSymbolTableRecord
100
AcDbLinetypeTableRecord
  2
HOT_WATER_SUPPLY
 70
     0
  3
Hot water supply ---- HW ---- HW ---- HW ----
 72
    65
 73
     3
 40
0.9
 49
0.5
 74
     0
 49
-0.2
 74
     2
 75
     0
340
55
 46
0.1
 50
0.0
 44
-0.1
 45
-0.05
  9
HW
 49
-0.2
 74
     0
  0
LTYPE
  5
B8
330
5
100
AcDbSymbolTableRecord
100
AcDbLinetypeTableRecord
  2
GAS_LINE
 70
     0
  3
Gas line ----GAS----GAS----GAS----GAS----GAS---
 72
    65
 73
     3
 40
0.95
 49
0.5
 74
     0
 49
-0.2
 74
     2
 75
     0
340
55
 46
0.1
 50
0.0
 44
-0.1
 45
-0.05
  9
GAS
 49
-0.25
 74
     0
  0
LTYPE
  5
B9
330
5
100
AcDbSymbolTableRecord
100
AcDbLinetypeTableRecord
  2
ZIGZAG
 70
     0
  3
Zig zag /\/\/\/\/\/\/\/\/\/\/\/\/\/\/\/\/\/\/\/
 72
    65
 73
     4
 40
0.8001000000000001
 49
0.0001
 74
     0
 49
-0.2
 74
     4
 75
   131
340
B2
 46
0.2
 50
0.0
 44
-0.2
 45
0.0
 49
-0.4
 74
     4
 75
   131
340
B2
 46
0.2
 50
180.0
 44
0.2
 45
0.0
 49
-0.2
 74
     0
  0
ENDTAB
  0
TABLE
  2
LAYER
  5
2
330
0
100
AcDbSymbolTable
 70
    27
  0
LAYER
  5
54
330
2
100
AcDbSymbolTableRecord
100
AcDbLayerTableRecord
  2
0
 70
     0
 62
     7
  6
Continuous
370
    18
390
F
347
21
  0
LAYER
  5
C0
330
2
100
AcDbSymbolTableRecord
100
AcDbLayerTableRecord
  2
Center Mark (ANSI)
 70
     0
 62
     7
  6
Continuous
370
    15
390
F
347
21
  0
LAYER
  5
C1
330
2
100
AcDbSymbolTableRecord
100
AcDbLayerTableRecord
  2
Centerline (ANSI)
 70
     0
 62
     7
  6
Continuous
370
    15
390
F
347
21
  0
LAYER
  5
C3
330
2
100
AcDbSymbolTableRecord
100
AcDbLayerTableRecord
  2
Dimension (ANSI)
 70
     0
 62
     7
  6
Continuous
370
    13
390
F
347
21
  0
LAYER
  5
C5
330
2
100
AcDbSymbolTableRecord
100
AcDbLayerTableRecord
  2
Hidden (ANSI)
 70
     0
 62
     7
  6
DASHED
370
    15
390
F
347
21
  0
LAYER
  5
CC
330
2
100
AcDbSymbolTableRecord
100
AcDbLayerTableRecord
  2
Symbol (ANSI)
 70
     0
 62
     7
  6
Continuous
370
    18
390
F
347
21
  0
LAYER
  5
CF
330
2
100
AcDbSymbolTableRecord
100
AcDbLayerTableRecord
  2
Visible (ANSI)
 70
     0
 62
     7
  6
Continuous
370
    13
390
F
347
21
  0
LAYER
  5
D0
330
2
100
AcDbSymbolTableRecord
100
AcDbLayerTableRecord
  2
Visible Narrow (ANSI)
 70
     0
 62
     7
  6
Continuous
370
    18
390
F
347
21
  0
LAYER
  5
532
330
2
100
AcDbSymbolTableRecord
100
AcDbLayerTableRecord
  2
Defpoints
 70
     0
 62
     7
  6
Continuous
290
     0
370
    -3
390
F
347
21
  0
ENDTAB
  0
TABLE
  2
STYLE
  5
3
330
0
100
AcDbSymbolTable
 70
    18
  0
STYLE
  5
55
330
3
100
AcDbSymbolTableRecord
100
AcDbTextStyleTableRecord
  2
Standard
 70
     0
 40
0.0
 41
1.0
 50
0.0
 71
     0
 42
0.2
  3
txt
  4

  0
STYLE
  5
5A
330
3
100
AcDbSymbolTableRecord
100
AcDbTextStyleTableRecord
  2
Annotative
 70
     0
 40
0.0
 41
1.0
 50
0.0
 71
     0
 42
0.2
  3
txt
  4

1001
AcadAnnotative
1000
AnnotativeData
1002
{
1070
     1
1070
     1
1002
}
  0
STYLE
  5
B2
330
3
100
AcDbSymbolTableRecord
100
AcDbTextStyleTableRecord
  2

 70
     1
 40
0.0
 41
1.0
 50
0.0
 71
     0
 42
0.2
  3
ltypeshp.shx
  4

  0
STYLE
  5
D4
330
3
100
AcDbSymbolTableRecord
100
AcDbTextStyleTableRecord
  2
ITALICC_120
 70
     0
 40
0.0
 41
1.0
 50
0.0
 71
     0
 42
0.2
  3
italicc.shx
  4

  0
STYLE
  5
D5
330
3
100
AcDbSymbolTableRecord
100
AcDbTextStyleTableRecord
  2
Label Text (ANSI)
 70
     0
 40
0.0
 41
1.0
 50
0.0
 71
     0
 42
0.2
  3
tahoma.ttf
  4

1001
ACAD
1000
Tahoma
1071
      256
  0
STYLE
  5
D6
330
3
100
AcDbSymbolTableRecord
100
AcDbTextStyleTableRecord
  2
Note Text (ANSI)
 70
     0
 40
0.0
 41
1.0
 50
0.0
 71
     0
 42
0.2
  3
tahoma.ttf
  4

1001
ACAD
1000
Tahoma
1071
      256
  0
STYLE
  5
D7
330
3
100
AcDbSymbolTableRecord
100
AcDbTextStyleTableRecord
  2
ROMANS
 70
     0
 40
0.0
 41
1.0
 50
0.0
 71
     0
 42
0.2
  3
romans.shx
  4

  0
STYLE
  5
D8
330
3
100
AcDbSymbolTableRecord
100
AcDbTextStyleTableRecord
  2
SANSSERIF_114
 70
     0
 40
0.0
 41
1.0
 50
0.0
 71
     0
 42
0.2
  3
tahoma.ttf
  4

1001
ACAD
1000
Tahoma
1071
      256
  0
STYLE
  5
D9
330
3
100
AcDbSymbolTableRecord
100
AcDbTextStyleTableRecord
  2
SANSSERIF_117
 70
     0
 40
0.0
 41
1.0
 50
0.0
 71
     0
 42
0.2
  3
tahoma.ttf
  4

1001
ACAD
1000
Tahoma
1071
      256
  0
STYLE
  5
DA
330
3
100
AcDbSymbolTableRecord
100
AcDbTextStyleTableRecord
  2
STANDARDAM_ANSI
 70
     0
 40
0.0
 41
1.0
 50
0.0
 71
     0
 42
0.2
  3
txt.shx
  4

  0
STYLE
  5
DB
330
3
100
AcDbSymbolTableRecord
100
AcDbTextStyleTableRecord
  2
StandardAM_ANSI$0
 70
     0
 40
0.0
 41
1.0
 50
0.0
 71
     0
 42
0.2
  3
txt.shx
  4

  0
STYLE
  5
DC
330
3
100
AcDbSymbolTableRecord
100
AcDbTextStyleTableRecord
  2
STANDARDAM_ANSI$3
 70
     0
 40
0.0
 41
1.0
 50
0.0
 71
     0
 42
0.2
  3
txt.shx
  4

  0
STYLE
  5
DD
330
3
100
AcDbSymbolTableRecord
100
AcDbTextStyleTableRecord
  2
STANDARDAM_ANSI$4
 70
     0
 40
0.0
 41
1.0
 50
0.0
 71
     0
 42
0.2
  3
txt.shx
  4

  0
STYLE
  5
DE
330
3
100
AcDbSymbolTableRecord
100
AcDbTextStyleTableRecord
  2
STANDARDAM_ANSI$7
 70
     0
 40
0.0
 41
1.0
 50
0.0
 71
     0
 42
0.2
  3
txt.shx
  4

  0
STYLE
  5
DF
330
3
100
AcDbSymbolTableRecord
100
AcDbTextStyleTableRecord
  2
STANDARDAM_ANSI$SF
 70
     0
 40
0.0
 41
1.0
 50
0.0
 71
     0
 42
0.2
  3
txt.shx
  4

  0
STYLE
  5
E0
330
3
100
AcDbSymbolTableRecord
100
AcDbTextStyleTableRecord
  2
STANDARDAM_ANSI$SH
 70
     0
 40
0.0
 41
1.0
 50
0.0
 71
     0
 42
0.2
  3
txt.shx
  4

  0
STYLE
  5
E1
330
3
100
AcDbSymbolTableRecord
100
AcDbTextStyleTableRecord
  2
STANDARDSTANDARD
 70
     0
 40
0.0
 41
1.0
 50
0.0
 71
     0
 42
0.2
  3
txt.shx
  4

  0
STYLE
  5
2DF
330
3
100
AcDbSymbolTableRecord
100
AcDbTextStyleTableRecord
  2
Text Style153
 70
     0
 40
0.0
 41
1.0
 50
0.0
 71
     0
 42
0.2
  3
tahoma.ttf
  4

1001
ACAD
1000
Tahoma
1071
      256
  0
ENDTAB
  0
TABLE
  2
VIEW
  5
6
330
0
100
AcDbSymbolTable
 70
     0
  0
ENDTAB
  0
TABLE
  2
UCS
  5
7
330
0
100
AcDbSymbolTable
 70
     0
  0
ENDTAB
  0
TABLE
  2
APPID
  5
9
330
0
100
AcDbSymbolTable
 70
     3
  0
APPID
  5
56
330
9
100
AcDbSymbolTableRecord
100
AcDbRegAppTableRecord
  2
ACAD
 70
     0
  0
APPID
  5
5E
330
9
100
AcDbSymbolTableRecord
100
AcDbRegAppTableRecord
  2
AcadAnnotative
 70
     0
  0
APPID
  5
B5E
330
9
100
AcDbSymbolTableRecord
100
AcDbRegAppTableRecord
  2
ACAD_DSTYLE_DIMRADIAL_EXTENSION
 70
     0
  0
ENDTAB
  0
TABLE
  2
DIMSTYLE
  5
A
330
0
100
AcDbSymbolTable
 70
    27
100
AcDbDimStyleTable
 71
     2
340
F6
340
58
  0
DIMSTYLE
105
58
330
A
100
AcDbSymbolTableRecord
100
AcDbDimStyleTableRecord
  2
STANDARD
 70
     0
 41
0.1800000071525573
 42
0.0625
140
0.1800000071525574
144
1.0
147
0.0900000035762787
176
   256
177
   256
178
   256
274
     3
340
55
371
    -1
372
    -1
  0
DIMSTYLE
105
59
330
A
100
AcDbSymbolTableRecord
100
AcDbDimStyleTableRecord
  2
Annotative
 70
     0
340
55
1001
AcadAnnotative
1000
AnnotativeData
1002
{
1070
     1
1070
     1
1002
}
  0
DIMSTYLE
105
E2
330
A
100
AcDbSymbolTableRecord
100
AcDbDimStyleTableRecord
  2
AM_ANSI
 70
     0
  4
 mm
 40
10.0
 41
0.119999997317791
 42
0.05
 43
0.5
 44
0.1
 45
0.00000001
 78
     4
 79
     2
140
0.1200000047683716
146
0.7099999189376831
147
0.0599999986588955
176
   256
177
   256
178
     2
284
     4
340
DA
371
    -1
372
    -1
  0
DIMSTYLE
105
E3
330
A
100
AcDbSymbolTableRecord
100
AcDbDimStyleTableRecord
  2
AM_ANSI$7
 70
     0
  4
 mm
 40
10.0
 41
0.119999997317791
 42
0.05
 43
0.5
 44
0.1
 45
0.00000001
 78
     4
 79
     2
140
0.1200000047683716
146
0.7099999189376831
147
0.0599999986588955
176
   256
177
   256
178
     2
284
     4
340
DA
371
    -1
372
    -1
  0
DIMSTYLE
105
E4
330
A
100
AcDbSymbolTableRecord
100
AcDbDimStyleTableRecord
  2
AM_ANSI$0
 70
     0
  4
 mm
 40
10.0
 41
0.119999997317791
 42
0.05
 43
0.5
 44
0.1
 45
0.00000001
 78
     4
 79
     2
140
0.1200000047683716
146
0.7099999189376831
147
0.0599999986588955
176
   256
177
   256
178
     2
284
     4
340
DB
371
    -1
372
    -1
  0
DIMSTYLE
105
E5
330
A
100
AcDbSymbolTableRecord
100
AcDbDimStyleTableRecord
  2
AM_ANSI$0$7
 70
     0
  4
 mm
 40
10.0
 41
0.119999997317791
 42
0.05
 43
0.5
 44
0.1
 45
0.00000001
 78
     4
 79
     2
140
0.1200000047683716
146
0.7099999189376831
147
0.0599999986588955
176
   256
177
   256
178
     2
284
     4
340
DB
371
    -1
372
    -1
  0
DIMSTYLE
105
E6
330
A
100
AcDbSymbolTableRecord
100
AcDbDimStyleTableRecord
  2
AM_ANSI$3
 70
     0
  4
 mm
 40
10.0
 41
0.119999997317791
 42
0.05
 43
0.5
 44
0.1
 45
0.00000001
 78
     4
 79
     2
140
0.1200000047683716
146
0.7099999189376831
147
0.0599999986588955
176
   256
177
   256
178
     2
284
     4
340
DC
371
    -1
372
    -1
  0
DIMSTYLE
105
E7
330
A
100
AcDbSymbolTableRecord
100
AcDbDimStyleTableRecord
  2
AM_ANSI$3$7
 70
     0
  4
 mm
 40
10.0
 41
0.119999997317791
 42
0.05
 43
0.5
 44
0.1
 45
0.00000001
 78
     4
 79
     2
140
0.1200000047683716
146
0.7099999189376831
147
0.0599999986588955
176
   256
177
   256
178
     2
284
     4
340
DC
371
    -1
372
    -1
  0
DIMSTYLE
105
E8
330
A
100
AcDbSymbolTableRecord
100
AcDbDimStyleTableRecord
  2
AM_ANSI$4
 70
     0
  4
 mm
 40
10.0
 41
0.119999997317791
 42
0.05
 43
0.5
 44
0.1
 45
0.00000001
 78
     4
 79
     2
140
0.1200000047683716
146
0.7099999189376831
147
0.0599999986588955
176
   256
177
   256
178
     2
284
     4
340
DD
371
    -1
372
    -1
  0
DIMSTYLE
105
E9
330
A
100
AcDbSymbolTableRecord
100
AcDbDimStyleTableRecord
  2
AM_ANSI$4$7
 70
     0
  4
 mm
 40
10.0
 41
0.119999997317791
 42
0.05
 43
0.5
 44
0.1
 45
0.00000001
 78
     4
 79
     2
140
0.1200000047683716
146
0.7099999189376831
147
0.0599999986588955
176
   256
177
   256
178
     2
284
     4
340
DD
371
    -1
372
    -1
  0
DIMSTYLE
105
EA
330
A
100
AcDbSymbolTableRecord
100
AcDbDimStyleTableRecord
  2
AM_ANSI$SF
 70
     0
  4
 mm
 40
10.0
 41
0.119999997317791
 42
0.05
 43
0.5
 44
0.1
 45
0.00000001
 75
     1
 76
     1
 78
     4
 79
     2
140
0.1200000047683716
146
0.7099999189376831
147
0.0599999986588955
176
   256
177
   256
178
     2
284
     4
340
DF
371
    -1
372
    -1
  0
DIMSTYLE
105
EB
330
A
100
AcDbSymbolTableRecord
100
AcDbDimStyleTableRecord
  2
AM_ANSI$SF$7
 70
     0
  4
 mm
 40
10.0
 41
0.119999997317791
 42
0.05
 43
0.5
 44
0.1
 45
0.00000001
 75
     1
 76
     1
 78
     4
 79
     2
140
0.1200000047683716
146
0.7099999189376831
147
0.0599999986588955
176
   256
177
   256
178
     2
284
     4
340
DF
371
    -1
372
    -1
  0
DIMSTYLE
105
EC
330
A
100
AcDbSymbolTableRecord
100
AcDbDimStyleTableRecord
  2
AM_ANSI$SH
 70
     0
  4
 mm
 40
10.0
 41
0.119999997317791
 42
0.05
 43
0.5
 44
0.1
 45
0.00000001
 75
     1
 76
     1
 78
     4
 79
     2
140
0.1200000047683716
146
0.7099999189376831
147
0.0599999986588955
176
   256
177
   256
178
     2
284
     4
340
E0
371
    -1
372
    -1
  0
DIMSTYLE
105
ED
330
A
100
AcDbSymbolTableRecord
100
AcDbDimStyleTableRecord
  2
AM_ANSI$SH$7
 70
     0
  4
 mm
 40
10.0
 41
0.119999997317791
 42
0.05
 43
0.5
 44
0.1
 45
0.00000001
 75
     1
 76
     1
 78
     4
 79
     2
140
0.1200000047683716
146
0.7099999189376831
147
0.0599999986588955
176
   256
177
   256
178
     2
284
     4
340
E0
371
    -1
372
    -1
  0
DIMSTYLE
105
EE
330
A
100
AcDbSymbolTableRecord
100
AcDbDimStyleTableRecord
  2
Architectural (ANSI)
 70
     0
 40
10.0
 41
0.0984251946210861
 43
0.2362204724409449
 44
0.125
 45
0.00000001
 46
0.3937007874015748
 78
     3
 79
     3
140
0.1200000047683716
147
0.031496062992126
171
     1
176
   256
177
   256
178
   256
272
     2
274
     1
276
     2
277
     4
284
    12
285
     4
286
    12
340
D6
371
    -1
372
    -1
  0
DIMSTYLE
105
EF
330
A
100
AcDbSymbolTableRecord
100
AcDbDimStyleTableRecord
  2
Architectural (ANSI)$7
 70
     0
 40
10.0
 41
0.0984251946210861
 43
0.2362204724409449
 44
0.125
 45
0.00000001
 46
0.3937007874015748
 78
     3
 79
     3
140
0.1200000047683716
147
0.031496062992126
171
     1
176
   256
177
   256
178
   256
272
     2
274
     1
276
     2
277
     4
284
    12
285
     4
286
    12
340
D6
371
    -1
372
    -1
  0
DIMSTYLE
105
F0
330
A
100
AcDbSymbolTableRecord
100
AcDbDimStyleTableRecord
  2
Default - Fraction (ANSI)
 70
     0
 40
10.0
 41
0.0984251946210861
 43
0.2362204724409449
 44
0.125
 45
0.00000001
 46
0.3937007874015748
 79
     3
140
0.1200000047683716
147
0.031496062992126
171
     1
176
   256
177
   256
178
   256
272
     2
274
     1
276
     2
277
     5
284
    12
285
     4
286
    12
340
D6
371
    -1
372
    -1
  0
DIMSTYLE
105
F1
330
A
100
AcDbSymbolTableRecord
100
AcDbDimStyleTableRecord
  2
Default - Fraction (ANSI)$7
 70
     0
 40
10.0
 41
0.0984251946210861
 43
0.2362204724409449
 44
0.125
 45
0.00000001
 46
0.3937007874015748
 79
     3
140
0.1200000047683716
147
0.031496062992126
171
     1
176
   256
177
   256
178
   256
272
     2
274
     1
276
     2
277
     5
284
    12
285
     4
286
    12
340
D6
371
    -1
372
    -1
  0
DIMSTYLE
105
F2
330
A
100
AcDbSymbolTableRecord
100
AcDbDimStyleTableRecord
  2
Default - mm (ANSI)
 70
     0
 40
10.0
 41
0.0984251946210861
 42
0.063
 43
0.2362204724409449
 44
0.125
 45
0.00000001
 46
0.3937007874015748
 73
     0
 78
     4
 79
     1
140
0.1200000047683716
143
1.0
144
25.4
147
0.031496062992126
171
     1
176
   256
177
   256
178
   256
179
     1
271
     2
272
     2
274
     1
284
     4
285
     4
340
D6
371
    -1
372
    -1
  0
DIMSTYLE
105
F3
330
A
100
AcDbSymbolTableRecord
100
AcDbDimStyleTableRecord
  2
Default - mm (ANSI)$7
 70
     0
 40
10.0
 41
0.0984251946210861
 42
0.063
 43
0.2362204724409449
 44
0.125
 45
0.00000001
 46
0.3937007874015748
 73
     0
 78
     4
 79
     1
140
0.1200000047683716
143
1.0
144
25.4
147
0.031496062992126
171
     1
176
   256
177
   256
178
   256
179
     1
271
     2
272
     2
274
     1
284
     4
285
     4
340
D6
371
    -1
372
    -1
  0
DIMSTYLE
105
F4
330
A
100
AcDbSymbolTableRecord
100
AcDbDimStyleTableRecord
  2
Default - mm [in] (ANSI)
 70
     0
  4
 in
 40
10.0
 41
0.0984251946210861
 42
0.063
 43
0.25
 44
0.125
 45
0.00000001
 46
0.3937007874015748
 73
     0
 78
     4
 79
     1
140
0.1200000047683716
143
0.03937
144
25.4
147
0.031496062992126
170
     1
171
     3
176
   256
177
   256
178
   256
179
     1
271
     2
272
     2
274
     3
284
     4
285
     4
286
     4
340
D6
371
    -1
372
    -1
  0
DIMSTYLE
105
F5
330
A
100
AcDbSymbolTableRecord
100
AcDbDimStyleTableRecord
  2
Default - mm [in] (ANSI)$7
 70
     0
  4
 in
 40
10.0
 41
0.0984251946210861
 42
0.063
 43
0.25
 44
0.125
 45
0.00000001
 46
0.3937007874015748
 73
     0
 78
     4
 79
     1
140
0.1200000047683716
143
0.03937
144
25.4
147
0.031496062992126
170
     1
171
     3
176
   256
177
   256
178
   256
179
     1
271
     2
272
     2
274
     3
284
     4
285
     4
286
     4
340
D6
371
    -1
372
    -1
  0
DIMSTYLE
105
F6
102
{ACAD_REACTORS
330
530
330
61C
330
706
330
7F0
330
8F0
330
9DA
330
AC4
330
B7F
330
C88
102
}
330
A
100
AcDbSymbolTableRecord
100
AcDbDimStyleTableRecord
  2
Default (ANSI)
 70
     0
 40
10.0
 41
0.0984251946210861
 43
0.2362204724409449
 44
0.125
 45
0.00000001
 46
0.3937007874015748
 79
     1
140
0.1200000047683716
147
0.031496062992126
171
     1
176
   256
177
   256
178
   256
271
     2
272
     2
274
     1
284
     4
285
     4
340
D6
371
    -1
372
    -1
  0
DIMSTYLE
105
F7
330
A
100
AcDbSymbolTableRecord
100
AcDbDimStyleTableRecord
  2
Default (ANSI)$7
 70
     0
 40
10.0
 41
0.0984251946210861
 43
0.2362204724409449
 44
0.125
 45
0.00000001
 46
0.3937007874015748
 79
     1
140
0.1200000047683716
147
0.031496062992126
171
     1
176
   256
177
   256
178
   256
271
     2
272
     2
274
     1
284
     4
285
     4
340
D6
371
    -1
372
    -1
  0
DIMSTYLE
105
F8
330
A
100
AcDbSymbolTableRecord
100
AcDbDimStyleTableRecord
  2
Alternate (ANSI)
 70
     0
 40
10.0
 41
0.0979999974370003
340
55
342
F9
  0
DIMSTYLE
105
10B
330
A
100
AcDbSymbolTableRecord
100
AcDbDimStyleTableRecord
  2
Datum (ANSI)
 70
     0
 40
10.0
 41
0.0979999974370003
340
55
342
F9
  0
DIMSTYLE
105
11A
330
A
100
AcDbSymbolTableRecord
100
AcDbDimStyleTableRecord
  2
Large (ANSI)
 70
     0
 40
10.0
 41
0.1959999948740005
340
55
342
F9
  0
ENDTAB
  0
TABLE
  2
BLOCK_RECORD
  5
1
330
0
100
AcDbSymbolTable
 70
    13
  0
BLOCK_RECORD
  5
6C
330
1
100
AcDbSymbolTableRecord
100
AcDbBlockTableRecord
  2
*Model_Space
340
6F
 70
     0
280
     1
281
     0
  0
BLOCK_RECORD
  5
68
330
1
100
AcDbSymbolTableRecord
100
AcDbBlockTableRecord
  2
*Paper_Space
340
6B
 70
     0
280
     1
281
     0
  0
BLOCK_RECORD
  5
70
330
1
100
AcDbSymbolTableRecord
100
AcDbBlockTableRecord
  2
*Paper_Space0
340
73
 70
     0
280
     1
281
     0
  0
BLOCK_RECORD
  5
F9
330
1
100
AcDbSymbolTableRecord
100
AcDbBlockTableRecord
  2
_Closed
340
0
 70
     0
280
     1
281
     0
  0
BLOCK_RECORD
  5
100
330
1
100
AcDbSymbolTableRecord
100
AcDbBlockTableRecord
  2
DatumFilled45
340
0
 70
     0
280
     1
281
     0
  0
BLOCK_RECORD
  5
10C
330
1
100
AcDbSymbolTableRecord
100
AcDbBlockTableRecord
  2
Filled-1
340
0
 70
     0
280
     1
281
     0
  0
BLOCK_RECORD
  5
533
330
1
100
AcDbSymbolTableRecord
100
AcDbBlockTableRecord
  2
*D4
340
0
 70
     0
280
     1
281
     0
  0
BLOCK_RECORD
  5
61D
330
1
100
AcDbSymbolTableRecord
100
AcDbBlockTableRecord
  2
*D5
340
0
 70
     0
280
     1
281
     0
  0
BLOCK_RECORD
  5
707
330
1
100
AcDbSymbolTableRecord
100
AcDbBlockTableRecord
  2
*D6
340
0
 70
     0
280
     1
281
     0
  0
BLOCK_RECORD
  5
7F1
330
1
100
AcDbSymbolTableRecord
100
AcDbBlockTableRecord
  2
*D7
340
0
 70
     0
280
     1
281
     0
  0
BLOCK_RECORD
  5
8F1
330
1
100
AcDbSymbolTableRecord
100
AcDbBlockTableRecord
  2
*D8
340
0
 70
     0
280
     1
281
     0
  0
BLOCK_RECORD
  5
9DB
330
1
100
AcDbSymbolTableRecord
100
AcDbBlockTableRecord
  2
*D9
340
0
 70
     0
280
     1
281
     0
  0
BLOCK_RECORD
  5
AC5
330
1
100
AcDbSymbolTableRecord
100
AcDbBlockTableRecord
  2
*D10
340
0
 70
     0
280
     1
281
     0
  0
BLOCK_RECORD
  5
B80
330
1
100
AcDbSymbolTableRecord
100
AcDbBlockTableRecord
  2
*D11
340
0
 70
     0
280
     1
281
     0
  0
BLOCK_RECORD
  5
C89
330
1
100
AcDbSymbolTableRecord
100
AcDbBlockTableRecord
  2
*D12
340
0
 70
     0
280
     1
281
     0
  0
ENDTAB
  0
ENDSEC
  0
SECTION
  2
BLOCKS
  0
BLOCK
  5
6D
330
6C
100
AcDbEntity
  8
0
100
AcDbBlockBegin
  2
*Model_Space
 70
     0
 10
0.0
 20
0.0
 30
0.0
  3
*Model_Space
  1

  0
ENDBLK
  5
6E
330
6C
100
AcDbEntity
  8
0
100
AcDbBlockEnd
  0
BLOCK
  5
69
330
68
100
AcDbEntity
 67
     1
  8
0
100
AcDbBlockBegin
  2
*Paper_Space
 70
     0
 10
0.0
 20
0.0
 30
0.0
  3
*Paper_Space
  1

  0
ENDBLK
  5
6A
330
68
100
AcDbEntity
 67
     1
  8
0
100
AcDbBlockEnd
  0
BLOCK
  5
71
330
70
100
AcDbEntity
 67
     1
  8
0
100
AcDbBlockBegin
  2
*Paper_Space0
 70
     0
 10
0.0
 20
0.0
 30
0.0
  3
*Paper_Space0
  1

  0
ENDBLK
  5
72
330
70
100
AcDbEntity
 67
     1
  8
0
100
AcDbBlockEnd
  0
BLOCK
  5
FE
330
F9
100
AcDbEntity
  8
0
100
AcDbBlockBegin
  2
_Closed
 70
     0
 10
0.0
 20
0.0
 30
0.0
  3
_Closed
  1

  0
LINE
  5
FA
330
F9
100
AcDbEntity
  8
0
  6
ByBlock
 62
     0
370
    -2
100
AcDbLine
 10
-1.0
 20
0.1666666666666666
 30
0.0
 11
0.0
 21
0.0
 31
0.0
  0
LINE
  5
FB
330
F9
100
AcDbEntity
  8
0
  6
ByBlock
 62
     0
370
    -2
100
AcDbLine
 10
0.0
 20
0.0
 30
0.0
 11
-1.0
 21
-0.1666666666666666
 31
0.0
  0
LINE
  5
FC
330
F9
100
AcDbEntity
  8
0
  6
ByBlock
 62
     0
370
    -2
100
AcDbLine
 10
-1.0
 20
0.1666666666666666
 30
0.0
 11
-1.0
 21
-0.1666666666666666
 31
0.0
  0
LINE
  5
FD
330
F9
100
AcDbEntity
  8
0
  6
ByBlock
 62
     0
370
    -2
100
AcDbLine
 10
0.0
 20
0.0
 30
0.0
 11
-1.0
 21
0.0
 31
0.0
  0
ENDBLK
  5
FF
330
F9
100
AcDbEntity
  8
0
100
AcDbBlockEnd
  0
BLOCK
  5
101
330
100
100
AcDbEntity
  8
0
100
AcDbBlockBegin
  2
DatumFilled45
 70
     0
 10
0.0
 20
0.0
 30
0.0
  3
DatumFilled45
  1

  0
POLYLINE
  5
103
330
100
100
AcDbEntity
  8
0
 62
     0
100
AcDb2dPolyline
 66
     1
 10
0.0
 20
0.0
 30
0.0
 70
   128
  0
VERTEX
  5
104
330
103
100
AcDbEntity
  8
0
 62
     0
100
AcDbVertex
100
AcDb2dVertex
 10
0.0
 20
0.9999999999999998
 30
0.0
  0
VERTEX
  5
105
330
103
100
AcDbEntity
  8
0
 62
     0
100
AcDbVertex
100
AcDb2dVertex
 10
0.0
 20
-0.9999999999999998
 30
0.0
  0
VERTEX
  5
107
330
103
100
AcDbEntity
  8
0
 62
     0
100
AcDbVertex
100
AcDb2dVertex
 10
-0.9999999999999998
 20
0.0
 30
0.0
  0
VERTEX
  5
108
330
103
100
AcDbEntity
  8
0
 62
     0
100
AcDbVertex
100
AcDb2dVertex
 10
0.0
 20
0.9999999999999998
 30
0.0
  0
SEQEND
  5
106
330
103
100
AcDbEntity
  8
0
 62
     0
  0
SOLID
  5
10A
330
100
100
AcDbEntity
  8
0
 62
     0
100
AcDbTrace
 10
0.0
 20
0.9999999999999998
 30
0.0
 11
0.0
 21
-0.9999999999999998
 31
0.0
 12
-0.9999999999999998
 22
0.0
 32
0.0
 13
0.0
 23
0.9999999999999998
 33
0.0
  0
ENDBLK
  5
102
330
100
100
AcDbEntity
  8
0
100
AcDbBlockEnd
  0
BLOCK
  5
10D
330
10C
100
AcDbEntity
  8
0
100
AcDbBlockBegin
  2
Filled-1
 70
     0
 10
0.0
 20
0.0
 30
0.0
  3
Filled-1
  1

  0
LINE
  5
10F
330
10C
100
AcDbEntity
  8
0
 62
     0
100
AcDbLine
 10
-0.9999999999999998
 20
0.0
 30
0.0
 11
0.0
 21
0.0
 31
0.0
  0
POLYLINE
  5
110
330
10C
100
AcDbEntity
  8
0
 62
     0
100
AcDb2dPolyline
 66
     1
 10
0.0
 20
0.0
 30
0.0
 70
   128
  0
VERTEX
  5
111
330
110
100
AcDbEntity
  8
0
 62
     0
100
AcDbVertex
100
AcDb2dVertex
 10
-0.9999999999999998
 20
-0.0994897959183674
 30
0.0
  0
VERTEX
  5
112
330
110
100
AcDbEntity
  8
0
 62
     0
100
AcDbVertex
100
AcDb2dVertex
 10
0.0
 20
0.0
 30
0.0
  0
VERTEX
  5
114
330
110
100
AcDbEntity
  8
0
 62
     0
100
AcDbVertex
100
AcDb2dVertex
 10
-0.9999999999999998
 20
0.0994897959183674
 30
0.0
  0
VERTEX
  5
115
330
110
100
AcDbEntity
  8
0
 62
     0
100
AcDbVertex
100
AcDb2dVertex
 10
-0.9999999999999998
 20
-0.0994897959183674
 30
0.0
  0
SEQEND
  5
113
330
110
100
AcDbEntity
  8
0
 62
     0
  0
SOLID
  5
116
330
10C
100
AcDbEntity
  8
0
 62
     0
100
AcDbTrace
 10
-0.9999999999999998
 20
-0.0994897959183674
 30
0.0
 11
0.0
 21
0.0
 31
0.0
 12
-0.9999999999999998
 22
0.0994897959183674
 32
0.0
 13
-0.9999999999999998
 23
-0.0994897959183674
 33
0.0
  0
LINE
  5
117
330
10C
100
AcDbEntity
  8
0
 62
     0
100
AcDbLine
 10
-0.9999999999999998
 20
-0.0994897959183674
 30
0.0
 11
0.0
 21
0.0
 31
0.0
  0
LINE
  5
118
330
10C
100
AcDbEntity
  8
0
 62
     0
100
AcDbLine
 10
0.0
 20
0.0
 30
0.0
 11
-0.9999999999999998
 21
0.0994897959183674
 31
0.0
  0
LINE
  5
119
330
10C
100
AcDbEntity
  8
0
 62
     0
100
AcDbLine
 10
-0.9999999999999998
 20
0.0994897959183674
 30
0.0
 11
-0.9999999999999998
 21
-0.0994897959183674
 31
0.0
  0
ENDBLK
  5
10E
330
10C
100
AcDbEntity
  8
0
100
AcDbBlockEnd
  0
BLOCK
  5
534
330
533
100
AcDbEntity
  8
0
100
AcDbBlockBegin
  2
*D4
 70
     1
 10
0.0
 20
0.0
 30
0.0
  3
*D4
  1

  0
LINE
  5
612
330
533
100
AcDbEntity
  8
Dimension (ANSI)
440
 16777216
100
AcDbLine
 10
32.13226030152919
 20
70.37895742960275
 30
0.0
 11
32.13226030152919
 21
79.66537475243739
 31
0.0
  0
LINE
  5
613
330
533
100
AcDbEntity
  8
Dimension (ANSI)
440
 16777216
100
AcDbLine
 10
52.13226030152918
 20
70.37895742960273
 30
0.0
 11
52.13226030152918
 21
79.66537475243739
 31
0.0
  0
LINE
  5
614
330
533
100
AcDbEntity
  8
Dimension (ANSI)
440
 16777216
100
AcDbLine
 10
33.11651224774005
 20
78.41537475243739
 30
0.0
 11
39.84282008945238
 21
78.41537475243739
 31
0.0
  0
LINE
  5
615
330
533
100
AcDbEntity
  8
Dimension (ANSI)
440
 16777216
100
AcDbLine
 10
51.14800835531832
 20
78.41537475243739
 30
0.0
 11
44.421700513606
 21
78.41537475243739
 31
0.0
  0
SOLID
  5
616
330
533
100
AcDbEntity
  8
Dimension (ANSI)
440
 16777216
100
AcDbTrace
 10
33.11651224774005
 20
78.57941674347253
 30
0.0
 11
33.11651224774005
 21
78.25133276140224
 31
0.0
 12
32.13226030152919
 22
78.41537475243739
 32
0.0
 13
32.13226030152919
 23
78.41537475243739
 33
0.0
  0
SOLID
  5
617
330
533
100
AcDbEntity
  8
Dimension (ANSI)
440
 16777216
100
AcDbTrace
 10
51.14800835531832
 20
78.57941674347253
 30
0.0
 11
51.14800835531832
 21
78.25133276140224
 31
0.0
 12
52.13226030152918
 22
78.41537475243739
 32
0.0
 13
52.13226030152918
 23
78.41537475243739
 33
0.0
  0
MTEXT
  5
618
330
533
100
AcDbEntity
  8
Dimension (ANSI)
440
 16777216
100
AcDbMText
 10
40.15778071937363
 20
79.04035798344214
 30
0.0
 40
1.200000047683715
 41
0.0
 46
0.0
 71
     1
 72
     1
  1
\A1;20.00
  7
Note Text (ANSI)
 73
     1
 44
1.0
  0
POINT
  5
619
330
533
100
AcDbEntity
  8
Defpoints
 62
     0
440
 16777216
100
AcDbPoint
 10
32.13226030152919
 20
69.75395742960275
 30
0.0
  0
POINT
  5
61A
330
533
100
AcDbEntity
  8
Defpoints
 62
     0
440
 16777216
100
AcDbPoint
 10
52.13226030152918
 20
69.75395742960273
 30
0.0
  0
POINT
  5
61B
330
533
100
AcDbEntity
  8
Defpoints
 62
     0
440
 16777216
100
AcDbPoint
 10
52.13226030152918
 20
78.41537475243739
 30
0.0
  0
ENDBLK
  5
535
330
533
100
AcDbEntity
  8
0
100
AcDbBlockEnd
  0
BLOCK
  5
61E
330
61D
100
AcDbEntity
  8
0
100
AcDbBlockBegin
  2
*D5
 70
     1
 10
0.0
 20
0.0
 30
0.0
  3
*D5
  1

  0
LINE
  5
6FC
330
61D
100
AcDbEntity
  8
Dimension (ANSI)
440
 16777216
100
AcDbLine
 10
32.13226030152919
 20
70.37895742960275
 30
0.0
 11
32.13226030152919
 21
75.75750656435475
 31
0.0
  0
LINE
  5
6FD
330
61D
100
AcDbEntity
  8
Dimension (ANSI)
440
 16777216
100
AcDbLine
 10
33.00726030152919
 20
71.195498690339
 30
0.0
 11
33.00726030152919
 21
75.75750656435475
 31
0.0
  0
LINE
  5
6FE
330
61D
100
AcDbEntity
  8
Dimension (ANSI)
440
 16777216
100
AcDbLine
 10
33.99151224774005
 20
74.50750656435475
 30
0.0
 11
34.97576419395091
 21
74.50750656435475
 31
0.0
  0
LINE
  5
6FF
330
61D
100
AcDbEntity
  8
Dimension (ANSI)
440
 16777216
100
AcDbLine
 10
31.14800835531833
 20
74.50750656435475
 30
0.0
 11
29.65519401241781
 21
74.50750656435475
 31
0.0
  0
SOLID
  5
700
330
61D
100
AcDbEntity
  8
Dimension (ANSI)
440
 16777216
100
AcDbTrace
 10
33.99151224774005
 20
74.6715485553899
 30
0.0
 11
33.99151224774005
 21
74.34346457331961
 31
0.0
 12
33.00726030152919
 22
74.50750656435475
 32
0.0
 13
33.00726030152919
 23
74.50750656435475
 33
0.0
  0
SOLID
  5
701
330
61D
100
AcDbEntity
  8
Dimension (ANSI)
440
 16777216
100
AcDbTrace
 10
31.14800835531833
 20
74.6715485553899
 30
0.0
 11
31.14800835531833
 21
74.34346457331961
 31
0.0
 12
32.13226030152919
 22
74.50750656435475
 32
0.0
 13
32.13226030152919
 23
74.50750656435475
 33
0.0
  0
MTEXT
  5
702
330
61D
100
AcDbEntity
  8
Dimension (ANSI)
440
 16777216
100
AcDbMText
 10
26.26407478450156
 20
75.13490752546011
 30
0.0
 40
1.200000047683715
 41
0.0
 46
0.0
 71
     1
 72
     1
  1
\A1;0.88
  7
Note Text (ANSI)
 73
     1
 44
1.0
  0
POINT
  5
703
330
61D
100
AcDbEntity
  8
Defpoints
 62
     0
440
 16777216
100
AcDbPoint
 10
32.13226030152919
 20
69.75395742960275
 30
0.0
  0
POINT
  5
704
330
61D
100
AcDbEntity
  8
Defpoints
 62
     0
440
 16777216
100
AcDbPoint
 10
33.00726030152919
 20
70.570498690339
 30
0.0
  0
POINT
  5
705
330
61D
100
AcDbEntity
  8
Defpoints
 62
     0
440
 16777216
100
AcDbPoint
 10
33.00726030152919
 20
74.50750656435475
 30
0.0
  0
ENDBLK
  5
61F
330
61D
100
AcDbEntity
  8
0
100
AcDbBlockEnd
  0
BLOCK
  5
708
330
707
100
AcDbEntity
  8
0
100
AcDbBlockBegin
  2
*D6
 70
     1
 10
0.0
 20
0.0
 30
0.0
  3
*D6
  1

  0
LINE
  5
7E6
330
707
100
AcDbEntity
  8
Dimension (ANSI)
440
 16777216
100
AcDbLine
 10
33.00726030152919
 20
71.195498690339
 30
0.0
 11
33.00726030152919
 21
75.75750656435475
 31
0.0
  0
LINE
  5
7E7
330
707
100
AcDbEntity
  8
Dimension (ANSI)
440
 16777216
100
AcDbLine
 10
51.25726030152918
 20
71.195498690339
 30
0.0
 11
51.25726030152918
 21
75.75750656435475
 31
0.0
  0
LINE
  5
7E8
330
707
100
AcDbEntity
  8
Dimension (ANSI)
440
 16777216
100
AcDbLine
 10
33.99151224774005
 20
74.50750656435475
 30
0.0
 11
39.89963674681644
 21
74.50750656435475
 31
0.0
  0
LINE
  5
7E9
330
707
100
AcDbEntity
  8
Dimension (ANSI)
440
 16777216
100
AcDbLine
 10
50.27300835531832
 20
74.50750656435475
 30
0.0
 11
44.36488385624193
 21
74.50750656435475
 31
0.0
  0
SOLID
  5
7EA
330
707
100
AcDbEntity
  8
Dimension (ANSI)
440
 16777216
100
AcDbTrace
 10
33.99151224774005
 20
74.6715485553899
 30
0.0
 11
33.99151224774005
 21
74.34346457331961
 31
0.0
 12
33.00726030152919
 22
74.50750656435475
 32
0.0
 13
33.00726030152919
 23
74.50750656435475
 33
0.0
  0
SOLID
  5
7EB
330
707
100
AcDbEntity
  8
Dimension (ANSI)
440
 16777216
100
AcDbTrace
 10
50.27300835531832
 20
74.6715485553899
 30
0.0
 11
50.27300835531832
 21
74.34346457331961
 31
0.0
 12
51.25726030152918
 22
74.50750656435475
 32
0.0
 13
51.25726030152918
 23
74.50750656435475
 33
0.0
  0
MTEXT
  5
7EC
330
707
100
AcDbEntity
  8
Dimension (ANSI)
440
 16777216
100
AcDbMText
 10
40.2145973767377
 20
75.13490752546011
 30
0.0
 40
1.200000047683715
 41
0.0
 46
0.0
 71
     1
 72
     1
  1
\A1;18.25
  7
Note Text (ANSI)
 73
     1
 44
1.0
  0
POINT
  5
7ED
330
707
100
AcDbEntity
  8
Defpoints
 62
     0
440
 16777216
100
AcDbPoint
 10
33.00726030152919
 20
70.570498690339
 30
0.0
  0
POINT
  5
7EE
330
707
100
AcDbEntity
  8
Defpoints
 62
     0
440
 16777216
100
AcDbPoint
 10
51.25726030152918
 20
70.570498690339
 30
0.0
  0
POINT
  5
7EF
330
707
100
AcDbEntity
  8
Defpoints
 62
     0
440
 16777216
100
AcDbPoint
 10
51.25726030152918
 20
74.50750656435475
 30
0.0
  0
ENDBLK
  5
709
330
707
100
AcDbEntity
  8
0
100
AcDbBlockEnd
  0
BLOCK
  5
7F2
330
7F1
100
AcDbEntity
  8
0
100
AcDbBlockBegin
  2
*D7
 70
     1
 10
0.0
 20
0.0
 30
0.0
  3
*D7
  1

  0
LINE
  5
8E5
330
7F1
100
AcDbEntity
  8
Dimension (ANSI)
440
 16777216
100
AcDbLine
 10
31.66730156226543
 20
30.03399869033899
 30
0.0
 11
29.12604430264305
 21
30.03399869033899
 31
0.0
  0
LINE
  5
8E6
330
7F1
100
AcDbEntity
  8
Dimension (ANSI)
440
 16777216
100
AcDbLine
 10
30.85076030152917
 20
30.90899869033899
 30
0.0
 11
29.12604430264305
 21
30.90899869033899
 31
0.0
  0
LINE
  5
8E7
330
7F1
100
AcDbEntity
  8
Dimension (ANSI)
440
 16777216
100
AcDbLine
 10
30.37604430264305
 20
31.89325063654985
 30
0.0
 11
30.37604430264305
 21
32.87750258276072
 31
0.0
  0
LINE
  5
8E8
330
7F1
100
AcDbEntity
  8
Dimension (ANSI)
440
 16777216
100
AcDbLine
 10
30.37604430264305
 20
29.04974674412813
 30
0.0
 11
30.37604430264305
 21
27.16402203151759
 31
0.0
  0
LINE
  5
8E9
330
7F1
100
AcDbEntity
  8
Dimension (ANSI)
440
 16777216
100
AcDbLine
 10
30.37604430264305
 20
27.16402203151759
 30
0.0
 11
29.39179235643219
 21
27.16402203151759
 31
0.0
  0
SOLID
  5
8EA
330
7F1
100
AcDbEntity
  8
Dimension (ANSI)
440
 16777216
100
AcDbTrace
 10
30.2120023116079
 20
31.89325063654985
 30
0.0
 11
30.5400862936782
 21
31.89325063654985
 31
0.0
 12
30.37604430264305
 22
30.90899869033899
 32
0.0
 13
30.37604430264305
 23
30.90899869033899
 33
0.0
  0
SOLID
  5
8EB
330
7F1
100
AcDbEntity
  8
Dimension (ANSI)
440
 16777216
100
AcDbTrace
 10
30.2120023116079
 20
29.04974674412813
 30
0.0
 11
30.5400862936782
 21
29.04974674412813
 31
0.0
 12
30.37604430264305
 22
30.03399869033899
 32
0.0
 13
30.37604430264305
 23
30.03399869033899
 33
0.0
  0
MTEXT
  5
8EC
330
7F1
100
AcDbEntity
  8
Dimension (ANSI)
440
 16777216
100
AcDbMText
 10
26.00067312851593
 20
27.79142299262294
 30
0.0
 40
1.200000047683715
 41
0.0
 46
0.0
 71
     1
 72
     1
  1
\A1;0.88
  7
Note Text (ANSI)
 73
     1
 44
1.0
  0
POINT
  5
8ED
330
7F1
100
AcDbEntity
  8
Defpoints
 62
     0
440
 16777216
100
AcDbPoint
 10
32.29230156226543
 20
30.03399869033899
 30
0.0
  0
POINT
  5
8EE
330
7F1
100
AcDbEntity
  8
Defpoints
 62
     0
440
 16777216
100
AcDbPoint
 10
31.47576030152917
 20
30.90899869033899
 30
0.0
  0
POINT
  5
8EF
330
7F1
100
AcDbEntity
  8
Defpoints
 62
     0
440
 16777216
100
AcDbPoint
 10
30.37604430264305
 20
30.90899869033899
 30
0.0
  0
ENDBLK
  5
7F3
330
7F1
100
AcDbEntity
  8
0
100
AcDbBlockEnd
  0
BLOCK
  5
8F2
330
8F1
100
AcDbEntity
  8
0
100
AcDbBlockBegin
  2
*D8
 70
     1
 10
0.0
 20
0.0
 30
0.0
  3
*D8
  1

  0
LINE
  5
9D0
330
8F1
100
AcDbEntity
  8
Dimension (ANSI)
440
 16777216
100
AcDbLine
 10
30.85076030152917
 20
30.90899869033899
 30
0.0
 11
26.28875242751344
 21
30.90899869033899
 31
0.0
  0
LINE
  5
9D1
330
8F1
100
AcDbEntity
  8
Dimension (ANSI)
440
 16777216
100
AcDbLine
 10
30.85076030152918
 20
69.03899869033901
 30
0.0
 11
26.28875242751345
 21
69.03899869033901
 31
0.0
  0
LINE
  5
9D2
330
8F1
100
AcDbEntity
  8
Dimension (ANSI)
440
 16777216
100
AcDbLine
 10
27.53875242751344
 20
31.89325063654985
 30
0.0
 11
27.53875242751344
 21
49.03163709931238
 31
0.0
  0
LINE
  5
9D3
330
8F1
100
AcDbEntity
  8
Dimension (ANSI)
440
 16777216
100
AcDbLine
 10
27.53875242751345
 20
68.05474674412815
 30
0.0
 11
27.53875242751344
 21
50.91636028136559
 31
0.0
  0
SOLID
  5
9D4
330
8F1
100
AcDbEntity
  8
Dimension (ANSI)
440
 16777216
100
AcDbTrace
 10
27.3747104364783
 20
31.89325063654985
 30
0.0
 11
27.70279441854858
 21
31.89325063654985
 31
0.0
 12
27.53875242751344
 22
30.90899869033899
 32
0.0
 13
27.53875242751344
 23
30.90899869033899
 33
0.0
  0
SOLID
  5
9D5
330
8F1
100
AcDbEntity
  8
Dimension (ANSI)
440
 16777216
100
AcDbTrace
 10
27.3747104364783
 20
68.05474674412815
 30
0.0
 11
27.70279441854859
 21
68.05474674412815
 31
0.0
 12
27.53875242751345
 22
69.03899869033901
 32
0.0
 13
27.53875242751345
 23
69.03899869033901
 33
0.0
  0
MTEXT
  5
9D6
330
8F1
100
AcDbEntity
  8
Dimension (ANSI)
440
 16777216
100
AcDbMText
 10
25.57273490070998
 20
50.60139965144434
 30
0.0
 40
1.200000047683715
 41
0.0
 46
0.0
 71
     1
 72
     1
  1
\A1;38.13
  7
Note Text (ANSI)
 73
     1
 44
1.0
  0
POINT
  5
9D7
330
8F1
100
AcDbEntity
  8
Defpoints
 62
     0
440
 16777216
100
AcDbPoint
 10
31.47576030152917
 20
30.90899869033899
 30
0.0
  0
POINT
  5
9D8
330
8F1
100
AcDbEntity
  8
Defpoints
 62
     0
440
 16777216
100
AcDbPoint
 10
31.47576030152918
 20
69.03899869033901
 30
0.0
  0
POINT
  5
9D9
330
8F1
100
AcDbEntity
  8
Defpoints
 62
     0
440
 16777216
100
AcDbPoint
 10
27.53875242751345
 20
69.03899869033901
 30
0.0
  0
ENDBLK
  5
8F3
330
8F1
100
AcDbEntity
  8
0
100
AcDbBlockEnd
  0
BLOCK
  5
9DC
330
9DB
100
AcDbEntity
  8
0
100
AcDbBlockBegin
  2
*D9
 70
     1
 10
0.0
 20
0.0
 30
0.0
  3
*D9
  1

  0
LINE
  5
ABA
330
9DB
100
AcDbEntity
  8
Dimension (ANSI)
440
 16777216
100
AcDbLine
 10
31.66730156226543
 20
30.03399869033899
 30
0.0
 11
20.01867951502134
 21
30.033998690339
 31
0.0
  0
LINE
  5
ABB
330
9DB
100
AcDbEntity
  8
Dimension (ANSI)
440
 16777216
100
AcDbLine
 10
31.66730156226542
 20
69.91399869033902
 30
0.0
 11
20.01867951502135
 21
69.91399869033902
 31
0.0
  0
LINE
  5
ABC
330
9DB
100
AcDbEntity
  8
Dimension (ANSI)
440
 16777216
100
AcDbLine
 10
21.26867951502134
 20
31.01825063654986
 30
0.0
 11
21.26867951502135
 21
49.03163709931238
 31
0.0
  0
LINE
  5
ABD
330
9DB
100
AcDbEntity
  8
Dimension (ANSI)
440
 16777216
100
AcDbLine
 10
21.26867951502135
 20
68.92974674412816
 30
0.0
 11
21.26867951502135
 21
50.91636028136559
 31
0.0
  0
SOLID
  5
ABE
330
9DB
100
AcDbEntity
  8
Dimension (ANSI)
440
 16777216
100
AcDbTrace
 10
21.1046375239862
 20
31.01825063654986
 30
0.0
 11
21.43272150605649
 21
31.01825063654986
 31
0.0
 12
21.26867951502134
 22
30.033998690339
 32
0.0
 13
21.26867951502134
 23
30.033998690339
 33
0.0
  0
SOLID
  5
ABF
330
9DB
100
AcDbEntity
  8
Dimension (ANSI)
440
 16777216
100
AcDbTrace
 10
21.1046375239862
 20
68.92974674412816
 30
0.0
 11
21.4327215060565
 21
68.92974674412816
 31
0.0
 12
21.26867951502135
 22
69.91399869033902
 32
0.0
 13
21.26867951502135
 23
69.91399869033902
 33
0.0
  0
MTEXT
  5
AC0
330
9DB
100
AcDbEntity
  8
Dimension (ANSI)
440
 16777216
100
AcDbMText
 10
19.28573787751369
 20
50.60139965144434
 30
0.0
 40
1.200000047683715
 41
0.0
 46
0.0
 71
     1
 72
     1
  1
\A1;39.88
  7
Note Text (ANSI)
 73
     1
 44
1.0
  0
POINT
  5
AC1
330
9DB
100
AcDbEntity
  8
Defpoints
 62
     0
440
 16777216
100
AcDbPoint
 10
32.29230156226543
 20
30.03399869033899
 30
0.0
  0
POINT
  5
AC2
330
9DB
100
AcDbEntity
  8
Defpoints
 62
     0
440
 16777216
100
AcDbPoint
 10
32.29230156226542
 20
69.91399869033902
 30
0.0
  0
POINT
  5
AC3
330
9DB
100
AcDbEntity
  8
Defpoints
 62
     0
440
 16777216
100
AcDbPoint
 10
21.26867951502135
 20
69.91399869033902
 30
0.0
  0
ENDBLK
  5
9DD
330
9DB
100
AcDbEntity
  8
0
100
AcDbBlockEnd
  0
BLOCK
  5
AC6
330
AC5
100
AcDbEntity
  8
0
100
AcDbBlockBegin
  2
*D10
 70
     1
 10
0.0
 20
0.0
 30
0.0
  3
*D10
  1

  0
LINE
  5
B77
330
AC5
100
AcDbEntity
  8
Dimension (ANSI)
440
 16777216
100
AcDbLine
 10
54.8445091630627
 20
27.92167832019075
 30
0.0
 11
53.56323393893825
 21
27.92167832019075
 31
0.0
  0
LINE
  5
B78
330
AC5
100
AcDbEntity
  8
Dimension (ANSI)
440
 16777216
100
AcDbLine
 10
53.56323393893825
 20
27.92167832019075
 30
0.0
 11
52.03069488889532
 21
29.90703714995815
 31
0.0
  0
MTEXT
  5
B79
330
AC5
100
AcDbEntity
  8
Dimension (ANSI)
440
 16777216
100
AcDbMText
 10
55.15946979298397
 20
27.92167832019075
 30
0.0
 40
1.200000047683715
 41
0.0
 46
0.0
 71
     4
 72
     1
  1
\A1;∅0.563{\P(4 PL.)}
  7
Note Text (ANSI)
 73
     1
 44
1.0
  0
SOLID
  5
B7A
330
AC5
100
AcDbEntity
  8
Dimension (ANSI)
440
 16777216
100
AcDbTrace
 10
52.1605495310444
 20
30.007274601717
 30
0.0
 11
51.90084024674624
 21
29.80679969819929
 31
0.0
 12
51.42927017834222
 22
30.68616500285264
 32
0.0
 13
51.42927017834222
 23
30.68616500285264
 33
0.0
  0
LINE
  5
B7B
330
AC5
100
AcDbEntity
  8
Dimension (ANSI)
440
 16777216
100
AcDbLine
 10
50.3572603015292
 20
30.90899869033901
 30
0.0
 11
52.1572603015292
 21
30.90899869033901
 31
0.0
  0
LINE
  5
B7C
330
AC5
100
AcDbEntity
  8
Dimension (ANSI)
440
 16777216
100
AcDbLine
 10
51.2572603015292
 20
30.00899869033901
 30
0.0
 11
51.25726030152921
 21
31.808998690339
 31
0.0
  0
POINT
  5
B7D
330
AC5
100
AcDbEntity
  8
Defpoints
 62
     0
440
 16777216
100
AcDbPoint
 10
51.42927017834222
 20
30.68616500285264
 30
0.0
  0
POINT
  5
B7E
330
AC5
100
AcDbEntity
  8
Defpoints
 62
     0
440
 16777216
100
AcDbPoint
 10
51.08525042471619
 20
31.13183237782538
 30
0.0
  0
ENDBLK
  5
AC7
330
AC5
100
AcDbEntity
  8
0
100
AcDbBlockEnd
  0
BLOCK
  5
B81
330
B80
100
AcDbEntity
  8
0
100
AcDbBlockBegin
  2
*D11
 70
     1
 10
0.0
 20
0.0
 30
0.0
  3
*D11
  1

  0
LINE
  5
C7F
330
B80
100
AcDbEntity
  8
Dimension (ANSI)
440
 16777216
100
AcDbLine
 10
46.72733390268247
 20
89.62279322282016
 30
0.0
 11
46.72733390268247
 21
88.6385412766093
 31
0.0
  0
LINE
  5
C80
330
B80
100
AcDbEntity
  8
Dimension (ANSI)
440
 16777216
100
AcDbLine
 10
46.72733390268247
 20
92.46629711524191
 30
0.0
 11
46.72733390268247
 21
95.70202184453703
 31
0.0
  0
LINE
  5
C81
330
B80
100
AcDbEntity
  8
Dimension (ANSI)
440
 16777216
100
AcDbLine
 10
46.72733390268247
 20
95.70202184453703
 30
0.0
 11
47.71158584889334
 21
95.70202184453703
 31
0.0
  0
SOLID
  5
C82
330
B80
100
AcDbEntity
  8
Dimension (ANSI)
440
 16777216
100
AcDbTrace
 10
46.56329191164733
 20
89.62279322282016
 30
0.0
 11
46.89137589371761
 21
89.62279322282016
 31
0.0
 12
46.72733390268247
 22
90.60704516903102
 32
0.0
 13
46.72733390268247
 23
90.60704516903102
 33
0.0
  0
SOLID
  5
C83
330
B80
100
AcDbEntity
  8
Dimension (ANSI)
440
 16777216
100
AcDbTrace
 10
46.56329191164733
 20
92.46629711524191
 30
0.0
 11
46.89137589371761
 21
92.46629711524191
 31
0.0
 12
46.72733390268247
 22
91.48204516903104
 32
0.0
 13
46.72733390268247
 23
91.48204516903104
 33
0.0
  0
MTEXT
  5
C84
330
B80
100
AcDbEntity
  8
Dimension (ANSI)
440
 16777216
100
AcDbMText
 10
49.61177151477375
 20
95.70202184453703
 30
0.0
 40
1.200000047683715
 41
0.0
 46
0.0
 71
     5
 72
     1
  1
\A1;0.88{\PTYP.}
  7
Note Text (ANSI)
 73
     1
 44
1.0
  0
POINT
  5
C85
330
B80
100
AcDbEntity
  8
Defpoints
 62
     0
440
 16777216
100
AcDbPoint
 10
49.61177151477375
 20
91.48204516903104
 30
0.0
  0
POINT
  5
C86
330
B80
100
AcDbEntity
  8
Defpoints
 62
     0
440
 16777216
100
AcDbPoint
 10
49.61177151477375
 20
90.60704516903102
 30
0.0
  0
POINT
  5
C87
330
B80
100
AcDbEntity
  8
Defpoints
 62
     0
440
 16777216
100
AcDbPoint
 10
46.72733390268247
 20
90.60704516903102
 30
0.0
  0
ENDBLK
  5
B82
330
B80
100
AcDbEntity
  8
0
100
AcDbBlockEnd
  0
BLOCK
  5
C8A
330
C89
100
AcDbEntity
  8
0
100
AcDbBlockBegin
  2
*D12
 70
     1
 10
0.0
 20
0.0
 30
0.0
  3
*D12
  1

  0
LINE
  5
D6F
330
C89
100
AcDbEntity
  8
Dimension (ANSI)
440
 16777216
100
AcDbLine
 10
83.08640730566445
 20
67.88822975786425
 30
0.0
 11
82.10215535945359
 21
67.88822975786425
 31
0.0
  0
LINE
  5
D70
330
C89
100
AcDbEntity
  8
Dimension (ANSI)
440
 16777216
100
AcDbLine
 10
85.92991119808621
 20
67.88822975786425
 30
0.0
 11
87.46820542200598
 21
67.88822975786425
 31
0.0
  0
SOLID
  5
D71
330
C89
100
AcDbEntity
  8
Dimension (ANSI)
440
 16777216
100
AcDbTrace
 10
83.08640730566445
 20
68.0522717488994
 30
0.0
 11
83.08640730566445
 21
67.7241877668291
 31
0.0
 12
84.07065925187531
 22
67.88822975786425
 32
0.0
 13
84.07065925187531
 23
67.88822975786425
 33
0.0
  0
SOLID
  5
D72
330
C89
100
AcDbEntity
  8
Dimension (ANSI)
440
 16777216
100
AcDbTrace
 10
85.92991119808621
 20
68.0522717488994
 30
0.0
 11
85.92991119808621
 21
67.7241877668291
 31
0.0
 12
84.94565925187535
 22
67.88822975786425
 32
0.0
 13
84.94565925187535
 23
67.88822975786425
 33
0.0
  0
MTEXT
  5
D73
330
C89
100
AcDbEntity
  8
Dimension (ANSI)
440
 16777216
100
AcDbMText
 10
87.78316605192724
 20
67.88822975786425
 30
0.0
 40
1.200000047683715
 41
0.0
 46
0.0
 71
     4
 72
     1
  1
\A1;0.88{\PTYP.}
  7
Note Text (ANSI)
 73
     1
 44
1.0
  0
POINT
  5
D74
330
C89
100
AcDbEntity
  8
Defpoints
 62
     0
440
 16777216
100
AcDbPoint
 10
84.94565925187535
 20
67.88822975786425
 30
0.0
  0
POINT
  5
D75
330
C89
100
AcDbEntity
  8
Defpoints
 62
     0
440
 16777216
100
AcDbPoint
 10
84.07065925187531
 20
67.89362654348574
 30
0.0
  0
POINT
  5
D76
330
C89
100
AcDbEntity
  8
Defpoints
 62
     0
440
 16777216
100
AcDbPoint
 10
84.07065925187531
 20
67.88822975786425
 30
0.0
  0
ENDBLK
  5
C8B
330
C89
100
AcDbEntity
  8
0
100
AcDbBlockEnd
  0
ENDSEC
  0
SECTION
  2
ENTITIES
  0
CIRCLE
  5
11B
330
6C
100
AcDbEntity
  8
Visible (ANSI)
100
AcDbCircle
 10
51.25726030152918
 20
69.03899869033901
 30
0.0
 40
0.2814999999999999
  0
CIRCLE
  5
11C
330
6C
100
AcDbEntity
  8
Visible (ANSI)
100
AcDbCircle
 10
33.00726030152919
 20
69.03899869033901
 30
0.0
 40
0.2814999999999999
  0
CIRCLE
  5
11D
330
6C
100
AcDbEntity
  8
Visible (ANSI)
100
AcDbCircle
 10
33.00726030152917
 20
30.90899869033899
 30
0.0
 40
0.2814999999999999
  0
CIRCLE
  5
11E
330
6C
100
AcDbEntity
  8
Visible (ANSI)
100
AcDbCircle
 10
51.25726030152918
 20
30.90899869033899
 30
0.0
 40
0.2814999999999999
  0
LINE
  5
11F
330
6C
100
AcDbEntity
  8
Visible (ANSI)
100
AcDbLine
 10
52.13226030152918
 20
69.75395742960273
 30
0.0
 11
52.13226030152919
 21
30.19403995107524
 31
0.0
  0
LINE
  5
120
330
6C
100
AcDbEntity
  8
Visible (ANSI)
100
AcDbLine
 10
32.29230156226542
 20
69.91399869033902
 30
0.0
 11
51.97221904079294
 21
69.91399869033898
 31
0.0
  0
LINE
  5
121
330
6C
100
AcDbEntity
  8
Visible (ANSI)
100
AcDbLine
 10
32.13226030152919
 20
30.19403995107523
 30
0.0
 11
32.13226030152918
 21
69.75395742960275
 31
0.0
  0
LINE
  5
122
330
6C
100
AcDbEntity
  8
Visible (ANSI)
100
AcDbLine
 10
51.97221904079295
 20
30.03399869033899
 30
0.0
 11
32.29230156226543
 21
30.03399869033899
 31
0.0
  0
LINE
  5
123
330
6C
100
AcDbEntity
  8
Hidden (ANSI)
100
AcDbLine
 10
52.03851030152919
 20
30.19403995107523
 30
0.0
 11
52.03851030152918
 21
69.75395742960273
 31
0.0
  0
LINE
  5
124
330
6C
100
AcDbEntity
  8
Hidden (ANSI)
100
AcDbLine
 10
51.97221904079294
 20
69.82024869033899
 30
0.0
 11
32.29230156226542
 21
69.82024869033901
 31
0.0
  0
LINE
  5
125
330
6C
100
AcDbEntity
  8
Hidden (ANSI)
100
AcDbLine
 10
32.22601030152918
 20
69.75395742960275
 30
0.0
 11
32.22601030152919
 21
30.19403995107524
 31
0.0
  0
LINE
  5
126
330
6C
100
AcDbEntity
  8
Hidden (ANSI)
100
AcDbLine
 10
32.29230156226543
 20
30.12774869033899
 30
0.0
 11
51.97221904079295
 21
30.12774869033899
 31
0.0
  0
POLYLINE
  5
127
330
6C
100
AcDbEntity
  8
Visible (ANSI)
100
AcDb2dPolyline
 66
     1
 10
0.0
 20
0.0
 30
0.0
 70
   128
  0
VERTEX
  5
128
330
127
100
AcDbEntity
  8
Visible (ANSI)
100
AcDbVertex
100
AcDb2dVertex
 10
52.00725958064151
 20
69.78899840678984
 30
0.0
  0
VERTEX
  5
129
330
127
100
AcDbEntity
  8
Visible (ANSI)
100
AcDbVertex
100
AcDb2dVertex
 10
52.01543564832423
 20
69.78753860925355
 30
0.0
  0
VERTEX
  5
12B
330
127
100
AcDbEntity
  8
Visible (ANSI)
100
AcDbVertex
100
AcDb2dVertex
 10
52.02357567162332
 20
69.78607881171725
 30
0.0
  0
VERTEX
  5
12C
330
127
100
AcDbEntity
  8
Visible (ANSI)
100
AcDbVertex
100
AcDb2dVertex
 10
52.03164660985382
 20
69.78461901418096
 30
0.0
  0
VERTEX
  5
12D
330
127
100
AcDbEntity
  8
Visible (ANSI)
100
AcDbVertex
100
AcDb2dVertex
 10
52.03961241863211
 20
69.78315921664465
 30
0.0
  0
VERTEX
  5
12E
330
127
100
AcDbEntity
  8
Visible (ANSI)
100
AcDbVertex
100
AcDb2dVertex
 10
52.04744005727323
 20
69.78169941910836
 30
0.0
  0
VERTEX
  5
12F
330
127
100
AcDbEntity
  8
Visible (ANSI)
100
AcDbVertex
100
AcDb2dVertex
 10
52.05509498324286
 20
69.78023962157208
 30
0.0
  0
VERTEX
  5
130
330
127
100
AcDbEntity
  8
Visible (ANSI)
100
AcDbVertex
100
AcDb2dVertex
 10
52.06254565770538
 20
69.77877982403578
 30
0.0
  0
VERTEX
  5
131
330
127
100
AcDbEntity
  8
Visible (ANSI)
100
AcDbVertex
100
AcDb2dVertex
 10
52.06976054182508
 20
69.77731702280085
 30
0.0
  0
VERTEX
  5
132
330
127
100
AcDbEntity
  8
Visible (ANSI)
100
AcDbVertex
100
AcDb2dVertex
 10
52.07670659491702
 20
69.77585722526455
 30
0.0
  0
VERTEX
  5
133
330
127
100
AcDbEntity
  8
Visible (ANSI)
100
AcDbVertex
100
AcDb2dVertex
 10
52.08335528184416
 20
69.77439742772826
 30
0.0
  0
VERTEX
  5
134
330
127
100
AcDbEntity
  8
Visible (ANSI)
100
AcDbVertex
100
AcDb2dVertex
 10
52.08967806746946
 20
69.77293763019196
 30
0.0
  0
VERTEX
  5
135
330
127
100
AcDbEntity
  8
Visible (ANSI)
100
AcDbVertex
100
AcDb2dVertex
 10
52.09564791850524
 20
69.77147783265568
 30
0.0
  0
VERTEX
  5
136
330
127
100
AcDbEntity
  8
Visible (ANSI)
100
AcDbVertex
100
AcDb2dVertex
 10
52.10124080536239
 20
69.77001803511936
 30
0.0
  0
VERTEX
  5
137
330
127
100
AcDbEntity
  8
Visible (ANSI)
100
AcDbVertex
100
AcDb2dVertex
 10
52.10642969475324
 20
69.7685582375831
 30
0.0
  0
VERTEX
  5
138
330
127
100
AcDbEntity
  8
Visible (ANSI)
100
AcDbVertex
100
AcDb2dVertex
 10
52.11119356078732
 20
69.76709844004679
 30
0.0
  0
VERTEX
  5
139
330
127
100
AcDbEntity
  8
Visible (ANSI)
100
AcDbVertex
100
AcDb2dVertex
 10
52.1155128794235
 20
69.76563864251049
 30
0.0
  0
VERTEX
  5
13A
330
127
100
AcDbEntity
  8
Visible (ANSI)
100
AcDbVertex
100
AcDb2dVertex
 10
52.11936962847001
 20
69.76417884497421
 30
0.0
  0
VERTEX
  5
13B
330
127
100
AcDbEntity
  8
Visible (ANSI)
100
AcDbVertex
100
AcDb2dVertex
 10
52.12274578573502
 20
69.76271904743789
 30
0.0
  0
VERTEX
  5
13C
330
127
100
AcDbEntity
  8
Visible (ANSI)
100
AcDbVertex
100
AcDb2dVertex
 10
52.12562633272537
 20
69.76125624620298
 30
0.0
  0
VERTEX
  5
13D
330
127
100
AcDbEntity
  8
Visible (ANSI)
100
AcDbVertex
100
AcDb2dVertex
 10
52.12800075649582
 20
69.75979644866668
 30
0.0
  0
VERTEX
  5
13E
330
127
100
AcDbEntity
  8
Visible (ANSI)
100
AcDbVertex
100
AcDb2dVertex
 10
52.12985854410117
 20
69.75833665113039
 30
0.0
  0
VERTEX
  5
13F
330
127
100
AcDbEntity
  8
Visible (ANSI)
100
AcDbVertex
100
AcDb2dVertex
 10
52.13119068444551
 20
69.75687685359409
 30
0.0
  0
VERTEX
  5
140
330
127
100
AcDbEntity
  8
Visible (ANSI)
100
AcDbVertex
100
AcDb2dVertex
 10
52.13199267198088
 20
69.75541705605781
 30
0.0
  0
VERTEX
  5
141
330
127
100
AcDbEntity
  8
Visible (ANSI)
100
AcDbVertex
100
AcDb2dVertex
 10
52.13226000115933
 20
69.75395725852151
 30
0.0
  0
SEQEND
  5
12A
330
127
100
AcDbEntity
  8
Visible (ANSI)
  0
POLYLINE
  5
142
330
6C
100
AcDbEntity
  8
Visible (ANSI)
100
AcDb2dPolyline
 66
     1
 10
0.0
 20
0.0
 30
0.0
 70
   128
  0
VERTEX
  5
143
330
142
100
AcDbEntity
  8
Visible (ANSI)
100
AcDbVertex
100
AcDb2dVertex
 10
52.13226000115933
 20
30.19403995406199
 30
0.0
  0
VERTEX
  5
144
330
142
100
AcDbEntity
  8
Visible (ANSI)
100
AcDbVertex
100
AcDb2dVertex
 10
52.13199267198088
 20
30.19257989839534
 30
0.0
  0
VERTEX
  5
146
330
142
100
AcDbEntity
  8
Visible (ANSI)
100
AcDbVertex
100
AcDb2dVertex
 10
52.13119068444551
 20
30.1911198427287
 30
0.0
  0
VERTEX
  5
147
330
142
100
AcDbEntity
  8
Visible (ANSI)
100
AcDbVertex
100
AcDb2dVertex
 10
52.12985854410117
 20
30.18965979879525
 30
0.0
  0
VERTEX
  5
148
330
142
100
AcDbEntity
  8
Visible (ANSI)
100
AcDbVertex
100
AcDb2dVertex
 10
52.12800075649582
 20
30.1881997431286
 30
0.0
  0
VERTEX
  5
149
330
142
100
AcDbEntity
  8
Visible (ANSI)
100
AcDbVertex
100
AcDb2dVertex
 10
52.12562633272537
 20
30.18673968746196
 30
0.0
  0
VERTEX
  5
14A
330
142
100
AcDbEntity
  8
Visible (ANSI)
100
AcDbVertex
100
AcDb2dVertex
 10
52.12274578573502
 20
30.18527963179531
 30
0.0
  0
VERTEX
  5
14B
330
142
100
AcDbEntity
  8
Visible (ANSI)
100
AcDbVertex
100
AcDb2dVertex
 10
52.11936962847001
 20
30.18381958786187
 30
0.0
  0
VERTEX
  5
14C
330
142
100
AcDbEntity
  8
Visible (ANSI)
100
AcDbVertex
100
AcDb2dVertex
 10
52.1155128794235
 20
30.18235953219522
 30
0.0
  0
VERTEX
  5
14D
330
142
100
AcDbEntity
  8
Visible (ANSI)
100
AcDbVertex
100
AcDb2dVertex
 10
52.11119356078732
 20
30.18089947652858
 30
0.0
  0
VERTEX
  5
14E
330
142
100
AcDbEntity
  8
Visible (ANSI)
100
AcDbVertex
100
AcDb2dVertex
 10
52.10642969475324
 20
30.17943942086193
 30
0.0
  0
VERTEX
  5
14F
330
142
100
AcDbEntity
  8
Visible (ANSI)
100
AcDbVertex
100
AcDb2dVertex
 10
52.10124080536239
 20
30.17797937692848
 30
0.0
  0
VERTEX
  5
150
330
142
100
AcDbEntity
  8
Visible (ANSI)
100
AcDbVertex
100
AcDb2dVertex
 10
52.09564791850524
 20
30.17651932126184
 30
0.0
  0
VERTEX
  5
151
330
142
100
AcDbEntity
  8
Visible (ANSI)
100
AcDbVertex
100
AcDb2dVertex
 10
52.08967806746946
 20
30.17505926559519
 30
0.0
  0
VERTEX
  5
152
330
142
100
AcDbEntity
  8
Visible (ANSI)
100
AcDbVertex
100
AcDb2dVertex
 10
52.08335528184416
 20
30.17359920992854
 30
0.0
  0
VERTEX
  5
153
330
142
100
AcDbEntity
  8
Visible (ANSI)
100
AcDbVertex
100
AcDb2dVertex
 10
52.07670659491702
 20
30.17213916599509
 30
0.0
  0
VERTEX
  5
154
330
142
100
AcDbEntity
  8
Visible (ANSI)
100
AcDbVertex
100
AcDb2dVertex
 10
52.06976054182508
 20
30.17067911032845
 30
0.0
  0
VERTEX
  5
155
330
142
100
AcDbEntity
  8
Visible (ANSI)
100
AcDbVertex
100
AcDb2dVertex
 10
52.06254565770538
 20
30.16921905466181
 30
0.0
  0
VERTEX
  5
156
330
142
100
AcDbEntity
  8
Visible (ANSI)
100
AcDbVertex
100
AcDb2dVertex
 10
52.05509498324286
 20
30.16775901072836
 30
0.0
  0
VERTEX
  5
157
330
142
100
AcDbEntity
  8
Visible (ANSI)
100
AcDbVertex
100
AcDb2dVertex
 10
52.04744005727323
 20
30.16629895506171
 30
0.0
  0
VERTEX
  5
158
330
142
100
AcDbEntity
  8
Visible (ANSI)
100
AcDbVertex
100
AcDb2dVertex
 10
52.03961241863211
 20
30.16483889939507
 30
0.0
  0
VERTEX
  5
159
330
142
100
AcDbEntity
  8
Visible (ANSI)
100
AcDbVertex
100
AcDb2dVertex
 10
52.03164660985382
 20
30.16337884372842
 30
0.0
  0
VERTEX
  5
15A
330
142
100
AcDbEntity
  8
Visible (ANSI)
100
AcDbVertex
100
AcDb2dVertex
 10
52.02357567162332
 20
30.16191879979497
 30
0.0
  0
VERTEX
  5
15B
330
142
100
AcDbEntity
  8
Visible (ANSI)
100
AcDbVertex
100
AcDb2dVertex
 10
52.01543564832423
 20
30.16045874412833
 30
0.0
  0
VERTEX
  5
15C
330
142
100
AcDbEntity
  8
Visible (ANSI)
100
AcDbVertex
100
AcDb2dVertex
 10
52.00725958064151
 20
30.15899868846168
 30
0.0
  0
SEQEND
  5
145
330
142
100
AcDbEntity
  8
Visible (ANSI)
  0
POLYLINE
  5
15D
330
6C
100
AcDbEntity
  8
Visible (ANSI)
100
AcDb2dPolyline
 66
     1
 10
0.0
 20
0.0
 30
0.0
 70
   128
  0
VERTEX
  5
15E
330
15D
100
AcDbEntity
  8
Visible (ANSI)
100
AcDbVertex
100
AcDb2dVertex
 10
32.25726029965188
 20
69.78899840678984
 30
0.0
  0
VERTEX
  5
15F
330
15D
100
AcDbEntity
  8
Visible (ANSI)
100
AcDbVertex
100
AcDb2dVertex
 10
32.25872035531853
 20
69.79717447447256
 30
0.0
  0
VERTEX
  5
161
330
15D
100
AcDbEntity
  8
Visible (ANSI)
100
AcDbVertex
100
AcDb2dVertex
 10
32.26018041098518
 20
69.80531449777163
 30
0.0
  0
VERTEX
  5
162
330
15D
100
AcDbEntity
  8
Visible (ANSI)
100
AcDbVertex
100
AcDb2dVertex
 10
32.26164045491862
 20
69.81338543600213
 30
0.0
  0
VERTEX
  5
163
330
15D
100
AcDbEntity
  8
Visible (ANSI)
100
AcDbVertex
100
AcDb2dVertex
 10
32.26310051058527
 20
69.82135124478041
 30
0.0
  0
VERTEX
  5
164
330
15D
100
AcDbEntity
  8
Visible (ANSI)
100
AcDbVertex
100
AcDb2dVertex
 10
32.26456056625192
 20
69.82917888342154
 30
0.0
  0
VERTEX
  5
165
330
15D
100
AcDbEntity
  8
Visible (ANSI)
100
AcDbVertex
100
AcDb2dVertex
 10
32.26602062191856
 20
69.83683531124049
 30
0.0
  0
VERTEX
  5
166
330
15D
100
AcDbEntity
  8
Visible (ANSI)
100
AcDbVertex
100
AcDb2dVertex
 10
32.26748066585201
 20
69.84428448385369
 30
0.0
  0
VERTEX
  5
167
330
15D
100
AcDbEntity
  8
Visible (ANSI)
100
AcDbVertex
100
AcDb2dVertex
 10
32.26894072151865
 20
69.8514993679734
 30
0.0
  0
VERTEX
  5
168
330
15D
100
AcDbEntity
  8
Visible (ANSI)
100
AcDbVertex
100
AcDb2dVertex
 10
32.27040077718529
 20
69.85844391921602
 30
0.0
  0
VERTEX
  5
169
330
15D
100
AcDbEntity
  8
Visible (ANSI)
100
AcDbVertex
100
AcDb2dVertex
 10
32.27186082111874
 20
69.86509410799247
 30
0.0
  0
VERTEX
  5
16A
330
15D
100
AcDbEntity
  8
Visible (ANSI)
100
AcDbVertex
100
AcDb2dVertex
 10
32.27332087678539
 20
69.87141689361777
 30
0.0
  0
VERTEX
  5
16B
330
15D
100
AcDbEntity
  8
Visible (ANSI)
100
AcDbVertex
100
AcDb2dVertex
 10
32.27478093245204
 20
69.87738824650287
 30
0.0
  0
VERTEX
  5
16C
330
15D
100
AcDbEntity
  8
Visible (ANSI)
100
AcDbVertex
100
AcDb2dVertex
 10
32.27624098811869
 20
69.88297812966139
 30
0.0
  0
VERTEX
  5
16D
330
15D
100
AcDbEntity
  8
Visible (ANSI)
100
AcDbVertex
100
AcDb2dVertex
 10
32.27770103205213
 20
69.88816852090154
 30
0.0
  0
VERTEX
  5
16E
330
15D
100
AcDbEntity
  8
Visible (ANSI)
100
AcDbVertex
100
AcDb2dVertex
 10
32.27916108771878
 20
69.89293238693564
 30
0.0
  0
VERTEX
  5
16F
330
15D
100
AcDbEntity
  8
Visible (ANSI)
100
AcDbVertex
100
AcDb2dVertex
 10
32.28062114338543
 20
69.89725170557183
 30
0.0
  0
VERTEX
  5
170
330
15D
100
AcDbEntity
  8
Visible (ANSI)
100
AcDbVertex
100
AcDb2dVertex
 10
32.28208119905207
 20
69.90110845461834
 30
0.0
  0
VERTEX
  5
171
330
15D
100
AcDbEntity
  8
Visible (ANSI)
100
AcDbVertex
100
AcDb2dVertex
 10
32.28354124298552
 20
69.90448461188333
 30
0.0
  0
VERTEX
  5
172
330
15D
100
AcDbEntity
  8
Visible (ANSI)
100
AcDbVertex
100
AcDb2dVertex
 10
32.28500129865216
 20
69.90736515887369
 30
0.0
  0
VERTEX
  5
173
330
15D
100
AcDbEntity
  8
Visible (ANSI)
100
AcDbVertex
100
AcDb2dVertex
 10
32.28646135431881
 20
69.90973808079482
 30
0.0
  0
VERTEX
  5
174
330
15D
100
AcDbEntity
  8
Visible (ANSI)
100
AcDbVertex
100
AcDb2dVertex
 10
32.28792140998545
 20
69.91159737024948
 30
0.0
  0
VERTEX
  5
175
330
15D
100
AcDbEntity
  8
Visible (ANSI)
100
AcDbVertex
100
AcDb2dVertex
 10
32.2893814539189
 20
69.9129280087445
 30
0.0
  0
VERTEX
  5
176
330
15D
100
AcDbEntity
  8
Visible (ANSI)
100
AcDbVertex
100
AcDb2dVertex
 10
32.29084150958555
 20
69.91372999627987
 30
0.0
  0
VERTEX
  5
177
330
15D
100
AcDbEntity
  8
Visible (ANSI)
100
AcDbVertex
100
AcDb2dVertex
 10
32.2923015652522
 20
69.91399732545834
 30
0.0
  0
SEQEND
  5
160
330
15D
100
AcDbEntity
  8
Visible (ANSI)
  0
POLYLINE
  5
178
330
6C
100
AcDbEntity
  8
Visible (ANSI)
100
AcDb2dPolyline
 66
     1
 10
0.0
 20
0.0
 30
0.0
 70
   128
  0
VERTEX
  5
179
330
178
100
AcDbEntity
  8
Visible (ANSI)
100
AcDbVertex
100
AcDb2dVertex
 10
51.97221843237318
 20
69.91399732545834
 30
0.0
  0
VERTEX
  5
17A
330
178
100
AcDbEntity
  8
Visible (ANSI)
100
AcDbVertex
100
AcDb2dVertex
 10
51.9736797317588
 20
69.91372999627987
 30
0.0
  0
VERTEX
  5
17C
330
178
100
AcDbEntity
  8
Visible (ANSI)
100
AcDbVertex
100
AcDb2dVertex
 10
51.9751395292951
 20
69.9129280087445
 30
0.0
  0
VERTEX
  5
17D
330
178
100
AcDbEntity
  8
Visible (ANSI)
100
AcDbVertex
100
AcDb2dVertex
 10
51.97659932683139
 20
69.91159737024948
 30
0.0
  0
VERTEX
  5
17E
330
178
100
AcDbEntity
  8
Visible (ANSI)
100
AcDbVertex
100
AcDb2dVertex
 10
51.97805912436768
 20
69.90973808079482
 30
0.0
  0
VERTEX
  5
17F
330
178
100
AcDbEntity
  8
Visible (ANSI)
100
AcDbVertex
100
AcDb2dVertex
 10
51.97951892190398
 20
69.90736515887369
 30
0.0
  0
VERTEX
  5
180
330
178
100
AcDbEntity
  8
Visible (ANSI)
100
AcDbVertex
100
AcDb2dVertex
 10
51.98097871944027
 20
69.90448461188333
 30
0.0
  0
VERTEX
  5
181
330
178
100
AcDbEntity
  8
Visible (ANSI)
100
AcDbVertex
100
AcDb2dVertex
 10
51.98244001882589
 20
69.90110845461834
 30
0.0
  0
VERTEX
  5
182
330
178
100
AcDbEntity
  8
Visible (ANSI)
100
AcDbVertex
100
AcDb2dVertex
 10
51.98389981636218
 20
69.89725170557183
 30
0.0
  0
VERTEX
  5
183
330
178
100
AcDbEntity
  8
Visible (ANSI)
100
AcDbVertex
100
AcDb2dVertex
 10
51.98535961389847
 20
69.89293238693564
 30
0.0
  0
VERTEX
  5
184
330
178
100
AcDbEntity
  8
Visible (ANSI)
100
AcDbVertex
100
AcDb2dVertex
 10
51.98681941143476
 20
69.88816852090154
 30
0.0
  0
VERTEX
  5
185
330
178
100
AcDbEntity
  8
Visible (ANSI)
100
AcDbVertex
100
AcDb2dVertex
 10
51.98827920897106
 20
69.88297812966139
 30
0.0
  0
VERTEX
  5
186
330
178
100
AcDbEntity
  8
Visible (ANSI)
100
AcDbVertex
100
AcDb2dVertex
 10
51.98973900650735
 20
69.87738824650287
 30
0.0
  0
VERTEX
  5
187
330
178
100
AcDbEntity
  8
Visible (ANSI)
100
AcDbVertex
100
AcDb2dVertex
 10
51.99120030589297
 20
69.87141689361777
 30
0.0
  0
VERTEX
  5
188
330
178
100
AcDbEntity
  8
Visible (ANSI)
100
AcDbVertex
100
AcDb2dVertex
 10
51.99266010342927
 20
69.86509410799247
 30
0.0
  0
VERTEX
  5
189
330
178
100
AcDbEntity
  8
Visible (ANSI)
100
AcDbVertex
100
AcDb2dVertex
 10
51.99411990096556
 20
69.85844391921602
 30
0.0
  0
VERTEX
  5
18A
330
178
100
AcDbEntity
  8
Visible (ANSI)
100
AcDbVertex
100
AcDb2dVertex
 10
51.99557969850185
 20
69.8514993679734
 30
0.0
  0
VERTEX
  5
18B
330
178
100
AcDbEntity
  8
Visible (ANSI)
100
AcDbVertex
100
AcDb2dVertex
 10
51.99703949603814
 20
69.84428448385369
 30
0.0
  0
VERTEX
  5
18C
330
178
100
AcDbEntity
  8
Visible (ANSI)
100
AcDbVertex
100
AcDb2dVertex
 10
51.99849929357444
 20
69.83683531124049
 30
0.0
  0
VERTEX
  5
18D
330
178
100
AcDbEntity
  8
Visible (ANSI)
100
AcDbVertex
100
AcDb2dVertex
 10
51.99996059296005
 20
69.82917888342154
 30
0.0
  0
VERTEX
  5
18E
330
178
100
AcDbEntity
  8
Visible (ANSI)
100
AcDbVertex
100
AcDb2dVertex
 10
52.00142039049634
 20
69.82135124478041
 30
0.0
  0
VERTEX
  5
18F
330
178
100
AcDbEntity
  8
Visible (ANSI)
100
AcDbVertex
100
AcDb2dVertex
 10
52.00288018803264
 20
69.81338543600213
 30
0.0
  0
VERTEX
  5
190
330
178
100
AcDbEntity
  8
Visible (ANSI)
100
AcDbVertex
100
AcDb2dVertex
 10
52.00433998556893
 20
69.80531449777163
 30
0.0
  0
VERTEX
  5
191
330
178
100
AcDbEntity
  8
Visible (ANSI)
100
AcDbVertex
100
AcDb2dVertex
 10
52.00579978310523
 20
69.79717447447256
 30
0.0
  0
VERTEX
  5
192
330
178
100
AcDbEntity
  8
Visible (ANSI)
100
AcDbVertex
100
AcDb2dVertex
 10
52.00725958064151
 20
69.78899840678984
 30
0.0
  0
SEQEND
  5
17B
330
178
100
AcDbEntity
  8
Visible (ANSI)
  0
POLYLINE
  5
193
330
6C
100
AcDbEntity
  8
Visible (ANSI)
100
AcDb2dPolyline
 66
     1
 10
0.0
 20
0.0
 30
0.0
 70
   128
  0
VERTEX
  5
194
330
193
100
AcDbEntity
  8
Visible (ANSI)
100
AcDbVertex
100
AcDb2dVertex
 10
32.25726029965188
 20
30.15899868846168
 30
0.0
  0
VERTEX
  5
195
330
193
100
AcDbEntity
  8
Visible (ANSI)
100
AcDbVertex
100
AcDb2dVertex
 10
32.24908491249465
 20
30.16045874412833
 30
0.0
  0
VERTEX
  5
197
330
193
100
AcDbEntity
  8
Visible (ANSI)
100
AcDbVertex
100
AcDb2dVertex
 10
32.24094452546643
 20
30.16191879979497
 30
0.0
  0
VERTEX
  5
198
330
193
100
AcDbEntity
  8
Visible (ANSI)
100
AcDbVertex
100
AcDb2dVertex
 10
32.23287400963105
 20
30.16337884372842
 30
0.0
  0
VERTEX
  5
199
330
193
100
AcDbEntity
  8
Visible (ANSI)
100
AcDbVertex
100
AcDb2dVertex
 10
32.22490791925601
 20
30.16483889939507
 30
0.0
  0
VERTEX
  5
19A
330
193
100
AcDbEntity
  8
Visible (ANSI)
100
AcDbVertex
100
AcDb2dVertex
 10
32.21708036861387
 20
30.16629895506171
 30
0.0
  0
VERTEX
  5
19B
330
193
100
AcDbEntity
  8
Visible (ANSI)
100
AcDbVertex
100
AcDb2dVertex
 10
32.20942487358414
 20
30.16775901072836
 30
0.0
  0
VERTEX
  5
19C
330
193
100
AcDbEntity
  8
Visible (ANSI)
100
AcDbVertex
100
AcDb2dVertex
 10
32.20197421672143
 20
30.16921905466181
 30
0.0
  0
VERTEX
  5
19D
330
193
100
AcDbEntity
  8
Visible (ANSI)
100
AcDbVertex
100
AcDb2dVertex
 10
32.19476030059055
 20
30.17067911032845
 30
0.0
  0
VERTEX
  5
19E
330
193
100
AcDbEntity
  8
Visible (ANSI)
100
AcDbVertex
100
AcDb2dVertex
 10
32.18781402456784
 20
30.17213916599509
 30
0.0
  0
VERTEX
  5
19F
330
193
100
AcDbEntity
  8
Visible (ANSI)
100
AcDbVertex
100
AcDb2dVertex
 10
32.18116512350985
 20
30.17359920992854
 30
0.0
  0
VERTEX
  5
1A0
330
193
100
AcDbEntity
  8
Visible (ANSI)
100
AcDbVertex
100
AcDb2dVertex
 10
32.17484207388759
 20
30.17505926559519
 30
0.0
  0
VERTEX
  5
1A1
330
193
100
AcDbEntity
  8
Visible (ANSI)
100
AcDbVertex
100
AcDb2dVertex
 10
32.16887195298828
 20
30.17651932126184
 30
0.0
  0
VERTEX
  5
1A2
330
193
100
AcDbEntity
  8
Visible (ANSI)
100
AcDbVertex
100
AcDb2dVertex
 10
32.16328032451658
 20
30.17797937692848
 30
0.0
  0
VERTEX
  5
1A3
330
193
100
AcDbEntity
  8
Visible (ANSI)
100
AcDbVertex
100
AcDb2dVertex
 10
32.15809113299589
 20
30.17943942086193
 30
0.0
  0
VERTEX
  5
1A4
330
193
100
AcDbEntity
  8
Visible (ANSI)
100
AcDbVertex
100
AcDb2dVertex
 10
32.15332659963619
 20
30.18089947652858
 30
0.0
  0
VERTEX
  5
1A5
330
193
100
AcDbEntity
  8
Visible (ANSI)
100
AcDbVertex
100
AcDb2dVertex
 10
32.14900712553512
 20
30.18235953219522
 30
0.0
  0
VERTEX
  5
1A6
330
193
100
AcDbEntity
  8
Visible (ANSI)
100
AcDbVertex
100
AcDb2dVertex
 10
32.14515120954566
 20
30.18381958786187
 30
0.0
  0
VERTEX
  5
1A7
330
193
100
AcDbEntity
  8
Visible (ANSI)
100
AcDbVertex
100
AcDb2dVertex
 10
32.1417753602771
 20
30.18527963179531
 30
0.0
  0
VERTEX
  5
1A8
330
193
100
AcDbEntity
  8
Visible (ANSI)
100
AcDbVertex
100
AcDb2dVertex
 10
32.13889403522907
 20
30.18673968746196
 30
0.0
  0
VERTEX
  5
1A9
330
193
100
AcDbEntity
  8
Visible (ANSI)
100
AcDbVertex
100
AcDb2dVertex
 10
32.13651957332572
 20
30.1881997431286
 30
0.0
  0
VERTEX
  5
1AA
330
193
100
AcDbEntity
  8
Visible (ANSI)
100
AcDbVertex
100
AcDb2dVertex
 10
32.13466214156627
 20
30.18965979879525
 30
0.0
  0
VERTEX
  5
1AB
330
193
100
AcDbEntity
  8
Visible (ANSI)
100
AcDbVertex
100
AcDb2dVertex
 10
32.13332969386716
 20
30.1911198427287
 30
0.0
  0
VERTEX
  5
1AC
330
193
100
AcDbEntity
  8
Visible (ANSI)
100
AcDbVertex
100
AcDb2dVertex
 10
32.13252793611454
 20
30.19257989839534
 30
0.0
  0
VERTEX
  5
1AD
330
193
100
AcDbEntity
  8
Visible (ANSI)
100
AcDbVertex
100
AcDb2dVertex
 10
32.13226030152919
 20
30.19403995406199
 30
0.0
  0
SEQEND
  5
196
330
193
100
AcDbEntity
  8
Visible (ANSI)
  0
POLYLINE
  5
1AE
330
6C
100
AcDbEntity
  8
Visible (ANSI)
100
AcDb2dPolyline
 66
     1
 10
0.0
 20
0.0
 30
0.0
 70
   128
  0
VERTEX
  5
1AF
330
1AE
100
AcDbEntity
  8
Visible (ANSI)
100
AcDbVertex
100
AcDb2dVertex
 10
32.13226030152918
 20
69.75395725852151
 30
0.0
  0
VERTEX
  5
1B0
330
1AE
100
AcDbEntity
  8
Visible (ANSI)
100
AcDbVertex
100
AcDb2dVertex
 10
32.13252793611454
 20
69.75541705605781
 30
0.0
  0
VERTEX
  5
1B2
330
1AE
100
AcDbEntity
  8
Visible (ANSI)
100
AcDbVertex
100
AcDb2dVertex
 10
32.13332969386716
 20
69.75687685359409
 30
0.0
  0
VERTEX
  5
1B3
330
1AE
100
AcDbEntity
  8
Visible (ANSI)
100
AcDbVertex
100
AcDb2dVertex
 10
32.13466214156627
 20
69.75833665113039
 30
0.0
  0
VERTEX
  5
1B4
330
1AE
100
AcDbEntity
  8
Visible (ANSI)
100
AcDbVertex
100
AcDb2dVertex
 10
32.13651957332572
 20
69.75979644866668
 30
0.0
  0
VERTEX
  5
1B5
330
1AE
100
AcDbEntity
  8
Visible (ANSI)
100
AcDbVertex
100
AcDb2dVertex
 10
32.13889403522907
 20
69.76125624620298
 30
0.0
  0
VERTEX
  5
1B6
330
1AE
100
AcDbEntity
  8
Visible (ANSI)
100
AcDbVertex
100
AcDb2dVertex
 10
32.1417753602771
 20
69.76271904743789
 30
0.0
  0
VERTEX
  5
1B7
330
1AE
100
AcDbEntity
  8
Visible (ANSI)
100
AcDbVertex
100
AcDb2dVertex
 10
32.14515120954566
 20
69.76417884497421
 30
0.0
  0
VERTEX
  5
1B8
330
1AE
100
AcDbEntity
  8
Visible (ANSI)
100
AcDbVertex
100
AcDb2dVertex
 10
32.14900712553512
 20
69.76563864251049
 30
0.0
  0
VERTEX
  5
1B9
330
1AE
100
AcDbEntity
  8
Visible (ANSI)
100
AcDbVertex
100
AcDb2dVertex
 10
32.15332659963619
 20
69.76709844004679
 30
0.0
  0
VERTEX
  5
1BA
330
1AE
100
AcDbEntity
  8
Visible (ANSI)
100
AcDbVertex
100
AcDb2dVertex
 10
32.15809113299589
 20
69.7685582375831
 30
0.0
  0
VERTEX
  5
1BB
330
1AE
100
AcDbEntity
  8
Visible (ANSI)
100
AcDbVertex
100
AcDb2dVertex
 10
32.16328032451658
 20
69.77001803511936
 30
0.0
  0
VERTEX
  5
1BC
330
1AE
100
AcDbEntity
  8
Visible (ANSI)
100
AcDbVertex
100
AcDb2dVertex
 10
32.16887195298828
 20
69.77147783265568
 30
0.0
  0
VERTEX
  5
1BD
330
1AE
100
AcDbEntity
  8
Visible (ANSI)
100
AcDbVertex
100
AcDb2dVertex
 10
32.17484207388759
 20
69.77293763019196
 30
0.0
  0
VERTEX
  5
1BE
330
1AE
100
AcDbEntity
  8
Visible (ANSI)
100
AcDbVertex
100
AcDb2dVertex
 10
32.18116512350985
 20
69.77439742772826
 30
0.0
  0
VERTEX
  5
1BF
330
1AE
100
AcDbEntity
  8
Visible (ANSI)
100
AcDbVertex
100
AcDb2dVertex
 10
32.18781402456784
 20
69.77585722526455
 30
0.0
  0
VERTEX
  5
1C0
330
1AE
100
AcDbEntity
  8
Visible (ANSI)
100
AcDbVertex
100
AcDb2dVertex
 10
32.19476030059055
 20
69.77731702280085
 30
0.0
  0
VERTEX
  5
1C1
330
1AE
100
AcDbEntity
  8
Visible (ANSI)
100
AcDbVertex
100
AcDb2dVertex
 10
32.20197421672143
 20
69.77877982403578
 30
0.0
  0
VERTEX
  5
1C2
330
1AE
100
AcDbEntity
  8
Visible (ANSI)
100
AcDbVertex
100
AcDb2dVertex
 10
32.20942487358414
 20
69.78023962157208
 30
0.0
  0
VERTEX
  5
1C3
330
1AE
100
AcDbEntity
  8
Visible (ANSI)
100
AcDbVertex
100
AcDb2dVertex
 10
32.21708036861387
 20
69.78169941910836
 30
0.0
  0
VERTEX
  5
1C4
330
1AE
100
AcDbEntity
  8
Visible (ANSI)
100
AcDbVertex
100
AcDb2dVertex
 10
32.22490791925601
 20
69.78315921664465
 30
0.0
  0
VERTEX
  5
1C5
330
1AE
100
AcDbEntity
  8
Visible (ANSI)
100
AcDbVertex
100
AcDb2dVertex
 10
32.23287400963105
 20
69.78461901418096
 30
0.0
  0
VERTEX
  5
1C6
330
1AE
100
AcDbEntity
  8
Visible (ANSI)
100
AcDbVertex
100
AcDb2dVertex
 10
32.24094452546643
 20
69.78607881171725
 30
0.0
  0
VERTEX
  5
1C7
330
1AE
100
AcDbEntity
  8
Visible (ANSI)
100
AcDbVertex
100
AcDb2dVertex
 10
32.24908491249465
 20
69.78753860925355
 30
0.0
  0
VERTEX
  5
1C8
330
1AE
100
AcDbEntity
  8
Visible (ANSI)
100
AcDbVertex
100
AcDb2dVertex
 10
32.25726029965188
 20
69.78899840678984
 30
0.0
  0
SEQEND
  5
1B1
330
1AE
100
AcDbEntity
  8
Visible (ANSI)
  0
POLYLINE
  5
1C9
330
6C
100
AcDbEntity
  8
Visible (ANSI)
100
AcDb2dPolyline
 66
     1
 10
0.0
 20
0.0
 30
0.0
 70
   128
  0
VERTEX
  5
1CA
330
1C9
100
AcDbEntity
  8
Visible (ANSI)
100
AcDbVertex
100
AcDb2dVertex
 10
52.00725958064151
 20
30.15899868846168
 30
0.0
  0
VERTEX
  5
1CB
330
1C9
100
AcDbEntity
  8
Visible (ANSI)
100
AcDbVertex
100
AcDb2dVertex
 10
52.00579978310523
 20
30.15082330130445
 30
0.0
  0
VERTEX
  5
1CD
330
1C9
100
AcDbEntity
  8
Visible (ANSI)
100
AcDbVertex
100
AcDb2dVertex
 10
52.00433998556893
 20
30.14268291427623
 30
0.0
  0
VERTEX
  5
1CE
330
1C9
100
AcDbEntity
  8
Visible (ANSI)
100
AcDbVertex
100
AcDb2dVertex
 10
52.00288018803264
 20
30.13461239844085
 30
0.0
  0
VERTEX
  5
1CF
330
1C9
100
AcDbEntity
  8
Visible (ANSI)
100
AcDbVertex
100
AcDb2dVertex
 10
52.00142039049634
 20
30.12664630806581
 30
0.0
  0
VERTEX
  5
1D0
330
1C9
100
AcDbEntity
  8
Visible (ANSI)
100
AcDbVertex
100
AcDb2dVertex
 10
51.99996059296005
 20
30.11881875742368
 30
0.0
  0
VERTEX
  5
1D1
330
1C9
100
AcDbEntity
  8
Visible (ANSI)
100
AcDbVertex
100
AcDb2dVertex
 10
51.99849929357444
 20
30.11116326239394
 30
0.0
  0
VERTEX
  5
1D2
330
1C9
100
AcDbEntity
  8
Visible (ANSI)
100
AcDbVertex
100
AcDb2dVertex
 10
51.99703949603814
 20
30.10371260553123
 30
0.0
  0
VERTEX
  5
1D3
330
1C9
100
AcDbEntity
  8
Visible (ANSI)
100
AcDbVertex
100
AcDb2dVertex
 10
51.99557969850185
 20
30.09649868940034
 30
0.0
  0
VERTEX
  5
1D4
330
1C9
100
AcDbEntity
  8
Visible (ANSI)
100
AcDbVertex
100
AcDb2dVertex
 10
51.99411990096556
 20
30.08955241337764
 30
0.0
  0
VERTEX
  5
1D5
330
1C9
100
AcDbEntity
  8
Visible (ANSI)
100
AcDbVertex
100
AcDb2dVertex
 10
51.99266010342927
 20
30.08290351231965
 30
0.0
  0
VERTEX
  5
1D6
330
1C9
100
AcDbEntity
  8
Visible (ANSI)
100
AcDbVertex
100
AcDb2dVertex
 10
51.99120030589297
 20
30.07658046269739
 30
0.0
  0
VERTEX
  5
1D7
330
1C9
100
AcDbEntity
  8
Visible (ANSI)
100
AcDbVertex
100
AcDb2dVertex
 10
51.98973900650735
 20
30.07061034179807
 30
0.0
  0
VERTEX
  5
1D8
330
1C9
100
AcDbEntity
  8
Visible (ANSI)
100
AcDbVertex
100
AcDb2dVertex
 10
51.98827920897106
 20
30.06501871332638
 30
0.0
  0
VERTEX
  5
1D9
330
1C9
100
AcDbEntity
  8
Visible (ANSI)
100
AcDbVertex
100
AcDb2dVertex
 10
51.98681941143476
 20
30.05982952180569
 30
0.0
  0
VERTEX
  5
1DA
330
1C9
100
AcDbEntity
  8
Visible (ANSI)
100
AcDbVertex
100
AcDb2dVertex
 10
51.98535961389847
 20
30.05506498844598
 30
0.0
  0
VERTEX
  5
1DB
330
1C9
100
AcDbEntity
  8
Visible (ANSI)
100
AcDbVertex
100
AcDb2dVertex
 10
51.98389981636218
 20
30.05074551434492
 30
0.0
  0
VERTEX
  5
1DC
330
1C9
100
AcDbEntity
  8
Visible (ANSI)
100
AcDbVertex
100
AcDb2dVertex
 10
51.98244001882589
 20
30.04688959835546
 30
0.0
  0
VERTEX
  5
1DD
330
1C9
100
AcDbEntity
  8
Visible (ANSI)
100
AcDbVertex
100
AcDb2dVertex
 10
51.98097871944027
 20
30.04351374908689
 30
0.0
  0
VERTEX
  5
1DE
330
1C9
100
AcDbEntity
  8
Visible (ANSI)
100
AcDbVertex
100
AcDb2dVertex
 10
51.97951892190398
 20
30.04063242403887
 30
0.0
  0
VERTEX
  5
1DF
330
1C9
100
AcDbEntity
  8
Visible (ANSI)
100
AcDbVertex
100
AcDb2dVertex
 10
51.97805912436768
 20
30.03825796213552
 30
0.0
  0
VERTEX
  5
1E0
330
1C9
100
AcDbEntity
  8
Visible (ANSI)
100
AcDbVertex
100
AcDb2dVertex
 10
51.97659932683139
 20
30.03640053037607
 30
0.0
  0
VERTEX
  5
1E1
330
1C9
100
AcDbEntity
  8
Visible (ANSI)
100
AcDbVertex
100
AcDb2dVertex
 10
51.9751395292951
 20
30.03506808267695
 30
0.0
  0
VERTEX
  5
1E2
330
1C9
100
AcDbEntity
  8
Visible (ANSI)
100
AcDbVertex
100
AcDb2dVertex
 10
51.9736797317588
 20
30.03426632492434
 30
0.0
  0
VERTEX
  5
1E3
330
1C9
100
AcDbEntity
  8
Visible (ANSI)
100
AcDbVertex
100
AcDb2dVertex
 10
51.97221843237318
 20
30.03399869033899
 30
0.0
  0
SEQEND
  5
1CC
330
1C9
100
AcDbEntity
  8
Visible (ANSI)
  0
POLYLINE
  5
1E4
330
6C
100
AcDbEntity
  8
Visible (ANSI)
100
AcDb2dPolyline
 66
     1
 10
0.0
 20
0.0
 30
0.0
 70
   128
  0
VERTEX
  5
1E5
330
1E4
100
AcDbEntity
  8
Visible (ANSI)
100
AcDbVertex
100
AcDb2dVertex
 10
32.2923015652522
 20
30.03399869033899
 30
0.0
  0
VERTEX
  5
1E6
330
1E4
100
AcDbEntity
  8
Visible (ANSI)
100
AcDbVertex
100
AcDb2dVertex
 10
32.29084150958555
 20
30.03426632492434
 30
0.0
  0
VERTEX
  5
1E8
330
1E4
100
AcDbEntity
  8
Visible (ANSI)
100
AcDbVertex
100
AcDb2dVertex
 10
32.2893814539189
 20
30.03506808267695
 30
0.0
  0
VERTEX
  5
1E9
330
1E4
100
AcDbEntity
  8
Visible (ANSI)
100
AcDbVertex
100
AcDb2dVertex
 10
32.28792140998545
 20
30.03640053037607
 30
0.0
  0
VERTEX
  5
1EA
330
1E4
100
AcDbEntity
  8
Visible (ANSI)
100
AcDbVertex
100
AcDb2dVertex
 10
32.28646135431881
 20
30.03825796213552
 30
0.0
  0
VERTEX
  5
1EB
330
1E4
100
AcDbEntity
  8
Visible (ANSI)
100
AcDbVertex
100
AcDb2dVertex
 10
32.28500129865216
 20
30.04063242403887
 30
0.0
  0
VERTEX
  5
1EC
330
1E4
100
AcDbEntity
  8
Visible (ANSI)
100
AcDbVertex
100
AcDb2dVertex
 10
32.28354124298552
 20
30.04351374908689
 30
0.0
  0
VERTEX
  5
1ED
330
1E4
100
AcDbEntity
  8
Visible (ANSI)
100
AcDbVertex
100
AcDb2dVertex
 10
32.28208119905207
 20
30.04688959835546
 30
0.0
  0
VERTEX
  5
1EE
330
1E4
100
AcDbEntity
  8
Visible (ANSI)
100
AcDbVertex
100
AcDb2dVertex
 10
32.28062114338543
 20
30.05074551434492
 30
0.0
  0
VERTEX
  5
1EF
330
1E4
100
AcDbEntity
  8
Visible (ANSI)
100
AcDbVertex
100
AcDb2dVertex
 10
32.27916108771878
 20
30.05506498844598
 30
0.0
  0
VERTEX
  5
1F0
330
1E4
100
AcDbEntity
  8
Visible (ANSI)
100
AcDbVertex
100
AcDb2dVertex
 10
32.27770103205213
 20
30.05982952180569
 30
0.0
  0
VERTEX
  5
1F1
330
1E4
100
AcDbEntity
  8
Visible (ANSI)
100
AcDbVertex
100
AcDb2dVertex
 10
32.27624098811869
 20
30.06501871332638
 30
0.0
  0
VERTEX
  5
1F2
330
1E4
100
AcDbEntity
  8
Visible (ANSI)
100
AcDbVertex
100
AcDb2dVertex
 10
32.27478093245204
 20
30.07061034179807
 30
0.0
  0
VERTEX
  5
1F3
330
1E4
100
AcDbEntity
  8
Visible (ANSI)
100
AcDbVertex
100
AcDb2dVertex
 10
32.27332087678539
 20
30.07658046269739
 30
0.0
  0
VERTEX
  5
1F4
330
1E4
100
AcDbEntity
  8
Visible (ANSI)
100
AcDbVertex
100
AcDb2dVertex
 10
32.27186082111874
 20
30.08290351231965
 30
0.0
  0
VERTEX
  5
1F5
330
1E4
100
AcDbEntity
  8
Visible (ANSI)
100
AcDbVertex
100
AcDb2dVertex
 10
32.27040077718529
 20
30.08955241337764
 30
0.0
  0
VERTEX
  5
1F6
330
1E4
100
AcDbEntity
  8
Visible (ANSI)
100
AcDbVertex
100
AcDb2dVertex
 10
32.26894072151865
 20
30.09649868940034
 30
0.0
  0
VERTEX
  5
1F7
330
1E4
100
AcDbEntity
  8
Visible (ANSI)
100
AcDbVertex
100
AcDb2dVertex
 10
32.26748066585201
 20
30.10371260553123
 30
0.0
  0
VERTEX
  5
1F8
330
1E4
100
AcDbEntity
  8
Visible (ANSI)
100
AcDbVertex
100
AcDb2dVertex
 10
32.26602062191856
 20
30.11116326239394
 30
0.0
  0
VERTEX
  5
1F9
330
1E4
100
AcDbEntity
  8
Visible (ANSI)
100
AcDbVertex
100
AcDb2dVertex
 10
32.26456056625192
 20
30.11881875742368
 30
0.0
  0
VERTEX
  5
1FA
330
1E4
100
AcDbEntity
  8
Visible (ANSI)
100
AcDbVertex
100
AcDb2dVertex
 10
32.26310051058527
 20
30.12664630806581
 30
0.0
  0
VERTEX
  5
1FB
330
1E4
100
AcDbEntity
  8
Visible (ANSI)
100
AcDbVertex
100
AcDb2dVertex
 10
32.26164045491862
 20
30.13461239844085
 30
0.0
  0
VERTEX
  5
1FC
330
1E4
100
AcDbEntity
  8
Visible (ANSI)
100
AcDbVertex
100
AcDb2dVertex
 10
32.26018041098518
 20
30.14268291427623
 30
0.0
  0
VERTEX
  5
1FD
330
1E4
100
AcDbEntity
  8
Visible (ANSI)
100
AcDbVertex
100
AcDb2dVertex
 10
32.25872035531853
 20
30.15082330130445
 30
0.0
  0
VERTEX
  5
1FE
330
1E4
100
AcDbEntity
  8
Visible (ANSI)
100
AcDbVertex
100
AcDb2dVertex
 10
32.25726029965188
 20
30.15899868846168
 30
0.0
  0
SEQEND
  5
1E7
330
1E4
100
AcDbEntity
  8
Visible (ANSI)
  0
LINE
  5
1FF
330
6C
100
AcDbEntity
  8
Hidden (ANSI)
100
AcDbLine
 10
52.03851030152919
 20
30.19403995107523
 30
0.0
 11
52.13226030152919
 21
30.19403995107523
 31
0.0
  0
POLYLINE
  5
200
330
6C
100
AcDbEntity
  8
Hidden (ANSI)
100
AcDb2dPolyline
 66
     1
 10
0.0
 20
0.0
 30
0.0
 70
   128
  0
VERTEX
  5
201
330
200
100
AcDbEntity
  8
Hidden (ANSI)
100
AcDbVertex
100
AcDb2dVertex
 10
52.00725958064151
 20
30.15899868846168
 30
0.0
  0
VERTEX
  5
202
330
200
100
AcDbEntity
  8
Hidden (ANSI)
100
AcDbVertex
100
AcDb2dVertex
 10
52.00930359756219
 20
30.16045874412833
 30
0.0
  0
VERTEX
  5
204
330
200
100
AcDbEntity
  8
Hidden (ANSI)
100
AcDbVertex
100
AcDb2dVertex
 10
52.01133860338696
 20
30.16191879979497
 30
0.0
  0
VERTEX
  5
205
330
200
100
AcDbEntity
  8
Hidden (ANSI)
100
AcDbVertex
100
AcDb2dVertex
 10
52.01335708886925
 20
30.16337884372842
 30
0.0
  0
VERTEX
  5
206
330
200
100
AcDbEntity
  8
Hidden (ANSI)
100
AcDbVertex
100
AcDb2dVertex
 10
52.01534854106383
 20
30.16483889939507
 30
0.0
  0
VERTEX
  5
207
330
200
100
AcDbEntity
  8
Hidden (ANSI)
100
AcDbVertex
100
AcDb2dVertex
 10
52.01730545072411
 20
30.16629895506171
 30
0.0
  0
VERTEX
  5
208
330
200
100
AcDbEntity
  8
Hidden (ANSI)
100
AcDbVertex
100
AcDb2dVertex
 10
52.01921880675419
 20
30.16775901072836
 30
0.0
  0
VERTEX
  5
209
330
200
100
AcDbEntity
  8
Hidden (ANSI)
100
AcDbVertex
100
AcDb2dVertex
 10
52.02108109990749
 20
30.16921905466181
 30
0.0
  0
VERTEX
  5
20A
330
200
100
AcDbEntity
  8
Hidden (ANSI)
100
AcDbVertex
100
AcDb2dVertex
 10
52.02288482093742
 20
30.17067911032845
 30
0.0
  0
VERTEX
  5
20B
330
200
100
AcDbEntity
  8
Hidden (ANSI)
100
AcDbVertex
100
AcDb2dVertex
 10
52.02462246059738
 20
30.17213916599509
 30
0.0
  0
VERTEX
  5
20C
330
200
100
AcDbEntity
  8
Hidden (ANSI)
100
AcDbVertex
100
AcDb2dVertex
 10
52.02628350594218
 20
30.17359920992854
 30
0.0
  0
VERTEX
  5
20D
330
200
100
AcDbEntity
  8
Hidden (ANSI)
100
AcDbVertex
100
AcDb2dVertex
 10
52.02786495327316
 20
30.17505926559519
 30
0.0
  0
VERTEX
  5
20E
330
200
100
AcDbEntity
  8
Hidden (ANSI)
100
AcDbVertex
100
AcDb2dVertex
 10
52.02935779149444
 20
30.17651932126184
 30
0.0
  0
VERTEX
  5
20F
330
200
100
AcDbEntity
  8
Hidden (ANSI)
100
AcDbVertex
100
AcDb2dVertex
 10
52.03075601320872
 20
30.17797937692848
 30
0.0
  0
VERTEX
  5
210
330
200
100
AcDbEntity
  8
Hidden (ANSI)
100
AcDbVertex
100
AcDb2dVertex
 10
52.03205210916944
 20
30.17943942086193
 30
0.0
  0
VERTEX
  5
211
330
200
100
AcDbEntity
  8
Hidden (ANSI)
100
AcDbVertex
100
AcDb2dVertex
 10
52.03324307567797
 20
30.18089947652858
 30
0.0
  0
VERTEX
  5
212
330
200
100
AcDbEntity
  8
Hidden (ANSI)
100
AcDbVertex
100
AcDb2dVertex
 10
52.03432290533701
 20
30.18235953219522
 30
0.0
  0
VERTEX
  5
213
330
200
100
AcDbEntity
  8
Hidden (ANSI)
100
AcDbVertex
100
AcDb2dVertex
 10
52.03528709259864
 20
30.18381958786187
 30
0.0
  0
VERTEX
  5
214
330
200
100
AcDbEntity
  8
Hidden (ANSI)
100
AcDbVertex
100
AcDb2dVertex
 10
52.0361311319149
 20
30.18527963179531
 30
0.0
  0
VERTEX
  5
215
330
200
100
AcDbEntity
  8
Hidden (ANSI)
100
AcDbVertex
100
AcDb2dVertex
 10
52.03685201958714
 20
30.18673968746196
 30
0.0
  0
VERTEX
  5
216
330
200
100
AcDbEntity
  8
Hidden (ANSI)
100
AcDbVertex
100
AcDb2dVertex
 10
52.03744525006743
 20
30.1881997431286
 30
0.0
  0
VERTEX
  5
217
330
200
100
AcDbEntity
  8
Hidden (ANSI)
100
AcDbVertex
100
AcDb2dVertex
 10
52.03790932150643
 20
30.18965979879525
 30
0.0
  0
VERTEX
  5
218
330
200
100
AcDbEntity
  8
Hidden (ANSI)
100
AcDbVertex
100
AcDb2dVertex
 10
52.03824273205484
 20
30.1911198427287
 30
0.0
  0
VERTEX
  5
219
330
200
100
AcDbEntity
  8
Hidden (ANSI)
100
AcDbVertex
100
AcDb2dVertex
 10
52.03844397986335
 20
30.19257989839534
 30
0.0
  0
VERTEX
  5
21A
330
200
100
AcDbEntity
  8
Hidden (ANSI)
100
AcDbVertex
100
AcDb2dVertex
 10
52.0385100612333
 20
30.19403995406199
 30
0.0
  0
SEQEND
  5
203
330
200
100
AcDbEntity
  8
Hidden (ANSI)
  0
LINE
  5
21B
330
6C
100
AcDbEntity
  8
Hidden (ANSI)
100
AcDbLine
 10
52.03851030152918
 20
69.75395742960273
 30
0.0
 11
52.13226030152918
 21
69.75395742960273
 31
0.0
  0
POLYLINE
  5
21C
330
6C
100
AcDbEntity
  8
Hidden (ANSI)
100
AcDb2dPolyline
 66
     1
 10
0.0
 20
0.0
 30
0.0
 70
   128
  0
VERTEX
  5
21D
330
21C
100
AcDbEntity
  8
Hidden (ANSI)
100
AcDbVertex
100
AcDb2dVertex
 10
52.00725958064151
 20
69.78899840678984
 30
0.0
  0
VERTEX
  5
21E
330
21C
100
AcDbEntity
  8
Hidden (ANSI)
100
AcDbVertex
100
AcDb2dVertex
 10
52.00930359756219
 20
69.78753860925355
 30
0.0
  0
VERTEX
  5
220
330
21C
100
AcDbEntity
  8
Hidden (ANSI)
100
AcDbVertex
100
AcDb2dVertex
 10
52.01133860338696
 20
69.78607881171725
 30
0.0
  0
VERTEX
  5
221
330
21C
100
AcDbEntity
  8
Hidden (ANSI)
100
AcDbVertex
100
AcDb2dVertex
 10
52.01335708886925
 20
69.78461901418096
 30
0.0
  0
VERTEX
  5
222
330
21C
100
AcDbEntity
  8
Hidden (ANSI)
100
AcDbVertex
100
AcDb2dVertex
 10
52.01534854106383
 20
69.78315921664465
 30
0.0
  0
VERTEX
  5
223
330
21C
100
AcDbEntity
  8
Hidden (ANSI)
100
AcDbVertex
100
AcDb2dVertex
 10
52.01730545072411
 20
69.78169941910836
 30
0.0
  0
VERTEX
  5
224
330
21C
100
AcDbEntity
  8
Hidden (ANSI)
100
AcDbVertex
100
AcDb2dVertex
 10
52.01921880675419
 20
69.78023962157208
 30
0.0
  0
VERTEX
  5
225
330
21C
100
AcDbEntity
  8
Hidden (ANSI)
100
AcDbVertex
100
AcDb2dVertex
 10
52.02108109990749
 20
69.77877982403578
 30
0.0
  0
VERTEX
  5
226
330
21C
100
AcDbEntity
  8
Hidden (ANSI)
100
AcDbVertex
100
AcDb2dVertex
 10
52.02288482093742
 20
69.77731702280085
 30
0.0
  0
VERTEX
  5
227
330
21C
100
AcDbEntity
  8
Hidden (ANSI)
100
AcDbVertex
100
AcDb2dVertex
 10
52.02462246059738
 20
69.77585722526455
 30
0.0
  0
VERTEX
  5
228
330
21C
100
AcDbEntity
  8
Hidden (ANSI)
100
AcDbVertex
100
AcDb2dVertex
 10
52.02628350594218
 20
69.77439742772826
 30
0.0
  0
VERTEX
  5
229
330
21C
100
AcDbEntity
  8
Hidden (ANSI)
100
AcDbVertex
100
AcDb2dVertex
 10
52.02786495327316
 20
69.77293763019196
 30
0.0
  0
VERTEX
  5
22A
330
21C
100
AcDbEntity
  8
Hidden (ANSI)
100
AcDbVertex
100
AcDb2dVertex
 10
52.02935779149444
 20
69.77147783265568
 30
0.0
  0
VERTEX
  5
22B
330
21C
100
AcDbEntity
  8
Hidden (ANSI)
100
AcDbVertex
100
AcDb2dVertex
 10
52.03075601320872
 20
69.77001803511936
 30
0.0
  0
VERTEX
  5
22C
330
21C
100
AcDbEntity
  8
Hidden (ANSI)
100
AcDbVertex
100
AcDb2dVertex
 10
52.03205210916944
 20
69.7685582375831
 30
0.0
  0
VERTEX
  5
22D
330
21C
100
AcDbEntity
  8
Hidden (ANSI)
100
AcDbVertex
100
AcDb2dVertex
 10
52.03324307567797
 20
69.76709844004679
 30
0.0
  0
VERTEX
  5
22E
330
21C
100
AcDbEntity
  8
Hidden (ANSI)
100
AcDbVertex
100
AcDb2dVertex
 10
52.03432290533701
 20
69.76563864251049
 30
0.0
  0
VERTEX
  5
22F
330
21C
100
AcDbEntity
  8
Hidden (ANSI)
100
AcDbVertex
100
AcDb2dVertex
 10
52.03528709259864
 20
69.76417884497421
 30
0.0
  0
VERTEX
  5
230
330
21C
100
AcDbEntity
  8
Hidden (ANSI)
100
AcDbVertex
100
AcDb2dVertex
 10
52.0361311319149
 20
69.76271904743789
 30
0.0
  0
VERTEX
  5
231
330
21C
100
AcDbEntity
  8
Hidden (ANSI)
100
AcDbVertex
100
AcDb2dVertex
 10
52.03685201958714
 20
69.76125624620298
 30
0.0
  0
VERTEX
  5
232
330
21C
100
AcDbEntity
  8
Hidden (ANSI)
100
AcDbVertex
100
AcDb2dVertex
 10
52.03744525006743
 20
69.75979644866668
 30
0.0
  0
VERTEX
  5
233
330
21C
100
AcDbEntity
  8
Hidden (ANSI)
100
AcDbVertex
100
AcDb2dVertex
 10
52.03790932150643
 20
69.75833665113039
 30
0.0
  0
VERTEX
  5
234
330
21C
100
AcDbEntity
  8
Hidden (ANSI)
100
AcDbVertex
100
AcDb2dVertex
 10
52.03824273205484
 20
69.75687685359409
 30
0.0
  0
VERTEX
  5
235
330
21C
100
AcDbEntity
  8
Hidden (ANSI)
100
AcDbVertex
100
AcDb2dVertex
 10
52.03844397986335
 20
69.75541705605781
 30
0.0
  0
VERTEX
  5
236
330
21C
100
AcDbEntity
  8
Hidden (ANSI)
100
AcDbVertex
100
AcDb2dVertex
 10
52.0385100612333
 20
69.75395725852151
 30
0.0
  0
SEQEND
  5
21F
330
21C
100
AcDbEntity
  8
Hidden (ANSI)
  0
LINE
  5
237
330
6C
100
AcDbEntity
  8
Hidden (ANSI)
100
AcDbLine
 10
51.97221904079294
 20
69.82024869033899
 30
0.0
 11
51.97221904079294
 21
69.91399869033898
 31
0.0
  0
POLYLINE
  5
238
330
6C
100
AcDbEntity
  8
Hidden (ANSI)
100
AcDb2dPolyline
 66
     1
 10
0.0
 20
0.0
 30
0.0
 70
   128
  0
VERTEX
  5
239
330
238
100
AcDbEntity
  8
Hidden (ANSI)
100
AcDbVertex
100
AcDb2dVertex
 10
52.00725958064151
 20
69.78899840678984
 30
0.0
  0
VERTEX
  5
23A
330
238
100
AcDbEntity
  8
Hidden (ANSI)
100
AcDbVertex
100
AcDb2dVertex
 10
52.00579978310523
 20
69.79104392555981
 30
0.0
  0
VERTEX
  5
23C
330
238
100
AcDbEntity
  8
Hidden (ANSI)
100
AcDbVertex
100
AcDb2dVertex
 10
52.00433998556893
 20
69.79307742953529
 30
0.0
  0
VERTEX
  5
23D
330
238
100
AcDbEntity
  8
Hidden (ANSI)
100
AcDbVertex
100
AcDb2dVertex
 10
52.00288018803264
 20
69.79509591501757
 30
0.0
  0
VERTEX
  5
23E
330
238
100
AcDbEntity
  8
Hidden (ANSI)
100
AcDbVertex
100
AcDb2dVertex
 10
52.00142039049634
 20
69.79708736721214
 30
0.0
  0
VERTEX
  5
23F
330
238
100
AcDbEntity
  8
Hidden (ANSI)
100
AcDbVertex
100
AcDb2dVertex
 10
51.99996059296005
 20
69.79904277502311
 30
0.0
  0
VERTEX
  5
240
330
238
100
AcDbEntity
  8
Hidden (ANSI)
100
AcDbVertex
100
AcDb2dVertex
 10
51.99849929357444
 20
69.80095613105318
 30
0.0
  0
VERTEX
  5
241
330
238
100
AcDbEntity
  8
Hidden (ANSI)
100
AcDbVertex
100
AcDb2dVertex
 10
51.99703949603814
 20
69.80282142790513
 30
0.0
  0
VERTEX
  5
242
330
238
100
AcDbEntity
  8
Hidden (ANSI)
100
AcDbVertex
100
AcDb2dVertex
 10
51.99557969850185
 20
69.80462364708573
 30
0.0
  0
VERTEX
  5
243
330
238
100
AcDbEntity
  8
Hidden (ANSI)
100
AcDbVertex
100
AcDb2dVertex
 10
51.99411990096556
 20
69.80635978489639
 30
0.0
  0
VERTEX
  5
244
330
238
100
AcDbEntity
  8
Hidden (ANSI)
100
AcDbVertex
100
AcDb2dVertex
 10
51.99266010342927
 20
69.80802383393982
 30
0.0
  0
VERTEX
  5
245
330
238
100
AcDbEntity
  8
Hidden (ANSI)
100
AcDbVertex
100
AcDb2dVertex
 10
51.99120030589297
 20
69.80960377942148
 30
0.0
  0
VERTEX
  5
246
330
238
100
AcDbEntity
  8
Hidden (ANSI)
100
AcDbVertex
100
AcDb2dVertex
 10
51.98973900650735
 20
69.81109661764276
 30
0.0
  0
VERTEX
  5
247
330
238
100
AcDbEntity
  8
Hidden (ANSI)
100
AcDbVertex
100
AcDb2dVertex
 10
51.98827920897106
 20
69.81249333750773
 30
0.0
  0
VERTEX
  5
248
330
238
100
AcDbEntity
  8
Hidden (ANSI)
100
AcDbVertex
100
AcDb2dVertex
 10
51.98681941143476
 20
69.81379093531777
 30
0.0
  0
VERTEX
  5
249
330
238
100
AcDbEntity
  8
Hidden (ANSI)
100
AcDbVertex
100
AcDb2dVertex
 10
51.98535961389847
 20
69.8149834036756
 30
0.0
  0
VERTEX
  5
24A
330
238
100
AcDbEntity
  8
Hidden (ANSI)
100
AcDbVertex
100
AcDb2dVertex
 10
51.98389981636218
 20
69.81606173148533
 30
0.0
  0
VERTEX
  5
24B
330
238
100
AcDbEntity
  8
Hidden (ANSI)
100
AcDbVertex
100
AcDb2dVertex
 10
51.98244001882589
 20
69.81702591874695
 30
0.0
  0
VERTEX
  5
24C
330
238
100
AcDbEntity
  8
Hidden (ANSI)
100
AcDbVertex
100
AcDb2dVertex
 10
51.98097871944027
 20
69.81786995806323
 30
0.0
  0
VERTEX
  5
24D
330
238
100
AcDbEntity
  8
Hidden (ANSI)
100
AcDbVertex
100
AcDb2dVertex
 10
51.97951892190398
 20
69.81859084573547
 30
0.0
  0
VERTEX
  5
24E
330
238
100
AcDbEntity
  8
Hidden (ANSI)
100
AcDbVertex
100
AcDb2dVertex
 10
51.97805912436768
 20
69.81918257436642
 30
0.0
  0
VERTEX
  5
24F
330
238
100
AcDbEntity
  8
Hidden (ANSI)
100
AcDbVertex
100
AcDb2dVertex
 10
51.97659932683139
 20
69.81964814765475
 30
0.0
  0
VERTEX
  5
250
330
238
100
AcDbEntity
  8
Hidden (ANSI)
100
AcDbVertex
100
AcDb2dVertex
 10
51.9751395292951
 20
69.81998155820317
 30
0.0
  0
VERTEX
  5
251
330
238
100
AcDbEntity
  8
Hidden (ANSI)
100
AcDbVertex
100
AcDb2dVertex
 10
51.9736797317588
 20
69.82018280601167
 30
0.0
  0
VERTEX
  5
252
330
238
100
AcDbEntity
  8
Hidden (ANSI)
100
AcDbVertex
100
AcDb2dVertex
 10
51.97221843237318
 20
69.82024888738163
 30
0.0
  0
SEQEND
  5
23B
330
238
100
AcDbEntity
  8
Hidden (ANSI)
  0
LINE
  5
253
330
6C
100
AcDbEntity
  8
Hidden (ANSI)
100
AcDbLine
 10
32.29230156226542
 20
69.82024869033901
 30
0.0
 11
32.29230156226542
 21
69.91399869033902
 31
0.0
  0
POLYLINE
  5
254
330
6C
100
AcDbEntity
  8
Hidden (ANSI)
100
AcDb2dPolyline
 66
     1
 10
0.0
 20
0.0
 30
0.0
 70
   128
  0
VERTEX
  5
255
330
254
100
AcDbEntity
  8
Hidden (ANSI)
100
AcDbVertex
100
AcDb2dVertex
 10
32.25726029965188
 20
69.78899840678984
 30
0.0
  0
VERTEX
  5
256
330
254
100
AcDbEntity
  8
Hidden (ANSI)
100
AcDbVertex
100
AcDb2dVertex
 10
32.25872035531853
 20
69.79104392555981
 30
0.0
  0
VERTEX
  5
258
330
254
100
AcDbEntity
  8
Hidden (ANSI)
100
AcDbVertex
100
AcDb2dVertex
 10
32.26018041098518
 20
69.79307742953529
 30
0.0
  0
VERTEX
  5
259
330
254
100
AcDbEntity
  8
Hidden (ANSI)
100
AcDbVertex
100
AcDb2dVertex
 10
32.26164045491862
 20
69.79509591501757
 30
0.0
  0
VERTEX
  5
25A
330
254
100
AcDbEntity
  8
Hidden (ANSI)
100
AcDbVertex
100
AcDb2dVertex
 10
32.26310051058527
 20
69.79708736721214
 30
0.0
  0
VERTEX
  5
25B
330
254
100
AcDbEntity
  8
Hidden (ANSI)
100
AcDbVertex
100
AcDb2dVertex
 10
32.26456056625192
 20
69.79904277502311
 30
0.0
  0
VERTEX
  5
25C
330
254
100
AcDbEntity
  8
Hidden (ANSI)
100
AcDbVertex
100
AcDb2dVertex
 10
32.26602062191856
 20
69.80095613105318
 30
0.0
  0
VERTEX
  5
25D
330
254
100
AcDbEntity
  8
Hidden (ANSI)
100
AcDbVertex
100
AcDb2dVertex
 10
32.26748066585201
 20
69.80282142790513
 30
0.0
  0
VERTEX
  5
25E
330
254
100
AcDbEntity
  8
Hidden (ANSI)
100
AcDbVertex
100
AcDb2dVertex
 10
32.26894072151865
 20
69.80462364708573
 30
0.0
  0
VERTEX
  5
25F
330
254
100
AcDbEntity
  8
Hidden (ANSI)
100
AcDbVertex
100
AcDb2dVertex
 10
32.27040077718529
 20
69.80635978489639
 30
0.0
  0
VERTEX
  5
260
330
254
100
AcDbEntity
  8
Hidden (ANSI)
100
AcDbVertex
100
AcDb2dVertex
 10
32.27186082111874
 20
69.80802383393982
 30
0.0
  0
VERTEX
  5
261
330
254
100
AcDbEntity
  8
Hidden (ANSI)
100
AcDbVertex
100
AcDb2dVertex
 10
32.27332087678539
 20
69.80960377942148
 30
0.0
  0
VERTEX
  5
262
330
254
100
AcDbEntity
  8
Hidden (ANSI)
100
AcDbVertex
100
AcDb2dVertex
 10
32.27478093245204
 20
69.81109661764276
 30
0.0
  0
VERTEX
  5
263
330
254
100
AcDbEntity
  8
Hidden (ANSI)
100
AcDbVertex
100
AcDb2dVertex
 10
32.27624098811869
 20
69.81249333750773
 30
0.0
  0
VERTEX
  5
264
330
254
100
AcDbEntity
  8
Hidden (ANSI)
100
AcDbVertex
100
AcDb2dVertex
 10
32.27770103205213
 20
69.81379093531777
 30
0.0
  0
VERTEX
  5
265
330
254
100
AcDbEntity
  8
Hidden (ANSI)
100
AcDbVertex
100
AcDb2dVertex
 10
32.27916108771878
 20
69.8149834036756
 30
0.0
  0
VERTEX
  5
266
330
254
100
AcDbEntity
  8
Hidden (ANSI)
100
AcDbVertex
100
AcDb2dVertex
 10
32.28062114338543
 20
69.81606173148533
 30
0.0
  0
VERTEX
  5
267
330
254
100
AcDbEntity
  8
Hidden (ANSI)
100
AcDbVertex
100
AcDb2dVertex
 10
32.28208119905207
 20
69.81702591874695
 30
0.0
  0
VERTEX
  5
268
330
254
100
AcDbEntity
  8
Hidden (ANSI)
100
AcDbVertex
100
AcDb2dVertex
 10
32.28354124298552
 20
69.81786995806323
 30
0.0
  0
VERTEX
  5
269
330
254
100
AcDbEntity
  8
Hidden (ANSI)
100
AcDbVertex
100
AcDb2dVertex
 10
32.28500129865216
 20
69.81859084573547
 30
0.0
  0
VERTEX
  5
26A
330
254
100
AcDbEntity
  8
Hidden (ANSI)
100
AcDbVertex
100
AcDb2dVertex
 10
32.28646135431881
 20
69.81918257436642
 30
0.0
  0
VERTEX
  5
26B
330
254
100
AcDbEntity
  8
Hidden (ANSI)
100
AcDbVertex
100
AcDb2dVertex
 10
32.28792140998545
 20
69.81964814765475
 30
0.0
  0
VERTEX
  5
26C
330
254
100
AcDbEntity
  8
Hidden (ANSI)
100
AcDbVertex
100
AcDb2dVertex
 10
32.2893814539189
 20
69.81998155820317
 30
0.0
  0
VERTEX
  5
26D
330
254
100
AcDbEntity
  8
Hidden (ANSI)
100
AcDbVertex
100
AcDb2dVertex
 10
32.29084150958555
 20
69.82018280601167
 30
0.0
  0
VERTEX
  5
26E
330
254
100
AcDbEntity
  8
Hidden (ANSI)
100
AcDbVertex
100
AcDb2dVertex
 10
32.2923015652522
 20
69.82024888738163
 30
0.0
  0
SEQEND
  5
257
330
254
100
AcDbEntity
  8
Hidden (ANSI)
  0
LINE
  5
26F
330
6C
100
AcDbEntity
  8
Hidden (ANSI)
100
AcDbLine
 10
32.22601030152918
 20
69.75395742960275
 30
0.0
 11
32.13226030152918
 21
69.75395742960275
 31
0.0
  0
POLYLINE
  5
270
330
6C
100
AcDbEntity
  8
Hidden (ANSI)
100
AcDb2dPolyline
 66
     1
 10
0.0
 20
0.0
 30
0.0
 70
   128
  0
VERTEX
  5
271
330
270
100
AcDbEntity
  8
Hidden (ANSI)
100
AcDbVertex
100
AcDb2dVertex
 10
32.25726029965188
 20
69.78899840678984
 30
0.0
  0
VERTEX
  5
272
330
270
100
AcDbEntity
  8
Hidden (ANSI)
100
AcDbVertex
100
AcDb2dVertex
 10
32.25521645872917
 20
69.78753860925355
 30
0.0
  0
VERTEX
  5
274
330
270
100
AcDbEntity
  8
Hidden (ANSI)
100
AcDbVertex
100
AcDb2dVertex
 10
32.25318135903882
 20
69.78607881171725
 30
0.0
  0
VERTEX
  5
275
330
270
100
AcDbEntity
  8
Hidden (ANSI)
100
AcDbVertex
100
AcDb2dVertex
 10
32.25116373007998
 20
69.78461901418096
 30
0.0
  0
VERTEX
  5
276
330
270
100
AcDbEntity
  8
Hidden (ANSI)
100
AcDbVertex
100
AcDb2dVertex
 10
32.24917220748622
 20
69.78315921664465
 30
0.0
  0
VERTEX
  5
277
330
270
100
AcDbEntity
  8
Hidden (ANSI)
100
AcDbVertex
100
AcDb2dVertex
 10
32.24721532129233
 20
69.78169941910836
 30
0.0
  0
VERTEX
  5
278
330
270
100
AcDbEntity
  8
Hidden (ANSI)
100
AcDbVertex
100
AcDb2dVertex
 10
32.24530144900155
 20
69.78023962157208
 30
0.0
  0
VERTEX
  5
279
330
270
100
AcDbEntity
  8
Hidden (ANSI)
100
AcDbVertex
100
AcDb2dVertex
 10
32.24343878038592
 20
69.77877982403578
 30
0.0
  0
VERTEX
  5
27A
330
270
100
AcDbEntity
  8
Hidden (ANSI)
100
AcDbVertex
100
AcDb2dVertex
 10
32.24163530575315
 20
69.77731702280085
 30
0.0
  0
VERTEX
  5
27B
330
270
100
AcDbEntity
  8
Hidden (ANSI)
100
AcDbVertex
100
AcDb2dVertex
 10
32.23989873381418
 20
69.77585722526455
 30
0.0
  0
VERTEX
  5
27C
330
270
100
AcDbEntity
  8
Hidden (ANSI)
100
AcDbVertex
100
AcDb2dVertex
 10
32.2382365034164
 20
69.77439742772826
 30
0.0
  0
VERTEX
  5
27D
330
270
100
AcDbEntity
  8
Hidden (ANSI)
100
AcDbVertex
100
AcDb2dVertex
 10
32.23665574834408
 20
69.77293763019196
 30
0.0
  0
VERTEX
  5
27E
330
270
100
AcDbEntity
  8
Hidden (ANSI)
100
AcDbVertex
100
AcDb2dVertex
 10
32.23516321518596
 20
69.77147783265568
 30
0.0
  0
VERTEX
  5
27F
330
270
100
AcDbEntity
  8
Hidden (ANSI)
100
AcDbVertex
100
AcDb2dVertex
 10
32.23376531026801
 20
69.77001803511936
 30
0.0
  0
VERTEX
  5
280
330
270
100
AcDbEntity
  8
Hidden (ANSI)
100
AcDbVertex
100
AcDb2dVertex
 10
32.23246800578792
 20
69.7685582375831
 30
0.0
  0
VERTEX
  5
281
330
270
100
AcDbEntity
  8
Hidden (ANSI)
100
AcDbVertex
100
AcDb2dVertex
 10
32.23127687501462
 20
69.76709844004679
 30
0.0
  0
VERTEX
  5
282
330
270
100
AcDbEntity
  8
Hidden (ANSI)
100
AcDbVertex
100
AcDb2dVertex
 10
32.23019701015598
 20
69.76563864251049
 30
0.0
  0
VERTEX
  5
283
330
270
100
AcDbEntity
  8
Hidden (ANSI)
100
AcDbVertex
100
AcDb2dVertex
 10
32.22923302822531
 20
69.76417884497421
 30
0.0
  0
VERTEX
  5
284
330
270
100
AcDbEntity
  8
Hidden (ANSI)
100
AcDbVertex
100
AcDb2dVertex
 10
32.22838906517484
 20
69.76271904743789
 30
0.0
  0
VERTEX
  5
285
330
270
100
AcDbEntity
  8
Hidden (ANSI)
100
AcDbVertex
100
AcDb2dVertex
 10
32.2276687348295
 20
69.76125624620298
 30
0.0
  0
VERTEX
  5
286
330
270
100
AcDbEntity
  8
Hidden (ANSI)
100
AcDbVertex
100
AcDb2dVertex
 10
32.22707511715368
 20
69.75979644866668
 30
0.0
  0
VERTEX
  5
287
330
270
100
AcDbEntity
  8
Hidden (ANSI)
100
AcDbVertex
100
AcDb2dVertex
 10
32.22661076411794
 20
69.75833665113039
 30
0.0
  0
VERTEX
  5
288
330
270
100
AcDbEntity
  8
Hidden (ANSI)
100
AcDbVertex
100
AcDb2dVertex
 10
32.22627764689946
 20
69.75687685359409
 30
0.0
  0
VERTEX
  5
289
330
270
100
AcDbEntity
  8
Hidden (ANSI)
100
AcDbVertex
100
AcDb2dVertex
 10
32.22607720868161
 20
69.75541705605781
 30
0.0
  0
VERTEX
  5
28A
330
270
100
AcDbEntity
  8
Hidden (ANSI)
100
AcDbVertex
100
AcDb2dVertex
 10
32.22601030012121
 20
69.75395725852151
 30
0.0
  0
SEQEND
  5
273
330
270
100
AcDbEntity
  8
Hidden (ANSI)
  0
LINE
  5
28B
330
6C
100
AcDbEntity
  8
Hidden (ANSI)
100
AcDbLine
 10
32.22601030152919
 20
30.19403995107523
 30
0.0
 11
32.13226030152919
 21
30.19403995107523
 31
0.0
  0
POLYLINE
  5
28C
330
6C
100
AcDbEntity
  8
Hidden (ANSI)
100
AcDb2dPolyline
 66
     1
 10
0.0
 20
0.0
 30
0.0
 70
   128
  0
VERTEX
  5
28D
330
28C
100
AcDbEntity
  8
Hidden (ANSI)
100
AcDbVertex
100
AcDb2dVertex
 10
32.25726029965188
 20
30.15899868846168
 30
0.0
  0
VERTEX
  5
28E
330
28C
100
AcDbEntity
  8
Hidden (ANSI)
100
AcDbVertex
100
AcDb2dVertex
 10
32.25521645872917
 20
30.16045874412833
 30
0.0
  0
VERTEX
  5
290
330
28C
100
AcDbEntity
  8
Hidden (ANSI)
100
AcDbVertex
100
AcDb2dVertex
 10
32.25318135903882
 20
30.16191879979497
 30
0.0
  0
VERTEX
  5
291
330
28C
100
AcDbEntity
  8
Hidden (ANSI)
100
AcDbVertex
100
AcDb2dVertex
 10
32.25116373007998
 20
30.16337884372842
 30
0.0
  0
VERTEX
  5
292
330
28C
100
AcDbEntity
  8
Hidden (ANSI)
100
AcDbVertex
100
AcDb2dVertex
 10
32.24917220748622
 20
30.16483889939507
 30
0.0
  0
VERTEX
  5
293
330
28C
100
AcDbEntity
  8
Hidden (ANSI)
100
AcDbVertex
100
AcDb2dVertex
 10
32.24721532129233
 20
30.16629895506171
 30
0.0
  0
VERTEX
  5
294
330
28C
100
AcDbEntity
  8
Hidden (ANSI)
100
AcDbVertex
100
AcDb2dVertex
 10
32.24530144900155
 20
30.16775901072836
 30
0.0
  0
VERTEX
  5
295
330
28C
100
AcDbEntity
  8
Hidden (ANSI)
100
AcDbVertex
100
AcDb2dVertex
 10
32.24343878038592
 20
30.16921905466181
 30
0.0
  0
VERTEX
  5
296
330
28C
100
AcDbEntity
  8
Hidden (ANSI)
100
AcDbVertex
100
AcDb2dVertex
 10
32.24163530575315
 20
30.17067911032845
 30
0.0
  0
VERTEX
  5
297
330
28C
100
AcDbEntity
  8
Hidden (ANSI)
100
AcDbVertex
100
AcDb2dVertex
 10
32.23989873381418
 20
30.17213916599509
 30
0.0
  0
VERTEX
  5
298
330
28C
100
AcDbEntity
  8
Hidden (ANSI)
100
AcDbVertex
100
AcDb2dVertex
 10
32.2382365034164
 20
30.17359920992854
 30
0.0
  0
VERTEX
  5
299
330
28C
100
AcDbEntity
  8
Hidden (ANSI)
100
AcDbVertex
100
AcDb2dVertex
 10
32.23665574834408
 20
30.17505926559519
 30
0.0
  0
VERTEX
  5
29A
330
28C
100
AcDbEntity
  8
Hidden (ANSI)
100
AcDbVertex
100
AcDb2dVertex
 10
32.23516321518596
 20
30.17651932126184
 30
0.0
  0
VERTEX
  5
29B
330
28C
100
AcDbEntity
  8
Hidden (ANSI)
100
AcDbVertex
100
AcDb2dVertex
 10
32.23376531026801
 20
30.17797937692848
 30
0.0
  0
VERTEX
  5
29C
330
28C
100
AcDbEntity
  8
Hidden (ANSI)
100
AcDbVertex
100
AcDb2dVertex
 10
32.23246800578792
 20
30.17943942086193
 30
0.0
  0
VERTEX
  5
29D
330
28C
100
AcDbEntity
  8
Hidden (ANSI)
100
AcDbVertex
100
AcDb2dVertex
 10
32.23127687501462
 20
30.18089947652858
 30
0.0
  0
VERTEX
  5
29E
330
28C
100
AcDbEntity
  8
Hidden (ANSI)
100
AcDbVertex
100
AcDb2dVertex
 10
32.23019701015598
 20
30.18235953219522
 30
0.0
  0
VERTEX
  5
29F
330
28C
100
AcDbEntity
  8
Hidden (ANSI)
100
AcDbVertex
100
AcDb2dVertex
 10
32.22923302822531
 20
30.18381958786187
 30
0.0
  0
VERTEX
  5
2A0
330
28C
100
AcDbEntity
  8
Hidden (ANSI)
100
AcDbVertex
100
AcDb2dVertex
 10
32.22838906517484
 20
30.18527963179531
 30
0.0
  0
VERTEX
  5
2A1
330
28C
100
AcDbEntity
  8
Hidden (ANSI)
100
AcDbVertex
100
AcDb2dVertex
 10
32.2276687348295
 20
30.18673968746196
 30
0.0
  0
VERTEX
  5
2A2
330
28C
100
AcDbEntity
  8
Hidden (ANSI)
100
AcDbVertex
100
AcDb2dVertex
 10
32.22707511715368
 20
30.1881997431286
 30
0.0
  0
VERTEX
  5
2A3
330
28C
100
AcDbEntity
  8
Hidden (ANSI)
100
AcDbVertex
100
AcDb2dVertex
 10
32.22661076411794
 20
30.18965979879525
 30
0.0
  0
VERTEX
  5
2A4
330
28C
100
AcDbEntity
  8
Hidden (ANSI)
100
AcDbVertex
100
AcDb2dVertex
 10
32.22627764689946
 20
30.1911198427287
 30
0.0
  0
VERTEX
  5
2A5
330
28C
100
AcDbEntity
  8
Hidden (ANSI)
100
AcDbVertex
100
AcDb2dVertex
 10
32.22607720868161
 20
30.19257989839534
 30
0.0
  0
VERTEX
  5
2A6
330
28C
100
AcDbEntity
  8
Hidden (ANSI)
100
AcDbVertex
100
AcDb2dVertex
 10
32.22601030012121
 20
30.19403995406199
 30
0.0
  0
SEQEND
  5
28F
330
28C
100
AcDbEntity
  8
Hidden (ANSI)
  0
LINE
  5
2A7
330
6C
100
AcDbEntity
  8
Hidden (ANSI)
100
AcDbLine
 10
32.29230156226543
 20
30.12774869033899
 30
0.0
 11
32.29230156226543
 21
30.03399869033899
 31
0.0
  0
POLYLINE
  5
2A8
330
6C
100
AcDbEntity
  8
Hidden (ANSI)
100
AcDb2dPolyline
 66
     1
 10
0.0
 20
0.0
 30
0.0
 70
   128
  0
VERTEX
  5
2A9
330
2A8
100
AcDbEntity
  8
Hidden (ANSI)
100
AcDbVertex
100
AcDb2dVertex
 10
32.25726029965188
 20
30.15899868846168
 30
0.0
  0
VERTEX
  5
2AA
330
2A8
100
AcDbEntity
  8
Hidden (ANSI)
100
AcDbVertex
100
AcDb2dVertex
 10
32.25872035531853
 20
30.15695484753897
 30
0.0
  0
VERTEX
  5
2AC
330
2A8
100
AcDbEntity
  8
Hidden (ANSI)
100
AcDbVertex
100
AcDb2dVertex
 10
32.26018041098518
 20
30.15491974784862
 30
0.0
  0
VERTEX
  5
2AD
330
2A8
100
AcDbEntity
  8
Hidden (ANSI)
100
AcDbVertex
100
AcDb2dVertex
 10
32.26164045491862
 20
30.15290211888977
 30
0.0
  0
VERTEX
  5
2AE
330
2A8
100
AcDbEntity
  8
Hidden (ANSI)
100
AcDbVertex
100
AcDb2dVertex
 10
32.26310051058527
 20
30.15091059629601
 30
0.0
  0
VERTEX
  5
2AF
330
2A8
100
AcDbEntity
  8
Hidden (ANSI)
100
AcDbVertex
100
AcDb2dVertex
 10
32.26456056625192
 20
30.14895371010213
 30
0.0
  0
VERTEX
  5
2B0
330
2A8
100
AcDbEntity
  8
Hidden (ANSI)
100
AcDbVertex
100
AcDb2dVertex
 10
32.26602062191856
 20
30.14703983781135
 30
0.0
  0
VERTEX
  5
2B1
330
2A8
100
AcDbEntity
  8
Hidden (ANSI)
100
AcDbVertex
100
AcDb2dVertex
 10
32.26748066585201
 20
30.14517716919572
 30
0.0
  0
VERTEX
  5
2B2
330
2A8
100
AcDbEntity
  8
Hidden (ANSI)
100
AcDbVertex
100
AcDb2dVertex
 10
32.26894072151865
 20
30.14337369456294
 30
0.0
  0
VERTEX
  5
2B3
330
2A8
100
AcDbEntity
  8
Hidden (ANSI)
100
AcDbVertex
100
AcDb2dVertex
 10
32.27040077718529
 20
30.14163712262397
 30
0.0
  0
VERTEX
  5
2B4
330
2A8
100
AcDbEntity
  8
Hidden (ANSI)
100
AcDbVertex
100
AcDb2dVertex
 10
32.27186082111874
 20
30.1399748922262
 30
0.0
  0
VERTEX
  5
2B5
330
2A8
100
AcDbEntity
  8
Hidden (ANSI)
100
AcDbVertex
100
AcDb2dVertex
 10
32.27332087678539
 20
30.13839413715388
 30
0.0
  0
VERTEX
  5
2B6
330
2A8
100
AcDbEntity
  8
Hidden (ANSI)
100
AcDbVertex
100
AcDb2dVertex
 10
32.27478093245204
 20
30.13690160399575
 30
0.0
  0
VERTEX
  5
2B7
330
2A8
100
AcDbEntity
  8
Hidden (ANSI)
100
AcDbVertex
100
AcDb2dVertex
 10
32.27624098811869
 20
30.1355036990778
 30
0.0
  0
VERTEX
  5
2B8
330
2A8
100
AcDbEntity
  8
Hidden (ANSI)
100
AcDbVertex
100
AcDb2dVertex
 10
32.27770103205213
 20
30.13420639459771
 30
0.0
  0
VERTEX
  5
2B9
330
2A8
100
AcDbEntity
  8
Hidden (ANSI)
100
AcDbVertex
100
AcDb2dVertex
 10
32.27916108771878
 20
30.13301526382442
 30
0.0
  0
VERTEX
  5
2BA
330
2A8
100
AcDbEntity
  8
Hidden (ANSI)
100
AcDbVertex
100
AcDb2dVertex
 10
32.28062114338543
 20
30.13193539896578
 30
0.0
  0
VERTEX
  5
2BB
330
2A8
100
AcDbEntity
  8
Hidden (ANSI)
100
AcDbVertex
100
AcDb2dVertex
 10
32.28208119905207
 20
30.13097141703511
 30
0.0
  0
VERTEX
  5
2BC
330
2A8
100
AcDbEntity
  8
Hidden (ANSI)
100
AcDbVertex
100
AcDb2dVertex
 10
32.28354124298552
 20
30.13012745398464
 30
0.0
  0
VERTEX
  5
2BD
330
2A8
100
AcDbEntity
  8
Hidden (ANSI)
100
AcDbVertex
100
AcDb2dVertex
 10
32.28500129865216
 20
30.1294071236393
 30
0.0
  0
VERTEX
  5
2BE
330
2A8
100
AcDbEntity
  8
Hidden (ANSI)
100
AcDbVertex
100
AcDb2dVertex
 10
32.28646135431881
 20
30.12881350596348
 30
0.0
  0
VERTEX
  5
2BF
330
2A8
100
AcDbEntity
  8
Hidden (ANSI)
100
AcDbVertex
100
AcDb2dVertex
 10
32.28792140998545
 20
30.12834915292773
 30
0.0
  0
VERTEX
  5
2C0
330
2A8
100
AcDbEntity
  8
Hidden (ANSI)
100
AcDbVertex
100
AcDb2dVertex
 10
32.2893814539189
 20
30.12801603570926
 30
0.0
  0
VERTEX
  5
2C1
330
2A8
100
AcDbEntity
  8
Hidden (ANSI)
100
AcDbVertex
100
AcDb2dVertex
 10
32.29084150958555
 20
30.12781559749141
 30
0.0
  0
VERTEX
  5
2C2
330
2A8
100
AcDbEntity
  8
Hidden (ANSI)
100
AcDbVertex
100
AcDb2dVertex
 10
32.2923015652522
 20
30.12774868893101
 30
0.0
  0
SEQEND
  5
2AB
330
2A8
100
AcDbEntity
  8
Hidden (ANSI)
  0
LINE
  5
2C3
330
6C
100
AcDbEntity
  8
Hidden (ANSI)
100
AcDbLine
 10
51.97221904079295
 20
30.12774869033899
 30
0.0
 11
51.97221904079295
 21
30.03399869033899
 31
0.0
  0
POLYLINE
  5
2C4
330
6C
100
AcDbEntity
  8
Hidden (ANSI)
100
AcDb2dPolyline
 66
     1
 10
0.0
 20
0.0
 30
0.0
 70
   128
  0
VERTEX
  5
2C5
330
2C4
100
AcDbEntity
  8
Hidden (ANSI)
100
AcDbVertex
100
AcDb2dVertex
 10
52.00725958064151
 20
30.15899868846168
 30
0.0
  0
VERTEX
  5
2C6
330
2C4
100
AcDbEntity
  8
Hidden (ANSI)
100
AcDbVertex
100
AcDb2dVertex
 10
52.00579978310523
 20
30.15695484753897
 30
0.0
  0
VERTEX
  5
2C8
330
2C4
100
AcDbEntity
  8
Hidden (ANSI)
100
AcDbVertex
100
AcDb2dVertex
 10
52.00433998556893
 20
30.15491974784862
 30
0.0
  0
VERTEX
  5
2C9
330
2C4
100
AcDbEntity
  8
Hidden (ANSI)
100
AcDbVertex
100
AcDb2dVertex
 10
52.00288018803264
 20
30.15290211888977
 30
0.0
  0
VERTEX
  5
2CA
330
2C4
100
AcDbEntity
  8
Hidden (ANSI)
100
AcDbVertex
100
AcDb2dVertex
 10
52.00142039049634
 20
30.15091059629601
 30
0.0
  0
VERTEX
  5
2CB
330
2C4
100
AcDbEntity
  8
Hidden (ANSI)
100
AcDbVertex
100
AcDb2dVertex
 10
51.99996059296005
 20
30.14895371010213
 30
0.0
  0
VERTEX
  5
2CC
330
2C4
100
AcDbEntity
  8
Hidden (ANSI)
100
AcDbVertex
100
AcDb2dVertex
 10
51.99849929357444
 20
30.14703983781135
 30
0.0
  0
VERTEX
  5
2CD
330
2C4
100
AcDbEntity
  8
Hidden (ANSI)
100
AcDbVertex
100
AcDb2dVertex
 10
51.99703949603814
 20
30.14517716919572
 30
0.0
  0
VERTEX
  5
2CE
330
2C4
100
AcDbEntity
  8
Hidden (ANSI)
100
AcDbVertex
100
AcDb2dVertex
 10
51.99557969850185
 20
30.14337369456294
 30
0.0
  0
VERTEX
  5
2CF
330
2C4
100
AcDbEntity
  8
Hidden (ANSI)
100
AcDbVertex
100
AcDb2dVertex
 10
51.99411990096556
 20
30.14163712262397
 30
0.0
  0
VERTEX
  5
2D0
330
2C4
100
AcDbEntity
  8
Hidden (ANSI)
100
AcDbVertex
100
AcDb2dVertex
 10
51.99266010342927
 20
30.1399748922262
 30
0.0
  0
VERTEX
  5
2D1
330
2C4
100
AcDbEntity
  8
Hidden (ANSI)
100
AcDbVertex
100
AcDb2dVertex
 10
51.99120030589297
 20
30.13839413715388
 30
0.0
  0
VERTEX
  5
2D2
330
2C4
100
AcDbEntity
  8
Hidden (ANSI)
100
AcDbVertex
100
AcDb2dVertex
 10
51.98973900650735
 20
30.13690160399575
 30
0.0
  0
VERTEX
  5
2D3
330
2C4
100
AcDbEntity
  8
Hidden (ANSI)
100
AcDbVertex
100
AcDb2dVertex
 10
51.98827920897106
 20
30.1355036990778
 30
0.0
  0
VERTEX
  5
2D4
330
2C4
100
AcDbEntity
  8
Hidden (ANSI)
100
AcDbVertex
100
AcDb2dVertex
 10
51.98681941143476
 20
30.13420639459771
 30
0.0
  0
VERTEX
  5
2D5
330
2C4
100
AcDbEntity
  8
Hidden (ANSI)
100
AcDbVertex
100
AcDb2dVertex
 10
51.98535961389847
 20
30.13301526382442
 30
0.0
  0
VERTEX
  5
2D6
330
2C4
100
AcDbEntity
  8
Hidden (ANSI)
100
AcDbVertex
100
AcDb2dVertex
 10
51.98389981636218
 20
30.13193539896578
 30
0.0
  0
VERTEX
  5
2D7
330
2C4
100
AcDbEntity
  8
Hidden (ANSI)
100
AcDbVertex
100
AcDb2dVertex
 10
51.98244001882589
 20
30.13097141703511
 30
0.0
  0
VERTEX
  5
2D8
330
2C4
100
AcDbEntity
  8
Hidden (ANSI)
100
AcDbVertex
100
AcDb2dVertex
 10
51.98097871944027
 20
30.13012745398464
 30
0.0
  0
VERTEX
  5
2D9
330
2C4
100
AcDbEntity
  8
Hidden (ANSI)
100
AcDbVertex
100
AcDb2dVertex
 10
51.97951892190398
 20
30.1294071236393
 30
0.0
  0
VERTEX
  5
2DA
330
2C4
100
AcDbEntity
  8
Hidden (ANSI)
100
AcDbVertex
100
AcDb2dVertex
 10
51.97805912436768
 20
30.12881350596348
 30
0.0
  0
VERTEX
  5
2DB
330
2C4
100
AcDbEntity
  8
Hidden (ANSI)
100
AcDbVertex
100
AcDb2dVertex
 10
51.97659932683139
 20
30.12834915292773
 30
0.0
  0
VERTEX
  5
2DC
330
2C4
100
AcDbEntity
  8
Hidden (ANSI)
100
AcDbVertex
100
AcDb2dVertex
 10
51.9751395292951
 20
30.12801603570926
 30
0.0
  0
VERTEX
  5
2DD
330
2C4
100
AcDbEntity
  8
Hidden (ANSI)
100
AcDbVertex
100
AcDb2dVertex
 10
51.9736797317588
 20
30.12781559749141
 30
0.0
  0
VERTEX
  5
2DE
330
2C4
100
AcDbEntity
  8
Hidden (ANSI)
100
AcDbVertex
100
AcDb2dVertex
 10
51.97221843237318
 20
30.12774868893101
 30
0.0
  0
SEQEND
  5
2C7
330
2C4
100
AcDbEntity
  8
Hidden (ANSI)
  0
MTEXT
  5
2E0
330
6C
100
AcDbEntity
  8
Symbol (ANSI)
100
AcDbMText
 10
37.67358708141376
 20
24.83875635946727
 30
0.0
 40
1.200000014830761
 41
0.0
 46
0.0
 71
     7
 72
     1
  1
FRONT VIEW
  7
Text Style153
 73
     1
 44
1.0
  0
LINE
  5
2E2
330
6C
100
AcDbEntity
  8
Symbol (ANSI)
370
    30
100
AcDbLine
 10
37.55358677272989
 20
24.59403998571837
 30
0.0
 11
47.20123681558666
 21
24.59403998571837
 31
0.0
  0
POLYLINE
  5
2E3
330
6C
100
AcDbEntity
  8
Visible (ANSI)
100
AcDb2dPolyline
 66
     1
 10
0.0
 20
0.0
 30
0.0
 70
   128
  0
VERTEX
  5
2E4
330
2E3
100
AcDbEntity
  8
Visible (ANSI)
100
AcDbVertex
100
AcDb2dVertex
 10
84.07065925328328
 20
69.78899840678984
 30
0.0
  0
VERTEX
  5
2E5
330
2E3
100
AcDbEntity
  8
Visible (ANSI)
100
AcDbVertex
100
AcDb2dVertex
 10
84.0709268875249
 20
69.78753860925353
 30
0.0
  0
VERTEX
  5
2E7
330
2E3
100
AcDbEntity
  8
Visible (ANSI)
100
AcDbVertex
100
AcDb2dVertex
 10
84.07172864626291
 20
69.78607881171725
 30
0.0
  0
VERTEX
  5
2E8
330
2E3
100
AcDbEntity
  8
Visible (ANSI)
100
AcDbVertex
100
AcDb2dVertex
 10
84.0730610916704
 20
69.78461901418095
 30
0.0
  0
VERTEX
  5
2E9
330
2E3
100
AcDbEntity
  8
Visible (ANSI)
100
AcDbVertex
100
AcDb2dVertex
 10
84.07491852141319
 20
69.78315921664465
 30
0.0
  0
VERTEX
  5
2EA
330
2E3
100
AcDbEntity
  8
Visible (ANSI)
100
AcDbVertex
100
AcDb2dVertex
 10
84.07729298624984
 20
69.78169941910836
 30
0.0
  0
VERTEX
  5
2EB
330
2E3
100
AcDbEntity
  8
Visible (ANSI)
100
AcDbVertex
100
AcDb2dVertex
 10
84.08017430763125
 20
69.78023962157206
 30
0.0
  0
VERTEX
  5
2EC
330
2E3
100
AcDbEntity
  8
Visible (ANSI)
100
AcDbVertex
100
AcDb2dVertex
 10
84.0835501598331
 20
69.77877982403578
 30
0.0
  0
VERTEX
  5
2ED
330
2E3
100
AcDbEntity
  8
Visible (ANSI)
100
AcDbVertex
100
AcDb2dVertex
 10
84.08740607582258
 20
69.77731702280085
 30
0.0
  0
VERTEX
  5
2EE
330
2E3
100
AcDbEntity
  8
Visible (ANSI)
100
AcDbVertex
100
AcDb2dVertex
 10
84.09172555285694
 20
69.77585722526455
 30
0.0
  0
VERTEX
  5
2EF
330
2E3
100
AcDbEntity
  8
Visible (ANSI)
100
AcDbVertex
100
AcDb2dVertex
 10
84.0964900818167
 20
69.77439742772824
 30
0.0
  0
VERTEX
  5
2F0
330
2E3
100
AcDbEntity
  8
Visible (ANSI)
100
AcDbVertex
100
AcDb2dVertex
 10
84.10167927627069
 20
69.77293763019196
 30
0.0
  0
VERTEX
  5
2F1
330
2E3
100
AcDbEntity
  8
Visible (ANSI)
100
AcDbVertex
100
AcDb2dVertex
 10
84.10727090180909
 20
69.77147783265566
 30
0.0
  0
VERTEX
  5
2F2
330
2E3
100
AcDbEntity
  8
Visible (ANSI)
100
AcDbVertex
100
AcDb2dVertex
 10
84.11324102270841
 20
69.77001803511936
 30
0.0
  0
VERTEX
  5
2F3
330
2E3
100
AcDbEntity
  8
Visible (ANSI)
100
AcDbVertex
100
AcDb2dVertex
 10
84.11956407233068
 20
69.7685582375831
 30
0.0
  0
VERTEX
  5
2F4
330
2E3
100
AcDbEntity
  8
Visible (ANSI)
100
AcDbVertex
100
AcDb2dVertex
 10
84.12621297338866
 20
69.76709844004678
 30
0.0
  0
VERTEX
  5
2F5
330
2E3
100
AcDbEntity
  8
Visible (ANSI)
100
AcDbVertex
100
AcDb2dVertex
 10
84.13315925234467
 20
69.76563864251049
 30
0.0
  0
VERTEX
  5
2F6
330
2E3
100
AcDbEntity
  8
Visible (ANSI)
100
AcDbVertex
100
AcDb2dVertex
 10
84.14037316554226
 20
69.76417884497419
 30
0.0
  0
VERTEX
  5
2F7
330
2E3
100
AcDbEntity
  8
Visible (ANSI)
100
AcDbVertex
100
AcDb2dVertex
 10
84.14782382240495
 20
69.76271904743789
 30
0.0
  0
VERTEX
  5
2F8
330
2E3
100
AcDbEntity
  8
Visible (ANSI)
100
AcDbVertex
100
AcDb2dVertex
 10
84.15547931890136
 20
69.76125624620296
 30
0.0
  0
VERTEX
  5
2F9
330
2E3
100
AcDbEntity
  8
Visible (ANSI)
100
AcDbVertex
100
AcDb2dVertex
 10
84.16330687119346
 20
69.75979644866668
 30
0.0
  0
VERTEX
  5
2FA
330
2E3
100
AcDbEntity
  8
Visible (ANSI)
100
AcDbVertex
100
AcDb2dVertex
 10
84.17127296138518
 20
69.75833665113038
 30
0.0
  0
VERTEX
  5
2FB
330
2E3
100
AcDbEntity
  8
Visible (ANSI)
100
AcDbVertex
100
AcDb2dVertex
 10
84.17934347722058
 20
69.75687685359409
 30
0.0
  0
VERTEX
  5
2FC
330
2E3
100
AcDbEntity
  8
Visible (ANSI)
100
AcDbVertex
100
AcDb2dVertex
 10
84.18748386131547
 20
69.75541705605781
 30
0.0
  0
VERTEX
  5
2FD
330
2E3
100
AcDbEntity
  8
Visible (ANSI)
100
AcDbVertex
100
AcDb2dVertex
 10
84.195659251406
 20
69.75395725852149
 30
0.0
  0
SEQEND
  5
2E6
330
2E3
100
AcDbEntity
  8
Visible (ANSI)
  0
POLYLINE
  5
2FE
330
6C
100
AcDbEntity
  8
Visible (ANSI)
100
AcDb2dPolyline
 66
     1
 10
0.0
 20
0.0
 30
0.0
 70
   128
  0
VERTEX
  5
2FF
330
2FE
100
AcDbEntity
  8
Visible (ANSI)
100
AcDbVertex
100
AcDb2dVertex
 10
84.195659251406
 20
30.19403995406199
 30
0.0
  0
VERTEX
  5
300
330
2FE
100
AcDbEntity
  8
Visible (ANSI)
100
AcDbVertex
100
AcDb2dVertex
 10
84.18748386131547
 20
30.19257989839534
 30
0.0
  0
VERTEX
  5
302
330
2FE
100
AcDbEntity
  8
Visible (ANSI)
100
AcDbVertex
100
AcDb2dVertex
 10
84.17934347722058
 20
30.19111984272869
 30
0.0
  0
VERTEX
  5
303
330
2FE
100
AcDbEntity
  8
Visible (ANSI)
100
AcDbVertex
100
AcDb2dVertex
 10
84.17127296138518
 20
30.18965979879525
 30
0.0
  0
VERTEX
  5
304
330
2FE
100
AcDbEntity
  8
Visible (ANSI)
100
AcDbVertex
100
AcDb2dVertex
 10
84.16330687119346
 20
30.1881997431286
 30
0.0
  0
VERTEX
  5
305
330
2FE
100
AcDbEntity
  8
Visible (ANSI)
100
AcDbVertex
100
AcDb2dVertex
 10
84.15547931890136
 20
30.18673968746195
 30
0.0
  0
VERTEX
  5
306
330
2FE
100
AcDbEntity
  8
Visible (ANSI)
100
AcDbVertex
100
AcDb2dVertex
 10
84.14782382240495
 20
30.18527963179531
 30
0.0
  0
VERTEX
  5
307
330
2FE
100
AcDbEntity
  8
Visible (ANSI)
100
AcDbVertex
100
AcDb2dVertex
 10
84.14037316554226
 20
30.18381958786186
 30
0.0
  0
VERTEX
  5
308
330
2FE
100
AcDbEntity
  8
Visible (ANSI)
100
AcDbVertex
100
AcDb2dVertex
 10
84.13315925234467
 20
30.18235953219522
 30
0.0
  0
VERTEX
  5
309
330
2FE
100
AcDbEntity
  8
Visible (ANSI)
100
AcDbVertex
100
AcDb2dVertex
 10
84.12621297338866
 20
30.18089947652857
 30
0.0
  0
VERTEX
  5
30A
330
2FE
100
AcDbEntity
  8
Visible (ANSI)
100
AcDbVertex
100
AcDb2dVertex
 10
84.11956407233068
 20
30.17943942086192
 30
0.0
  0
VERTEX
  5
30B
330
2FE
100
AcDbEntity
  8
Visible (ANSI)
100
AcDbVertex
100
AcDb2dVertex
 10
84.11324102270841
 20
30.17797937692848
 30
0.0
  0
VERTEX
  5
30C
330
2FE
100
AcDbEntity
  8
Visible (ANSI)
100
AcDbVertex
100
AcDb2dVertex
 10
84.10727090180909
 20
30.17651932126183
 30
0.0
  0
VERTEX
  5
30D
330
2FE
100
AcDbEntity
  8
Visible (ANSI)
100
AcDbVertex
100
AcDb2dVertex
 10
84.10167927627069
 20
30.17505926559518
 30
0.0
  0
VERTEX
  5
30E
330
2FE
100
AcDbEntity
  8
Visible (ANSI)
100
AcDbVertex
100
AcDb2dVertex
 10
84.0964900818167
 20
30.17359920992854
 30
0.0
  0
VERTEX
  5
30F
330
2FE
100
AcDbEntity
  8
Visible (ANSI)
100
AcDbVertex
100
AcDb2dVertex
 10
84.09172555285694
 20
30.17213916599509
 30
0.0
  0
VERTEX
  5
310
330
2FE
100
AcDbEntity
  8
Visible (ANSI)
100
AcDbVertex
100
AcDb2dVertex
 10
84.08740607582258
 20
30.17067911032845
 30
0.0
  0
VERTEX
  5
311
330
2FE
100
AcDbEntity
  8
Visible (ANSI)
100
AcDbVertex
100
AcDb2dVertex
 10
84.0835501598331
 20
30.1692190546618
 30
0.0
  0
VERTEX
  5
312
330
2FE
100
AcDbEntity
  8
Visible (ANSI)
100
AcDbVertex
100
AcDb2dVertex
 10
84.08017430763125
 20
30.16775901072835
 30
0.0
  0
VERTEX
  5
313
330
2FE
100
AcDbEntity
  8
Visible (ANSI)
100
AcDbVertex
100
AcDb2dVertex
 10
84.07729298624984
 20
30.1662989550617
 30
0.0
  0
VERTEX
  5
314
330
2FE
100
AcDbEntity
  8
Visible (ANSI)
100
AcDbVertex
100
AcDb2dVertex
 10
84.07491852141319
 20
30.16483889939506
 30
0.0
  0
VERTEX
  5
315
330
2FE
100
AcDbEntity
  8
Visible (ANSI)
100
AcDbVertex
100
AcDb2dVertex
 10
84.0730610916704
 20
30.16337884372842
 30
0.0
  0
VERTEX
  5
316
330
2FE
100
AcDbEntity
  8
Visible (ANSI)
100
AcDbVertex
100
AcDb2dVertex
 10
84.07172864626291
 20
30.16191879979497
 30
0.0
  0
VERTEX
  5
317
330
2FE
100
AcDbEntity
  8
Visible (ANSI)
100
AcDbVertex
100
AcDb2dVertex
 10
84.0709268875249
 20
30.16045874412832
 30
0.0
  0
VERTEX
  5
318
330
2FE
100
AcDbEntity
  8
Visible (ANSI)
100
AcDbVertex
100
AcDb2dVertex
 10
84.07065925328328
 20
30.15899868846168
 30
0.0
  0
SEQEND
  5
301
330
2FE
100
AcDbEntity
  8
Visible (ANSI)
  0
LINE
  5
319
330
6C
100
AcDbEntity
  8
Visible (ANSI)
100
AcDbLine
 10
84.94565925187535
 20
30.19403995107523
 30
0.0
 11
84.19565925187534
 21
30.19403995107523
 31
0.0
  0
LINE
  5
31A
330
6C
100
AcDbEntity
  8
Visible (ANSI)
100
AcDbLine
 10
84.16440925187531
 20
30.15899869033898
 30
0.0
 11
84.07065925187529
 21
30.15899869033898
 31
0.0
  0
POLYLINE
  5
31B
330
6C
100
AcDbEntity
  8
Visible (ANSI)
100
AcDb2dPolyline
 66
     1
 10
0.0
 20
0.0
 30
0.0
 70
   128
  0
VERTEX
  5
31C
330
31B
100
AcDbEntity
  8
Visible (ANSI)
100
AcDbVertex
100
AcDb2dVertex
 10
84.16440925187531
 20
30.15899868846168
 30
0.0
  0
VERTEX
  5
31D
330
31B
100
AcDbEntity
  8
Visible (ANSI)
100
AcDbVertex
100
AcDb2dVertex
 10
84.16447616052165
 20
30.16045874412832
 30
0.0
  0
VERTEX
  5
31F
330
31B
100
AcDbEntity
  8
Visible (ANSI)
100
AcDbVertex
100
AcDb2dVertex
 10
84.16467659995978
 20
30.16191879979497
 30
0.0
  0
VERTEX
  5
320
330
31B
100
AcDbEntity
  8
Visible (ANSI)
100
AcDbVertex
100
AcDb2dVertex
 10
84.16500971188456
 20
30.16337884372842
 30
0.0
  0
VERTEX
  5
321
330
31B
100
AcDbEntity
  8
Visible (ANSI)
100
AcDbVertex
100
AcDb2dVertex
 10
84.16547406982443
 20
30.16483889939506
 30
0.0
  0
VERTEX
  5
322
330
31B
100
AcDbEntity
  8
Visible (ANSI)
100
AcDbVertex
100
AcDb2dVertex
 10
84.16606768530028
 20
30.1662989550617
 30
0.0
  0
VERTEX
  5
323
330
31B
100
AcDbEntity
  8
Visible (ANSI)
100
AcDbVertex
100
AcDb2dVertex
 10
84.16678801656228
 20
30.16775901072835
 30
0.0
  0
VERTEX
  5
324
330
31B
100
AcDbEntity
  8
Visible (ANSI)
100
AcDbVertex
100
AcDb2dVertex
 10
84.16763197887943
 20
30.1692190546618
 30
0.0
  0
VERTEX
  5
325
330
31B
100
AcDbEntity
  8
Visible (ANSI)
100
AcDbVertex
100
AcDb2dVertex
 10
84.16859595787679
 20
30.17067911032845
 30
0.0
  0
VERTEX
  5
326
330
31B
100
AcDbEntity
  8
Visible (ANSI)
100
AcDbVertex
100
AcDb2dVertex
 10
84.16967582640205
 20
30.17213916599509
 30
0.0
  0
VERTEX
  5
327
330
31B
100
AcDbEntity
  8
Visible (ANSI)
100
AcDbVertex
100
AcDb2dVertex
 10
84.17086695974198
 20
30.17359920992854
 30
0.0
  0
VERTEX
  5
328
330
31B
100
AcDbEntity
  8
Visible (ANSI)
100
AcDbVertex
100
AcDb2dVertex
 10
84.17216425762216
 20
30.17505926559518
 30
0.0
  0
VERTEX
  5
329
330
31B
100
AcDbEntity
  8
Visible (ANSI)
100
AcDbVertex
100
AcDb2dVertex
 10
84.17356216474008
 20
30.17651932126183
 30
0.0
  0
VERTEX
  5
32A
330
31B
100
AcDbEntity
  8
Visible (ANSI)
100
AcDbVertex
100
AcDb2dVertex
 10
84.17505469496491
 20
30.17797937692848
 30
0.0
  0
VERTEX
  5
32B
330
31B
100
AcDbEntity
  8
Visible (ANSI)
100
AcDbVertex
100
AcDb2dVertex
 10
84.17663545737047
 20
30.17943942086192
 30
0.0
  0
VERTEX
  5
32C
330
31B
100
AcDbEntity
  8
Visible (ANSI)
100
AcDbVertex
100
AcDb2dVertex
 10
84.17829768263498
 20
30.18089947652857
 30
0.0
  0
VERTEX
  5
32D
330
31B
100
AcDbEntity
  8
Visible (ANSI)
100
AcDbVertex
100
AcDb2dVertex
 10
84.18003425164064
 20
30.18235953219522
 30
0.0
  0
VERTEX
  5
32E
330
31B
100
AcDbEntity
  8
Visible (ANSI)
100
AcDbVertex
100
AcDb2dVertex
 10
84.18183773067337
 20
30.18381958786186
 30
0.0
  0
VERTEX
  5
32F
330
31B
100
AcDbEntity
  8
Visible (ANSI)
100
AcDbVertex
100
AcDb2dVertex
 10
84.18370039488905
 20
30.18527963179531
 30
0.0
  0
VERTEX
  5
330
330
31B
100
AcDbEntity
  8
Visible (ANSI)
100
AcDbVertex
100
AcDb2dVertex
 10
84.18561426864647
 20
30.18673968746195
 30
0.0
  0
VERTEX
  5
331
330
31B
100
AcDbEntity
  8
Visible (ANSI)
100
AcDbVertex
100
AcDb2dVertex
 10
84.18757115630702
 20
30.1881997431286
 30
0.0
  0
VERTEX
  5
332
330
31B
100
AcDbEntity
  8
Visible (ANSI)
100
AcDbVertex
100
AcDb2dVertex
 10
84.18956267890077
 20
30.18965979879525
 30
0.0
  0
VERTEX
  5
333
330
31B
100
AcDbEntity
  8
Visible (ANSI)
100
AcDbVertex
100
AcDb2dVertex
 10
84.19158030785963
 20
30.19111984272869
 30
0.0
  0
VERTEX
  5
334
330
31B
100
AcDbEntity
  8
Visible (ANSI)
100
AcDbVertex
100
AcDb2dVertex
 10
84.19361540461668
 20
30.19257989839534
 30
0.0
  0
VERTEX
  5
335
330
31B
100
AcDbEntity
  8
Visible (ANSI)
100
AcDbVertex
100
AcDb2dVertex
 10
84.19565925140599
 20
30.19403995406199
 30
0.0
  0
SEQEND
  5
31E
330
31B
100
AcDbEntity
  8
Visible (ANSI)
  0
POLYLINE
  5
336
330
6C
100
AcDbEntity
  8
Visible (ANSI)
100
AcDb2dPolyline
 66
     1
 10
0.0
 20
0.0
 30
0.0
 70
   128
  0
VERTEX
  5
337
330
336
100
AcDbEntity
  8
Visible (ANSI)
100
AcDbVertex
100
AcDb2dVertex
 10
84.16440925187531
 20
69.78899840678984
 30
0.0
  0
VERTEX
  5
338
330
336
100
AcDbEntity
  8
Visible (ANSI)
100
AcDbVertex
100
AcDb2dVertex
 10
84.16447616052165
 20
69.78753860925353
 30
0.0
  0
VERTEX
  5
33A
330
336
100
AcDbEntity
  8
Visible (ANSI)
100
AcDbVertex
100
AcDb2dVertex
 10
84.16467659995978
 20
69.78607881171725
 30
0.0
  0
VERTEX
  5
33B
330
336
100
AcDbEntity
  8
Visible (ANSI)
100
AcDbVertex
100
AcDb2dVertex
 10
84.16500971188456
 20
69.78461901418095
 30
0.0
  0
VERTEX
  5
33C
330
336
100
AcDbEntity
  8
Visible (ANSI)
100
AcDbVertex
100
AcDb2dVertex
 10
84.16547406982443
 20
69.78315921664465
 30
0.0
  0
VERTEX
  5
33D
330
336
100
AcDbEntity
  8
Visible (ANSI)
100
AcDbVertex
100
AcDb2dVertex
 10
84.16606768530028
 20
69.78169941910836
 30
0.0
  0
VERTEX
  5
33E
330
336
100
AcDbEntity
  8
Visible (ANSI)
100
AcDbVertex
100
AcDb2dVertex
 10
84.16678801656228
 20
69.78023962157206
 30
0.0
  0
VERTEX
  5
33F
330
336
100
AcDbEntity
  8
Visible (ANSI)
100
AcDbVertex
100
AcDb2dVertex
 10
84.16763197887943
 20
69.77877982403578
 30
0.0
  0
VERTEX
  5
340
330
336
100
AcDbEntity
  8
Visible (ANSI)
100
AcDbVertex
100
AcDb2dVertex
 10
84.16859595787679
 20
69.77731702280085
 30
0.0
  0
VERTEX
  5
341
330
336
100
AcDbEntity
  8
Visible (ANSI)
100
AcDbVertex
100
AcDb2dVertex
 10
84.16967582640205
 20
69.77585722526455
 30
0.0
  0
VERTEX
  5
342
330
336
100
AcDbEntity
  8
Visible (ANSI)
100
AcDbVertex
100
AcDb2dVertex
 10
84.17086695974198
 20
69.77439742772824
 30
0.0
  0
VERTEX
  5
343
330
336
100
AcDbEntity
  8
Visible (ANSI)
100
AcDbVertex
100
AcDb2dVertex
 10
84.17216425762216
 20
69.77293763019196
 30
0.0
  0
VERTEX
  5
344
330
336
100
AcDbEntity
  8
Visible (ANSI)
100
AcDbVertex
100
AcDb2dVertex
 10
84.17356216474008
 20
69.77147783265566
 30
0.0
  0
VERTEX
  5
345
330
336
100
AcDbEntity
  8
Visible (ANSI)
100
AcDbVertex
100
AcDb2dVertex
 10
84.17505469496491
 20
69.77001803511936
 30
0.0
  0
VERTEX
  5
346
330
336
100
AcDbEntity
  8
Visible (ANSI)
100
AcDbVertex
100
AcDb2dVertex
 10
84.17663545737047
 20
69.7685582375831
 30
0.0
  0
VERTEX
  5
347
330
336
100
AcDbEntity
  8
Visible (ANSI)
100
AcDbVertex
100
AcDb2dVertex
 10
84.17829768263498
 20
69.76709844004678
 30
0.0
  0
VERTEX
  5
348
330
336
100
AcDbEntity
  8
Visible (ANSI)
100
AcDbVertex
100
AcDb2dVertex
 10
84.18003425164064
 20
69.76563864251049
 30
0.0
  0
VERTEX
  5
349
330
336
100
AcDbEntity
  8
Visible (ANSI)
100
AcDbVertex
100
AcDb2dVertex
 10
84.18183773067337
 20
69.76417884497419
 30
0.0
  0
VERTEX
  5
34A
330
336
100
AcDbEntity
  8
Visible (ANSI)
100
AcDbVertex
100
AcDb2dVertex
 10
84.18370039488905
 20
69.76271904743789
 30
0.0
  0
VERTEX
  5
34B
330
336
100
AcDbEntity
  8
Visible (ANSI)
100
AcDbVertex
100
AcDb2dVertex
 10
84.18561426864647
 20
69.76125624620296
 30
0.0
  0
VERTEX
  5
34C
330
336
100
AcDbEntity
  8
Visible (ANSI)
100
AcDbVertex
100
AcDb2dVertex
 10
84.18757115630702
 20
69.75979644866668
 30
0.0
  0
VERTEX
  5
34D
330
336
100
AcDbEntity
  8
Visible (ANSI)
100
AcDbVertex
100
AcDb2dVertex
 10
84.18956267890077
 20
69.75833665113038
 30
0.0
  0
VERTEX
  5
34E
330
336
100
AcDbEntity
  8
Visible (ANSI)
100
AcDbVertex
100
AcDb2dVertex
 10
84.19158030785963
 20
69.75687685359409
 30
0.0
  0
VERTEX
  5
34F
330
336
100
AcDbEntity
  8
Visible (ANSI)
100
AcDbVertex
100
AcDb2dVertex
 10
84.19361540461668
 20
69.75541705605781
 30
0.0
  0
VERTEX
  5
350
330
336
100
AcDbEntity
  8
Visible (ANSI)
100
AcDbVertex
100
AcDb2dVertex
 10
84.19565925140599
 20
69.75395725852149
 30
0.0
  0
SEQEND
  5
339
330
336
100
AcDbEntity
  8
Visible (ANSI)
  0
LINE
  5
351
330
6C
100
AcDbEntity
  8
Visible (ANSI)
100
AcDbLine
 10
84.16440925187531
 20
69.78899869033899
 30
0.0
 11
84.07065925187529
 21
69.78899869033899
 31
0.0
  0
LINE
  5
352
330
6C
100
AcDbEntity
  8
Visible (ANSI)
100
AcDbLine
 10
84.19565925187534
 20
69.75395742960273
 30
0.0
 11
84.94565925187535
 21
69.75395742960273
 31
0.0
  0
POLYLINE
  5
353
330
6C
100
AcDbEntity
  8
Visible (ANSI)
100
AcDb2dPolyline
 66
     1
 10
0.0
 20
0.0
 30
0.0
 70
   128
  0
VERTEX
  5
354
330
353
100
AcDbEntity
  8
Visible (ANSI)
100
AcDbVertex
100
AcDb2dVertex
 10
84.19565925140595
 20
69.91399732545834
 30
0.0
  0
VERTEX
  5
355
330
353
100
AcDbEntity
  8
Visible (ANSI)
100
AcDbVertex
100
AcDb2dVertex
 10
84.18748386131545
 20
69.91372999627987
 30
0.0
  0
VERTEX
  5
357
330
353
100
AcDbEntity
  8
Visible (ANSI)
100
AcDbVertex
100
AcDb2dVertex
 10
84.1793434772205
 20
69.91292800874449
 30
0.0
  0
VERTEX
  5
358
330
353
100
AcDbEntity
  8
Visible (ANSI)
100
AcDbVertex
100
AcDb2dVertex
 10
84.17127296138515
 20
69.91159737024948
 30
0.0
  0
VERTEX
  5
359
330
353
100
AcDbEntity
  8
Visible (ANSI)
100
AcDbVertex
100
AcDb2dVertex
 10
84.16330687119343
 20
69.9097380807948
 30
0.0
  0
VERTEX
  5
35A
330
353
100
AcDbEntity
  8
Visible (ANSI)
100
AcDbVertex
100
AcDb2dVertex
 10
84.15547931890129
 20
69.90736515887367
 30
0.0
  0
VERTEX
  5
35B
330
353
100
AcDbEntity
  8
Visible (ANSI)
100
AcDbVertex
100
AcDb2dVertex
 10
84.14782382240492
 20
69.90448461188333
 30
0.0
  0
VERTEX
  5
35C
330
353
100
AcDbEntity
  8
Visible (ANSI)
100
AcDbVertex
100
AcDb2dVertex
 10
84.14037316554221
 20
69.90110845461832
 30
0.0
  0
VERTEX
  5
35D
330
353
100
AcDbEntity
  8
Visible (ANSI)
100
AcDbVertex
100
AcDb2dVertex
 10
84.13315925234462
 20
69.89725170557183
 30
0.0
  0
VERTEX
  5
35E
330
353
100
AcDbEntity
  8
Visible (ANSI)
100
AcDbVertex
100
AcDb2dVertex
 10
84.12621297338862
 20
69.89293238693562
 30
0.0
  0
VERTEX
  5
35F
330
353
100
AcDbEntity
  8
Visible (ANSI)
100
AcDbVertex
100
AcDb2dVertex
 10
84.11956407233063
 20
69.88816852090154
 30
0.0
  0
VERTEX
  5
360
330
353
100
AcDbEntity
  8
Visible (ANSI)
100
AcDbVertex
100
AcDb2dVertex
 10
84.11324102270837
 20
69.88297812966139
 30
0.0
  0
VERTEX
  5
361
330
353
100
AcDbEntity
  8
Visible (ANSI)
100
AcDbVertex
100
AcDb2dVertex
 10
84.10727090180905
 20
69.87738824650286
 30
0.0
  0
VERTEX
  5
362
330
353
100
AcDbEntity
  8
Visible (ANSI)
100
AcDbVertex
100
AcDb2dVertex
 10
84.10167927627066
 20
69.87141689361776
 30
0.0
  0
VERTEX
  5
363
330
353
100
AcDbEntity
  8
Visible (ANSI)
100
AcDbVertex
100
AcDb2dVertex
 10
84.09649008181666
 20
69.86509410799246
 30
0.0
  0
VERTEX
  5
364
330
353
100
AcDbEntity
  8
Visible (ANSI)
100
AcDbVertex
100
AcDb2dVertex
 10
84.09172555285691
 20
69.85844391921602
 30
0.0
  0
VERTEX
  5
365
330
353
100
AcDbEntity
  8
Visible (ANSI)
100
AcDbVertex
100
AcDb2dVertex
 10
84.08740607582256
 20
69.8514993679734
 30
0.0
  0
VERTEX
  5
366
330
353
100
AcDbEntity
  8
Visible (ANSI)
100
AcDbVertex
100
AcDb2dVertex
 10
84.08355015983309
 20
69.84428448385369
 30
0.0
  0
VERTEX
  5
367
330
353
100
AcDbEntity
  8
Visible (ANSI)
100
AcDbVertex
100
AcDb2dVertex
 10
84.08017430763122
 20
69.83683531124049
 30
0.0
  0
VERTEX
  5
368
330
353
100
AcDbEntity
  8
Visible (ANSI)
100
AcDbVertex
100
AcDb2dVertex
 10
84.07729298624984
 20
69.82917888342154
 30
0.0
  0
VERTEX
  5
369
330
353
100
AcDbEntity
  8
Visible (ANSI)
100
AcDbVertex
100
AcDb2dVertex
 10
84.07491852141317
 20
69.82135124478041
 30
0.0
  0
VERTEX
  5
36A
330
353
100
AcDbEntity
  8
Visible (ANSI)
100
AcDbVertex
100
AcDb2dVertex
 10
84.07306109167038
 20
69.81338543600212
 30
0.0
  0
VERTEX
  5
36B
330
353
100
AcDbEntity
  8
Visible (ANSI)
100
AcDbVertex
100
AcDb2dVertex
 10
84.07172864626289
 20
69.80531449777162
 30
0.0
  0
VERTEX
  5
36C
330
353
100
AcDbEntity
  8
Visible (ANSI)
100
AcDbVertex
100
AcDb2dVertex
 10
84.07092688752488
 20
69.79717447447254
 30
0.0
  0
VERTEX
  5
36D
330
353
100
AcDbEntity
  8
Visible (ANSI)
100
AcDbVertex
100
AcDb2dVertex
 10
84.07065925328328
 20
69.78899840678984
 30
0.0
  0
SEQEND
  5
356
330
353
100
AcDbEntity
  8
Visible (ANSI)
  0
LINE
  5
36E
330
6C
100
AcDbEntity
  8
Visible (ANSI)
100
AcDbLine
 10
84.19565925187528
 20
69.82024869033899
 30
0.0
 11
84.94565925187528
 21
69.82024869033892
 31
0.0
  0
LINE
  5
36F
330
6C
100
AcDbEntity
  8
Visible (ANSI)
100
AcDbLine
 10
84.94565925187528
 20
69.91399869033894
 30
0.0
 11
84.1956592518753
 21
69.91399869033898
 31
0.0
  0
LINE
  5
370
330
6C
100
AcDbEntity
  8
Visible (ANSI)
100
AcDbLine
 10
84.19565925187528
 20
69.82024869033899
 30
0.0
 11
84.1956592518753
 21
69.91399869033898
 31
0.0
  0
LINE
  5
371
330
6C
100
AcDbEntity
  8
Visible (ANSI)
100
AcDbLine
 10
84.94565925187528
 20
69.82024869033892
 30
0.0
 11
84.94565925187528
 21
69.91399869033894
 31
0.0
  0
POLYLINE
  5
372
330
6C
100
AcDbEntity
  8
Visible (ANSI)
100
AcDb2dPolyline
 66
     1
 10
0.0
 20
0.0
 30
0.0
 70
   128
  0
VERTEX
  5
373
330
372
100
AcDbEntity
  8
Visible (ANSI)
100
AcDbVertex
100
AcDb2dVertex
 10
84.16440925187531
 20
69.78899840678984
 30
0.0
  0
VERTEX
  5
374
330
372
100
AcDbEntity
  8
Visible (ANSI)
100
AcDbVertex
100
AcDb2dVertex
 10
84.16447616052165
 20
69.79104392555981
 30
0.0
  0
VERTEX
  5
376
330
372
100
AcDbEntity
  8
Visible (ANSI)
100
AcDbVertex
100
AcDb2dVertex
 10
84.16467659995978
 20
69.79307742953529
 30
0.0
  0
VERTEX
  5
377
330
372
100
AcDbEntity
  8
Visible (ANSI)
100
AcDbVertex
100
AcDb2dVertex
 10
84.16500971188456
 20
69.79509591501757
 30
0.0
  0
VERTEX
  5
378
330
372
100
AcDbEntity
  8
Visible (ANSI)
100
AcDbVertex
100
AcDb2dVertex
 10
84.16547406982443
 20
69.79708736721214
 30
0.0
  0
VERTEX
  5
379
330
372
100
AcDbEntity
  8
Visible (ANSI)
100
AcDbVertex
100
AcDb2dVertex
 10
84.16606768530026
 20
69.7990427750231
 30
0.0
  0
VERTEX
  5
37A
330
372
100
AcDbEntity
  8
Visible (ANSI)
100
AcDbVertex
100
AcDb2dVertex
 10
84.16678801656226
 20
69.80095613105318
 30
0.0
  0
VERTEX
  5
37B
330
372
100
AcDbEntity
  8
Visible (ANSI)
100
AcDbVertex
100
AcDb2dVertex
 10
84.16763197887942
 20
69.80282142790511
 30
0.0
  0
VERTEX
  5
37C
330
372
100
AcDbEntity
  8
Visible (ANSI)
100
AcDbVertex
100
AcDb2dVertex
 10
84.16859595787679
 20
69.80462364708571
 30
0.0
  0
VERTEX
  5
37D
330
372
100
AcDbEntity
  8
Visible (ANSI)
100
AcDbVertex
100
AcDb2dVertex
 10
84.16967582640205
 20
69.80635978489639
 30
0.0
  0
VERTEX
  5
37E
330
372
100
AcDbEntity
  8
Visible (ANSI)
100
AcDbVertex
100
AcDb2dVertex
 10
84.17086695974196
 20
69.8080238339398
 30
0.0
  0
VERTEX
  5
37F
330
372
100
AcDbEntity
  8
Visible (ANSI)
100
AcDbVertex
100
AcDb2dVertex
 10
84.17216425762214
 20
69.80960377942148
 30
0.0
  0
VERTEX
  5
380
330
372
100
AcDbEntity
  8
Visible (ANSI)
100
AcDbVertex
100
AcDb2dVertex
 10
84.17356216474006
 20
69.81109661764275
 30
0.0
  0
VERTEX
  5
381
330
372
100
AcDbEntity
  8
Visible (ANSI)
100
AcDbVertex
100
AcDb2dVertex
 10
84.17505469496489
 20
69.81249333750771
 30
0.0
  0
VERTEX
  5
382
330
372
100
AcDbEntity
  8
Visible (ANSI)
100
AcDbVertex
100
AcDb2dVertex
 10
84.17663545737047
 20
69.81379093531775
 30
0.0
  0
VERTEX
  5
383
330
372
100
AcDbEntity
  8
Visible (ANSI)
100
AcDbVertex
100
AcDb2dVertex
 10
84.17829768263496
 20
69.8149834036756
 30
0.0
  0
VERTEX
  5
384
330
372
100
AcDbEntity
  8
Visible (ANSI)
100
AcDbVertex
100
AcDb2dVertex
 10
84.18003425164062
 20
69.81606173148533
 30
0.0
  0
VERTEX
  5
385
330
372
100
AcDbEntity
  8
Visible (ANSI)
100
AcDbVertex
100
AcDb2dVertex
 10
84.18183773067335
 20
69.81702591874695
 30
0.0
  0
VERTEX
  5
386
330
372
100
AcDbEntity
  8
Visible (ANSI)
100
AcDbVertex
100
AcDb2dVertex
 10
84.18370039488904
 20
69.81786995806321
 30
0.0
  0
VERTEX
  5
387
330
372
100
AcDbEntity
  8
Visible (ANSI)
100
AcDbVertex
100
AcDb2dVertex
 10
84.18561426864647
 20
69.81859084573546
 30
0.0
  0
VERTEX
  5
388
330
372
100
AcDbEntity
  8
Visible (ANSI)
100
AcDbVertex
100
AcDb2dVertex
 10
84.187571156307
 20
69.81918257436641
 30
0.0
  0
VERTEX
  5
389
330
372
100
AcDbEntity
  8
Visible (ANSI)
100
AcDbVertex
100
AcDb2dVertex
 10
84.18956267890076
 20
69.81964814765473
 30
0.0
  0
VERTEX
  5
38A
330
372
100
AcDbEntity
  8
Visible (ANSI)
100
AcDbVertex
100
AcDb2dVertex
 10
84.19158030785959
 20
69.81998155820317
 30
0.0
  0
VERTEX
  5
38B
330
372
100
AcDbEntity
  8
Visible (ANSI)
100
AcDbVertex
100
AcDb2dVertex
 10
84.19361540461666
 20
69.82018280601166
 30
0.0
  0
VERTEX
  5
38C
330
372
100
AcDbEntity
  8
Visible (ANSI)
100
AcDbVertex
100
AcDb2dVertex
 10
84.19565925140595
 20
69.82024888738161
 30
0.0
  0
SEQEND
  5
375
330
372
100
AcDbEntity
  8
Visible (ANSI)
  0
POLYLINE
  5
38D
330
6C
100
AcDbEntity
  8
Visible (ANSI)
100
AcDb2dPolyline
 66
     1
 10
0.0
 20
0.0
 30
0.0
 70
   128
  0
VERTEX
  5
38E
330
38D
100
AcDbEntity
  8
Visible (ANSI)
100
AcDbVertex
100
AcDb2dVertex
 10
84.07065925328328
 20
30.15899868846168
 30
0.0
  0
VERTEX
  5
38F
330
38D
100
AcDbEntity
  8
Visible (ANSI)
100
AcDbVertex
100
AcDb2dVertex
 10
84.07092688752488
 20
30.15082330130445
 30
0.0
  0
VERTEX
  5
391
330
38D
100
AcDbEntity
  8
Visible (ANSI)
100
AcDbVertex
100
AcDb2dVertex
 10
84.07172864626289
 20
30.14268291427622
 30
0.0
  0
VERTEX
  5
392
330
38D
100
AcDbEntity
  8
Visible (ANSI)
100
AcDbVertex
100
AcDb2dVertex
 10
84.07306109167038
 20
30.13461239844084
 30
0.0
  0
VERTEX
  5
393
330
38D
100
AcDbEntity
  8
Visible (ANSI)
100
AcDbVertex
100
AcDb2dVertex
 10
84.07491852141317
 20
30.1266463080658
 30
0.0
  0
VERTEX
  5
394
330
38D
100
AcDbEntity
  8
Visible (ANSI)
100
AcDbVertex
100
AcDb2dVertex
 10
84.07729298624984
 20
30.11881875742367
 30
0.0
  0
VERTEX
  5
395
330
38D
100
AcDbEntity
  8
Visible (ANSI)
100
AcDbVertex
100
AcDb2dVertex
 10
84.08017430763122
 20
30.11116326239393
 30
0.0
  0
VERTEX
  5
396
330
38D
100
AcDbEntity
  8
Visible (ANSI)
100
AcDbVertex
100
AcDb2dVertex
 10
84.08355015983309
 20
30.10371260553122
 30
0.0
  0
VERTEX
  5
397
330
38D
100
AcDbEntity
  8
Visible (ANSI)
100
AcDbVertex
100
AcDb2dVertex
 10
84.08740607582256
 20
30.09649868940033
 30
0.0
  0
VERTEX
  5
398
330
38D
100
AcDbEntity
  8
Visible (ANSI)
100
AcDbVertex
100
AcDb2dVertex
 10
84.09172555285691
 20
30.08955241337764
 30
0.0
  0
VERTEX
  5
399
330
38D
100
AcDbEntity
  8
Visible (ANSI)
100
AcDbVertex
100
AcDb2dVertex
 10
84.09649008181666
 20
30.08290351231964
 30
0.0
  0
VERTEX
  5
39A
330
38D
100
AcDbEntity
  8
Visible (ANSI)
100
AcDbVertex
100
AcDb2dVertex
 10
84.10167927627066
 20
30.07658046269739
 30
0.0
  0
VERTEX
  5
39B
330
38D
100
AcDbEntity
  8
Visible (ANSI)
100
AcDbVertex
100
AcDb2dVertex
 10
84.10727090180905
 20
30.07061034179806
 30
0.0
  0
VERTEX
  5
39C
330
38D
100
AcDbEntity
  8
Visible (ANSI)
100
AcDbVertex
100
AcDb2dVertex
 10
84.11324102270837
 20
30.06501871332637
 30
0.0
  0
VERTEX
  5
39D
330
38D
100
AcDbEntity
  8
Visible (ANSI)
100
AcDbVertex
100
AcDb2dVertex
 10
84.11956407233063
 20
30.05982952180568
 30
0.0
  0
VERTEX
  5
39E
330
38D
100
AcDbEntity
  8
Visible (ANSI)
100
AcDbVertex
100
AcDb2dVertex
 10
84.12621297338862
 20
30.05506498844598
 30
0.0
  0
VERTEX
  5
39F
330
38D
100
AcDbEntity
  8
Visible (ANSI)
100
AcDbVertex
100
AcDb2dVertex
 10
84.13315925234462
 20
30.05074551434491
 30
0.0
  0
VERTEX
  5
3A0
330
38D
100
AcDbEntity
  8
Visible (ANSI)
100
AcDbVertex
100
AcDb2dVertex
 10
84.14037316554221
 20
30.04688959835545
 30
0.0
  0
VERTEX
  5
3A1
330
38D
100
AcDbEntity
  8
Visible (ANSI)
100
AcDbVertex
100
AcDb2dVertex
 10
84.14782382240492
 20
30.04351374908688
 30
0.0
  0
VERTEX
  5
3A2
330
38D
100
AcDbEntity
  8
Visible (ANSI)
100
AcDbVertex
100
AcDb2dVertex
 10
84.15547931890129
 20
30.04063242403886
 30
0.0
  0
VERTEX
  5
3A3
330
38D
100
AcDbEntity
  8
Visible (ANSI)
100
AcDbVertex
100
AcDb2dVertex
 10
84.16330687119343
 20
30.03825796213551
 30
0.0
  0
VERTEX
  5
3A4
330
38D
100
AcDbEntity
  8
Visible (ANSI)
100
AcDbVertex
100
AcDb2dVertex
 10
84.17127296138515
 20
30.03640053037606
 30
0.0
  0
VERTEX
  5
3A5
330
38D
100
AcDbEntity
  8
Visible (ANSI)
100
AcDbVertex
100
AcDb2dVertex
 10
84.1793434772205
 20
30.03506808267694
 30
0.0
  0
VERTEX
  5
3A6
330
38D
100
AcDbEntity
  8
Visible (ANSI)
100
AcDbVertex
100
AcDb2dVertex
 10
84.18748386131545
 20
30.03426632492433
 30
0.0
  0
VERTEX
  5
3A7
330
38D
100
AcDbEntity
  8
Visible (ANSI)
100
AcDbVertex
100
AcDb2dVertex
 10
84.19565925140595
 20
30.03399869033899
 30
0.0
  0
SEQEND
  5
390
330
38D
100
AcDbEntity
  8
Visible (ANSI)
  0
LINE
  5
3A8
330
6C
100
AcDbEntity
  8
Visible (ANSI)
100
AcDbLine
 10
84.1956592518753
 20
30.12774869033899
 30
0.0
 11
84.94565925187529
 21
30.12774869033899
 31
0.0
  0
LINE
  5
3A9
330
6C
100
AcDbEntity
  8
Visible (ANSI)
100
AcDbLine
 10
84.1956592518753
 20
30.12774869033899
 30
0.0
 11
84.1956592518753
 21
30.03399869033899
 31
0.0
  0
POLYLINE
  5
3AA
330
6C
100
AcDbEntity
  8
Visible (ANSI)
100
AcDb2dPolyline
 66
     1
 10
0.0
 20
0.0
 30
0.0
 70
   128
  0
VERTEX
  5
3AB
330
3AA
100
AcDbEntity
  8
Visible (ANSI)
100
AcDbVertex
100
AcDb2dVertex
 10
84.16440925187531
 20
30.15899868846168
 30
0.0
  0
VERTEX
  5
3AC
330
3AA
100
AcDbEntity
  8
Visible (ANSI)
100
AcDbVertex
100
AcDb2dVertex
 10
84.16447616052165
 20
30.15695484753897
 30
0.0
  0
VERTEX
  5
3AE
330
3AA
100
AcDbEntity
  8
Visible (ANSI)
100
AcDbVertex
100
AcDb2dVertex
 10
84.16467659995978
 20
30.15491974784861
 30
0.0
  0
VERTEX
  5
3AF
330
3AA
100
AcDbEntity
  8
Visible (ANSI)
100
AcDbVertex
100
AcDb2dVertex
 10
84.16500971188456
 20
30.15290211888976
 30
0.0
  0
VERTEX
  5
3B0
330
3AA
100
AcDbEntity
  8
Visible (ANSI)
100
AcDbVertex
100
AcDb2dVertex
 10
84.16547406982443
 20
30.15091059629601
 30
0.0
  0
VERTEX
  5
3B1
330
3AA
100
AcDbEntity
  8
Visible (ANSI)
100
AcDbVertex
100
AcDb2dVertex
 10
84.16606768530026
 20
30.14895371010212
 30
0.0
  0
VERTEX
  5
3B2
330
3AA
100
AcDbEntity
  8
Visible (ANSI)
100
AcDbVertex
100
AcDb2dVertex
 10
84.16678801656226
 20
30.14703983781134
 30
0.0
  0
VERTEX
  5
3B3
330
3AA
100
AcDbEntity
  8
Visible (ANSI)
100
AcDbVertex
100
AcDb2dVertex
 10
84.16763197887942
 20
30.14517716919571
 30
0.0
  0
VERTEX
  5
3B4
330
3AA
100
AcDbEntity
  8
Visible (ANSI)
100
AcDbVertex
100
AcDb2dVertex
 10
84.16859595787679
 20
30.14337369456294
 30
0.0
  0
VERTEX
  5
3B5
330
3AA
100
AcDbEntity
  8
Visible (ANSI)
100
AcDbVertex
100
AcDb2dVertex
 10
84.16967582640205
 20
30.14163712262396
 30
0.0
  0
VERTEX
  5
3B6
330
3AA
100
AcDbEntity
  8
Visible (ANSI)
100
AcDbVertex
100
AcDb2dVertex
 10
84.17086695974196
 20
30.13997489222619
 30
0.0
  0
VERTEX
  5
3B7
330
3AA
100
AcDbEntity
  8
Visible (ANSI)
100
AcDbVertex
100
AcDb2dVertex
 10
84.17216425762214
 20
30.13839413715388
 30
0.0
  0
VERTEX
  5
3B8
330
3AA
100
AcDbEntity
  8
Visible (ANSI)
100
AcDbVertex
100
AcDb2dVertex
 10
84.17356216474006
 20
30.13690160399575
 30
0.0
  0
VERTEX
  5
3B9
330
3AA
100
AcDbEntity
  8
Visible (ANSI)
100
AcDbVertex
100
AcDb2dVertex
 10
84.17505469496489
 20
30.13550369907779
 30
0.0
  0
VERTEX
  5
3BA
330
3AA
100
AcDbEntity
  8
Visible (ANSI)
100
AcDbVertex
100
AcDb2dVertex
 10
84.17663545737047
 20
30.1342063945977
 30
0.0
  0
VERTEX
  5
3BB
330
3AA
100
AcDbEntity
  8
Visible (ANSI)
100
AcDbVertex
100
AcDb2dVertex
 10
84.17829768263496
 20
30.13301526382441
 30
0.0
  0
VERTEX
  5
3BC
330
3AA
100
AcDbEntity
  8
Visible (ANSI)
100
AcDbVertex
100
AcDb2dVertex
 10
84.18003425164062
 20
30.13193539896577
 30
0.0
  0
VERTEX
  5
3BD
330
3AA
100
AcDbEntity
  8
Visible (ANSI)
100
AcDbVertex
100
AcDb2dVertex
 10
84.18183773067335
 20
30.13097141703511
 30
0.0
  0
VERTEX
  5
3BE
330
3AA
100
AcDbEntity
  8
Visible (ANSI)
100
AcDbVertex
100
AcDb2dVertex
 10
84.18370039488904
 20
30.13012745398464
 30
0.0
  0
VERTEX
  5
3BF
330
3AA
100
AcDbEntity
  8
Visible (ANSI)
100
AcDbVertex
100
AcDb2dVertex
 10
84.18561426864647
 20
30.12940712363929
 30
0.0
  0
VERTEX
  5
3C0
330
3AA
100
AcDbEntity
  8
Visible (ANSI)
100
AcDbVertex
100
AcDb2dVertex
 10
84.187571156307
 20
30.12881350596348
 30
0.0
  0
VERTEX
  5
3C1
330
3AA
100
AcDbEntity
  8
Visible (ANSI)
100
AcDbVertex
100
AcDb2dVertex
 10
84.18956267890076
 20
30.12834915292773
 30
0.0
  0
VERTEX
  5
3C2
330
3AA
100
AcDbEntity
  8
Visible (ANSI)
100
AcDbVertex
100
AcDb2dVertex
 10
84.19158030785959
 20
30.12801603570926
 30
0.0
  0
VERTEX
  5
3C3
330
3AA
100
AcDbEntity
  8
Visible (ANSI)
100
AcDbVertex
100
AcDb2dVertex
 10
84.19361540461666
 20
30.1278155974914
 30
0.0
  0
VERTEX
  5
3C4
330
3AA
100
AcDbEntity
  8
Visible (ANSI)
100
AcDbVertex
100
AcDb2dVertex
 10
84.19565925140595
 20
30.127748688931
 30
0.0
  0
SEQEND
  5
3AD
330
3AA
100
AcDbEntity
  8
Visible (ANSI)
  0
LINE
  5
3C5
330
6C
100
AcDbEntity
  8
Visible (ANSI)
100
AcDbLine
 10
84.1956592518753
 20
30.03399869033899
 30
0.0
 11
84.94565925187529
 21
30.03399869033899
 31
0.0
  0
LINE
  5
3C6
330
6C
100
AcDbEntity
  8
Visible (ANSI)
100
AcDbLine
 10
84.94565925187529
 20
30.12774869033899
 30
0.0
 11
84.94565925187529
 21
30.03399869033899
 31
0.0
  0
LINE
  5
3C7
330
6C
100
AcDbEntity
  8
Visible (ANSI)
100
AcDbLine
 10
84.07065925187529
 20
30.15899869033898
 30
0.0
 11
84.07065925187529
 21
69.78899869033899
 31
0.0
  0
LINE
  5
3C8
330
6C
100
AcDbEntity
  8
Hidden (ANSI)
100
AcDbLine
 10
84.16440925187531
 20
69.78899869033899
 30
0.0
 11
84.16440925187531
 21
30.15899869033898
 31
0.0
  0
LINE
  5
3C9
330
6C
100
AcDbEntity
  8
Visible (ANSI)
100
AcDbLine
 10
84.94565925187535
 20
69.75395742960273
 30
0.0
 11
84.94565925187535
 21
30.19403995107522
 31
0.0
  0
LINE
  5
3CA
330
6C
100
AcDbEntity
  8
Hidden (ANSI)
100
AcDbLine
 10
84.16440925187508
 20
68.757498690339
 30
0.0
 11
84.07065925187508
 21
68.757498690339
 31
0.0
  0
LINE
  5
3CB
330
6C
100
AcDbEntity
  8
Hidden (ANSI)
100
AcDbLine
 10
84.16440925187508
 20
69.32049869033902
 30
0.0
 11
84.07065925187508
 21
69.32049869033902
 31
0.0
  0
LINE
  5
3CC
330
6C
100
AcDbEntity
  8
Hidden (ANSI)
100
AcDbLine
 10
84.16440925187508
 20
30.62749869033898
 30
0.0
 11
84.07065925187508
 21
30.62749869033898
 31
0.0
  0
LINE
  5
3CD
330
6C
100
AcDbEntity
  8
Hidden (ANSI)
100
AcDbLine
 10
84.16440925187508
 20
31.19049869033899
 30
0.0
 11
84.07065925187508
 21
31.19049869033899
 31
0.0
  0
MTEXT
  5
3CE
330
6C
100
AcDbEntity
  8
Symbol (ANSI)
100
AcDbMText
 10
80.76013180052298
 20
24.84653593709691
 30
0.0
 40
1.200000014830761
 41
0.0
 46
0.0
 71
     7
 72
     1
  1
SIDE VIEW
  7
Text Style153
 73
     1
 44
1.0
  0
LINE
  5
3CF
330
6C
100
AcDbEntity
  8
Symbol (ANSI)
370
    30
100
AcDbLine
 10
80.69869164247682
 20
24.59792977544984
 30
0.0
 11
88.80792984653178
 21
24.59792977544984
 31
0.0
  0
ELLIPSE
  5
3D0
330
6C
100
AcDbEntity
  8
Visible (ANSI)
100
AcDbEllipse
 10
135.4913570984586
 20
61.66675180754892
 30
0.0
 11
-0.1404775675610102
 21
0.2439432372748666
 31
0.0
210
0.0
220
0.0
230
1.0
 40
0.578093115915809
 41
0.0
 42
6.283185307179586
  0
ELLIPSE
  5
3D1
330
6C
100
AcDbEntity
  8
Visible (ANSI)
100
AcDbEllipse
 10
135.5576483591948
 20
61.70492640571696
 30
0.0
 11
-0.1404775675610098
 21
0.243943237274866
 31
0.0
210
0.0
220
0.0
230
1.0
 40
0.578093115915809
 41
0.2372585647783669
 42
2.904334088811332
  0
ELLIPSE
  5
3D2
330
6C
100
AcDbEntity
  8
Visible (ANSI)
100
AcDbEllipse
 10
122.5866583418022
 20
69.098073584258
 30
0.0
 11
-0.1404775675610102
 21
0.2439432372748666
 31
0.0
210
0.0
220
0.0
230
1.0
 40
0.578093115915809
 41
0.0
 42
6.283185307179586
  0
ELLIPSE
  5
3D3
330
6C
100
AcDbEntity
  8
Visible (ANSI)
100
AcDbEllipse
 10
122.6529496025384
 20
69.13624818242604
 30
0.0
 11
-0.1404775675610098
 21
0.243943237274866
 31
0.0
210
0.0
220
0.0
230
1.0
 40
0.578093115915809
 41
0.237258564778459
 42
2.904334088811316
  0
ELLIPSE
  5
3D4
330
6C
100
AcDbEntity
  8
Visible (ANSI)
100
AcDbEllipse
 10
122.5866583418021
 20
37.92500171401204
 30
0.0
 11
-0.1404775675610102
 21
0.2439432372748666
 31
0.0
210
0.0
220
0.0
230
1.0
 40
0.578093115915809
 41
0.0
 42
6.283185307179586
  0
ELLIPSE
  5
3D5
330
6C
100
AcDbEntity
  8
Visible (ANSI)
100
AcDbEllipse
 10
122.6529496025383
 20
37.96317631218008
 30
0.0
 11
-0.1404775675610102
 21
0.2439432372748664
 31
0.0
210
0.0
220
0.0
230
0.9999999999999998
 40
0.578093115915809
 41
0.2372585647784328
 42
2.904334088811331
  0
ELLIPSE
  5
3D6
330
6C
100
AcDbEntity
  8
Visible (ANSI)
100
AcDbEllipse
 10
135.4913570984585
 20
30.49367993730296
 30
0.0
 11
-0.1404775675610102
 21
0.2439432372748666
 31
0.0
210
0.0
220
0.0
230
1.0
 40
0.578093115915809
 41
0.0
 42
6.283185307179586
  0
ELLIPSE
  5
3D7
330
6C
100
AcDbEntity
  8
Visible (ANSI)
100
AcDbEllipse
 10
135.5576483591947
 20
30.531854535471
 30
0.0
 11
-0.1404775675610099
 21
0.2439432372748663
 31
0.0
210
0.0
220
0.0
230
1.0
 40
0.578093115915809
 41
0.2372585647783802
 42
2.904334088811324
  0
LINE
  5
3D8
330
6C
100
AcDbEntity
  8
Visible Narrow (ANSI)
100
AcDbLine
 10
136.1984638796452
 20
61.94586748387084
 30
0.0
 11
136.1984638796451
 21
29.60377069029263
 31
0.0
  0
LINE
  5
3D9
330
6C
100
AcDbEntity
  8
Visible Narrow (ANSI)
100
AcDbLine
 10
136.0216871843485
 20
29.57512280832684
 30
0.0
 11
136.0216871843485
 21
61.9745153658366
 31
0.0
  0
LINE
  5
3DA
330
6C
100
AcDbEntity
  8
Visible Narrow (ANSI)
100
AcDbLine
 10
122.1694945166484
 20
70.15545491688579
 30
0.0
 11
136.0852976189089
 21
62.14187687184363
 31
0.0
  0
LINE
  5
3DB
330
6C
100
AcDbEntity
  8
Visible Narrow (ANSI)
100
AcDbLine
 10
136.0216871843485
 20
61.9745153658366
 30
0.0
 11
122.0563282559122
 21
70.0166307132341
 31
0.0
  0
LINE
  5
3DC
330
6C
100
AcDbEntity
  8
Visible Narrow (ANSI)
100
AcDbLine
 10
122.0563282559122
 20
70.0166307132341
 30
0.0
 11
122.0563282559121
 21
37.61723815572433
 31
0.0
  0
LINE
  5
3DD
330
6C
100
AcDbEntity
  8
Visible Narrow (ANSI)
100
AcDbLine
 10
122.0563282559121
 20
37.61723815572434
 30
0.0
 11
136.0216871843485
 21
29.57512280832684
 31
0.0
  0
LINE
  5
3DE
330
6C
100
AcDbEntity
  8
Visible (ANSI)
100
AcDbLine
 10
122.0197166035605
 20
70.05320623647524
 30
0.0
 11
122.0197166035604
 21
37.68246156093127
 31
0.0
  0
LINE
  5
3DF
330
6C
100
AcDbEntity
  8
Visible (ANSI)
100
AcDbLine
 10
122.0947570361845
 20
37.55266279960361
 30
0.0
 11
136.0352770464766
 21
29.52485123385934
 31
0.0
  0
POLYLINE
  5
3E0
330
6C
100
AcDbEntity
  8
Visible (ANSI)
100
AcDb2dPolyline
 66
     1
 10
0.0
 20
0.0
 30
0.0
 70
   128
  0
VERTEX
  5
3E1
330
3E0
100
AcDbEntity
  8
Visible (ANSI)
100
AcDbVertex
100
AcDb2dVertex
 10
136.0216866755996
 20
61.97451542813749
 30
0.0
  0
VERTEX
  5
3E2
330
3E0
100
AcDbEntity
  8
Visible (ANSI)
100
AcDbVertex
100
AcDb2dVertex
 10
136.0276572744886
 20
61.97010169465881
 30
0.0
  0
VERTEX
  5
3E4
330
3E0
100
AcDbEntity
  8
Visible (ANSI)
100
AcDbVertex
100
AcDb2dVertex
 10
136.0339800692029
 20
61.96592013150422
 30
0.0
  0
VERTEX
  5
3E5
330
3E0
100
AcDbEntity
  8
Visible (ANSI)
100
AcDbVertex
100
AcDb2dVertex
 10
136.0406292655394
 20
61.96198279283063
 30
0.0
  0
VERTEX
  5
3E6
330
3E0
100
AcDbEntity
  8
Visible (ANSI)
100
AcDbVertex
100
AcDb2dVertex
 10
136.0475753441109
 20
61.9583020337905
 30
0.0
  0
VERTEX
  5
3E7
330
3E0
100
AcDbEntity
  8
Visible (ANSI)
100
AcDbVertex
100
AcDb2dVertex
 10
136.0547893206624
 20
61.95488807151211
 30
0.0
  0
VERTEX
  5
3E8
330
3E0
100
AcDbEntity
  8
Visible (ANSI)
100
AcDbVertex
100
AcDb2dVertex
 10
136.0622395726126
 20
61.95175082690579
 30
0.0
  0
VERTEX
  5
3E9
330
3E0
100
AcDbEntity
  8
Visible (ANSI)
100
AcDbVertex
100
AcDb2dVertex
 10
136.0698950830337
 20
61.94889812346813
 30
0.0
  0
VERTEX
  5
3EA
330
3E0
100
AcDbEntity
  8
Visible (ANSI)
100
AcDbVertex
100
AcDb2dVertex
 10
136.077723320864
 20
61.94633445709891
 30
0.0
  0
VERTEX
  5
3EB
330
3E0
100
AcDbEntity
  8
Visible (ANSI)
100
AcDbVertex
100
AcDb2dVertex
 10
136.08568925361
 20
61.94407147330767
 30
0.0
  0
VERTEX
  5
3EC
330
3E0
100
AcDbEntity
  8
Visible (ANSI)
100
AcDbVertex
100
AcDb2dVertex
 10
136.0937596159587
 20
61.94211079898059
 30
0.0
  0
VERTEX
  5
3ED
330
3E0
100
AcDbEntity
  8
Visible (ANSI)
100
AcDbVertex
100
AcDb2dVertex
 10
136.1018998151377
 20
61.94045575223579
 30
0.0
  0
VERTEX
  5
3EE
330
3E0
100
AcDbEntity
  8
Visible (ANSI)
100
AcDbVertex
100
AcDb2dVertex
 10
136.1100750136238
 20
61.93910828715576
 30
0.0
  0
VERTEX
  5
3EF
330
3E0
100
AcDbEntity
  8
Visible (ANSI)
100
AcDbVertex
100
AcDb2dVertex
 10
136.1182512948194
 20
61.93806844196218
 30
0.0
  0
VERTEX
  5
3F0
330
3E0
100
AcDbEntity
  8
Visible (ANSI)
100
AcDbVertex
100
AcDb2dVertex
 10
136.1263914649601
 20
61.93733681386851
 30
0.0
  0
VERTEX
  5
3F1
330
3E0
100
AcDbEntity
  8
Visible (ANSI)
100
AcDbVertex
100
AcDb2dVertex
 10
136.134461509963
 20
61.93691093877195
 30
0.0
  0
VERTEX
  5
3F2
330
3E0
100
AcDbEntity
  8
Visible (ANSI)
100
AcDbVertex
100
AcDb2dVertex
 10
136.1424274904146
 20
61.93678717247582
 30
0.0
  0
VERTEX
  5
3F3
330
3E0
100
AcDbEntity
  8
Visible (ANSI)
100
AcDbVertex
100
AcDb2dVertex
 10
136.1502556307596
 20
61.93696074205
 30
0.0
  0
VERTEX
  5
3F4
330
3E0
100
AcDbEntity
  8
Visible (ANSI)
100
AcDbVertex
100
AcDb2dVertex
 10
136.1579113444479
 20
61.93742640754337
 30
0.0
  0
VERTEX
  5
3F5
330
3E0
100
AcDbEntity
  8
Visible (ANSI)
100
AcDbVertex
100
AcDb2dVertex
 10
136.1653614522443
 20
61.93817483757198
 30
0.0
  0
VERTEX
  5
3F6
330
3E0
100
AcDbEntity
  8
Visible (ANSI)
100
AcDbVertex
100
AcDb2dVertex
 10
136.1725753386997
 20
61.93920187485412
 30
0.0
  0
VERTEX
  5
3F7
330
3E0
100
AcDbEntity
  8
Visible (ANSI)
100
AcDbVertex
100
AcDb2dVertex
 10
136.1795218693075
 20
61.94049569620718
 30
0.0
  0
VERTEX
  5
3F8
330
3E0
100
AcDbEntity
  8
Visible (ANSI)
100
AcDbVertex
100
AcDb2dVertex
 10
136.1861705512534
 20
61.9420460805464
 30
0.0
  0
VERTEX
  5
3F9
330
3E0
100
AcDbEntity
  8
Visible (ANSI)
100
AcDbVertex
100
AcDb2dVertex
 10
136.192493762873
 20
61.94384079089291
 30
0.0
  0
VERTEX
  5
3FA
330
3E0
100
AcDbEntity
  8
Visible (ANSI)
100
AcDbVertex
100
AcDb2dVertex
 10
136.1984636669198
 20
61.94586746612207
 30
0.0
  0
SEQEND
  5
3E3
330
3E0
100
AcDbEntity
  8
Visible (ANSI)
  0
POLYLINE
  5
3FB
330
6C
100
AcDbEntity
  8
Visible (ANSI)
100
AcDb2dPolyline
 66
     1
 10
0.0
 20
0.0
 30
0.0
 70
   128
  0
VERTEX
  5
3FC
330
3FB
100
AcDbEntity
  8
Visible (ANSI)
100
AcDbVertex
100
AcDb2dVertex
 10
136.1984636669197
 20
29.60377081485266
 30
0.0
  0
VERTEX
  5
3FD
330
3FB
100
AcDbEntity
  8
Visible (ANSI)
100
AcDbVertex
100
AcDb2dVertex
 10
136.1924937628729
 20
29.59935702203248
 30
0.0
  0
VERTEX
  5
3FF
330
3FB
100
AcDbEntity
  8
Visible (ANSI)
100
AcDbVertex
100
AcDb2dVertex
 10
136.1861705512533
 20
29.59517519409495
 30
0.0
  0
VERTEX
  5
400
330
3FB
100
AcDbEntity
  8
Visible (ANSI)
100
AcDbVertex
100
AcDb2dVertex
 10
136.1795218693074
 20
29.59123770175713
 30
0.0
  0
VERTEX
  5
401
330
3FB
100
AcDbEntity
  8
Visible (ANSI)
100
AcDbVertex
100
AcDb2dVertex
 10
136.1725753386996
 20
29.58755676281304
 30
0.0
  0
VERTEX
  5
402
330
3FB
100
AcDbEntity
  8
Visible (ANSI)
100
AcDbVertex
100
AcDb2dVertex
 10
136.1653614522442
 20
29.58414260793989
 30
0.0
  0
VERTEX
  5
403
330
3FB
100
AcDbEntity
  8
Visible (ANSI)
100
AcDbVertex
100
AcDb2dVertex
 10
136.1579113444479
 20
29.58100460465507
 30
0.0
  0
VERTEX
  5
404
330
3FB
100
AcDbEntity
  8
Visible (ANSI)
100
AcDbVertex
100
AcDb2dVertex
 10
136.1502556307595
 20
29.5781518311631
 30
0.0
  0
VERTEX
  5
405
330
3FB
100
AcDbEntity
  8
Visible (ANSI)
100
AcDbVertex
100
AcDb2dVertex
 10
136.1424274904145
 20
29.57559114399791
 30
0.0
  0
VERTEX
  5
406
330
3FB
100
AcDbEntity
  8
Visible (ANSI)
100
AcDbVertex
100
AcDb2dVertex
 10
136.134461509963
 20
29.57332779270301
 30
0.0
  0
VERTEX
  5
407
330
3FB
100
AcDbEntity
  8
Visible (ANSI)
100
AcDbVertex
100
AcDb2dVertex
 10
136.12639146496
 20
29.57136655020855
 30
0.0
  0
VERTEX
  5
408
330
3FB
100
AcDbEntity
  8
Visible (ANSI)
100
AcDbVertex
100
AcDb2dVertex
 10
136.1182512948193
 20
29.56971107030362
 30
0.0
  0
VERTEX
  5
409
330
3FB
100
AcDbEntity
  8
Visible (ANSI)
100
AcDbVertex
100
AcDb2dVertex
 10
136.1100750136237
 20
29.56836379790618
 30
0.0
  0
VERTEX
  5
40A
330
3FB
100
AcDbEntity
  8
Visible (ANSI)
100
AcDbVertex
100
AcDb2dVertex
 10
136.1018998151376
 20
29.56732414539518
 30
0.0
  0
VERTEX
  5
40B
330
3FB
100
AcDbEntity
  8
Visible (ANSI)
100
AcDbVertex
100
AcDb2dVertex
 10
136.0937596159587
 20
29.56659207454896
 30
0.0
  0
VERTEX
  5
40C
330
3FB
100
AcDbEntity
  8
Visible (ANSI)
100
AcDbVertex
100
AcDb2dVertex
 10
136.0856892536099
 20
29.56616564087745
 30
0.0
  0
VERTEX
  5
40D
330
3FB
100
AcDbEntity
  8
Visible (ANSI)
100
AcDbVertex
100
AcDb2dVertex
 10
136.0777233208639
 20
29.56604150707767
 30
0.0
  0
VERTEX
  5
40E
330
3FB
100
AcDbEntity
  8
Visible (ANSI)
100
AcDbVertex
100
AcDb2dVertex
 10
136.0698950830336
 20
29.56621560019069
 30
0.0
  0
VERTEX
  5
40F
330
3FB
100
AcDbEntity
  8
Visible (ANSI)
100
AcDbVertex
100
AcDb2dVertex
 10
136.0622395726125
 20
29.56668119562976
 30
0.0
  0
VERTEX
  5
410
330
3FB
100
AcDbEntity
  8
Visible (ANSI)
100
AcDbVertex
100
AcDb2dVertex
 10
136.0547893206623
 20
29.56743132264505
 30
0.0
  0
VERTEX
  5
411
330
3FB
100
AcDbEntity
  8
Visible (ANSI)
100
AcDbVertex
100
AcDb2dVertex
 10
136.0475753441108
 20
29.56845816733242
 30
0.0
  0
VERTEX
  5
412
330
3FB
100
AcDbEntity
  8
Visible (ANSI)
100
AcDbVertex
100
AcDb2dVertex
 10
136.0406292655393
 20
29.56975180878151
 30
0.0
  0
VERTEX
  5
413
330
3FB
100
AcDbEntity
  8
Visible (ANSI)
100
AcDbVertex
100
AcDb2dVertex
 10
136.0339800692028
 20
29.57130203945653
 30
0.0
  0
VERTEX
  5
414
330
3FB
100
AcDbEntity
  8
Visible (ANSI)
100
AcDbVertex
100
AcDb2dVertex
 10
136.0276572744885
 20
29.5730964850201
 30
0.0
  0
VERTEX
  5
415
330
3FB
100
AcDbEntity
  8
Visible (ANSI)
100
AcDbVertex
100
AcDb2dVertex
 10
136.0216866755995
 20
29.57512310090775
 30
0.0
  0
SEQEND
  5
3FE
330
3FB
100
AcDbEntity
  8
Visible (ANSI)
  0
LINE
  5
416
330
6C
100
AcDbEntity
  8
Visible (ANSI)
100
AcDbLine
 10
136.1321726189089
 20
61.98404208203887
 30
0.0
 11
136.6625027047988
 21
62.28943886738316
 31
0.0
  0
LINE
  5
417
330
6C
100
AcDbEntity
  8
Visible (ANSI)
100
AcDbLine
 10
136.728793965535
 20
29.90916747563693
 30
0.0
 11
136.1984638796451
 21
29.60377069029263
 31
0.0
  0
LINE
  5
418
330
6C
100
AcDbEntity
  8
Visible (ANSI)
100
AcDbLine
 10
136.1321726189089
 20
61.98404208203887
 30
0.0
 11
136.1984638796452
 21
61.94586748387084
 31
0.0
  0
POLYLINE
  5
419
330
6C
100
AcDbEntity
  8
Visible (ANSI)
100
AcDb2dPolyline
 66
     1
 10
0.0
 20
0.0
 30
0.0
 70
   128
  0
VERTEX
  5
41A
330
419
100
AcDbEntity
  8
Visible (ANSI)
100
AcDbVertex
100
AcDb2dVertex
 10
136.0879779353402
 20
62.0126900257322
 30
0.0
  0
VERTEX
  5
41B
330
419
100
AcDbEntity
  8
Visible (ANSI)
100
AcDbVertex
100
AcDb2dVertex
 10
136.0894705851232
 20
62.01069150243854
 30
0.0
  0
VERTEX
  5
41D
330
419
100
AcDbEntity
  8
Visible (ANSI)
100
AcDbVertex
100
AcDb2dVertex
 10
136.0910512836276
 20
62.0087510215906
 30
0.0
  0
VERTEX
  5
41E
330
419
100
AcDbEntity
  8
Visible (ANSI)
100
AcDbVertex
100
AcDb2dVertex
 10
136.0927141141008
 20
62.00687129142319
 30
0.0
  0
VERTEX
  5
41F
330
419
100
AcDbEntity
  8
Visible (ANSI)
100
AcDbVertex
100
AcDb2dVertex
 10
136.0944506341002
 20
62.00505601190947
 30
0.0
  0
VERTEX
  5
420
330
419
100
AcDbEntity
  8
Visible (ANSI)
100
AcDbVertex
100
AcDb2dVertex
 10
136.0962541277195
 20
62.00330743108228
 30
0.0
  0
VERTEX
  5
421
330
419
100
AcDbEntity
  8
Visible (ANSI)
100
AcDbVertex
100
AcDb2dVertex
 10
136.0981164258633
 20
62.00162818323161
 30
0.0
  0
VERTEX
  5
422
330
419
100
AcDbEntity
  8
Visible (ANSI)
100
AcDbVertex
100
AcDb2dVertex
 10
136.100030037458
 20
62.00002007000126
 30
0.0
  0
VERTEX
  5
423
330
419
100
AcDbEntity
  8
Visible (ANSI)
100
AcDbVertex
100
AcDb2dVertex
 10
136.1019870969156
 20
61.99848222170109
 30
0.0
  0
VERTEX
  5
424
330
419
100
AcDbEntity
  8
Visible (ANSI)
100
AcDbVertex
100
AcDb2dVertex
 10
136.1039793760594
 20
61.99702092683573
 30
0.0
  0
VERTEX
  5
425
330
419
100
AcDbEntity
  8
Visible (ANSI)
100
AcDbVertex
100
AcDb2dVertex
 10
136.1059961709486
 20
61.99563612740283
 30
0.0
  0
VERTEX
  5
426
330
419
100
AcDbEntity
  8
Visible (ANSI)
100
AcDbVertex
100
AcDb2dVertex
 10
136.1080317512087
 20
61.99432696968574
 30
0.0
  0
VERTEX
  5
427
330
419
100
AcDbEntity
  8
Visible (ANSI)
100
AcDbVertex
100
AcDb2dVertex
 10
136.1100758168407
 20
61.9930948608687
 30
0.0
  0
VERTEX
  5
428
330
419
100
AcDbEntity
  8
Visible (ANSI)
100
AcDbVertex
100
AcDb2dVertex
 10
136.1121198871396
 20
61.99193980961132
 30
0.0
  0
VERTEX
  5
429
330
419
100
AcDbEntity
  8
Visible (ANSI)
100
AcDbVertex
100
AcDb2dVertex
 10
136.1141541331989
 20
61.99086227128885
 30
0.0
  0
VERTEX
  5
42A
330
419
100
AcDbEntity
  8
Visible (ANSI)
100
AcDbVertex
100
AcDb2dVertex
 10
136.1161716444496
 20
61.98986071255574
 30
0.0
  0
VERTEX
  5
42B
330
419
100
AcDbEntity
  8
Visible (ANSI)
100
AcDbVertex
100
AcDb2dVertex
 10
136.118163139044
 20
61.98893468072411
 30
0.0
  0
VERTEX
  5
42C
330
419
100
AcDbEntity
  8
Visible (ANSI)
100
AcDbVertex
100
AcDb2dVertex
 10
136.1201201746488
 20
61.98808298345727
 30
0.0
  0
VERTEX
  5
42D
330
419
100
AcDbEntity
  8
Visible (ANSI)
100
AcDbVertex
100
AcDb2dVertex
 10
136.1220341030709
 20
61.98730430987163
 30
0.0
  0
VERTEX
  5
42E
330
419
100
AcDbEntity
  8
Visible (ANSI)
100
AcDbVertex
100
AcDb2dVertex
 10
136.1238971607446
 20
61.9865941797483
 30
0.0
  0
VERTEX
  5
42F
330
419
100
AcDbEntity
  8
Visible (ANSI)
100
AcDbVertex
100
AcDb2dVertex
 10
136.1257003665748
 20
61.98595600182854
 30
0.0
  0
VERTEX
  5
430
330
419
100
AcDbEntity
  8
Visible (ANSI)
100
AcDbVertex
100
AcDb2dVertex
 10
136.1274367337672
 20
61.98538452011312
 30
0.0
  0
VERTEX
  5
431
330
419
100
AcDbEntity
  8
Visible (ANSI)
100
AcDbVertex
100
AcDb2dVertex
 10
136.1290991697456
 20
61.98487687335229
 30
0.0
  0
VERTEX
  5
432
330
419
100
AcDbEntity
  8
Visible (ANSI)
100
AcDbVertex
100
AcDb2dVertex
 10
136.130680504153
 20
61.98443015550523
 30
0.0
  0
VERTEX
  5
433
330
419
100
AcDbEntity
  8
Visible (ANSI)
100
AcDbVertex
100
AcDb2dVertex
 10
136.1321724486622
 20
61.98404203982823
 30
0.0
  0
SEQEND
  5
41C
330
419
100
AcDbEntity
  8
Visible (ANSI)
  0
LINE
  5
434
330
6C
100
AcDbEntity
  8
Visible (ANSI)
100
AcDbLine
 10
136.0879784450848
 20
62.01268996400465
 30
0.0
 11
136.0216871843485
 21
61.9745153658366
 31
0.0
  0
LINE
  5
435
330
6C
100
AcDbEntity
  8
Visible (ANSI)
100
AcDbLine
 10
136.1984638796452
 20
61.94586748387084
 30
0.0
 11
136.728793965535
 21
62.25126426921512
 31
0.0
  0
LINE
  5
436
330
6C
100
AcDbEntity
  8
Visible (ANSI)
100
AcDbLine
 10
136.6625027047988
 20
62.28943886738316
 30
0.0
 11
136.728793965535
 21
62.25126426921512
 31
0.0
  0
POLYLINE
  5
437
330
6C
100
AcDbEntity
  8
Visible (ANSI)
100
AcDb2dPolyline
 66
     1
 10
0.0
 20
0.0
 30
0.0
 70
   128
  0
VERTEX
  5
438
330
437
100
AcDbEntity
  8
Visible (ANSI)
100
AcDbVertex
100
AcDb2dVertex
 10
122.0563282555803
 20
70.01663048275705
 30
0.0
  0
VERTEX
  5
439
330
437
100
AcDbEntity
  8
Visible (ANSI)
100
AcDbVertex
100
AcDb2dVertex
 10
122.0575499168302
 20
70.02282925449025
 30
0.0
  0
VERTEX
  5
43B
330
437
100
AcDbEntity
  8
Visible (ANSI)
100
AcDbVertex
100
AcDb2dVertex
 10
122.0591492611335
 20
70.02921605144684
 30
0.0
  0
VERTEX
  5
43C
330
437
100
AcDbEntity
  8
Visible (ANSI)
100
AcDbVertex
100
AcDb2dVertex
 10
122.0611238492829
 20
70.03576246621908
 30
0.0
  0
VERTEX
  5
43D
330
437
100
AcDbEntity
  8
Visible (ANSI)
100
AcDbVertex
100
AcDb2dVertex
 10
122.0634696657124
 20
70.04243669930342
 30
0.0
  0
VERTEX
  5
43E
330
437
100
AcDbEntity
  8
Visible (ANSI)
100
AcDbVertex
100
AcDb2dVertex
 10
122.0661810811629
 20
70.04920850626345
 30
0.0
  0
VERTEX
  5
43F
330
437
100
AcDbEntity
  8
Visible (ANSI)
100
AcDbVertex
100
AcDb2dVertex
 10
122.0692508983132
 20
70.0560467301206
 30
0.0
  0
VERTEX
  5
440
330
437
100
AcDbEntity
  8
Visible (ANSI)
100
AcDbVertex
100
AcDb2dVertex
 10
122.0726703932637
 20
70.06291688868834
 30
0.0
  0
VERTEX
  5
441
330
437
100
AcDbEntity
  8
Visible (ANSI)
100
AcDbVertex
100
AcDb2dVertex
 10
122.0764293528703
 20
70.06979098051075
 30
0.0
  0
VERTEX
  5
442
330
437
100
AcDbEntity
  8
Visible (ANSI)
100
AcDbVertex
100
AcDb2dVertex
 10
122.0805160996353
 20
70.07663282253735
 30
0.0
  0
VERTEX
  5
443
330
437
100
AcDbEntity
  8
Visible (ANSI)
100
AcDbVertex
100
AcDb2dVertex
 10
122.084917537338
 20
70.08341523739021
 30
0.0
  0
VERTEX
  5
444
330
437
100
AcDbEntity
  8
Visible (ANSI)
100
AcDbVertex
100
AcDb2dVertex
 10
122.0896192671881
 20
70.09010290192951
 30
0.0
  0
VERTEX
  5
445
330
437
100
AcDbEntity
  8
Visible (ANSI)
100
AcDbVertex
100
AcDb2dVertex
 10
122.094605558787
 20
70.09666712185515
 30
0.0
  0
VERTEX
  5
446
330
437
100
AcDbEntity
  8
Visible (ANSI)
100
AcDbVertex
100
AcDb2dVertex
 10
122.0998594870222
 20
70.10307359399128
 30
0.0
  0
VERTEX
  5
447
330
437
100
AcDbEntity
  8
Visible (ANSI)
100
AcDbVertex
100
AcDb2dVertex
 10
122.105362965254
 20
70.10929717849911
 30
0.0
  0
VERTEX
  5
448
330
437
100
AcDbEntity
  8
Visible (ANSI)
100
AcDbVertex
100
AcDb2dVertex
 10
122.1110968635424
 20
70.1153047390813
 30
0.0
  0
VERTEX
  5
449
330
437
100
AcDbEntity
  8
Visible (ANSI)
100
AcDbVertex
100
AcDb2dVertex
 10
122.117041039759
 20
70.12106995222191
 30
0.0
  0
VERTEX
  5
44A
330
437
100
AcDbEntity
  8
Visible (ANSI)
100
AcDbVertex
100
AcDb2dVertex
 10
122.1231744619627
 20
70.12656597244052
 30
0.0
  0
VERTEX
  5
44B
330
437
100
AcDbEntity
  8
Visible (ANSI)
100
AcDbVertex
100
AcDb2dVertex
 10
122.1294752789207
 20
70.13176549201332
 30
0.0
  0
VERTEX
  5
44C
330
437
100
AcDbEntity
  8
Visible (ANSI)
100
AcDbVertex
100
AcDb2dVertex
 10
122.1359209476695
 20
70.13664323187416
 30
0.0
  0
VERTEX
  5
44D
330
437
100
AcDbEntity
  8
Visible (ANSI)
100
AcDbVertex
100
AcDb2dVertex
 10
122.1424882782381
 20
70.14117602470175
 30
0.0
  0
VERTEX
  5
44E
330
437
100
AcDbEntity
  8
Visible (ANSI)
100
AcDbVertex
100
AcDb2dVertex
 10
122.149153569895
 20
70.14534531082204
 30
0.0
  0
VERTEX
  5
44F
330
437
100
AcDbEntity
  8
Visible (ANSI)
100
AcDbVertex
100
AcDb2dVertex
 10
122.1558926933361
 20
70.14912492632248
 30
0.0
  0
VERTEX
  5
450
330
437
100
AcDbEntity
  8
Visible (ANSI)
100
AcDbVertex
100
AcDb2dVertex
 10
122.1626812293939
 20
70.15250079002889
 30
0.0
  0
VERTEX
  5
451
330
437
100
AcDbEntity
  8
Visible (ANSI)
100
AcDbVertex
100
AcDb2dVertex
 10
122.1694945184285
 20
70.15545379962422
 30
0.0
  0
SEQEND
  5
43A
330
437
100
AcDbEntity
  8
Visible (ANSI)
  0
POLYLINE
  5
452
330
6C
100
AcDbEntity
  8
Visible (ANSI)
100
AcDb2dPolyline
 66
     1
 10
0.0
 20
0.0
 30
0.0
 70
   128
  0
VERTEX
  5
453
330
452
100
AcDbEntity
  8
Visible (ANSI)
100
AcDbVertex
100
AcDb2dVertex
 10
136.0852971883593
 20
62.14187600354419
 30
0.0
  0
VERTEX
  5
454
330
452
100
AcDbEntity
  8
Visible (ANSI)
100
AcDbVertex
100
AcDb2dVertex
 10
136.0805496092924
 20
62.13773343069313
 30
0.0
  0
VERTEX
  5
456
330
452
100
AcDbEntity
  8
Visible (ANSI)
100
AcDbVertex
100
AcDb2dVertex
 10
136.0758257212345
 20
62.13316861527756
 30
0.0
  0
VERTEX
  5
457
330
452
100
AcDbEntity
  8
Visible (ANSI)
100
AcDbVertex
100
AcDb2dVertex
 10
136.0711512374967
 20
62.1282000528457
 30
0.0
  0
VERTEX
  5
458
330
452
100
AcDbEntity
  8
Visible (ANSI)
100
AcDbVertex
100
AcDb2dVertex
 10
136.0665505938396
 20
62.12284181501626
 30
0.0
  0
VERTEX
  5
459
330
452
100
AcDbEntity
  8
Visible (ANSI)
100
AcDbVertex
100
AcDb2dVertex
 10
136.0620479112709
 20
62.11712007047955
 30
0.0
  0
VERTEX
  5
45A
330
452
100
AcDbEntity
  8
Visible (ANSI)
100
AcDbVertex
100
AcDb2dVertex
 10
136.057666890522
 20
62.11105337890955
 30
0.0
  0
VERTEX
  5
45B
330
452
100
AcDbEntity
  8
Visible (ANSI)
100
AcDbVertex
100
AcDb2dVertex
 10
136.053431775235
 20
62.10466430085872
 30
0.0
  0
VERTEX
  5
45C
330
452
100
AcDbEntity
  8
Visible (ANSI)
100
AcDbVertex
100
AcDb2dVertex
 10
136.0493630010312
 20
62.09797932893099
 30
0.0
  0
VERTEX
  5
45D
330
452
100
AcDbEntity
  8
Visible (ANSI)
100
AcDbVertex
100
AcDb2dVertex
 10
136.0454834728145
 20
62.09102516408122
 30
0.0
  0
VERTEX
  5
45E
330
452
100
AcDbEntity
  8
Visible (ANSI)
100
AcDbVertex
100
AcDb2dVertex
 10
136.041814222526
 20
62.0838286517899
 30
0.0
  0
VERTEX
  5
45F
330
452
100
AcDbEntity
  8
Visible (ANSI)
100
AcDbVertex
100
AcDb2dVertex
 10
136.0383753839974
 20
62.07641612035063
 30
0.0
  0
VERTEX
  5
460
330
452
100
AcDbEntity
  8
Visible (ANSI)
100
AcDbVertex
100
AcDb2dVertex
 10
136.035186103762
 20
62.06882069650536
 30
0.0
  0
VERTEX
  5
461
330
452
100
AcDbEntity
  8
Visible (ANSI)
100
AcDbVertex
100
AcDb2dVertex
 10
136.0322655221309
 20
62.06106691332397
 30
0.0
  0
VERTEX
  5
462
330
452
100
AcDbEntity
  8
Visible (ANSI)
100
AcDbVertex
100
AcDb2dVertex
 10
136.0296284402807
 20
62.05319029707553
 30
0.0
  0
VERTEX
  5
463
330
452
100
AcDbEntity
  8
Visible (ANSI)
100
AcDbVertex
100
AcDb2dVertex
 10
136.0272916422811
 20
62.04521893529125
 30
0.0
  0
VERTEX
  5
464
330
452
100
AcDbEntity
  8
Visible (ANSI)
100
AcDbVertex
100
AcDb2dVertex
 10
136.025269543516
 20
62.03718814155552
 30
0.0
  0
VERTEX
  5
465
330
452
100
AcDbEntity
  8
Visible (ANSI)
100
AcDbVertex
100
AcDb2dVertex
 10
136.0235752319093
 20
62.02912509802395
 30
0.0
  0
VERTEX
  5
466
330
452
100
AcDbEntity
  8
Visible (ANSI)
100
AcDbVertex
100
AcDb2dVertex
 10
136.0222203766621
 20
62.02106599252479
 30
0.0
  0
VERTEX
  5
467
330
452
100
AcDbEntity
  8
Visible (ANSI)
100
AcDbVertex
100
AcDb2dVertex
 10
136.0212162694795
 20
62.01303820541189
 30
0.0
  0
VERTEX
  5
468
330
452
100
AcDbEntity
  8
Visible (ANSI)
100
AcDbVertex
100
AcDb2dVertex
 10
136.0205695020288
 20
62.00507744674272
 30
0.0
  0
VERTEX
  5
469
330
452
100
AcDbEntity
  8
Visible (ANSI)
100
AcDbVertex
100
AcDb2dVertex
 10
136.0202883335992
 20
61.99721426194925
 30
0.0
  0
VERTEX
  5
46A
330
452
100
AcDbEntity
  8
Visible (ANSI)
100
AcDbVertex
100
AcDb2dVertex
 10
136.0203783851531
 20
61.98947890024555
 30
0.0
  0
VERTEX
  5
46B
330
452
100
AcDbEntity
  8
Visible (ANSI)
100
AcDbVertex
100
AcDb2dVertex
 10
136.0208436888496
 20
61.98190315157983
 30
0.0
  0
VERTEX
  5
46C
330
452
100
AcDbEntity
  8
Visible (ANSI)
100
AcDbVertex
100
AcDb2dVertex
 10
136.0216866755996
 20
61.97451542813749
 30
0.0
  0
SEQEND
  5
455
330
452
100
AcDbEntity
  8
Visible (ANSI)
  0
LINE
  5
46D
330
6C
100
AcDbEntity
  8
Visible (ANSI)
100
AcDbLine
 10
136.0852976189089
 20
62.06523182888965
 30
0.0
 11
136.6156277047988
 21
62.37062861423391
 31
0.0
  0
LINE
  5
46E
330
6C
100
AcDbEntity
  8
Visible (ANSI)
100
AcDbLine
 10
136.6156277047988
 20
62.4472736571879
 30
0.0
 11
136.0852976189089
 21
62.14187687184363
 31
0.0
  0
LINE
  5
46F
330
6C
100
AcDbEntity
  8
Visible (ANSI)
100
AcDbLine
 10
136.0852976189089
 20
62.06523182888965
 30
0.0
 11
136.0852976189089
 21
62.14187687184363
 31
0.0
  0
LINE
  5
470
330
6C
100
AcDbEntity
  8
Visible (ANSI)
100
AcDbLine
 10
136.6156277047988
 20
62.37062861423391
 30
0.0
 11
136.6156277047988
 21
62.4472736571879
 31
0.0
  0
POLYLINE
  5
471
330
6C
100
AcDbEntity
  8
Visible (ANSI)
100
AcDb2dPolyline
 66
     1
 10
0.0
 20
0.0
 30
0.0
 70
   128
  0
VERTEX
  5
472
330
471
100
AcDbEntity
  8
Visible (ANSI)
100
AcDbVertex
100
AcDb2dVertex
 10
136.0879779353402
 20
62.0126900257322
 30
0.0
  0
VERTEX
  5
473
330
471
100
AcDbEntity
  8
Visible (ANSI)
100
AcDbVertex
100
AcDb2dVertex
 10
136.0869930141607
 20
62.01498400193521
 30
0.0
  0
VERTEX
  5
475
330
471
100
AcDbEntity
  8
Visible (ANSI)
100
AcDbVertex
100
AcDb2dVertex
 10
136.0861025135095
 20
62.01732252864357
 30
0.0
  0
VERTEX
  5
476
330
471
100
AcDbEntity
  8
Visible (ANSI)
100
AcDbVertex
100
AcDb2dVertex
 10
136.0853058264734
 20
62.01970280069392
 30
0.0
  0
VERTEX
  5
477
330
471
100
AcDbEntity
  8
Visible (ANSI)
100
AcDbVertex
100
AcDb2dVertex
 10
136.0846019443845
 20
62.02211441457241
 30
0.0
  0
VERTEX
  5
478
330
471
100
AcDbEntity
  8
Visible (ANSI)
100
AcDbVertex
100
AcDb2dVertex
 10
136.0839894611758
 20
62.02454919358336
 30
0.0
  0
VERTEX
  5
479
330
471
100
AcDbEntity
  8
Visible (ANSI)
100
AcDbVertex
100
AcDb2dVertex
 10
136.083465517591
 20
62.02700180295333
 30
0.0
  0
VERTEX
  5
47A
330
471
100
AcDbEntity
  8
Visible (ANSI)
100
AcDbVertex
100
AcDb2dVertex
 10
136.0830300563314
 20
62.02946485216953
 30
0.0
  0
VERTEX
  5
47B
330
471
100
AcDbEntity
  8
Visible (ANSI)
100
AcDbVertex
100
AcDb2dVertex
 10
136.0826794596803
 20
62.03192520269467
 30
0.0
  0
VERTEX
  5
47C
330
471
100
AcDbEntity
  8
Visible (ANSI)
100
AcDbVertex
100
AcDb2dVertex
 10
136.0824108093002
 20
62.03437871830484
 30
0.0
  0
VERTEX
  5
47D
330
471
100
AcDbEntity
  8
Visible (ANSI)
100
AcDbVertex
100
AcDb2dVertex
 10
136.0822208350251
 20
62.03681860450625
 30
0.0
  0
VERTEX
  5
47E
330
471
100
AcDbEntity
  8
Visible (ANSI)
100
AcDbVertex
100
AcDb2dVertex
 10
136.0821059304163
 20
62.03923296182829
 30
0.0
  0
VERTEX
  5
47F
330
471
100
AcDbEntity
  8
Visible (ANSI)
100
AcDbVertex
100
AcDb2dVertex
 10
136.082061105314
 20
62.04161768405703
 30
0.0
  0
VERTEX
  5
480
330
471
100
AcDbEntity
  8
Visible (ANSI)
100
AcDbVertex
100
AcDb2dVertex
 10
136.08208425082
 20
62.04396174357689
 30
0.0
  0
VERTEX
  5
481
330
471
100
AcDbEntity
  8
Visible (ANSI)
100
AcDbVertex
100
AcDb2dVertex
 10
136.0821697858993
 20
62.04626069391154
 30
0.0
  0
VERTEX
  5
482
330
471
100
AcDbEntity
  8
Visible (ANSI)
100
AcDbVertex
100
AcDb2dVertex
 10
136.0823129239186
 20
62.0485068672918
 30
0.0
  0
VERTEX
  5
483
330
471
100
AcDbEntity
  8
Visible (ANSI)
100
AcDbVertex
100
AcDb2dVertex
 10
136.0825086309015
 20
62.05068999784788
 30
0.0
  0
VERTEX
  5
484
330
471
100
AcDbEntity
  8
Visible (ANSI)
100
AcDbVertex
100
AcDb2dVertex
 10
136.0827516504182
 20
62.05280705860327
 30
0.0
  0
VERTEX
  5
485
330
471
100
AcDbEntity
  8
Visible (ANSI)
100
AcDbVertex
100
AcDb2dVertex
 10
136.0830354582112
 20
62.05485060425076
 30
0.0
  0
VERTEX
  5
486
330
471
100
AcDbEntity
  8
Visible (ANSI)
100
AcDbVertex
100
AcDb2dVertex
 10
136.0833565385864
 20
62.05681370838509
 30
0.0
  0
VERTEX
  5
487
330
471
100
AcDbEntity
  8
Visible (ANSI)
100
AcDbVertex
100
AcDb2dVertex
 10
136.0837080343841
 20
62.05868873399356
 30
0.0
  0
VERTEX
  5
488
330
471
100
AcDbEntity
  8
Visible (ANSI)
100
AcDbVertex
100
AcDb2dVertex
 10
136.084084020778
 20
62.06047472486071
 30
0.0
  0
VERTEX
  5
489
330
471
100
AcDbEntity
  8
Visible (ANSI)
100
AcDbVertex
100
AcDb2dVertex
 10
136.0844784671596
 20
62.06216329685982
 30
0.0
  0
VERTEX
  5
48A
330
471
100
AcDbEntity
  8
Visible (ANSI)
100
AcDbVertex
100
AcDb2dVertex
 10
136.0848852651398
 20
62.06375093240344
 30
0.0
  0
VERTEX
  5
48B
330
471
100
AcDbEntity
  8
Visible (ANSI)
100
AcDbVertex
100
AcDb2dVertex
 10
136.0852971883593
 20
62.0652322375361
 30
0.0
  0
SEQEND
  5
474
330
471
100
AcDbEntity
  8
Visible (ANSI)
  0
LINE
  5
48C
330
6C
100
AcDbEntity
  8
Visible (ANSI)
100
AcDbLine
 10
122.1694945166484
 20
70.15545491688579
 30
0.0
 11
122.6998246025382
 21
70.46085170223006
 31
0.0
  0
POLYLINE
  5
48D
330
6C
100
AcDbEntity
  8
Visible (ANSI)
100
AcDb2dPolyline
 66
     1
 10
0.0
 20
0.0
 30
0.0
 70
   128
  0
VERTEX
  5
48E
330
48D
100
AcDbEntity
  8
Visible (ANSI)
100
AcDbVertex
100
AcDb2dVertex
 10
122.0563282555803
 20
37.61723815552731
 30
0.0
  0
VERTEX
  5
48F
330
48D
100
AcDbEntity
  8
Visible (ANSI)
100
AcDbVertex
100
AcDb2dVertex
 10
122.0534835922045
 20
37.61952762446494
 30
0.0
  0
VERTEX
  5
491
330
48D
100
AcDbEntity
  8
Visible (ANSI)
100
AcDbVertex
100
AcDb2dVertex
 10
122.0507366298696
 20
37.62186978196474
 30
0.0
  0
VERTEX
  5
492
330
48D
100
AcDbEntity
  8
Visible (ANSI)
100
AcDbVertex
100
AcDb2dVertex
 10
122.0480902931357
 20
37.62426276710949
 30
0.0
  0
VERTEX
  5
493
330
48D
100
AcDbEntity
  8
Visible (ANSI)
100
AcDbVertex
100
AcDb2dVertex
 10
122.045547436041
 20
37.62670464970522
 30
0.0
  0
VERTEX
  5
494
330
48D
100
AcDbEntity
  8
Visible (ANSI)
100
AcDbVertex
100
AcDb2dVertex
 10
122.0431107674334
 20
37.62919344457731
 30
0.0
  0
VERTEX
  5
495
330
48D
100
AcDbEntity
  8
Visible (ANSI)
100
AcDbVertex
100
AcDb2dVertex
 10
122.0407829007494
 20
37.63172714994021
 30
0.0
  0
VERTEX
  5
496
330
48D
100
AcDbEntity
  8
Visible (ANSI)
100
AcDbVertex
100
AcDb2dVertex
 10
122.0385663332725
 20
37.63430367789857
 30
0.0
  0
VERTEX
  5
497
330
48D
100
AcDbEntity
  8
Visible (ANSI)
100
AcDbVertex
100
AcDb2dVertex
 10
122.0364634253923
 20
37.63692090953893
 30
0.0
  0
VERTEX
  5
498
330
48D
100
AcDbEntity
  8
Visible (ANSI)
100
AcDbVertex
100
AcDb2dVertex
 10
122.0344764462354
 20
37.63957668294852
 30
0.0
  0
VERTEX
  5
499
330
48D
100
AcDbEntity
  8
Visible (ANSI)
100
AcDbVertex
100
AcDb2dVertex
 10
122.0326075114409
 20
37.64226879082631
 30
0.0
  0
VERTEX
  5
49A
330
48D
100
AcDbEntity
  8
Visible (ANSI)
100
AcDbVertex
100
AcDb2dVertex
 10
122.0308586246433
 20
37.64499499003846
 30
0.0
  0
VERTEX
  5
49B
330
48D
100
AcDbEntity
  8
Visible (ANSI)
100
AcDbVertex
100
AcDb2dVertex
 10
122.0292316608796
 20
37.64775300161832
 30
0.0
  0
VERTEX
  5
49C
330
48D
100
AcDbEntity
  8
Visible (ANSI)
100
AcDbVertex
100
AcDb2dVertex
 10
122.0277283624408
 20
37.65054050356285
 30
0.0
  0
VERTEX
  5
49D
330
48D
100
AcDbEntity
  8
Visible (ANSI)
100
AcDbVertex
100
AcDb2dVertex
 10
122.0263503388719
 20
37.65335516442468
 30
0.0
  0
VERTEX
  5
49E
330
48D
100
AcDbEntity
  8
Visible (ANSI)
100
AcDbVertex
100
AcDb2dVertex
 10
122.0250990628236
 20
37.65619460247942
 30
0.0
  0
VERTEX
  5
49F
330
48D
100
AcDbEntity
  8
Visible (ANSI)
100
AcDbVertex
100
AcDb2dVertex
 10
122.0239758742007
 20
37.65905641692886
 30
0.0
  0
VERTEX
  5
4A0
330
48D
100
AcDbEntity
  8
Visible (ANSI)
100
AcDbVertex
100
AcDb2dVertex
 10
122.0229819843101
 20
37.66193818069744
 30
0.0
  0
VERTEX
  5
4A1
330
48D
100
AcDbEntity
  8
Visible (ANSI)
100
AcDbVertex
100
AcDb2dVertex
 10
122.0221184468232
 20
37.66483744759872
 30
0.0
  0
VERTEX
  5
4A2
330
48D
100
AcDbEntity
  8
Visible (ANSI)
100
AcDbVertex
100
AcDb2dVertex
 10
122.0213861868134
 20
37.6677517499466
 30
0.0
  0
VERTEX
  5
4A3
330
48D
100
AcDbEntity
  8
Visible (ANSI)
100
AcDbVertex
100
AcDb2dVertex
 10
122.0207859945342
 20
37.67067860210155
 30
0.0
  0
VERTEX
  5
4A4
330
48D
100
AcDbEntity
  8
Visible (ANSI)
100
AcDbVertex
100
AcDb2dVertex
 10
122.0203185150481
 20
37.67361552570167
 30
0.0
  0
VERTEX
  5
4A5
330
48D
100
AcDbEntity
  8
Visible (ANSI)
100
AcDbVertex
100
AcDb2dVertex
 10
122.0199842378559
 20
37.6765600028579
 30
0.0
  0
VERTEX
  5
4A6
330
48D
100
AcDbEntity
  8
Visible (ANSI)
100
AcDbVertex
100
AcDb2dVertex
 10
122.0197835280089
 20
37.67950952049591
 30
0.0
  0
VERTEX
  5
4A7
330
48D
100
AcDbEntity
  8
Visible (ANSI)
100
AcDbVertex
100
AcDb2dVertex
 10
122.0197166012195
 20
37.68246156076366
 30
0.0
  0
SEQEND
  5
490
330
48D
100
AcDbEntity
  8
Visible (ANSI)
  0
POLYLINE
  5
4A8
330
6C
100
AcDbEntity
  8
Visible (ANSI)
100
AcDb2dPolyline
 66
     1
 10
0.0
 20
0.0
 30
0.0
 70
   128
  0
VERTEX
  5
4A9
330
4A8
100
AcDbEntity
  8
Visible (ANSI)
100
AcDbVertex
100
AcDb2dVertex
 10
122.0563282555803
 20
70.08978161965831
 30
0.0
  0
VERTEX
  5
4AA
330
4A8
100
AcDbEntity
  8
Visible (ANSI)
100
AcDbVertex
100
AcDb2dVertex
 10
122.0507366280386
 20
70.0875371094775
 30
0.0
  0
VERTEX
  5
4AC
330
4A8
100
AcDbEntity
  8
Visible (ANSI)
100
AcDbVertex
100
AcDb2dVertex
 10
122.0455474355874
 20
70.08508936092372
 30
0.0
  0
VERTEX
  5
4AD
330
4A8
100
AcDbEntity
  8
Visible (ANSI)
100
AcDbVertex
100
AcDb2dVertex
 10
122.0407829019161
 20
70.08245396775416
 30
0.0
  0
VERTEX
  5
4AE
330
4A8
100
AcDbEntity
  8
Visible (ANSI)
100
AcDbVertex
100
AcDb2dVertex
 10
122.0364634281147
 20
70.07964732499996
 30
0.0
  0
VERTEX
  5
4AF
330
4A8
100
AcDbEntity
  8
Visible (ANSI)
100
AcDbVertex
100
AcDb2dVertex
 10
122.0326075109224
 20
70.07668656182616
 30
0.0
  0
VERTEX
  5
4B0
330
4A8
100
AcDbEntity
  8
Visible (ANSI)
100
AcDbVertex
100
AcDb2dVertex
 10
122.0292316619167
 20
70.07359192220011
 30
0.0
  0
VERTEX
  5
4B1
330
4A8
100
AcDbEntity
  8
Visible (ANSI)
100
AcDbVertex
100
AcDb2dVertex
 10
122.0263503378349
 20
70.07037686858677
 30
0.0
  0
VERTEX
  5
4B2
330
4A8
100
AcDbEntity
  8
Visible (ANSI)
100
AcDbVertex
100
AcDb2dVertex
 10
122.0239758752378
 20
70.06706273486803
 30
0.0
  0
VERTEX
  5
4B3
330
4A8
100
AcDbEntity
  8
Visible (ANSI)
100
AcDbVertex
100
AcDb2dVertex
 10
122.022118443712
 20
70.06366882178922
 30
0.0
  0
VERTEX
  5
4B4
330
4A8
100
AcDbEntity
  8
Visible (ANSI)
100
AcDbVertex
100
AcDb2dVertex
 10
122.0207859945343
 20
70.06021477349332
 30
0.0
  0
VERTEX
  5
4B5
330
4A8
100
AcDbEntity
  8
Visible (ANSI)
100
AcDbVertex
100
AcDb2dVertex
 10
122.0199842357818
 20
70.05672049152242
 30
0.0
  0
VERTEX
  5
4B6
330
4A8
100
AcDbEntity
  8
Visible (ANSI)
100
AcDbVertex
100
AcDb2dVertex
 10
122.0197166012196
 20
70.05320605001326
 30
0.0
  0
VERTEX
  5
4B7
330
4A8
100
AcDbEntity
  8
Visible (ANSI)
100
AcDbVertex
100
AcDb2dVertex
 10
122.019984237856
 20
70.04969160969851
 30
0.0
  0
VERTEX
  5
4B8
330
4A8
100
AcDbEntity
  8
Visible (ANSI)
100
AcDbVertex
100
AcDb2dVertex
 10
122.0207859945343
 20
70.04619732653319
 30
0.0
  0
VERTEX
  5
4B9
330
4A8
100
AcDbEntity
  8
Visible (ANSI)
100
AcDbVertex
100
AcDb2dVertex
 10
122.0221184468233
 20
70.04274328002892
 30
0.0
  0
VERTEX
  5
4BA
330
4A8
100
AcDbEntity
  8
Visible (ANSI)
100
AcDbVertex
100
AcDb2dVertex
 10
122.0239758742007
 20
70.03934936695009
 30
0.0
  0
VERTEX
  5
4BB
330
4A8
100
AcDbEntity
  8
Visible (ANSI)
100
AcDbVertex
100
AcDb2dVertex
 10
122.026350338872
 20
70.03603768770211
 30
0.0
  0
VERTEX
  5
4BC
330
4A8
100
AcDbEntity
  8
Visible (ANSI)
100
AcDbVertex
100
AcDb2dVertex
 10
122.0292316608797
 20
70.03282263289435
 30
0.0
  0
VERTEX
  5
4BD
330
4A8
100
AcDbEntity
  8
Visible (ANSI)
100
AcDbVertex
100
AcDb2dVertex
 10
122.032607511441
 20
70.02972553969337
 30
0.0
  0
VERTEX
  5
4BE
330
4A8
100
AcDbEntity
  8
Visible (ANSI)
100
AcDbVertex
100
AcDb2dVertex
 10
122.0364634253924
 20
70.02676477599701
 30
0.0
  0
VERTEX
  5
4BF
330
4A8
100
AcDbEntity
  8
Visible (ANSI)
100
AcDbVertex
100
AcDb2dVertex
 10
122.0407829007494
 20
70.02395813398933
 30
0.0
  0
VERTEX
  5
4C0
330
4A8
100
AcDbEntity
  8
Visible (ANSI)
100
AcDbVertex
100
AcDb2dVertex
 10
122.0455474360411
 20
70.02132274175294
 30
0.0
  0
VERTEX
  5
4C1
330
4A8
100
AcDbEntity
  8
Visible (ANSI)
100
AcDbVertex
100
AcDb2dVertex
 10
122.0507366298697
 20
70.01887499160346
 30
0.0
  0
VERTEX
  5
4C2
330
4A8
100
AcDbEntity
  8
Visible (ANSI)
100
AcDbVertex
100
AcDb2dVertex
 10
122.0563282555803
 20
70.01663048275705
 30
0.0
  0
SEQEND
  5
4AB
330
4A8
100
AcDbEntity
  8
Visible (ANSI)
  0
LINE
  5
4C3
330
6C
100
AcDbEntity
  8
Visible (ANSI)
100
AcDbLine
 10
122.4913562347536
 20
37.92185172167408
 30
0.0
 11
122.6529496025381
 21
38.01490715331445
 31
0.0
  0
LINE
  5
4C4
330
6C
100
AcDbEntity
  8
Visible (ANSI)
100
AcDbLine
 10
122.130135880898
 20
70.13228474418646
 30
0.0
 11
122.0563282559121
 21
70.08978175971641
 31
0.0
  0
LINE
  5
4C5
330
6C
100
AcDbEntity
  8
Visible (ANSI)
100
AcDbLine
 10
122.0801590923006
 20
70.07605849373783
 30
0.0
 11
122.0563282559121
 21
70.08978175971641
 31
0.0
  0
POLYLINE
  5
4C6
330
6C
100
AcDbEntity
  8
Visible (ANSI)
100
AcDb2dPolyline
 66
     1
 10
0.0
 20
0.0
 30
0.0
 70
   128
  0
VERTEX
  5
4C7
330
4C6
100
AcDbEntity
  8
Visible (ANSI)
100
AcDbVertex
100
AcDb2dVertex
 10
136.0216866755995
 20
29.57512310090775
 30
0.0
  0
VERTEX
  5
4C8
330
4C6
100
AcDbEntity
  8
Visible (ANSI)
100
AcDbVertex
100
AcDb2dVertex
 10
136.0208436888495
 20
29.56914273945871
 30
0.0
  0
VERTEX
  5
4CA
330
4C6
100
AcDbEntity
  8
Visible (ANSI)
100
AcDbVertex
100
AcDb2dVertex
 10
136.020378385153
 20
29.56340848547008
 30
0.0
  0
VERTEX
  5
4CB
330
4C6
100
AcDbEntity
  8
Visible (ANSI)
100
AcDbVertex
100
AcDb2dVertex
 10
136.0202883335991
 20
29.55794744781144
 30
0.0
  0
VERTEX
  5
4CC
330
4C6
100
AcDbEntity
  8
Visible (ANSI)
100
AcDbVertex
100
AcDb2dVertex
 10
136.0205695020288
 20
29.55278555425882
 30
0.0
  0
VERTEX
  5
4CD
330
4C6
100
AcDbEntity
  8
Visible (ANSI)
100
AcDbVertex
100
AcDb2dVertex
 10
136.0212162694794
 20
29.5479474579406
 30
0.0
  0
VERTEX
  5
4CE
330
4C6
100
AcDbEntity
  8
Visible (ANSI)
100
AcDbVertex
100
AcDb2dVertex
 10
136.022220376662
 20
29.54345702655274
 30
0.0
  0
VERTEX
  5
4CF
330
4C6
100
AcDbEntity
  8
Visible (ANSI)
100
AcDbVertex
100
AcDb2dVertex
 10
136.0235752319092
 20
29.53933481930322
 30
0.0
  0
VERTEX
  5
4D0
330
4C6
100
AcDbEntity
  8
Visible (ANSI)
100
AcDbVertex
100
AcDb2dVertex
 10
136.0252695435159
 20
29.535601638675
 30
0.0
  0
VERTEX
  5
4D1
330
4C6
100
AcDbEntity
  8
Visible (ANSI)
100
AcDbVertex
100
AcDb2dVertex
 10
136.027291642281
 20
29.53227602651828
 30
0.0
  0
VERTEX
  5
4D2
330
4C6
100
AcDbEntity
  8
Visible (ANSI)
100
AcDbVertex
100
AcDb2dVertex
 10
136.0296284402806
 20
29.52937475564539
 30
0.0
  0
VERTEX
  5
4D3
330
4C6
100
AcDbEntity
  8
Visible (ANSI)
100
AcDbVertex
100
AcDb2dVertex
 10
136.0322655221308
 20
29.52691280564596
 30
0.0
  0
VERTEX
  5
4D4
330
4C6
100
AcDbEntity
  8
Visible (ANSI)
100
AcDbVertex
100
AcDb2dVertex
 10
136.0351861037619
 20
29.52490387126852
 30
0.0
  0
VERTEX
  5
4D5
330
4C6
100
AcDbEntity
  8
Visible (ANSI)
100
AcDbVertex
100
AcDb2dVertex
 10
136.0383753839973
 20
29.5233578824291
 30
0.0
  0
VERTEX
  5
4D6
330
4C6
100
AcDbEntity
  8
Visible (ANSI)
100
AcDbVertex
100
AcDb2dVertex
 10
136.0418142225259
 20
29.52228461582517
 30
0.0
  0
VERTEX
  5
4D7
330
4C6
100
AcDbEntity
  8
Visible (ANSI)
100
AcDbVertex
100
AcDb2dVertex
 10
136.0454834728144
 20
29.52169121258775
 30
0.0
  0
VERTEX
  5
4D8
330
4C6
100
AcDbEntity
  8
Visible (ANSI)
100
AcDbVertex
100
AcDb2dVertex
 10
136.0493630010311
 20
29.52158275727307
 30
0.0
  0
VERTEX
  5
4D9
330
4C6
100
AcDbEntity
  8
Visible (ANSI)
100
AcDbVertex
100
AcDb2dVertex
 10
136.0534317752349
 20
29.52196226207576
 30
0.0
  0
VERTEX
  5
4DA
330
4C6
100
AcDbEntity
  8
Visible (ANSI)
100
AcDbVertex
100
AcDb2dVertex
 10
136.0576668905219
 20
29.52283125659816
 30
0.0
  0
VERTEX
  5
4DB
330
4C6
100
AcDbEntity
  8
Visible (ANSI)
100
AcDbVertex
100
AcDb2dVertex
 10
136.0620479112708
 20
29.52418734624948
 30
0.0
  0
VERTEX
  5
4DC
330
4C6
100
AcDbEntity
  8
Visible (ANSI)
100
AcDbVertex
100
AcDb2dVertex
 10
136.0665505938396
 20
29.52602788078997
 30
0.0
  0
VERTEX
  5
4DD
330
4C6
100
AcDbEntity
  8
Visible (ANSI)
100
AcDbVertex
100
AcDb2dVertex
 10
136.0711512374966
 20
29.52834752387697
 30
0.0
  0
VERTEX
  5
4DE
330
4C6
100
AcDbEntity
  8
Visible (ANSI)
100
AcDbVertex
100
AcDb2dVertex
 10
136.0758257212344
 20
29.5311388878476
 30
0.0
  0
VERTEX
  5
4DF
330
4C6
100
AcDbEntity
  8
Visible (ANSI)
100
AcDbVertex
100
AcDb2dVertex
 10
136.0805496092923
 20
29.53439256591399
 30
0.0
  0
VERTEX
  5
4E0
330
4C6
100
AcDbEntity
  8
Visible (ANSI)
100
AcDbVertex
100
AcDb2dVertex
 10
136.0852971883593
 20
29.53809778067807
 30
0.0
  0
SEQEND
  5
4C9
330
4C6
100
AcDbEntity
  8
Visible (ANSI)
  0
POLYLINE
  5
4E1
330
6C
100
AcDbEntity
  8
Visible (ANSI)
100
AcDb2dPolyline
 66
     1
 10
0.0
 20
0.0
 30
0.0
 70
   128
  0
VERTEX
  5
4E2
330
4E1
100
AcDbEntity
  8
Visible (ANSI)
100
AcDbVertex
100
AcDb2dVertex
 10
122.0947570343945
 20
37.55266280349921
 30
0.0
  0
VERTEX
  5
4E3
330
4E1
100
AcDbEntity
  8
Visible (ANSI)
100
AcDbVertex
100
AcDb2dVertex
 10
122.0922191843123
 20
37.55420186390113
 30
0.0
  0
VERTEX
  5
4E5
330
4E1
100
AcDbEntity
  8
Visible (ANSI)
100
AcDbVertex
100
AcDb2dVertex
 10
122.0897506317798
 20
37.55585615475959
 30
0.0
  0
VERTEX
  5
4E6
330
4E1
100
AcDbEntity
  8
Visible (ANSI)
100
AcDbVertex
100
AcDb2dVertex
 10
122.0873534841393
 20
37.55762422051538
 30
0.0
  0
VERTEX
  5
4E7
330
4E1
100
AcDbEntity
  8
Visible (ANSI)
100
AcDbVertex
100
AcDb2dVertex
 10
122.0850297574704
 20
37.55950447391683
 30
0.0
  0
VERTEX
  5
4E8
330
4E1
100
AcDbEntity
  8
Visible (ANSI)
100
AcDbVertex
100
AcDb2dVertex
 10
122.0827813973315
 20
37.56149521755657
 30
0.0
  0
VERTEX
  5
4E9
330
4E1
100
AcDbEntity
  8
Visible (ANSI)
100
AcDbVertex
100
AcDb2dVertex
 10
122.0806102663144
 20
37.56359462471437
 30
0.0
  0
VERTEX
  5
4EA
330
4E1
100
AcDbEntity
  8
Visible (ANSI)
100
AcDbVertex
100
AcDb2dVertex
 10
122.0785181440451
 20
37.56580075854206
 30
0.0
  0
VERTEX
  5
4EB
330
4E1
100
AcDbEntity
  8
Visible (ANSI)
100
AcDbVertex
100
AcDb2dVertex
 10
122.0765067230347
 20
37.56811156248034
 30
0.0
  0
VERTEX
  5
4EC
330
4E1
100
AcDbEntity
  8
Visible (ANSI)
100
AcDbVertex
100
AcDb2dVertex
 10
122.0745776169766
 20
37.57052488182324
 30
0.0
  0
VERTEX
  5
4ED
330
4E1
100
AcDbEntity
  8
Visible (ANSI)
100
AcDbVertex
100
AcDb2dVertex
 10
122.0727323358563
 20
37.57303842540391
 30
0.0
  0
VERTEX
  5
4EE
330
4E1
100
AcDbEntity
  8
Visible (ANSI)
100
AcDbVertex
100
AcDb2dVertex
 10
122.0709723149896
 20
37.57564982068636
 30
0.0
  0
VERTEX
  5
4EF
330
4E1
100
AcDbEntity
  8
Visible (ANSI)
100
AcDbVertex
100
AcDb2dVertex
 10
122.0692988901331
 20
37.57835657065502
 30
0.0
  0
VERTEX
  5
4F0
330
4E1
100
AcDbEntity
  8
Visible (ANSI)
100
AcDbVertex
100
AcDb2dVertex
 10
122.0677133057802
 20
37.58115608736975
 30
0.0
  0
VERTEX
  5
4F1
330
4E1
100
AcDbEntity
  8
Visible (ANSI)
100
AcDbVertex
100
AcDb2dVertex
 10
122.0662167110134
 20
37.58404567998456
 30
0.0
  0
VERTEX
  5
4F2
330
4E1
100
AcDbEntity
  8
Visible (ANSI)
100
AcDbVertex
100
AcDb2dVertex
 10
122.0648101553555
 20
37.58702255235878
 30
0.0
  0
VERTEX
  5
4F3
330
4E1
100
AcDbEntity
  8
Visible (ANSI)
100
AcDbVertex
100
AcDb2dVertex
 10
122.0634946012149
 20
37.59008383420468
 30
0.0
  0
VERTEX
  5
4F4
330
4E1
100
AcDbEntity
  8
Visible (ANSI)
100
AcDbVertex
100
AcDb2dVertex
 10
122.0622709072922
 20
37.59322653795852
 30
0.0
  0
VERTEX
  5
4F5
330
4E1
100
AcDbEntity
  8
Visible (ANSI)
100
AcDbVertex
100
AcDb2dVertex
 10
122.0611398202835
 20
37.59644761631672
 30
0.0
  0
VERTEX
  5
4F6
330
4E1
100
AcDbEntity
  8
Visible (ANSI)
100
AcDbVertex
100
AcDb2dVertex
 10
122.0601020205119
 20
37.59974391671802
 30
0.0
  0
VERTEX
  5
4F7
330
4E1
100
AcDbEntity
  8
Visible (ANSI)
100
AcDbVertex
100
AcDb2dVertex
 10
122.0591580597029
 20
37.60311220284315
 30
0.0
  0
VERTEX
  5
4F8
330
4E1
100
AcDbEntity
  8
Visible (ANSI)
100
AcDbVertex
100
AcDb2dVertex
 10
122.0583083983192
 20
37.60654919065132
 30
0.0
  0
VERTEX
  5
4F9
330
4E1
100
AcDbEntity
  8
Visible (ANSI)
100
AcDbVertex
100
AcDb2dVertex
 10
122.0575533889672
 20
37.6100514860293
 30
0.0
  0
VERTEX
  5
4FA
330
4E1
100
AcDbEntity
  8
Visible (ANSI)
100
AcDbVertex
100
AcDb2dVertex
 10
122.0568932888423
 20
37.61361563992027
 30
0.0
  0
VERTEX
  5
4FB
330
4E1
100
AcDbEntity
  8
Visible (ANSI)
100
AcDbVertex
100
AcDb2dVertex
 10
122.0563282555803
 20
37.61723815552731
 30
0.0
  0
SEQEND
  5
4E4
330
4E1
100
AcDbEntity
  8
Visible (ANSI)
  0
LINE
  5
4FC
330
6C
100
AcDbEntity
  8
Visible (ANSI)
100
AcDbLine
 10
122.5384865847694
 20
37.84080902111772
 30
0.0
 11
122.6998246025382
 21
37.93371740646368
 31
0.0
  0
LINE
  5
4FD
330
6C
100
AcDbEntity
  8
Visible (ANSI)
100
AcDbLine
 10
136.0852976189088
 20
29.56615260005591
 30
0.0
 11
136.0852976189088
 21
29.53809753312325
 31
0.0
  0
LINE
  5
4FE
330
6C
100
AcDbEntity
  8
Visible (ANSI)
100
AcDbLine
 10
136.0852976189088
 20
29.53809753312325
 30
0.0
 11
136.164896863506
 21
29.58393568951411
 31
0.0
  0
LINE
  5
4FF
330
6C
100
AcDbEntity
  8
Visible (ANSI)
100
AcDbLine
 10
136.1957505786107
 20
29.60170316237603
 30
0.0
 11
136.6156277047987
 21
29.84349431846755
 31
0.0
  0
LINE
  5
500
330
6C
100
AcDbEntity
  8
Visible (ANSI)
100
AcDbLine
 10
136.6156277047987
 20
29.84399936023518
 30
0.0
 11
136.6156277047987
 21
29.84349431846755
 31
0.0
  0
LINE
  5
501
330
6C
100
AcDbEntity
  8
Visible (ANSI)
100
AcDbLine
 10
136.728793965535
 20
62.25126426921512
 30
0.0
 11
136.728793965535
 21
29.90916747563693
 31
0.0
  0
LINE
  5
502
330
6C
100
AcDbEntity
  8
Visible (ANSI)
100
AcDbLine
 10
122.6998246025382
 20
70.46085170223006
 30
0.0
 11
136.6156277047988
 21
62.4472736571879
 31
0.0
  0
LINE
  5
503
330
6C
100
AcDbEntity
  8
Visible (ANSI)
100
AcDbLine
 10
122.6529496025381
 20
38.01490715331445
 30
0.0
 11
122.6529496025381
 21
38.10382880719947
 31
0.0
  0
LINE
  5
504
330
6C
100
AcDbEntity
  8
Visible (ANSI)
100
AcDbLine
 10
122.6529496025382
 20
68.90610866678295
 30
0.0
 11
122.6529496025382
 21
69.27690067744544
 31
0.0
  0
LINE
  5
505
330
6C
100
AcDbEntity
  8
Visible (ANSI)
100
AcDbLine
 10
135.6798710960051
 20
30.45900575386951
 30
0.0
 11
135.3586092220815
 21
30.64400816304884
 31
0.0
  0
LINE
  5
506
330
6C
100
AcDbEntity
  8
Visible (ANSI)
100
AcDbLine
 10
122.7751723393487
 20
37.89032753057858
 30
0.0
 11
122.6998246025382
 21
37.93371740646368
 31
0.0
  0
SPLINE
  5
507
330
6C
100
AcDbEntity
  8
Visible (ANSI)
100
AcDbSpline
210
0.0
220
0.0
230
1.0
 70
     8
 71
     3
 72
    11
 73
     7
 74
     0
 42
0.0000000001
 43
0.0000000001
 40
0.0
 40
0.0
 40
0.0
 40
0.0
 40
1.048975082050318
 40
1.048975082050318
 40
1.048975082050318
 40
1.570796326794851
 40
1.570796326794851
 40
1.570796326794851
 40
1.570796326794851
 10
52.00726030154112
 20
90.60704516903101
 30
0.0
 10
52.05096759662655
 20
90.60704516903101
 30
0.0
 10
52.09383807099766
 20
90.63184727743836
 30
0.0
 10
52.11562440161484
 20
90.66973769102707
 30
0.0
 10
52.12646219019115
 20
90.68858658755578
 30
0.0
 10
52.1322603015411
 20
90.71030261716664
 30
0.0
 10
52.1322603015411
 20
90.73204516903102
 30
0.0
  0
LINE
  5
508
330
6C
100
AcDbEntity
  8
Visible (ANSI)
100
AcDbLine
 10
52.03851030154111
 20
90.73204516903102
 30
0.0
 11
52.03851030154112
 21
91.48204516903101
 31
0.0
  0
LINE
  5
509
330
6C
100
AcDbEntity
  8
Visible (ANSI)
100
AcDbLine
 10
52.03851030154111
 20
90.73204516903102
 30
0.0
 11
52.1322603015411
 21
90.73204516903102
 31
0.0
  0
SPLINE
  5
50A
330
6C
100
AcDbEntity
  8
Visible (ANSI)
100
AcDbSpline
210
0.0
220
0.0
230
1.0
 70
     8
 71
     3
 72
    11
 73
     7
 74
     0
 42
0.0000000001
 43
0.0000000001
 40
0.0
 40
0.0
 40
0.0
 40
0.0
 40
1.483474787626995
 40
1.483474787626995
 40
1.483474787626995
 40
1.570796326794851
 40
1.570796326794851
 40
1.570796326794851
 40
1.570796326794851
 10
52.00726030154111
 20
90.70079516903103
 30
0.0
 10
52.02271316391223
 20
90.70079516903103
 30
0.0
 10
52.03704358225433
 20
90.71392585211732
 30
0.0
 10
52.03839123580179
 20
90.72931983748098
 30
0.0
 10
52.03847056251702
 20
90.73022597117944
 30
0.0
 10
52.03851030154111
 20
90.73113556966468
 30
0.0
 10
52.03851030154111
 20
90.73204516903102
 30
0.0
  0
LINE
  5
50B
330
6C
100
AcDbEntity
  8
Visible (ANSI)
100
AcDbLine
 10
52.00726030154111
 20
90.70079516903103
 30
0.0
 11
52.00726030154111
 21
90.60704516903101
 31
0.0
  0
LINE
  5
50C
330
6C
100
AcDbEntity
  8
Visible (ANSI)
100
AcDbLine
 10
52.1322603015411
 20
90.73204516903102
 30
0.0
 11
52.1322603015411
 21
91.48204516903101
 31
0.0
  0
LINE
  5
50D
330
6C
100
AcDbEntity
  8
Visible (ANSI)
100
AcDbLine
 10
52.03851030154112
 20
91.48204516903101
 30
0.0
 11
52.1322603015411
 21
91.48204516903101
 31
0.0
  0
SPLINE
  5
50E
330
6C
100
AcDbEntity
  8
Visible (ANSI)
100
AcDbSpline
210
0.0
220
0.0
230
1.0
 70
     8
 71
     3
 72
    11
 73
     7
 74
     0
 42
0.0000000001
 43
0.0000000001
 40
0.0
 40
0.0
 40
0.0
 40
0.0
 40
1.048975082050328
 40
1.048975082050328
 40
1.048975082050328
 40
1.570796326794967
 40
1.570796326794967
 40
1.570796326794967
 40
1.570796326794967
 10
32.25726030154112
 20
90.60704516903101
 30
0.0
 10
32.26506046606679
 20
90.60704516903102
 30
0.0
 10
32.27286063059246
 20
90.63184727743838
 30
0.0
 10
32.28066079511812
 20
90.66973769102711
 30
0.0
 10
32.28454105083786
 20
90.6885865875558
 30
0.0
 10
32.2884213065576
 20
90.7103026171667
 30
0.0
 10
32.29230156227735
 20
90.73204516903107
 30
0.0
  0
SPLINE
  5
50F
330
6C
100
AcDbEntity
  8
Visible (ANSI)
100
AcDbSpline
210
0.0
220
0.0
230
1.0
 70
     8
 71
     3
 72
    11
 73
     7
 74
     0
 42
0.0000000001
 43
0.0000000001
 40
0.0
 40
0.0
 40
0.0
 40
0.0
 40
1.048975082049995
 40
1.048975082049995
 40
1.048975082049995
 40
1.570796326794658
 40
1.570796326794658
 40
1.570796326794658
 40
1.570796326794658
 10
51.97221904080487
 20
90.73204516903105
 30
0.0
 10
51.98001920533053
 20
90.68833787394565
 30
0.0
 10
51.98781936985621
 20
90.64546739957451
 30
0.0
 10
51.99561953438188
 20
90.62368106895734
 30
0.0
 10
51.99949979010162
 20
90.61284328038102
 30
0.0
 10
52.00338004582137
 20
90.60704516903104
 30
0.0
 10
52.00726030154112
 20
90.60704516903102
 30
0.0
  0
LINE
  5
510
330
6C
100
AcDbEntity
  8
Visible (ANSI)
100
AcDbLine
 10
51.97221904080487
 20
91.48204516903104
 30
0.0
 11
51.97221904080487
 21
90.73204516903105
 31
0.0
  0
SPLINE
  5
511
330
6C
100
AcDbEntity
  8
Visible (ANSI)
100
AcDbSpline
210
0.0
220
0.0
230
1.0
 70
     8
 71
     3
 72
    11
 73
     7
 74
     0
 42
0.0000000001
 43
0.0000000001
 40
0.0
 40
0.0
 40
0.0
 40
0.0
 40
1.48347478762764
 40
1.48347478762764
 40
1.48347478762764
 40
1.570796326794658
 40
1.570796326794658
 40
1.570796326794658
 40
1.570796326794658
 10
52.00726030154112
 20
90.70079516903103
 30
0.0
 10
51.99622920308017
 20
90.70079516903103
 30
0.0
 10
51.98519810461922
 20
90.71392585211736
 30
0.0
 10
51.97416700615827
 20
90.72931983748103
 30
0.0
 10
51.9735176843738
 20
90.73022597117946
 30
0.0
 10
51.97286836258935
 20
90.73113556966468
 30
0.0
 10
51.97221904080487
 20
90.73204516903102
 30
0.0
  0
SPLINE
  5
512
330
6C
100
AcDbEntity
  8
Visible (ANSI)
100
AcDbSpline
210
0.0
220
0.0
230
1.0
 70
     8
 71
     3
 72
    11
 73
     7
 74
     0
 42
0.0000000001
 43
0.0000000001
 40
0.0
 40
0.0
 40
0.0
 40
0.0
 40
1.483474787626232
 40
1.483474787626232
 40
1.483474787626232
 40
1.570796326794967
 40
1.570796326794967
 40
1.570796326794967
 40
1.570796326794967
 10
32.25726030154112
 20
90.70079516903103
 30
0.0
 10
32.26829140000205
 20
90.70079516903103
 30
0.0
 10
32.27932249846298
 20
90.71392585211732
 30
0.0
 10
32.29035359692391
 20
90.72931983748098
 30
0.0
 10
32.29100291870839
 20
90.73022597117946
 30
0.0
 10
32.29165224049288
 20
90.73113556966468
 30
0.0
 10
32.29230156227735
 20
90.73204516903102
 30
0.0
  0
LINE
  5
513
330
6C
100
AcDbEntity
  8
Visible (ANSI)
100
AcDbLine
 10
32.25726030154112
 20
90.70079516903103
 30
0.0
 11
32.25726030154112
 21
90.60704516903101
 31
0.0
  0
LINE
  5
514
330
6C
100
AcDbEntity
  8
Visible (ANSI)
100
AcDbLine
 10
32.29230156227735
 20
90.73204516903107
 30
0.0
 11
32.29230156227735
 21
91.48204516903106
 31
0.0
  0
SPLINE
  5
515
330
6C
100
AcDbEntity
  8
Visible (ANSI)
100
AcDbSpline
210
0.0
220
0.0
230
1.0
 70
     8
 71
     3
 72
    11
 73
     7
 74
     0
 42
0.0000000001
 43
0.0000000001
 40
0.0
 40
0.0
 40
0.0
 40
0.0
 40
1.048975082050299
 40
1.048975082050299
 40
1.048975082050299
 40
1.570796326794851
 40
1.570796326794851
 40
1.570796326794851
 40
1.570796326794851
 10
32.13226030154111
 20
90.73204516903102
 30
0.0
 10
32.13226030154112
 20
90.68833787394558
 30
0.0
 10
32.15706240994846
 20
90.64546739957446
 30
0.0
 10
32.19495282353717
 20
90.62368106895728
 30
0.0
 10
32.21380172006587
 20
90.61284328038098
 30
0.0
 10
32.23551774967676
 20
90.60704516903101
 30
0.0
 10
32.25726030154112
 20
90.60704516903101
 30
0.0
  0
LINE
  5
516
330
6C
100
AcDbEntity
  8
Visible (ANSI)
100
AcDbLine
 10
32.22601030154111
 20
90.73204516903102
 30
0.0
 11
32.22601030154111
 21
91.48204516903101
 31
0.0
  0
LINE
  5
517
330
6C
100
AcDbEntity
  8
Visible (ANSI)
100
AcDbLine
 10
32.13226030154111
 20
91.48204516903101
 30
0.0
 11
32.13226030154111
 21
90.73204516903102
 31
0.0
  0
LINE
  5
518
330
6C
100
AcDbEntity
  8
Visible (ANSI)
100
AcDbLine
 10
32.22601030154111
 20
90.73204516903102
 30
0.0
 11
32.13226030154111
 21
90.73204516903102
 31
0.0
  0
LINE
  5
519
330
6C
100
AcDbEntity
  8
Visible (ANSI)
100
AcDbLine
 10
32.22601030154111
 20
91.48204516903101
 30
0.0
 11
32.13226030154111
 21
91.48204516903101
 31
0.0
  0
SPLINE
  5
51A
330
6C
100
AcDbEntity
  8
Visible (ANSI)
100
AcDbSpline
210
0.0
220
0.0
230
1.0
 70
     8
 71
     3
 72
    11
 73
     7
 74
     0
 42
0.0000000001
 43
0.0000000001
 40
0.0
 40
0.0
 40
0.0
 40
0.0
 40
1.483474787626968
 40
1.483474787626968
 40
1.483474787626968
 40
1.570796326794851
 40
1.570796326794851
 40
1.570796326794851
 40
1.570796326794851
 10
32.25726030154112
 20
90.70079516903103
 30
0.0
 10
32.24180743917
 20
90.70079516903103
 30
0.0
 10
32.2274770208279
 20
90.71392585211732
 30
0.0
 10
32.22612936728044
 20
90.72931983748098
 30
0.0
 10
32.22605004056521
 20
90.73022597117944
 30
0.0
 10
32.22601030154111
 20
90.73113556966466
 30
0.0
 10
32.22601030154111
 20
90.73204516903102
 30
0.0
  0
LINE
  5
51B
330
6C
100
AcDbEntity
  8
Visible (ANSI)
100
AcDbLine
 10
52.00726030154111
 20
90.60704516903101
 30
0.0
 11
32.25726030154112
 21
90.60704516903101
 31
0.0
  0
LINE
  5
51C
330
6C
100
AcDbEntity
  8
Hidden (ANSI)
100
AcDbLine
 10
32.25726030154112
 20
90.70079516903103
 30
0.0
 11
52.00726030154111
 21
90.70079516903103
 31
0.0
  0
LINE
  5
51D
330
6C
100
AcDbEntity
  8
Visible (ANSI)
100
AcDbLine
 10
32.29230156227735
 20
91.48204516903106
 30
0.0
 11
51.97221904080487
 21
91.48204516903104
 31
0.0
  0
LINE
  5
51E
330
6C
100
AcDbEntity
  8
Hidden (ANSI)
100
AcDbLine
 10
51.53876030154111
 20
90.7007951690308
 30
0.0
 11
51.53876030154111
 21
90.60704516903079
 31
0.0
  0
LINE
  5
51F
330
6C
100
AcDbEntity
  8
Hidden (ANSI)
100
AcDbLine
 10
50.97576030154111
 20
90.7007951690308
 30
0.0
 11
50.97576030154111
 21
90.60704516903079
 31
0.0
  0
LINE
  5
520
330
6C
100
AcDbEntity
  8
Hidden (ANSI)
100
AcDbLine
 10
33.28876030154111
 20
90.7007951690308
 30
0.0
 11
33.28876030154111
 21
90.60704516903079
 31
0.0
  0
LINE
  5
521
330
6C
100
AcDbEntity
  8
Hidden (ANSI)
100
AcDbLine
 10
32.72576030154112
 20
90.7007951690308
 30
0.0
 11
32.72576030154112
 21
90.60704516903079
 31
0.0
  0
MTEXT
  5
522
330
6C
100
AcDbEntity
  8
Symbol (ANSI)
100
AcDbMText
 10
38.22303308312982
 20
85.0536763872696
 30
0.0
 40
1.200000014830761
 41
0.0
 46
0.0
 71
     7
 72
     1
  1
TOP VIEW
  7
Text Style153
 73
     1
 44
1.0
  0
LINE
  5
523
330
6C
100
AcDbEntity
  8
Symbol (ANSI)
370
    30
100
AcDbLine
 10
38.22399308559928
 20
84.8089600135207
 30
0.0
 11
45.7954678592766
 21
84.8089600135207
 31
0.0
  0
LINE
  5
524
330
6C
100
AcDbEntity
  8
Center Mark (ANSI)
  6
Continuous
100
AcDbLine
 10
33.00726030152919
 20
70.570498690339
 30
0.0
 11
33.00726030152919
 21
67.507498690339
 31
0.0
  0
LINE
  5
525
330
6C
100
AcDbEntity
  8
Center Mark (ANSI)
  6
Continuous
100
AcDbLine
 10
51.25726030152918
 20
70.570498690339
 30
0.0
 11
51.25726030152918
 21
67.507498690339
 31
0.0
  0
LINE
  5
526
330
6C
100
AcDbEntity
  8
Centerline (ANSI)
  6
Continuous
100
AcDbLine
 10
31.47576030152918
 20
69.03899869033901
 30
0.0
 11
52.78876030152918
 21
69.03899869033901
 31
0.0
  0
LINE
  5
527
330
6C
100
AcDbEntity
  8
Center Mark (ANSI)
  6
Continuous
100
AcDbLine
 10
52.78876030152918
 20
69.03899869033901
 30
0.0
 11
49.72576030152918
 21
69.03899869033901
 31
0.0
  0
LINE
  5
528
330
6C
100
AcDbEntity
  8
Center Mark (ANSI)
  6
Continuous
100
AcDbLine
 10
52.78876030152918
 20
30.90899869033899
 30
0.0
 11
49.72576030152918
 21
30.90899869033899
 31
0.0
  0
LINE
  5
529
330
6C
100
AcDbEntity
  8
Centerline (ANSI)
  6
Continuous
100
AcDbLine
 10
51.25726030152918
 20
70.570498690339
 30
0.0
 11
51.25726030152918
 21
29.37749869033899
 31
0.0
  0
LINE
  5
52A
330
6C
100
AcDbEntity
  8
Center Mark (ANSI)
  6
Continuous
100
AcDbLine
 10
51.25726030152918
 20
29.37749869033899
 30
0.0
 11
51.25726030152918
 21
32.44049869033899
 31
0.0
  0
LINE
  5
52B
330
6C
100
AcDbEntity
  8
Center Mark (ANSI)
  6
Continuous
100
AcDbLine
 10
33.00726030152917
 20
29.37749869033899
 30
0.0
 11
33.00726030152917
 21
32.44049869033899
 31
0.0
  0
LINE
  5
52C
330
6C
100
AcDbEntity
  8
Centerline (ANSI)
  6
Continuous
100
AcDbLine
 10
52.78876030152918
 20
30.90899869033899
 30
0.0
 11
31.47576030152917
 21
30.90899869033899
 31
0.0
  0
LINE
  5
52D
330
6C
100
AcDbEntity
  8
Center Mark (ANSI)
  6
Continuous
100
AcDbLine
 10
31.47576030152917
 20
30.90899869033899
 30
0.0
 11
34.53876030152918
 21
30.90899869033899
 31
0.0
  0
LINE
  5
52E
330
6C
100
AcDbEntity
  8
Center Mark (ANSI)
  6
Continuous
100
AcDbLine
 10
31.47576030152918
 20
69.03899869033901
 30
0.0
 11
34.53876030152919
 21
69.03899869033901
 31
0.0
  0
LINE
  5
52F
330
6C
100
AcDbEntity
  8
Centerline (ANSI)
  6
Continuous
100
AcDbLine
 10
33.00726030152917
 20
29.37749869033899
 30
0.0
 11
33.00726030152919
 21
70.570498690339
 31
0.0
  0
DIMENSION
  5
530
330
6C
100
AcDbEntity
  8
Dimension (ANSI)
100
AcDbDimension
280
     0
  2
*D4
 10
52.13226030152918
 20
78.41537475243739
 30
0.0
 11
42.13226030152918
 21
78.41537475243739
 31
0.0
 70
   160
  1
<>
 42
20.0
 73
     0
 74
     0
 75
     0
  3
Default (ANSI)
100
AcDbAlignedDimension
 13
32.13226030152919
 23
69.75395742960275
 33
0.0
 14
52.13226030152918
 24
69.75395742960273
 34
0.0
100
AcDbRotatedDimension
1001
ACAD
1000
DSTYLE
1002
{
1070
   289
1070
     1
1070
    73
1070
     0
1070
    74
1070
     0
1070
   271
1070
     2
1070
   272
1070
     2
1070
    48
1040
0.0
1070
    47
1040
0.0
1002
}
  0
DIMENSION
  5
61C
330
6C
100
AcDbEntity
  8
Dimension (ANSI)
100
AcDbDimension
280
     0
  2
*D5
 10
33.00726030152919
 20
74.50750656435475
 30
0.0
 11
27.80215408349905
 21
74.50750656435475
 31
0.0
 70
   160
  1
<>
 42
0.875
 73
     0
 74
     0
 75
     0
  3
Default (ANSI)
100
AcDbAlignedDimension
 13
32.13226030152919
 23
69.75395742960275
 33
0.0
 14
33.00726030152919
 24
70.570498690339
 34
0.0
100
AcDbRotatedDimension
1001
ACAD
1000
DSTYLE
1002
{
1070
   289
1070
     1
1070
    73
1070
     0
1070
    74
1070
     0
1070
   271
1070
     2
1070
   272
1070
     2
1070
    48
1040
0.0
1070
    47
1040
0.0
1002
}
  0
DIMENSION
  5
706
330
6C
100
AcDbEntity
  8
Dimension (ANSI)
100
AcDbDimension
280
     0
  2
*D6
 10
51.25726030152918
 20
74.50750656435475
 30
0.0
 11
42.13226030152918
 21
74.50750656435475
 31
0.0
 70
   160
  1
<>
 42
18.25
 73
     0
 74
     0
 75
     0
  3
Default (ANSI)
100
AcDbAlignedDimension
 13
33.00726030152919
 23
70.570498690339
 33
0.0
 14
51.25726030152918
 24
70.570498690339
 34
0.0
 50
180.0
100
AcDbRotatedDimension
1001
ACAD
1000
DSTYLE
1002
{
1070
   289
1070
     1
1070
    73
1070
     0
1070
    74
1070
     0
1070
   271
1070
     2
1070
   272
1070
     2
1070
    48
1040
0.0
1070
    47
1040
0.0
1002
}
  0
DIMENSION
  5
7F0
330
6C
100
AcDbEntity
  8
Dimension (ANSI)
100
AcDbDimension
280
     0
  2
*D7
 10
30.37604430264305
 20
30.90899869033899
 30
0.0
 11
27.53875242751342
 21
27.16402203151759
 31
0.0
 70
   160
  1
<>
 42
0.8749999999999964
 73
     0
 74
     0
 75
     0
  3
Default (ANSI)
100
AcDbAlignedDimension
 13
32.29230156226543
 23
30.03399869033899
 33
0.0
 14
31.47576030152917
 24
30.90899869033899
 34
0.0
 50
90.0
100
AcDbRotatedDimension
1001
ACAD
1000
DSTYLE
1002
{
1070
   289
1070
     1
1070
   271
1070
     2
1070
   272
1070
     2
1070
    48
1040
0.0
1070
    47
1040
0.0
1002
}
  0
DIMENSION
  5
8F0
330
6C
100
AcDbEntity
  8
Dimension (ANSI)
100
AcDbDimension
280
     0
  2
*D8
 10
27.53875242751345
 20
69.03899869033901
 30
0.0
 11
27.53875242751343
 21
49.97399869033899
 31
0.0
 70
   160
  1
<>
 42
38.13000000000002
 73
     0
 74
     0
 75
     0
  3
Default (ANSI)
100
AcDbAlignedDimension
 13
31.47576030152917
 23
30.90899869033899
 33
0.0
 14
31.47576030152918
 24
69.03899869033901
 34
0.0
 50
90.0
100
AcDbRotatedDimension
1001
ACAD
1000
DSTYLE
1002
{
1070
   289
1070
     1
1070
   271
1070
     2
1070
   272
1070
     2
1070
    48
1040
0.0
1070
    47
1040
0.0
1002
}
  0
DIMENSION
  5
9DA
330
6C
100
AcDbEntity
  8
Dimension (ANSI)
100
AcDbDimension
280
     0
  2
*D9
 10
21.26867951502135
 20
69.91399869033902
 30
0.0
 11
21.26867951502134
 21
49.97399869033899
 31
0.0
 70
   160
  1
<>
 42
39.88000000000003
 73
     0
 74
     0
 75
     0
  3
Default (ANSI)
100
AcDbAlignedDimension
 13
32.29230156226543
 23
30.03399869033899
 33
0.0
 14
32.29230156226542
 24
69.91399869033902
 34
0.0
 50
90.0
100
AcDbRotatedDimension
1001
ACAD
1000
DSTYLE
1002
{
1070
   289
1070
     1
1070
   271
1070
     2
1070
   272
1070
     2
1070
    48
1040
0.0
1070
    47
1040
0.0
1002
}
  0
DIMENSION
  5
AC4
330
6C
100
AcDbEntity
  8
Dimension (ANSI)
100
AcDbDimension
280
     0
  2
*D10
 10
51.08525042471619
 20
31.13183237782538
 30
0.0
 11
57.78258217010737
 21
27.92167832019075
 31
0.0
 70
   163
  1
<>{\P(4 PL.)}
 71
     4
 42
0.5629999999999999
 73
     0
 74
     0
 75
     0
  3
Default (ANSI)
100
AcDbDiametricDimension
 15
51.42927017834222
 25
30.68616500285264
 35
0.0
 40
0.0
1001
ACAD
1000
DSTYLE
1002
{
1070
   144
1040
0.9999999999999957
1070
   271
1070
     3
1070
   272
1070
     3
1070
    48
1040
0.0
1070
    47
1040
0.0
1002
}
1001
ACAD_DSTYLE_DIMRADIAL_EXTENSION
1070
   387
1070
     1
1070
   388
1040
0.0
1070
   390
1040
0.0
  0
DIMENSION
  5
B7F
330
6C
100
AcDbEntity
  8
Dimension (ANSI)
100
AcDbDimension
280
     0
  2
*D11
 10
46.72733390268247
 20
90.60704516903102
 30
0.0
 11
49.61177151477375
 21
95.70202184453703
 31
0.0
 70
   160
  1
<>{\PTYP.}
 71
     5
 42
0.8750000000000284
 73
     0
 74
     0
 75
     0
  3
Default (ANSI)
100
AcDbAlignedDimension
 13
49.61177151477375
 23
91.48204516903104
 33
0.0
 14
49.61177151477375
 24
90.60704516903102
 34
0.0
 50
270.0
100
AcDbRotatedDimension
1001
ACAD
1000
DSTYLE
1002
{
1070
   289
1070
     1
1070
   271
1070
     2
1070
    76
1070
     1
1070
    75
1070
     1
1070
   272
1070
     2
1070
    48
1040
0.0
1070
    47
1040
0.0
1002
}
  0
DIMENSION
  5
C88
330
6C
100
AcDbEntity
  8
Dimension (ANSI)
100
AcDbDimension
280
     0
  2
*D12
 10
84.07065925187531
 20
67.88822975786425
 30
0.0
 11
89.36839108788641
 21
67.88822975786425
 31
0.0
 70
   160
  1
<>{\PTYP.}
 71
     4
 42
0.8750000000000284
 73
     0
 74
     0
 75
     0
  3
Default (ANSI)
100
AcDbAlignedDimension
 13
84.94565925187535
 23
67.88822975786425
 33
0.0
 14
84.07065925187531
 24
67.89362654348574
 34
0.0
 50
180.0
100
AcDbRotatedDimension
1001
ACAD
1000
DSTYLE
1002
{
1070
   289
1070
     1
1070
    73
1070
     0
1070
    74
1070
     0
1070
   271
1070
     2
1070
    76
1070
     1
1070
    75
1070
     1
1070
   272
1070
     2
1070
    48
1040
0.0
1070
    47
1040
0.0
1002
}
  0
MTEXT
  5
D77
102
{ACAD_XDICTIONARY
360
D7E
102
}
330
6C
100
AcDbEntity
  8
Symbol (ANSI)
100
AcDbMText
 10
93.08999956146239
 20
8.652473482982671
 30
0.0
 40
1.000000031914297
 41
73.83387107548756
 46
0.0
 71
     4
 72
     1
  3
{\fRomanS|b0|i0|c0|p2;\H2x;PART#: WA90P24F2\P(DATA SUBJECT TO CHANGE WITHOUT NOTICE)\H1.6157x; \H0.61894x;\P \H1.352x; \H0.73963x;\P\H0.6x;THIS DRAWING IS PROPERTY OF HUBBELL INC. WIEGMANN\H1.5633x; \H0.63966x;\PALL INFORMATION IS PROPRIETARY AND NOT
  1
 TO BE DUPLICATED\H1.234x; \H0.81039x;\P\H1.2571x; }
  7
Note Text (ANSI)
 73
     1
 44
0.8026435375213623
  0
ENDSEC
  0
SECTION
  2
OBJECTS
  0
DICTIONARY
  5
C
330
0
100
AcDbDictionary
281
     1
  3
ACAD_CIP_PREVIOUS_PRODUCT_INFO
350
D79
  3
ACAD_COLOR
350
63
  3
ACAD_GROUP
350
D
  3
ACAD_LAYOUT
350
62
  3
ACAD_MATERIAL
350
10
  3
ACAD_MLEADERSTYLE
350
66
  3
ACAD_MLINESTYLE
350
5F
  3
ACAD_PLOTSETTINGS
350
61
  3
ACAD_PLOTSTYLENAME
350
E
  3
ACAD_SCALELIST
350
42
  3
ACAD_TABLESTYLE
350
64
  3
ACAD_VISUALSTYLE
350
29
  3
ACDB_RECOMPOSE_DATA
350
D80
  3
AcDbVariableDictionary
350
76
  0
DICTIONARY
  5
D7E
330
D77
100
AcDbDictionary
280
     1
281
     1
  3
ACAD_MTEXT_2008_RT
360
D7F
  0
XRECORD
  5
D79
102
{ACAD_REACTORS
330
C
102
}
330
C
100
AcDbXrecord
280
     1
300
INVNTOR
300
2012
300
PDSP_F_S
  0
DICTIONARY
  5
63
102
{ACAD_REACTORS
330
C
102
}
330
C
100
AcDbDictionary
281
     1
  0
DICTIONARY
  5
D
102
{ACAD_REACTORS
330
C
102
}
330
C
100
AcDbDictionary
281
     1
  0
DICTIONARY
  5
62
102
{ACAD_REACTORS
330
C
102
}
330
C
100
AcDbDictionary
281
     1
  3
Layout1
350
6B
  3
Layout2
350
73
  3
Model
350
6F
  0
DICTIONARY
  5
10
102
{ACAD_REACTORS
330
C
102
}
330
C
100
AcDbDictionary
281
     1
  3
ByBlock
350
19
  3
ByLayer
350
11
  3
Global
350
21
  0
DICTIONARY
  5
66
102
{ACAD_REACTORS
330
C
102
}
330
C
100
AcDbDictionary
281
     1
  3
Standard
350
67
  0
DICTIONARY
  5
5F
102
{ACAD_REACTORS
330
C
102
}
330
C
100
AcDbDictionary
281
     1
  3
Standard
350
60
  0
DICTIONARY
  5
61
102
{ACAD_REACTORS
330
C
102
}
330
C
100
AcDbDictionary
281
     1
  0
ACDBDICTIONARYWDFLT
  5
E
102
{ACAD_REACTORS
330
C
102
}
330
C
100
AcDbDictionary
281
     1
  3
Normal
350
F
100
AcDbDictionaryWithDefault
340
F
  0
DICTIONARY
  5
42
102
{ACAD_REACTORS
330
C
102
}
330
C
100
AcDbDictionary
281
     1
  3
A0
350
43
  3
A1
350
44
  3
A2
350
45
  3
A3
350
46
  3
A4
350
47
  3
A5
350
48
  3
A6
350
49
  3
A7
350
4A
  3
A8
350
4B
  3
A9
350
4C
  3
B0
350
4D
  3
B1
350
4E
  3
B2
350
4F
  3
B3
350
50
  3
B4
350
51
  3
B5
350
52
  3
B6
350
53
  0
DICTIONARY
  5
64
102
{ACAD_REACTORS
330
C
102
}
330
C
100
AcDbDictionary
281
     1
  3
Standard
350
65
  0
DICTIONARY
  5
29
102
{ACAD_REACTORS
330
C
102
}
330
C
100
AcDbDictionary
281
     1
  3
2dWireframe
350
2F
  3
Basic
350
2E
  3
Brighten
350
35
  3
ColorChange
350
39
  3
Conceptual
350
32
  3
Dim
350
34
  3
EdgeColorOff
350
41
  3
Facepattern
350
38
  3
Flat
350
2A
  3
FlatWithEdges
350
2B
  3
Gouraud
350
2C
  3
GouraudWithEdges
350
2D
  3
Hidden
350
31
  3
JitterOff
350
3F
  3
Linepattern
350
37
  3
OverhangOff
350
40
  3
Realistic
350
33
  3
Shaded
350
3E
  3
Shaded with edges
350
3D
  3
Shades of Gray
350
3A
  3
Sketchy
350
3B
  3
Thicken
350
36
  3
Wireframe
350
30
  3
X-Ray
350
3C
  0
XRECORD
  5
D80
102
{ACAD_REACTORS
330
C
102
}
330
C
100
AcDbXrecord
280
     1
 90
        1
330
65
330
D77
  0
DICTIONARY
  5
76
102
{ACAD_REACTORS
330
C
102
}
330
C
100
AcDbDictionary
281
     1
  3
CANNOSCALE
350
79
  3
CMLEADERSTYLE
350
78
  3
CTABLESTYLE
350
77
  0
XRECORD
  5
D7F
102
{ACAD_REACTORS
330
D7E
102
}
330
D7E
100
AcDbXrecord
280
     1
 40
3088533.0
  1
\pxsm0.94;{\fRomanS|b0|i0;\H2.0000;PART#: WA90P24F2\P(DATA SUBJECT TO CHANGE WITHOUT NOTICE)\P \P\fRomanS|b0|i0;\H1.2000;THIS DRAWING IS PROPERTY OF HUBBELL INC. WIEGMANN\PALL INFORMATION IS PROPRIETARY AND NOT TO BE DUPLICATED\P}
  0
LAYOUT
  5
6B
102
{ACAD_REACTORS
330
62
102
}
330
62
100
AcDbPlotSettings
  1

  2

  4

  6

 40
0.0
 41
0.0
 42
0.0
 43
0.0
 44
0.0
 45
0.0
 46
0.0
 47
0.0
 48
0.0
 49
0.0
140
0.0
141
0.0
142
1.0
143
1.0
 70
   688
 72
     0
 73
     0
 74
     5
  7

 75
    16
147
1.0
 76
     0
 77
     2
 78
   300
148
0.0
149
0.0
100
AcDbLayout
  1
Layout1
 70
     1
 71
     1
 10
0.0
 20
0.0
 11
12.0
 21
9.0
 12
0.0
 22
0.0
 32
0.0
 14
0.0
 24
0.0
 34
0.0
 15
0.0
 25
0.0
 35
0.0
146
0.0
 13
0.0
 23
0.0
 33
0.0
 16
1.0
 26
0.0
 36
0.0
 17
0.0
 27
1.0
 37
0.0
 76
     0
330
68
  0
LAYOUT
  5
73
102
{ACAD_REACTORS
330
62
102
}
330
62
100
AcDbPlotSettings
  1

  2

  4

  6

 40
0.0
 41
0.0
 42
0.0
 43
0.0
 44
0.0
 45
0.0
 46
0.0
 47
0.0
 48
0.0
 49
0.0
140
0.0
141
0.0
142
1.0
143
1.0
 70
   688
 72
     0
 73
     0
 74
     5
  7

 75
    16
147
1.0
 76
     0
 77
     2
 78
   300
148
0.0
149
0.0
100
AcDbLayout
  1
Layout2
 70
     1
 71
     2
 10
0.0
 20
0.0
 11
12.0
 21
9.0
 12
0.0
 22
0.0
 32
0.0
 14
0.0
 24
0.0
 34
0.0
 15
0.0
 25
0.0
 35
0.0
146
0.0
 13
0.0
 23
0.0
 33
0.0
 16
1.0
 26
0.0
 36
0.0
 17
0.0
 27
1.0
 37
0.0
 76
     0
330
70
  0
LAYOUT
  5
6F
102
{ACAD_REACTORS
330
62
102
}
330
62
100
AcDbPlotSettings
  1

  2

  4

  6

 40
0.0
 41
0.0
 42
0.0
 43
0.0
 44
0.0
 45
0.0
 46
0.0
 47
0.0
 48
0.0
 49
0.0
140
0.0
141
0.0
142
1.0
143
1.0
 70
  1712
 72
     0
 73
     0
 74
     0
  7

 75
     0
147
1.0
 76
     0
 77
     2
 78
   300
148
0.0
149
0.0
100
AcDbLayout
  1
Model
 70
     1
 71
     0
 10
0.0
 20
0.0
 11
12.0
 21
9.0
 12
0.0
 22
0.0
 32
0.0
 14
0.0
 24
0.0
 34
0.0
 15
0.0
 25
0.0
 35
0.0
146
0.0
 13
0.0
 23
0.0
 33
0.0
 16
1.0
 26
0.0
 36
0.0
 17
0.0
 27
1.0
 37
0.0
 76
     0
330
6C
  0
MATERIAL
  5
19
102
{ACAD_XDICTIONARY
360
1A
102
}
102
{ACAD_REACTORS
330
10
102
}
330
10
100
AcDbMaterial
  1
ByBlock
 72
     0
 43
0.0208333333333333
 43
0.0
 43
0.0
 43
0.0
 43
0.0
 43
0.0208333333333333
 43
0.0
 43
0.0
 43
0.0
 43
0.0
 43
1.0
 43
0.0
 43
0.0
 43
0.0
 43
0.0
 43
1.0
 77
     0
 47
0.0208333333333333
 47
0.0
 47
0.0
 47
0.0
 47
0.0
 47
0.0208333333333333
 47
0.0
 47
0.0
 47
0.0
 47
0.0
 47
1.0
 47
0.0
 47
0.0
 47
0.0
 47
0.0
 47
1.0
171
     0
 49
0.0208333333333333
 49
0.0
 49
0.0
 49
0.0
 49
0.0
 49
0.0208333333333333
 49
0.0
 49
0.0
 49
0.0
 49
0.0
 49
1.0
 49
0.0
 49
0.0
 49
0.0
 49
0.0
 49
1.0
175
     0
142
0.0208333333333333
142
0.0
142
0.0
142
0.0
142
0.0
142
0.0208333333333333
142
0.0
142
0.0
142
0.0
142
0.0
142
1.0
142
0.0
142
0.0
142
0.0
142
0.0
142
1.0
179
     0
144
0.0208333333333333
144
0.0
144
0.0
144
0.0
144
0.0
144
0.0208333333333333
144
0.0
144
0.0
144
0.0
144
0.0
144
1.0
144
0.0
144
0.0
144
0.0
144
0.0
144
1.0
147
0.0208333333333333
147
0.0
147
0.0
147
0.0
147
0.0
147
0.0208333333333333
147
0.0
147
0.0
147
0.0
147
0.0
147
1.0
147
0.0
147
0.0
147
0.0
147
0.0
147
1.0
  0
MATERIAL
  5
11
102
{ACAD_XDICTIONARY
360
12
102
}
102
{ACAD_REACTORS
330
10
102
}
330
10
100
AcDbMaterial
  1
ByLayer
 72
     0
 43
0.0208333333333333
 43
0.0
 43
0.0
 43
0.0
 43
0.0
 43
0.0208333333333333
 43
0.0
 43
0.0
 43
0.0
 43
0.0
 43
1.0
 43
0.0
 43
0.0
 43
0.0
 43
0.0
 43
1.0
 77
     0
 47
0.0208333333333333
 47
0.0
 47
0.0
 47
0.0
 47
0.0
 47
0.0208333333333333
 47
0.0
 47
0.0
 47
0.0
 47
0.0
 47
1.0
 47
0.0
 47
0.0
 47
0.0
 47
0.0
 47
1.0
171
     0
 49
0.0208333333333333
 49
0.0
 49
0.0
 49
0.0
 49
0.0
 49
0.0208333333333333
 49
0.0
 49
0.0
 49
0.0
 49
0.0
 49
1.0
 49
0.0
 49
0.0
 49
0.0
 49
0.0
 49
1.0
175
     0
142
0.0208333333333333
142
0.0
142
0.0
142
0.0
142
0.0
142
0.0208333333333333
142
0.0
142
0.0
142
0.0
142
0.0
142
1.0
142
0.0
142
0.0
142
0.0
142
0.0
142
1.0
179
     0
144
0.0208333333333333
144
0.0
144
0.0
144
0.0
144
0.0
144
0.0208333333333333
144
0.0
144
0.0
144
0.0
144
0.0
144
1.0
144
0.0
144
0.0
144
0.0
144
0.0
144
1.0
147
0.0208333333333333
147
0.0
147
0.0
147
0.0
147
0.0
147
0.0208333333333333
147
0.0
147
0.0
147
0.0
147
0.0
147
1.0
147
0.0
147
0.0
147
0.0
147
0.0
147
1.0
  0
MATERIAL
  5
21
102
{ACAD_XDICTIONARY
360
22
102
}
102
{ACAD_REACTORS
330
10
102
}
330
10
100
AcDbMaterial
  1
Global
 72
     0
 43
0.0208333333333333
 43
0.0
 43
0.0
 43
0.0
 43
0.0
 43
0.0208333333333333
 43
0.0
 43
0.0
 43
0.0
 43
0.0
 43
1.0
 43
0.0
 43
0.0
 43
0.0
 43
0.0
 43
1.0
 77
     0
 47
0.0208333333333333
 47
0.0
 47
0.0
 47
0.0
 47
0.0
 47
0.0208333333333333
 47
0.0
 47
0.0
 47
0.0
 47
0.0
 47
1.0
 47
0.0
 47
0.0
 47
0.0
 47
0.0
 47
1.0
171
     0
 49
0.0208333333333333
 49
0.0
 49
0.0
 49
0.0
 49
0.0
 49
0.0208333333333333
 49
0.0
 49
0.0
 49
0.0
 49
0.0
 49
1.0
 49
0.0
 49
0.0
 49
0.0
 49
0.0
 49
1.0
175
     0
142
0.0208333333333333
142
0.0
142
0.0
142
0.0
142
0.0
142
0.0208333333333333
142
0.0
142
0.0
142
0.0
142
0.0
142
1.0
142
0.0
142
0.0
142
0.0
142
0.0
142
1.0
179
     0
144
0.0208333333333333
144
0.0
144
0.0
144
0.0
144
0.0
144
0.0208333333333333
144
0.0
144
0.0
144
0.0
144
0.0
144
1.0
144
0.0
144
0.0
144
0.0
144
0.0
144
1.0
147
0.0208333333333333
147
0.0
147
0.0
147
0.0
147
0.0
147
0.0208333333333333
147
0.0
147
0.0
147
0.0
147
0.0
147
1.0
147
0.0
147
0.0
147
0.0
147
0.0
147
1.0
  0
MLEADERSTYLE
  5
67
102
{ACAD_XDICTIONARY
360
D7C
102
}
102
{ACAD_REACTORS
330
66
102
}
330
66
100
AcDbMLeaderStyle
179
     2
170
     2
171
     1
172
     0
 90
        2
 40
0.0
 41
0.0
173
     1
 91
-1056964608
340
5B
 92
       -2
290
     1
 42
0.09
291
     1
 43
0.36
  3
Standard
 44
0.18
300

342
55
174
     1
178
     6
175
     1
176
     0
 93
-1056964608
 45
0.18
292
     0
297
     0
 46
0.18
 94
-1056964608
 47
1.0
 49
1.0
140
1.0
293
     1
141
0.0
294
     1
177
     0
142
1.0
295
     0
296
     0
143
0.125
271
     0
272
     9
273
     9
  0
MLINESTYLE
  5
60
102
{ACAD_REACTORS
330
5F
102
}
330
5F
100
AcDbMlineStyle
  2
STANDARD
 70
     0
  3

 62
   256
 51
90.0
 52
90.0
 71
     2
 49
0.5
 62
   256
  6
BYLAYER
 49
-0.5
 62
   256
  6
BYLAYER
  0
ACDBPLACEHOLDER
  5
F
102
{ACAD_REACTORS
330
E
102
}
330
E
  0
SCALE
  5
43
102
{ACAD_REACTORS
330
42
102
}
330
42
100
AcDbScale
 70
     0
300
1:1
140
1.0
141
1.0
290
     1
  0
SCALE
  5
44
102
{ACAD_REACTORS
330
42
102
}
330
42
100
AcDbScale
 70
     0
300
1/128" = 1'-0"
140
0.0078125
141
12.0
290
     0
  0
SCALE
  5
45
102
{ACAD_REACTORS
330
42
102
}
330
42
100
AcDbScale
 70
     0
300
1/64" = 1'-0"
140
0.015625
141
12.0
290
     0
  0
SCALE
  5
46
102
{ACAD_REACTORS
330
42
102
}
330
42
100
AcDbScale
 70
     0
300
1/32" = 1'-0"
140
0.03125
141
12.0
290
     0
  0
SCALE
  5
47
102
{ACAD_REACTORS
330
42
102
}
330
42
100
AcDbScale
 70
     0
300
1/16" = 1'-0"
140
0.0625
141
12.0
290
     0
  0
SCALE
  5
48
102
{ACAD_REACTORS
330
42
102
}
330
42
100
AcDbScale
 70
     0
300
3/32" = 1'-0"
140
0.09375
141
12.0
290
     0
  0
SCALE
  5
49
102
{ACAD_REACTORS
330
42
102
}
330
42
100
AcDbScale
 70
     0
300
1/8" = 1'-0"
140
0.125
141
12.0
290
     0
  0
SCALE
  5
4A
102
{ACAD_REACTORS
330
42
102
}
330
42
100
AcDbScale
 70
     0
300
3/16" = 1'-0"
140
0.1875
141
12.0
290
     0
  0
SCALE
  5
4B
102
{ACAD_REACTORS
330
42
102
}
330
42
100
AcDbScale
 70
     0
300
1/4" = 1'-0"
140
0.25
141
12.0
290
     0
  0
SCALE
  5
4C
102
{ACAD_REACTORS
330
42
102
}
330
42
100
AcDbScale
 70
     0
300
3/8" = 1'-0"
140
0.375
141
12.0
290
     0
  0
SCALE
  5
4D
102
{ACAD_REACTORS
330
42
102
}
330
42
100
AcDbScale
 70
     0
300
1/2" = 1'-0"
140
0.5
141
12.0
290
     0
  0
SCALE
  5
4E
102
{ACAD_REACTORS
330
42
102
}
330
42
100
AcDbScale
 70
     0
300
3/4" = 1'-0"
140
0.75
141
12.0
290
     0
  0
SCALE
  5
4F
102
{ACAD_REACTORS
330
42
102
}
330
42
100
AcDbScale
 70
     0
300
1" = 1'-0"
140
1.0
141
12.0
290
     0
  0
SCALE
  5
50
102
{ACAD_REACTORS
330
42
102
}
330
42
100
AcDbScale
 70
     0
300
1-1/2" = 1'-0"
140
1.5
141
12.0
290
     0
  0
SCALE
  5
51
102
{ACAD_REACTORS
330
42
102
}
330
42
100
AcDbScale
 70
     0
300
3" = 1'-0"
140
3.0
141
12.0
290
     0
  0
SCALE
  5
52
102
{ACAD_REACTORS
330
42
102
}
330
42
100
AcDbScale
 70
     0
300
6" = 1'-0"
140
6.0
141
12.0
290
     0
  0
SCALE
  5
53
102
{ACAD_REACTORS
330
42
102
}
330
42
100
AcDbScale
 70
     0
300
1'-0" = 1'-0"
140
12.0
141
12.0
290
     0
  0
TABLESTYLE
  5
65
102
{ACAD_XDICTIONARY
360
D7A
102
}
102
{ACAD_REACTORS
330
64
102
}
330
64
100
AcDbTableStyle
280
     0
  3
Standard
 70
     0
 71
     0
 40
0.06
 41
0.06
280
     0
281
     0
  7
Standard
140
0.18
170
     2
 62
     0
 63
     7
283
     0
 90
      512
 91
        0
  1

274
    -2
284
     1
 64
     0
275
    -2
285
     1
 65
     0
276
    -2
286
     1
 66
     0
277
    -2
287
     1
 67
     0
278
    -2
288
     1
 68
     0
279
    -2
289
     1
 69
     0
  7
Standard
140
0.25
170
     5
 62
     0
 63
     7
283
     0
 90
      512
 91
        0
  1

274
    -2
284
     1
 64
     0
275
    -2
285
     1
 65
     0
276
    -2
286
     1
 66
     0
277
    -2
287
     1
 67
     0
278
    -2
288
     1
 68
     0
279
    -2
289
     1
 69
     0
  7
Standard
140
0.18
170
     5
 62
     0
 63
     7
283
     0
 90
      512
 91
        0
  1

274
    -2
284
     1
 64
     0
275
    -2
285
     1
 65
     0
276
    -2
286
     1
 66
     0
277
    -2
287
     1
 67
     0
278
    -2
288
     1
 68
     0
279
    -2
289
     1
 69
     0
  0
VISUALSTYLE
  5
2F
102
{ACAD_REACTORS
330
29
102
}
330
29
100
AcDbVisualStyle
  2
2dWireframe
 70
     4
177
     2
291
     0
 71
     0
176
     1
 72
     2
176
     1
 73
     0
176
     1
 90
        0
176
     1
 40
0.6
176
     1
 41
30.0
176
     1
 63
     7
421
 16777215
176
     1
 74
     1
176
     1
 91
        4
176
     1
 64
     7
176
     1
 65
   257
176
     1
 75
     1
176
     1
175
     1
176
     1
 42
1.0
176
     1
 92
        0
176
     1
 66
   257
176
     1
 43
1.0
176
     1
 76
     1
176
     1
 77
     6
176
     1
 78
     2
176
     1
 67
     7
176
     1
 79
     5
176
     1
170
     0
176
     1
171
     0
176
     1
290
     0
176
     1
 93
        1
176
     1
 44
0.0
176
     1
173
     0
176
     1
  0
VISUALSTYLE
  5
2E
102
{ACAD_REACTORS
330
29
102
}
330
29
100
AcDbVisualStyle
  2
Basic
 70
     7
177
     2
291
     1
 71
     1
176
     1
 72
     0
176
     1
 73
     1
176
     1
 90
        0
176
     1
 40
0.6
176
     1
 41
30.0
176
     1
 63
     7
421
 16777215
176
     1
 74
     0
176
     1
 91
        4
176
     1
 64
     7
176
     1
 65
   257
176
     1
 75
     1
176
     1
175
     1
176
     1
 42
1.0
176
     1
 92
        8
176
     1
 66
     7
176
     1
 43
1.0
176
     1
 76
     1
176
     1
 77
     6
176
     1
 78
     2
176
     1
 67
     7
176
     1
 79
     5
176
     1
170
     0
176
     1
171
     0
176
     1
290
     0
176
     1
 93
        1
176
     1
 44
0.0
176
     1
173
     0
176
     1
  0
VISUALSTYLE
  5
35
102
{ACAD_REACTORS
330
29
102
}
330
29
100
AcDbVisualStyle
  2
Brighten
 70
    12
177
     2
291
     1
 71
     2
176
     1
 72
     2
176
     1
 73
     0
176
     1
 90
        0
176
     1
 40
0.6
176
     1
 41
30.0
176
     1
 63
     7
421
 16777215
176
     1
 74
     1
176
     1
 91
        4
176
     1
 64
     7
176
     1
 65
   257
176
     1
 75
     1
176
     1
175
     1
176
     1
 42
1.0
176
     1
 92
        8
176
     1
 66
     7
176
     1
 43
1.0
176
     1
 76
     1
176
     1
 77
     6
176
     1
 78
     2
176
     1
 67
     7
176
     1
 79
     5
176
     1
170
     0
176
     1
171
     0
176
     1
290
     0
176
     1
 93
        1
176
     1
 44
50.0
176
     1
173
     0
176
     1
  0
VISUALSTYLE
  5
39
102
{ACAD_REACTORS
330
29
102
}
330
29
100
AcDbVisualStyle
  2
ColorChange
 70
    16
177
     2
291
     1
 71
     2
176
     1
 72
     2
176
     1
 73
     3
176
     1
 90
        0
176
     1
 40
0.6
176
     1
 41
30.0
176
     1
 63
     8
421
  8421504
176
     1
 74
     1
176
     1
 91
        4
176
     1
 64
     7
176
     1
 65
   257
176
     1
 75
     1
176
     1
175
     1
176
     1
 42
1.0
176
     1
 92
        8
176
     1
 66
     8
424
  8421504
176
     1
 43
1.0
176
     1
 76
     1
176
     1
 77
     6
176
     1
 78
     2
176
     1
 67
     7
176
     1
 79
     5
176
     1
170
     0
176
     1
171
     0
176
     1
290
     0
176
     1
 93
        1
176
     1
 44
0.0
176
     1
173
     0
176
     1
  0
VISUALSTYLE
  5
32
102
{ACAD_REACTORS
330
29
102
}
330
29
100
AcDbVisualStyle
  2
Conceptual
 70
     9
177
     2
291
     0
 71
     3
176
     1
 72
     2
176
     1
 73
     0
176
     1
 90
        0
176
     1
 40
0.6
176
     1
 41
30.0
176
     1
 63
     7
421
 16777215
176
     1
 74
     2
176
     1
 91
        2
176
     1
 64
     7
176
     1
 65
   257
176
     1
 75
     1
176
     1
175
     1
176
     1
 42
179.0
176
     1
 92
        8
176
     1
 66
     7
176
     1
 43
1.0
176
     1
 76
     1
176
     1
 77
     6
176
     1
 78
     2
176
     1
 67
     7
176
     1
 79
     3
176
     1
170
     0
176
     1
171
     0
176
     1
290
     0
176
     1
 93
        1
176
     1
 44
0.0
176
     1
173
     0
176
     1
  0
VISUALSTYLE
  5
34
102
{ACAD_REACTORS
330
29
102
}
330
29
100
AcDbVisualStyle
  2
Dim
 70
    11
177
     2
291
     1
 71
     2
176
     1
 72
     2
176
     1
 73
     0
176
     1
 90
        0
176
     1
 40
0.6
176
     1
 41
30.0
176
     1
 63
     7
421
 16777215
176
     1
 74
     1
176
     1
 91
        4
176
     1
 64
     7
176
     1
 65
   257
176
     1
 75
     1
176
     1
175
     1
176
     1
 42
1.0
176
     1
 92
        8
176
     1
 66
     7
176
     1
 43
1.0
176
     1
 76
     1
176
     1
 77
     6
176
     1
 78
     2
176
     1
 67
     7
176
     1
 79
     5
176
     1
170
     0
176
     1
171
     0
176
     1
290
     0
176
     1
 93
        1
176
     1
 44
-50.0
176
     1
173
     0
176
     1
  0
VISUALSTYLE
  5
41
102
{ACAD_REACTORS
330
29
102
}
330
29
100
AcDbVisualStyle
  2
EdgeColorOff
 70
    22
177
     2
291
     1
 71
     2
176
     0
 72
     2
176
     0
 73
     0
176
     0
 90
        0
176
     0
 40
0.6
176
     0
 41
30.0
176
     0
 63
     7
421
 16777215
176
     0
 74
     1
176
     0
 91
        4
176
     0
 64
     7
176
     0
 65
   257
176
     0
 75
     1
176
     0
175
     1
176
     0
 42
1.0
176
     0
 92
        8
176
     2
 66
     7
176
     0
 43
1.0
176
     0
 76
     1
176
     0
 77
     6
176
     0
 78
     2
176
     0
 67
     7
176
     0
 79
     5
176
     0
170
     0
176
     0
171
     0
176
     0
290
     0
176
     0
 93
        1
176
     0
 44
0.0
176
     0
173
     0
176
     0
  0
VISUALSTYLE
  5
38
102
{ACAD_REACTORS
330
29
102
}
330
29
100
AcDbVisualStyle
  2
Facepattern
 70
    15
177
     2
291
     1
 71
     2
176
     1
 72
     2
176
     1
 73
     0
176
     1
 90
        0
176
     1
 40
0.6
176
     1
 41
30.0
176
     1
 63
     7
421
 16777215
176
     1
 74
     1
176
     1
 91
        4
176
     1
 64
     7
176
     1
 65
   257
176
     1
 75
     1
176
     1
175
     1
176
     1
 42
1.0
176
     1
 92
        8
176
     1
 66
     7
176
     1
 43
1.0
176
     1
 76
     1
176
     1
 77
     6
176
     1
 78
     2
176
     1
 67
     7
176
     1
 79
     5
176
     1
170
     0
176
     1
171
     0
176
     1
290
     0
176
     1
 93
        1
176
     1
 44
0.0
176
     1
173
     0
176
     1
  0
VISUALSTYLE
  5
2A
102
{ACAD_REACTORS
330
29
102
}
330
29
100
AcDbVisualStyle
  2
Flat
 70
     0
177
     2
291
     1
 71
     2
176
     1
 72
     1
176
     1
 73
     1
176
     1
 90
        2
176
     1
 40
0.6
176
     1
 41
30.0
176
     1
 63
     7
421
 16777215
176
     1
 74
     0
176
     1
 91
        0
176
     1
 64
     7
176
     1
 65
   257
176
     1
 75
     1
176
     1
175
     1
176
     1
 42
1.0
176
     1
 92
        8
176
     1
 66
     7
176
     1
 43
1.0
176
     1
 76
     1
176
     1
 77
     6
176
     1
 78
     2
176
     1
 67
     7
176
     1
 79
     5
176
     1
170
     0
176
     1
171
     0
176
     1
290
     0
176
     1
 93
       13
176
     1
 44
0.0
176
     1
173
     0
176
     1
  0
VISUALSTYLE
  5
2B
102
{ACAD_REACTORS
330
29
102
}
330
29
100
AcDbVisualStyle
  2
FlatWithEdges
 70
     1
177
     2
291
     1
 71
     2
176
     1
 72
     1
176
     1
 73
     1
176
     1
 90
        2
176
     1
 40
0.6
176
     1
 41
30.0
176
     1
 63
     7
421
 16777215
176
     1
 74
     1
176
     1
 91
        0
176
     1
 64
     7
176
     1
 65
   257
176
     1
 75
     1
176
     1
175
     1
176
     1
 42
1.0
176
     1
 92
        0
176
     1
 66
   257
176
     1
 43
1.0
176
     1
 76
     1
176
     1
 77
     6
176
     1
 78
     2
176
     1
 67
     7
176
     1
 79
     5
176
     1
170
     0
176
     1
171
     0
176
     1
290
     0
176
     1
 93
       13
176
     1
 44
0.0
176
     1
173
     0
176
     1
  0
VISUALSTYLE
  5
2C
102
{ACAD_REACTORS
330
29
102
}
330
29
100
AcDbVisualStyle
  2
Gouraud
 70
     2
177
     2
291
     1
 71
     2
176
     1
 72
     2
176
     1
 73
     1
176
     1
 90
        2
176
     1
 40
0.6
176
     1
 41
30.0
176
     1
 63
     7
421
 16777215
176
     1
 74
     0
176
     1
 91
        0
176
     1
 64
     7
176
     1
 65
   257
176
     1
 75
     1
176
     1
175
     1
176
     1
 42
1.0
176
     1
 92
        0
176
     1
 66
     7
176
     1
 43
1.0
176
     1
 76
     1
176
     1
 77
     6
176
     1
 78
     2
176
     1
 67
     7
176
     1
 79
     5
176
     1
170
     0
176
     1
171
     0
176
     1
290
     0
176
     1
 93
       13
176
     1
 44
0.0
176
     1
173
     0
176
     1
  0
VISUALSTYLE
  5
2D
102
{ACAD_REACTORS
330
29
102
}
330
29
100
AcDbVisualStyle
  2
GouraudWithEdges
 70
     3
177
     2
291
     1
 71
     2
176
     1
 72
     2
176
     1
 73
     1
176
     1
 90
        2
176
     1
 40
0.6
176
     1
 41
30.0
176
     1
 63
     7
421
 16777215
176
     1
 74
     1
176
     1
 91
        0
176
     1
 64
     7
176
     1
 65
   257
176
     1
 75
     1
176
     1
175
     1
176
     1
 42
1.0
176
     1
 92
        0
176
     1
 66
   257
176
     1
 43
1.0
176
     1
 76
     1
176
     1
 77
     6
176
     1
 78
     2
176
     1
 67
     7
176
     1
 79
     5
176
     1
170
     0
176
     1
171
     0
176
     1
290
     0
176
     1
 93
       13
176
     1
 44
0.0
176
     1
173
     0
176
     1
  0
VISUALSTYLE
  5
31
102
{ACAD_REACTORS
330
29
102
}
330
29
100
AcDbVisualStyle
  2
Hidden
 70
     6
177
     2
291
     0
 71
     1
176
     1
 72
     2
176
     1
 73
     2
176
     1
 90
        0
176
     1
 40
0.6
176
     1
 41
30.0
176
     1
 63
     7
421
 16777215
176
     1
 74
     2
176
     1
 91
        2
176
     1
 64
     7
176
     1
 65
   257
176
     1
 75
     2
176
     1
175
     1
176
     1
 42
40.0
176
     1
 92
        0
176
     1
 66
   257
176
     1
 43
1.0
176
     1
 76
     1
176
     1
 77
     6
176
     1
 78
     2
176
     1
 67
     7
176
     1
 79
     3
176
     1
170
     0
176
     1
171
     0
176
     1
290
     0
176
     1
 93
        1
176
     1
 44
0.0
176
     1
173
     0
176
     1
  0
VISUALSTYLE
  5
3F
102
{ACAD_REACTORS
330
29
102
}
330
29
100
AcDbVisualStyle
  2
JitterOff
 70
    20
177
     2
291
     1
 71
     2
176
     0
 72
     2
176
     0
 73
     0
176
     0
 90
        0
176
     0
 40
0.6
176
     0
 41
30.0
176
     0
 63
     7
421
 16777215
176
     0
 74
     1
176
     0
 91
        4
176
     0
 64
     7
176
     0
 65
   257
176
     0
 75
     1
176
     0
175
     1
176
     0
 42
1.0
176
     0
 92
       10
176
     2
 66
     7
176
     0
 43
1.0
176
     0
 76
     1
176
     0
 77
     6
176
     0
 78
     2
176
     0
 67
     7
176
     0
 79
     5
176
     0
170
     0
176
     0
171
     0
176
     0
290
     0
176
     0
 93
        1
176
     0
 44
0.0
176
     0
173
     0
176
     0
  0
VISUALSTYLE
  5
37
102
{ACAD_REACTORS
330
29
102
}
330
29
100
AcDbVisualStyle
  2
Linepattern
 70
    14
177
     2
291
     1
 71
     2
176
     1
 72
     2
176
     1
 73
     0
176
     1
 90
        0
176
     1
 40
0.6
176
     1
 41
30.0
176
     1
 63
     7
421
 16777215
176
     1
 74
     1
176
     1
 91
        4
176
     1
 64
     7
176
     1
 65
   257
176
     1
 75
     7
176
     1
175
     7
176
     1
 42
1.0
176
     1
 92
        8
176
     1
 66
     7
176
     1
 43
1.0
176
     1
 76
     1
176
     1
 77
     6
176
     1
 78
     2
176
     1
 67
     7
176
     1
 79
     5
176
     1
170
     0
176
     1
171
     0
176
     1
290
     0
176
     1
 93
        1
176
     1
 44
0.0
176
     1
173
     0
176
     1
  0
VISUALSTYLE
  5
40
102
{ACAD_REACTORS
330
29
102
}
330
29
100
AcDbVisualStyle
  2
OverhangOff
 70
    21
177
     2
291
     1
 71
     2
176
     0
 72
     2
176
     0
 73
     0
176
     0
 90
        0
176
     0
 40
0.6
176
     0
 41
30.0
176
     0
 63
     7
421
 16777215
176
     0
 74
     1
176
     0
 91
        4
176
     0
 64
     7
176
     0
 65
   257
176
     0
 75
     1
176
     0
175
     1
176
     0
 42
1.0
176
     0
 92
        9
176
     2
 66
     7
176
     0
 43
1.0
176
     0
 76
     1
176
     0
 77
     6
176
     0
 78
     2
176
     0
 67
     7
176
     0
 79
     5
176
     0
170
     0
176
     0
171
     0
176
     0
290
     0
176
     0
 93
        1
176
     0
 44
0.0
176
     0
173
     0
176
     0
  0
VISUALSTYLE
  5
33
102
{ACAD_REACTORS
330
29
102
}
330
29
100
AcDbVisualStyle
  2
Realistic
 70
     8
177
     2
291
     0
 71
     2
176
     1
 72
     3
176
     1
 73
     0
176
     1
 90
        2
176
     1
 40
0.6
176
     1
 41
30.0
176
     1
 63
     7
421
 16777215
176
     1
 74
     0
176
     1
 91
        0
176
     1
 64
     7
176
     1
 65
   257
176
     1
 75
     1
176
     1
175
     1
176
     1
 42
1.0
176
     1
 92
        8
176
     1
 66
   257
176
     1
 43
1.0
176
     1
 76
     1
176
     1
 77
     6
176
     1
 78
     2
176
     1
 67
     7
176
     1
 79
     3
176
     1
170
     0
176
     1
171
     0
176
     1
290
     0
176
     1
 93
       13
176
     1
 44
0.0
176
     1
173
     0
176
     1
  0
VISUALSTYLE
  5
3E
102
{ACAD_REACTORS
330
29
102
}
330
29
100
AcDbVisualStyle
  2
Shaded
 70
    27
177
     2
291
     0
 71
     2
176
     1
 72
     2
176
     1
 73
     1
176
     1
 90
        2
176
     1
 40
0.6
176
     1
 41
30.0
176
     1
 63
     7
421
 16777215
176
     1
 74
     0
176
     1
 91
        4
176
     1
 64
     7
176
     1
 65
   257
176
     1
 75
     1
176
     1
175
     1
176
     1
 42
1.0
176
     1
 92
        8
176
     1
 66
   257
176
     1
 43
1.0
176
     1
 76
     1
176
     1
 77
     6
176
     1
 78
     2
176
     1
 67
     8
425
  7895160
176
     1
 79
     3
176
     1
170
     0
176
     1
171
     0
176
     1
290
     0
176
     1
 93
        5
176
     1
 44
0.0
176
     1
173
     0
176
     1
  0
VISUALSTYLE
  5
3D
102
{ACAD_REACTORS
330
29
102
}
330
29
100
AcDbVisualStyle
  2
Shaded with edges
 70
    26
177
     2
291
     0
 71
     2
176
     1
 72
     2
176
     1
 73
     1
176
     1
 90
        2
176
     1
 40
0.6
176
     1
 41
30.0
176
     1
 63
     7
421
 16777215
176
     1
 74
     1
176
     1
 91
       10
176
     1
 64
     7
176
     1
 65
   257
176
     1
 75
     2
176
     1
175
     1
176
     1
 42
1.0
176
     1
 92
        8
176
     1
 66
   257
176
     1
 43
1.0
176
     1
 76
     1
176
     1
 77
     6
176
     1
 78
     2
176
     1
 67
     7
176
     1
 79
     3
176
     1
170
     0
176
     1
171
     0
176
     1
290
     0
176
     1
 93
        5
176
     1
 44
0.0
176
     1
173
     0
176
     1
  0
VISUALSTYLE
  5
3A
102
{ACAD_REACTORS
330
29
102
}
330
29
100
AcDbVisualStyle
  2
Shades of Gray
 70
    23
177
     2
291
     0
 71
     2
176
     1
 72
     2
176
     1
 73
     3
176
     1
 90
        0
176
     1
 40
0.6
176
     1
 41
30.0
176
     1
 63
     7
421
 16777215
176
     1
 74
     2
176
     1
 91
        2
176
     1
 64
     7
176
     1
 65
     7
176
     1
 75
     1
176
     1
175
     1
176
     1
 42
40.0
176
     1
 92
        8
176
     1
 66
     7
176
     1
 43
1.0
176
     1
 76
     1
176
     1
 77
     6
176
     1
 78
     2
176
     1
 67
     7
176
     1
 79
     3
176
     1
170
     0
176
     1
171
     0
176
     1
290
     0
176
     1
 93
        1
176
     1
 44
0.0
176
     1
173
     0
176
     1
  0
VISUALSTYLE
  5
3B
102
{ACAD_REACTORS
330
29
102
}
330
29
100
AcDbVisualStyle
  2
Sketchy
 70
    24
177
     2
291
     0
 71
     1
176
     1
 72
     2
176
     1
 73
     2
176
     1
 90
        0
176
     1
 40
0.6
176
     1
 41
30.0
176
     1
 63
     7
421
 16777215
176
     1
 74
     2
176
     1
 91
        2
176
     1
 64
     7
176
     1
 65
     7
176
     1
 75
     1
176
     1
175
     1
176
     1
 42
40.0
176
     1
 92
       11
176
     1
 66
     7
176
     1
 43
1.0
176
     1
 76
     1
176
     1
 77
     6
176
     1
 78
     2
176
     1
 67
     7
176
     1
 79
     6
176
     1
170
     0
176
     1
171
     0
176
     1
290
     0
176
     1
 93
        1
176
     1
 44
0.0
176
     1
173
     0
176
     1
  0
VISUALSTYLE
  5
36
102
{ACAD_REACTORS
330
29
102
}
330
29
100
AcDbVisualStyle
  2
Thicken
 70
    13
177
     2
291
     1
 71
     2
176
     1
 72
     2
176
     1
 73
     0
176
     1
 90
        0
176
     1
 40
0.6
176
     1
 41
30.0
176
     1
 63
     7
421
 16777215
176
     1
 74
     1
176
     1
 91
        4
176
     1
 64
     7
176
     1
 65
   257
176
     1
 75
     1
176
     1
175
     1
176
     1
 42
1.0
176
     1
 92
       12
176
     1
 66
     7
176
     1
 43
1.0
176
     1
 76
     1
176
     1
 77
     6
176
     1
 78
     2
176
     1
 67
     7
176
     1
 79
     5
176
     1
170
     0
176
     1
171
     0
176
     1
290
     0
176
     1
 93
        1
176
     1
 44
0.0
176
     1
173
     0
176
     1
  0
VISUALSTYLE
  5
30
102
{ACAD_REACTORS
330
29
102
}
330
29
100
AcDbVisualStyle
  2
Wireframe
 70
     5
177
     2
291
     0
 71
     0
176
     1
 72
     2
176
     1
 73
     0
176
     1
 90
        0
176
     1
 40
0.6
176
     1
 41
30.0
176
     1
 63
     7
421
 16777215
176
     1
 74
     1
176
     1
 91
        4
176
     1
 64
     7
176
     1
 65
   257
176
     1
 75
     1
176
     1
175
     1
176
     1
 42
1.0
176
     1
 92
        0
176
     1
 66
   257
176
     1
 43
1.0
176
     1
 76
     1
176
     1
 77
     6
176
     1
 78
     2
176
     1
 67
     7
176
     1
 79
     3
176
     1
170
     0
176
     1
171
     0
176
     1
290
     0
176
     1
 93
        1
176
     1
 44
0.0
176
     1
173
     0
176
     1
  0
VISUALSTYLE
  5
3C
102
{ACAD_REACTORS
330
29
102
}
330
29
100
AcDbVisualStyle
  2
X-Ray
 70
    25
177
     2
291
     0
 71
     2
176
     1
 72
     2
176
     1
 73
     1
176
     1
 90
        1
176
     1
 40
0.5
176
     1
 41
30.0
176
     1
 63
     7
421
 16777215
176
     1
 74
     1
176
     1
 91
        0
176
     1
 64
     7
176
     1
 65
   257
176
     1
 75
     1
176
     1
175
     1
176
     1
 42
1.0
176
     1
 92
        8
176
     1
 66
     7
176
     1
 43
1.0
176
     1
 76
     1
176
     1
 77
     6
176
     1
 78
     2
176
     1
 67
     7
176
     1
 79
     3
176
     1
170
     0
176
     1
171
     0
176
     1
290
     0
176
     1
 93
       13
176
     1
 44
0.0
176
     1
173
     0
176
     1
  0
DICTIONARYVAR
  5
79
102
{ACAD_REACTORS
330
76
102
}
330
76
100
DictionaryVariables
280
     0
  1
1:1
  0
DICTIONARYVAR
  5
78
102
{ACAD_REACTORS
330
76
102
}
330
76
100
DictionaryVariables
280
     0
  1
STANDARD
  0
DICTIONARYVAR
  5
77
102
{ACAD_REACTORS
330
76
102
}
330
76
100
DictionaryVariables
280
     0
  1
STANDARD
  0
DICTIONARY
  5
1A
330
19
100
AcDbDictionary
280
     1
281
     1
  3
BUMPTILE
360
1C
  3
DIFFUSETILE
360
1B
  3
OPACITYTILE
360
1F
  3
REFLECTIONTILE
360
1E
  3
REFRACTIONTILE
360
20
  3
SPECULARTILE
360
1D
  0
DICTIONARY
  5
12
330
11
100
AcDbDictionary
280
     1
281
     1
  3
BUMPTILE
360
14
  3
DIFFUSETILE
360
13
  3
FBXASSET
360
109
  3
OPACITYTILE
360
17
  3
REFLECTIONTILE
360
16
  3
REFRACTIONTILE
360
18
  3
SPECULARTILE
360
15
  0
DICTIONARY
  5
22
330
21
100
AcDbDictionary
280
     1
281
     1
  3
BUMPTILE
360
24
  3
DIFFUSETILE
360
23
  3
FBXASSET
360
BA
  3
OPACITYTILE
360
27
  3
REFLECTIONTILE
360
26
  3
REFRACTIONTILE
360
28
  3
SPECULARTILE
360
25
  0
DICTIONARY
  5
D7C
330
67
100
AcDbDictionary
280
     1
281
     1
  3
ACAD_XREC_ROUNDTRIP
360
D7D
  0
DICTIONARY
  5
D7A
330
65
100
AcDbDictionary
280
     1
281
     1
  3
ACAD_ROUNDTRIP_2008_TABLESTYLE_CELLSTYLEMAP
360
D7B
  0
XRECORD
  5
1C
102
{ACAD_REACTORS
330
1A
102
}
330
1A
100
AcDbXrecord
280
     1
270
     1
271
     1
  0
XRECORD
  5
1B
102
{ACAD_REACTORS
330
1A
102
}
330
1A
100
AcDbXrecord
280
     1
270
     1
271
     1
  0
XRECORD
  5
1F
102
{ACAD_REACTORS
330
1A
102
}
330
1A
100
AcDbXrecord
280
     1
270
     1
271
     1
  0
XRECORD
  5
1E
102
{ACAD_REACTORS
330
1A
102
}
330
1A
100
AcDbXrecord
280
     1
270
     1
271
     1
  0
XRECORD
  5
20
102
{ACAD_REACTORS
330
1A
102
}
330
1A
100
AcDbXrecord
280
     1
270
     1
271
     1
  0
XRECORD
  5
1D
102
{ACAD_REACTORS
330
1A
102
}
330
1A
100
AcDbXrecord
280
     1
270
     1
271
     1
  0
XRECORD
  5
14
102
{ACAD_REACTORS
330
12
102
}
330
12
100
AcDbXrecord
280
     1
270
     1
271
     1
  0
XRECORD
  5
13
102
{ACAD_REACTORS
330
12
102
}
330
12
100
AcDbXrecord
280
     1
270
     1
271
     1
  0
XRECORD
  5
109
102
{ACAD_REACTORS
330
12
102
}
330
12
100
AcDbXrecord
280
     1
 70
     1
 90
1959938040
 71
     1
  1
92AB8ACD-0DB8-4E7A-B161-42B9DAC262B1
311
504B03040A0000080000558AD1423DEE336E79000000790000001B0000006175746F6465736B2D64657369676E2D7061636B6167652E786D6C3C3F786D6C2076657273696F6E3D22312E302220656E636F64696E673D227574662D3822203F3E3C666F726D6174733E3C666F726D61743E687474703A2F2F736368656D612E
311
6175746F6465736B2E636F6D2F64657369676E2D7061636B6167652F323030393C2F666F726D61743E3C2F666F726D6174733E504B0304140006080800558AD142D486FD9CA0000000F4000000130000005B436F6E74656E745F54797065735D2E786D6C7D8EC10E82300C865F65E91D8A1E8C310C0EEA1BF002731658846E
311
D98AC1B77784ABF1D8FE5FBFBF75BBCE937A534CCEB38643598122B6FEE978D0B0485F9C41B54DDD7D022595594E1A469170414C76A4D9A4D207E29CF43ECE46F218070CC6BECC4078ACAA135ACF422C856C0E68EA1BF5669944DDD7BCDE7B1F8E415D77AECB980613C2E4AC91FC167A2B244592486606FC29C8FD7F045B9A
311
EF7053A7E60B504B0304140006080800558AD1420E8BFEB4EB0000007C01000008000000636F72652E786D6C8D90416EC3201045AF62CDB6C201836B6461A2A4F50D7A0104C44589C13250F5F8C58923B5BBAE66F4E7BF99D117C7EFF9567DD935BAE007203586CA7A1D8CF3D300395D1087EA28C51A42FA6583CAABD90EB0
311
C920C5B486BCEC920E3E599F8AEA83B1BBA862B4092A7D2BCD00517FDA59D52AA7E288D77A51FAAA265B936757E09C9DA91E479C29FBDCC5D915E479646DC7BB11E1D31B458C8E14F1969D50DB36BC6BF8FBC8D8591C36588AE4E6E77DBD5A95AC01D96042117E45A4FB205D4F78CF9A17DCF6148BC366FF03E5C5FC13CACE
311
27DAECEF3EB008929447EE03290E5B16A5DC832A75CB4DFE00504B0304140006080800558AD14255019EA25F0000007C00000007000000636E782E786D6C4DCB3B0E80201045D1AD90E915ED2CF8AC45050C11660C8261F98AB1B07AC9C97D42D718D865D3E909258CFD00CCE24AC6E326A164D74DC0B4128928FF32603847
311
2BA13128B1252AC747C6BAB984FC68F0B87FE8960A5C09FE86CFB69FBA01504B0304140006080800558AD14284B42BAF66010000020300000C0000006662782F636F72652E786D6C8D525B6E833010BC8AE5DF0ACCB3A0C8384A5A6ED00B38C6A12860233F508EDFE511A5A9A2A84232D6CCCEEEEC00DD5F871E4DD2D84EAB
311
0AC76184915442379D6A2BECDD392831DA336AB476BFCA30527C90159E61CC686BB41F374868E5A472802ADDC80DE4D64A8791E8E152612BBEE5C043EE1D54D84B387271E1AD0CE31068A863D43A0306D03A643E313B9FAE94AC38A3DE77CDC6760D4CEBCE9D34981DEB2C2FCAA20EA2C3471A64699D06659E1D823C4FCA22
311
293FEB2C3B52328B1975DD7073278CE44E369825519C06D17B10175F71B18BCB5D96BC45F92E8D2899CB1F447E6CFE29F29D7269B2D95D6516B3188C2CC49F6D2122872C9FC00F6194CC21C26B49F8316808044276FCD4DFF6B8003449E1B4C98069B4BF5313EFBD84A9115A1E4A56163A2F0D60B3A77D92177D5EF7800FC8
311
550BD6B883EBC9BB793A5DA76E518CD20493BB22A5CDC0FBBBB9D5E2FDBC0F7A2A17BAD7E63F6AB2AD4AB630C9FCF7B21F504B0304140006080800558AD142752E7A4A7E0000009D0000000B0000006662782F636E782E786D6C4DCCDF0A83201C86E15B91DFB9E596430335ECCFEE239685CC74388D5DFE6A74B0A30F1E3E
311
5ED17C56873613DF36780997820032FE1126EB170939CD98036A948821A4BF1B203FAE46C2C1A0C412437E9D349979CC2EEDEAAC7F9EA807DAD54C6BCCAA1BC3F45E73DC12CEF1B52503AD98EEFB8E43A944F92BED7B84D517504B0304140006080800558AD14262A54A222D01000014020000310000006662782F41453443
311
393741412D373335372D344639382D423038382D3242304534333741444443382F636F72652E786D6C8D515B6EC32010BC0AE22B55651B6CC7381126721E3D412F400C495162B07854397EA176A4F62F3F2C9A9D991DEDD2DD63BC836F699D32BA83384710483D18A1F4B583C15FB216821DA3D618FF870681E6A3EC608221
311
A3576BC2B44083D15E6A1F516D845C40EE9CF4100CF7F8E9A01BBEE4C8731E7C64B85B3EF1E1C6AF32C7796C471EA3CEDB1800CC43D20B597FAA0F1BD2F719A9D624AB3F366DB6476D9B957B74AA2BD21F8F879616B390D1109458E44AC438EAA2A47DD5248919F56A7CC61FACE45E0AC84A84AB0C3519269F986C71BBADCB
311
77B4DE56881689FE4F1426F1A22828EDAB72893BCB1C64981673835161C2F9FE0C231F93B11EA4792B278737C8501E636152960D2D666A5C40F46CEAC5D37963E38257B77364E3F56CDCD48C16E946B1FC1E30D6744FF603504B0304140006080800558AD142FDB45C504F01000033030000300000006662782F4145344339
311
3741412D373335372D344639382D423038382D3242304534333741444443382F636E782E786D6CD593CD6EC32010845F0571ADFC43E226518489D4439FA0875E316C1A1A0C16E0AA79FB2E094973C9A1C75E90353BCCAC3E61BEFB1E2DF982108D773D65754B0938E5B5711F3D9DD3BEDA50B2133C789FEE6C943839424FB3
311
4C05FF087E9E8AA4612F679B50B5C61D8B1820FA39288828E79BC47A252D0680AB6614611C406BD0E466C4AF3D045C05C5E144D201C8EBCB3BF1C327A814799353046F7287E0F92C4D77264A949531F634AA038CB29673F21AE2B1D632C99AD5D7AE073BFD26917CE15A39074372794FF34945D9A8468EBCC1A1E03105A457
311
4CE9340115729AAC513221E4E66CBC78049F8D4BABAE780D820FE866AB65D761D8792678322314870A2013682A162D5B56EDAA62EB37B6DEB2CDB65B3CB5CFDB65CB9B6C177CF0DE964B1803C14F447997C0252A186FF2F811BEE223DA0464EDC3E90F20114069BDD0B965FC673ECDF97D23AE807F81F801504B0304140006
311
080800558AD14268E91C50A405000081100000340000006662782F41453443393741412D373335372D344639382D423038382D3242304534333741444443382F6F626A656374732E786D6CAD57D96EDB3814FD1541F332F320CBB2DD3419282ABC3485D1A62D6AB49807030625510A27D402924A9DF9FA3994285972EDD433
311
E88B162E97F79E7BEE42FFCD3EE3D613159215F9ADED8DC6B645F3A888599EDEDA954A9C6BDB7A13F8A228546F996DE524A3B7B61EB6033F1545559AA19826A4E2EA68F46EF19725239A53DB8A3891F2D696D103CDC88854AA88A97C1CC54491519AEC47DEA85938149B0A523E1C092D89A0B982A618CF21C56A94F286BF63
311
DB0D7C57CF07BE7E9A55D3F3ABDCDA9EE1F92C978AE4D10F871D89997AB3D5DBC9AB1BE7D56C3675665713CF59DC2D568EF77A3A5E5E2D9737F3B73738582A0149461341133B78076C048B7CB7990AFC8AE56A3A314B8C835C419F98F6941D4C2CCF779B359D75C6C853EA47459ED3A8C60A68D4F619D1312D691EC3E78C4A
311
68D643683CFCF5348EBDE9A9FE3747F6872F43A0BFA327A8D5BD7DF7352DC2BF6182BC84414252CDC0064B6368C3D5F101E1B028B89963D2CA88A282116E71160A229EED004BF592C01F88D14C163A1AB40576002F34D343BA208C7ECEF3535A2615E79AC6765047C10EB14295AC3563FF5071D0BE8F0C7482AF341BAE8D41
311
EAB9A47670D350E4FA884D0D9056C2490A97C34CBD733A393274A9E374BDB283F777E17EA363F7F4E1A5284A2A94A60FA8D53AAE7D6B948C4EDE459ED31BEC23550EA07C01F21F11EA0755E037C1F6B3FDCC9CA204C96552880CBEB1C69633C6636C79F5537FF7BE7CB7DB3CF4DE393CE16C0DD52FC0736843DF973D3803FF
311
09842FC4D498B6890847DAB8673900D224B1788121E4E124DCDBC11A590E5919BB080F3C980C759FF0E9BB460C12457D52EF9D03CBA3B4784182066C3523A146437EA3E0C14F3FA4B3FA60B3EC1CBCAF7E095DE7ABCDFB4D251212D17B13D32B9AB09C2994B8036FFA0A0D301F58F4489FBF172286A13FE2BDE9E39D99A324
311
D0D6986BE0D336A7EB9FC3C9830322EC4B0B9D6EFC9F9C00237461EDC9BF6732A29C939C16557BEE8BF50365A3815807BB667257600E8505A469668E6210453A12ACD42076D5AA4B9AA333D67D5D7F0423ED60F1FC813CF7B35778C8BD51C10BB10B9F774D5A3A09F5B721B70D06AE9602BAD741D2C6BF017D17B324A92492
311
E0095CBFAD977DDFE9B48014D14A6DA26506FB115C4418D2B67251AD0541252DF21D43DD44DC9D3CA02F1F901A06D402CF692C294F768CF32ADB258CA31AED32529E81E3FFEB1F5659B9235951E5EA8CEC81EAA80E43DD07EC95DF898A1EEC6053BF9D05726F4CE33364D0B5E4045603D7DE4CE68BEBF972E58C578B6B67F6
311
F6F5DC5978579E339B2C6E56F3E5E46AB238A059375181DF969A7E44C34B286D7E259871DFD735E2C724013BB8274A6EDF35E1D9BEBFAE47E8857D177B502FBB8DF3F8097D1F8D7F2EE0B0F2A4A07556729AD15C111D43F7FA837F21E83306CA34E3EB8CA4F402299FDE6D8E8CC1C805FB3EEB78A7DF8FF69AD1A50EC89342
311
D44395853961FC6863DA20392AF3D4E0D7FAA47B3785A6FDD57FC631E84C65C1598C3C185B292D32AA900D2F284222A312D4EBF7F4B1B97B5CB0FBA9E9101509396D3579206892B9445880E455A486E3D66F68EA745F756BA3DC8E1EF13099C2B6C0995B1B4DBA621195A310055AB742B57070A9DFC983B3244F397AED6653
311
F7DFEDD2D80C4A72B7E492FEC9D8D5A4706300D24889BE010D11BC532B13F8B56E663EFA4F86B7EA5844E133AC5467CB61A033A63E0621DA18656E0B68621ECDD17B04EACB6679A37ACD00918B6E592F92A091EA2822D2FAA6A0F5332ACD579F5D7428D6FA9355F22A852F2F97E4080A32573AC0C122B0C2C82C890255977F
311
6E3F8B0237D9CCBA63A080F5FBFEFAEA8FEDB2C8B2226F86B673731FB6360FB8DDC65B2407AAAF25723B197B936D7D1D3037945D48241D91583E62009E15AC037AE07EF0B2B93322733613DD3A57BBE288A1EB95650ADB0C420D5DFAB9558383C623A71662485F2975C4F417942FDE08DC7A295410E8E5837F01504B030414
311
0006080000558AD142000000000000000000000000350000006662782F41453443393741412D373335372D344639382D423038382D3242304534333741444443382F76657274696365732E62696E504B0304140006080800558AD142F270F1330600000004000000360000006662782F41453443393741412D373335372D34
311
4639382D423038382D3242304534333741444443382F747269616E676C65732E62696E636660600000504B0304140006080000558AD142000000000000000000000000370000006662782F41453443393741412D373335372D344639382D423038382D3242304534333741444443382F617474726962757465732E62696E50
311
4B0304140006080800558AD142D5987DFC8F00000041010000360000006662782F41453443393741412D373335372D344639382D423038382D3242304534333741444443382F6469726563746F72792E786D6C858F410EC2201045AF4266AF15DDB800BA74E7C21B903225242D6328188F2FA5C4183471359997F9FF81E89F
311
F3C41E1816475E02DF1F80A11FC8386F25A438EECEC07A250251FC3803E6F58C12560C4AD840E95E91C151A72936F496F35732D860FE635F62C8F2DA16B505C545B74125BAA2FA9E05D7CC053D063734D5C7665FD55B6B8D15D5E9BFEAFD8490FFA45E504B0304140006080800558AD1421D20D02CFD000000A00100003B00
311
00006662782F41453443393741412D373335372D344639382D423038382D3242304534333741444443382F7265736F75726365732F636F72652E786D6C8D504B6E833010BD0A9A6D65C0600A42C651D270835EC032136A25D8C89FAAC7AF09546A77DDCC8CDE47F3F4F8E96B79649FE8BCB666009A9790A15176D2661E2086
311
1BE9203B09EEAC0DBF649019B9E0001B0C82CFCEC6F5809435014D48A8B1131EA0F41E0364EA918E01BCFAC045E63286A4F0F77C95EA2E67CC699EE8A413DC07970264FB936D8270E86D740A3D2F7656F018F57468F4947EEA9B4607E232B2A6EDDA2B29CF6F3561F55893AE6167D23455D756DD7564ECC28BCD2C78D0CB4F
311
46E550069C405425AD49F94A68FB4EDB9E763DAB5ECAA6AF4B5E6CF23FA6B84EFF34456D425D1D71779B07415390272178B1F595D6B3CCB4B76EC537504B010214000A0000080000558AD1423DEE336E79000000790000001B00000000000000000000000000000000006175746F6465736B2D64657369676E2D7061636B61
311
67652E786D6C504B01021400140006080800558AD142D486FD9CA0000000F40000001300000000000000000000000000B20000005B436F6E74656E745F54797065735D2E786D6C504B01021400140006080800558AD1420E8BFEB4EB0000007C010000080000000000000000000000000083010000636F72652E786D6C504B
311
01021400140006080800558AD14255019EA25F0000007C000000070000000000000000000000000094020000636E782E786D6C504B01021400140006080800558AD14284B42BAF66010000020300000C00000000000000000000000000180300006662782F636F72652E786D6C504B01021400140006080800558AD142752E
311
7A4A7E0000009D0000000B00000000000000000000000000A80400006662782F636E782E786D6C504B01021400140006080800558AD14262A54A222D0100001402000031000000000000000000000000004F0500006662782F41453443393741412D373335372D344639382D423038382D3242304534333741444443382F63
311
6F72652E786D6C504B01021400140006080800558AD142FDB45C504F010000330300003000000000000000000000000000CB0600006662782F41453443393741412D373335372D344639382D423038382D3242304534333741444443382F636E782E786D6C504B01021400140006080800558AD14268E91C50A40500008110
311
00003400000000000000000000000000680800006662782F41453443393741412D373335372D344639382D423038382D3242304534333741444443382F6F626A656374732E786D6C504B01021400140006080000558AD14200000000000000000000000035000000000000000000000000005E0E00006662782F4145344339
311
3741412D373335372D344639382D423038382D3242304534333741444443382F76657274696365732E62696E504B01021400140006080800558AD142F270F13306000000040000003600000000000000000000000000B10E00006662782F41453443393741412D373335372D344639382D423038382D324230453433374144
311
4443382F747269616E676C65732E62696E504B01021400140006080000558AD14200000000000000000000000037000000000000000000000000000B0F00006662782F41453443393741412D373335372D344639382D423038382D3242304534333741444443382F617474726962757465732E62696E504B01021400140006
311
080800558AD142D5987DFC8F000000410100003600000000000000000000000000600F00006662782F41453443393741412D373335372D344639382D423038382D3242304534333741444443382F6469726563746F72792E786D6C504B01021400140006080800558AD1421D20D02CFD000000A00100003B00000000000000
311
000000000000431000006662782F41453443393741412D373335372D344639382D423038382D3242304534333741444443382F7265736F75726365732F636F72652E786D6C504B0506000000000E000E0080040000991100000000
310
504B03040A0000080000558AD1423DEE336E79000000790000001B0000006175746F6465736B2D64657369676E2D7061636B6167652E786D6C3C3F786D6C2076657273696F6E3D22312E302220656E636F64696E673D227574662D3822203F3E3C666F726D6174733E3C666F726D61743E687474703A2F2F736368656D612E
310
6175746F6465736B2E636F6D2F64657369676E2D7061636B6167652F323030393C2F666F726D61743E3C2F666F726D6174733E504B0304140006080800558AD142D486FD9CA0000000F4000000130000005B436F6E74656E745F54797065735D2E786D6C7D8EC10E82300C865F65E91D8A1E8C310C0EEA1BF002731658846E
310
D98AC1B77784ABF1D8FE5FBFBF75BBCE937A534CCEB38643598122B6FEE978D0B0485F9C41B54DDD7D022595594E1A469170414C76A4D9A4D207E29CF43ECE46F218070CC6BECC4078ACAA135ACF422C856C0E68EA1BF5669944DDD7BCDE7B1F8E415D77AECB980613C2E4AC91FC167A2B244592486606FC29C8FD7F045B9A
310
EF7053A7E60B504B0304140006080800558AD142ED5D0E16EB0000007C01000008000000636F72652E786D6C8D90416E83301045AF62CDB632D8800941C6116DB8412F601987580936C276D5E3D724446A775DCDE8CF7F33A3CF4FDFF31D7DE9D51B673BA01901A4AD72A3B15307315C7003E824F8EA5CF8650364E5AC3BD8
310
64107C5A5D5C7649391BB40D49B56ED4BB28BDD70190BAA7A603AFAE7A96998C2139FC2D5BA4BAC94967F4D525384633A2E71133A67DE662F40AE278AE69C3AA01B3E2C87035D43D6ECE1F0C135AD7B4E8FBE19D553CDF60C183995FF7D5AA65D0238882D012931AD3C3273DB4B469ABE28DB0B6243CDFEC7FA0B88CFF84A2
310
B1A12CF6779F980741D3238F81E0F996452A8FA052DD72133F504B0304140006080800558AD14255019EA25F0000007C00000007000000636E782E786D6C4DCB3B0E80201045D1AD90E915ED2CF8AC45050C11660C8261F98AB1B07AC9C97D42D718D865D3E909258CFD00CCE24AC6E326A164D74DC0B4128928FF32603847
310
2BA13128B1252AC747C6BAB984FC68F0B87FE8960A5C09FE86CFB69FBA01504B0304140006080800558AD1429F3EB04E67010000020300000C0000006662782F636F72652E786D6C8D52ED8E8320107C15C2DF0B2256ED4790A677ED1BDC0B50A59EA98241307DFC5B3F1AAF97A6694C90CCECECCE8EF2FDADA951AF6C5719
310
9D61168418299D9BA2D26586BDBB900D467BC1AD31EE4F19465A362AC3038C052FADF1ED0CE5463BA51DA0DA146A0665D72987515EC325C35DFEA31A1948EFA0A2BB06ADCCAFB254010B80863AC13B67C1009A860C271697F38DD30917DCFBAA98D9AA8069D5A552168BED31659B243E9124DA26243EA507B2397E25246469
310
CAA2C3E1F499C49C0E62C15DD5DCDDE55649A70A2CA290AD489812B6FE66EB1DDBECE2E8234C76AB90D3A1FC41E4DBE24D91AFB45B45B3DD49D661C1C0C848FCDB162272A8933DF8A182D32144788D093F060D8140C84E9EEBFB1E57807A953B6363600AE317AA97B557303544E3C3E9C442E7B1016CF6B44FF4A2CFEB1EF0
310
01A52EC19A74703D7B374CE7D3D4398A5659D2BB1BD2C636B25ECC4D16977319F4549E9BDAD877D4745E95CE61D2E1EF15BF504B0304140006080800558AD142A98AB86B7D0000009D0000000B0000006662782F636E782E786D6C4DCCD10A83201886E15B91FFDC95619B821A665E482C0B99E9703676F9ABD1C18E3E78F8
310
7845F759037ABBFCF2294A20971A908BF734F9B848D8CA8C19A04E899C52F9BB018AE3EA241C0C4A2C396DCF9326378F5B28BB061F1F27D6B78118721DB0A62DC7D4F61A73DD1B6C5BCE1B4329E39641A544F52BED7B84D517504B0304140006080800558AD1424D58CB7C2B01000014020000310000006662782F30374431
310
433136442D413435392D344542412D394142432D4535393932433434383945382F636F72652E786D6C8D515B6EC32010BC0AE22B55651B6CE2478489F2BA412FE000495062B07854397EA176A4F62F3F2C9A9D991D58BA7D8E0FF02DAD5346F710E70802A9B9114A5F7B18FC256B21D8326A8DF17F6810E861943D4C3064F4
310
6A4D9816881BEDA5F611D546C8051C9C931E02FE88971E3A7E93E3900FC14786BBE7D3C0EFC355E6388FEDC863D4791B038079483A2143CD111F707DCC7664DD65E4B4DF65DD6E7FC84EEBAE2B0F84B4DDA9A5C52C6434042516B912318EBA2869DF35496246BD1A5FF1B995839702B212E12A4375869B2FDC6C70BB21E527
310
5A6F2A448B44FF270A9378531494F655B9C49D650E324C8BB9C1A830E1FC788591CFC9580FD2BC9593FC23BE2A47B8ACAB0695B498A9F103A2674D164FE78D8D1FBCBA9F23BB5A8C6BC268917614CBEF02634DFB643F504B0304140006080800558AD1429B1393475601000033030000300000006662782F30374431433136
310
442D413435392D344542412D394142432D4535393932433434383945382F636E782E786D6CBD93CD6EC32010845F0571ADFC17BB8E156122F5D027E8A1570C9B84C6060B70D5BC7D9784A4B9E450A9EA0559B3C3CCEA1366DBAF69249FE0BCB6A6A7555E5202465AA5CDBEA74BD8651D255BCE9CB5E1CE46891113F434CA94
310
B3BDB3CB9C24053BB18C01D5519B63121D78BB38091EE578938C568A1103C0640B8A300DA014287233E2D70E1CAE82E27022E100E4F5E59DD8E10364F0AC88299C15B183B378A6A63B13257214DEF7D4CB034C22174BB00AFC31572288BCCAAF5D0F76FA4922F1C2B572719AC4F29EC693F2B4518E1C598143CE7C70482F99
310
C26906CAC53C8F5A8A80908BB3F1E2E16CD126B44DF26A04EFD05DAFDAAEC3B0F38CB3A027480EE940045094AFCAAACECA36ABD66FD57A53759B66F5543E6FEA9215D1CED960ED982E610C383B13694D001328AF5811C78FF0251F51DA216BEB4EBF00890052EB85CE2DE32FF9546DDD34FFC8A738BF6FC4E5F02FE0DF504B
310
0304140006080800558AD142F43B14B0640700009A1B0000340000006662782F30374431433136442D413435392D344542412D394142432D4535393932433434383945382F6F626A656374732E786D6CED59DD73A3B616FF5718EE4BEF83B1B19D34E9103AFED8DDF1F4A6DDA9BB3B7DF00C23834C74230423896C7CFFFA1E
310
7D808198047773DFFA6003423A3AE7773E75087E7ECEA8F384B92039BB737D6FE23A98C57942587AE796F230BA719D9FC380E7B96C4C731D86327CE7AA61370C529E97851D4AF001955476463F2EFF74448C19769D982221EE5C113FE00C79A8947982C5A3972089BCF4F0ECF99E99D8269B72543C74881688632681531867
310
40C5314CF9EDC7893B0E83B17A1F06EADFCE9A0D9A35EF9F35D652B7B9244C48C4E2172C75C8CC06B134F3E7EB0FD3ABDBD1D57C3E1BCDAFA7FE68F971B91EF93FCE26ABEBD5EA76F1E116D8DBE739B53225B8C02C01FD1DDDD00FC6EA4D2DBA45E01CD771CE188E3590009516AB4B9060015B35E09BB41F7D2551E3B596B0
310
F13C57EF2D0B8DE1599B4ADFAC6140B4E8822076BB4AE2EADA942FDFFF170417438C920B2C815B213968D7C2C3C12BDC70128CCD6818EC4FBA20C2C990C49C20EA50B2E788835260AA9A1206668125A39C8303294749A035675EB76D0B3CF36DD739C7E5A1A45479861B6AC78AC0FDB0149A33F23FCC4FDC3791019E40DA92
310
307963B994C702BBE16D30D68361A02EB3A97D6980740E14A5422362DE76045D29D7DFACDDF0978FFBE7AD0A07E7372F785E602E95D1293D6ABEC090ED55A164B7F507694E2D00610CA876E50994DF01F95F217A9C5801BD71F23C7F9EDBB99223260E39CF4037CEC4194DE06FE2F8FA5FDD37EE8271BDB8ADBD3E3CC14D15
310
5437DF8F675B068D95E5BF0167183C81C1E77C665F6D6344C19EEF09038094913834872108ED87FDB31B6E207042A0875588863E880CEC3EC16D30B6644E5AA9DCCB7A1D0344ED1EB3214A02D8B445021B3D7AFA04D98393F8A4A6A6887DF05EBD8BB92ED6DB5FB6253FA018DF5B9F5EE303614442D63CCF500BF396448FF8
310
F82DE70908FA12EF6D13EFCC6E25006D85B9023EAD40500FA79D5B1BC4B02ECD55B809DED8018450B9BA41FF9E8818538A18CECB6ADF3ABA2943AD3DDED60C6E383510CFA61D13E6F889A8AA029CE634A3C528E4FD98934281E8869F8C6475D0F47AA4FBB2F9152CB29EDF336BC320F43244FFD041EB0C0E2DCBAE90B640D4
310
02EF4FE13CCE69CEA3FD313291CE855A02D8687BCBD7165188F546498A0A7890F6BB2AA4A446DA282187432920AE9E61F1EB66D534878937F3AF9CE67FC719E7106DC17711B77ED7D92322194A71744049DF76CDDD6ADA4293EC21CDF181825CE489C86384643449707A09341711BF7D57EA29CD85200C0BC85767C16FA231
310
F12090186D562C2BAD76802622CAB044F4120414991E7075DAD1356E0CA5C3DB3CD6D6FB9AC69A44FF4F16C111D492398B0894A29043DE64DCF7AE2086B4D1352877F0056BAB686B31680925447C8CBE61923EC84B5037E47B708FE14852CA282F500C663D80EC0B5F514AEDF0BE47F1A3CA1F515CD2F7321081E921229496
310
59043FC2E0E431C4B5EBC0F42A0A0DE226F6499C41518664C9876C727D3579B18FA919BA21B0B1D1815008DB51868A1ED45B0151D7234E0DBEA5DEA3D47D991511CAF2920D32146FD6F5264BBEAB56457620BFAA5484B2B1226C09860161B2CEAA55CC0653D78115DC4807AA6324505650730A7B23F1F8B53769CABD1B70EB
310
A7EFBB4106855F8FF69A11755EC160796C1506E21B92F1831B6EF575B484FA3BC1C929D557B566B30204C454242F39B12AFAB281F2C6D6686E788FA4D87D3259B7BA7ED978D0FD08C6B0066A977AE146019D612691AA4CEED50DFD1D41086ED130E31B95532FA1B248125D3522FA91F4A9B35546B436CD88573C609667F063
310
3BC2625A26788712F118DD4B1A6D8962DD4AE965A4C2F855017FFBB4EDC003230344FAAC0A3CFCADB3D68EAE54B97496887C28B33D430482604BB4D4E8C62B586A355269B9BEAA3305D45D606056C5F37F4E16CD76C43F278BD41AC6779D2C96C7FFA063B32FD248E7B1B2EB8B8E01757E5254DEE318A0DB0E35D53A8B9864
310
6EE5B7CE144150ACA2FCE06AAC0A1A86601FC77F3B6BF76541B35D87FFCBB2B6FFA2E2B828ABB426AB2ED599CA75D3CC61B7D3C5F266B15A8F26EBE5CD68FEE1C7C568E95FFBA3F97479BB5EACA6D7D365AD27433C0CEA60A673173C9BA0560DAB278B017465454E4902A7F9C44931C47C0967FA01ED739E6101C9B3D9EC4E
310
6C537EC0EA27D3E794684F71C5C9038206311590D6418C3296ED71E75FD09A9470D0BE73A169E43DC29FB54AD781CC73E742AB4092180B6F0F6D26D5D0D3C421E5EADC6F894120432C5529D12CAA9FEB550A9B56F8AFA70C490356AE560F030AB702BA5FAD0E85E6CDF2145F2478C58E8324DCEE4B09D59A91E534500BA3B7
310
39A9DFC846097BB45B3F83EBBE2E96EFE9392D44067D3278D5080CD591443CD5FD6EC5986569B1FE3C863E9BB3F9CD296899822E87531A710CC65CAA820AAC08ACC2D22C9004535DFDB4FBCC73F8C49339BA2A727E78BEB9FEF76E956759CECCD06E01A7B2043E1439DB07F8EC93ECA078C0AAB92E76D3893FDDE9A6B6EDB3
310
477B24B0A7AA2218A88A092548C7E4C02E5F34A86CFB72AC54D199BE593B36884233C0D8D18B1EAFF9C8E5800FA9CF29CA63B49F57D2BEDAD71EEBA960131C3AD2E15F504B0304140006080000558AD142000000000000000000000000350000006662782F30374431433136442D413435392D344542412D394142432D4535
310
393932433434383945382F76657274696365732E62696E504B0304140006080800558AD142F270F1330600000004000000360000006662782F30374431433136442D413435392D344542412D394142432D4535393932433434383945382F747269616E676C65732E62696E636660600000504B0304140006080000558AD142
310
000000000000000000000000370000006662782F30374431433136442D413435392D344542412D394142432D4535393932433434383945382F617474726962757465732E62696E504B0304140006080800558AD142D5987DFC8F00000041010000360000006662782F30374431433136442D413435392D344542412D394142
310
432D4535393932433434383945382F6469726563746F72792E786D6C858F410EC2201045AF4266AF15DDB800BA74E7C21B903225242D6328188F2FA5C4183471359997F9FF81E89FF3C41E1816475E02DF1F80A11FC8386F25A438EECEC07A250251FC3803E6F58C12560C4AD840E95E91C151A72936F496F35732D860FE63
310
5F62C8F2DA16B505C545B74125BAA2FA9E05D7CC053D063734D5C7665FD55B6B8D15D5E9BFEAFD8490FFA45E504B0304140006080800558AD142FEF6208EFD000000A00100003B0000006662782F30374431433136442D413435392D344542412D394142432D4535393932433434383945382F7265736F75726365732F636F
310
72652E786D6C8D50596E833010BD0A9ADFCA80D9429071444B6ED00B586642AD041B79A97AFC9A40A5F6AF3F33A3B7689E1EBB7C2D8FE413AD5346F740D31C12D4D24C4ACF3D047F232D2417CEAC31FE970C122D16EC618381B3D99AB01E9034DAA3F611D566C20314CEA187443EE2D183931FB88854041F15EE9EAE42DEC5
310
8C294D231D759C396F6380647FB24DE0169D0956A263D9CE7216829A0E8D9AE24F755368819FC786B6753592BA38D7A4BA360369C7B79AE4B46968310CD7D7BA62D966E6CCABE527A3B4283C4EC08B9C96246F083DBDD35347DBAE2A5EF2BA2B73966DF23FA6B04EFF3405A57D591C71779B034E639027C159B6F515D7B3CC
310
B8B76EF937504B010214000A0000080000558AD1423DEE336E79000000790000001B00000000000000000000000000000000006175746F6465736B2D64657369676E2D7061636B6167652E786D6C504B01021400140006080800558AD142D486FD9CA0000000F40000001300000000000000000000000000B20000005B436F
310
6E74656E745F54797065735D2E786D6C504B01021400140006080800558AD142ED5D0E16EB0000007C010000080000000000000000000000000083010000636F72652E786D6C504B01021400140006080800558AD14255019EA25F0000007C000000070000000000000000000000000094020000636E782E786D6C504B0102
310
1400140006080800558AD1429F3EB04E67010000020300000C00000000000000000000000000180300006662782F636F72652E786D6C504B01021400140006080800558AD142A98AB86B7D0000009D0000000B00000000000000000000000000A90400006662782F636E782E786D6C504B01021400140006080800558AD142
310
4D58CB7C2B0100001402000031000000000000000000000000004F0500006662782F30374431433136442D413435392D344542412D394142432D4535393932433434383945382F636F72652E786D6C504B01021400140006080800558AD1429B13934756010000330300003000000000000000000000000000C90600006662
310
782F30374431433136442D413435392D344542412D394142432D4535393932433434383945382F636E782E786D6C504B01021400140006080800558AD142F43B14B0640700009A1B000034000000000000000000000000006D0800006662782F30374431433136442D413435392D344542412D394142432D45353939324334
310
34383945382F6F626A656374732E786D6C504B01021400140006080000558AD1420000000000000000000000003500000000000000000000000000231000006662782F30374431433136442D413435392D344542412D394142432D4535393932433434383945382F76657274696365732E62696E504B010214001400060808
310
00558AD142F270F13306000000040000003600000000000000000000000000761000006662782F30374431433136442D413435392D344542412D394142432D4535393932433434383945382F747269616E676C65732E62696E504B01021400140006080000558AD14200000000000000000000000037000000000000000000
310
00000000D01000006662782F30374431433136442D413435392D344542412D394142432D4535393932433434383945382F617474726962757465732E62696E504B01021400140006080800558AD142D5987DFC8F000000410100003600000000000000000000000000251100006662782F30374431433136442D413435392D
310
344542412D394142432D4535393932433434383945382F6469726563746F72792E786D6C504B01021400140006080800558AD142FEF6208EFD000000A00100003B00000000000000000000000000081200006662782F30374431433136442D413435392D344542412D394142432D4535393932433434383945382F7265736F
310
75726365732F636F72652E786D6C504B0506000000000E000E00800400005E1300000000
  0
XRECORD
  5
17
102
{ACAD_REACTORS
330
12
102
}
330
12
100
AcDbXrecord
280
     1
270
     1
271
     1
  0
XRECORD
  5
16
102
{ACAD_REACTORS
330
12
102
}
330
12
100
AcDbXrecord
280
     1
270
     1
271
     1
  0
XRECORD
  5
18
102
{ACAD_REACTORS
330
12
102
}
330
12
100
AcDbXrecord
280
     1
270
     1
271
     1
  0
XRECORD
  5
15
102
{ACAD_REACTORS
330
12
102
}
330
12
100
AcDbXrecord
280
     1
270
     1
271
     1
  0
XRECORD
  5
24
102
{ACAD_REACTORS
330
22
102
}
330
22
100
AcDbXrecord
280
     1
270
     1
271
     1
  0
XRECORD
  5
23
102
{ACAD_REACTORS
330
22
102
}
330
22
100
AcDbXrecord
280
     1
270
     1
271
     1
  0
XRECORD
  5
BA
102
{ACAD_REACTORS
330
22
102
}
330
22
100
AcDbXrecord
280
     1
 70
     1
 90
1959938040
 71
     1
  1
7B78420A-5067-4ADE-8558-E5655B46F792
311
504B03040A0000080000548AD1423DEE336E79000000790000001B0000006175746F6465736B2D64657369676E2D7061636B6167652E786D6C3C3F786D6C2076657273696F6E3D22312E302220656E636F64696E673D227574662D3822203F3E3C666F726D6174733E3C666F726D61743E687474703A2F2F736368656D612E
311
6175746F6465736B2E636F6D2F64657369676E2D7061636B6167652F323030393C2F666F726D61743E3C2F666F726D6174733E504B0304140006080800548AD142D486FD9CA0000000F4000000130000005B436F6E74656E745F54797065735D2E786D6C7D8EC10E82300C865F65E91D8A1E8C310C0EEA1BF002731658846E
311
D98AC1B77784ABF1D8FE5FBFBF75BBCE937A534CCEB38643598122B6FEE978D0B0485F9C41B54DDD7D022595594E1A469170414C76A4D9A4D207E29CF43ECE46F218070CC6BECC4078ACAA135ACF422C856C0E68EA1BF5669944DDD7BCDE7B1F8E415D77AECB980613C2E4AC91FC167A2B244592486606FC29C8FD7F045B9A
311
EF7053A7E60B504B0304140006080800548AD142A461DD08ED0000007C01000008000000636F72652E786D6C7590D16E832018855F8570BBA050AC55833471CE27D80B10A08EB4821158F6F883D626EBC5AEFE93C3F9F8FF1C76FE596EE05B6FDE38DB43526008B4954E193BF730860B6A203873B63917FEC420B062D13DCC
311
36E46CDE5C5C774B3A1BB40DC9B54EE9DD14DEEB0081BC25D1432FBFF4220A11434AF86BB10A7915B32EC853253846A3C0638951E93F73317A83BC1D46721CDF4F68AAA71155753BA2664C8AD266A8AB894E1F03616586390B6679EE979B16412BC80F9850846B444E9FE4D491A6A3ED1B3E7614B332C75FA0B8AA7FA00ABF
311
42D1D8400FFBB90FCC439E0FB93F7056E62ED2B8179566EE8DFF02504B0304140006080800548AD14255019EA25F0000007C00000007000000636E782E786D6C4DCB3B0E80201045D1AD90E915ED2CF8AC45050C11660C8261F98AB1B07AC9C97D42D718D865D3E909258CFD00CCE24AC6E326A164D74DC0B4128928FF3260
311
38472BA13128B1252AC747C6BAB984FC68F0B87FE8960A5C09FE86CFB69FBA01504B0304140006080800548AD1425B6EC6FD6A010000020300000C0000006662782F636F72652E786D6C8D52416E833010FC8AE56B05864008898C23A59417F4030E3814056C646C94E7770D4434551A5548C69AD9D99D1DA0C75BD7A251E8
311
A15132C3A11F602464A9AA46D619B6E6E2A5181D19D54A991F651849DE890C3B18335A6B65FB052A9534421A40A5AAC402F2611006A3B2854B8687F24B74DCE7D640C570F57B5E5E792DFCD0071AEA181D8C0603681EE24ECC2EE71B2533CEA8B54DB5B04D05D39A4B233466FB531E6EF3F79D572445EEC5C93EF7D21C6E51
311
949E92B8888A8F53488913336A9AEEEEAED4821B5161B609C2C80B122FDC7D86BB43981EA2FD5BB03D440125AEFC4164FBEA0F511C3C8A6C234DB459ECCEB201336764227E6D0B111934F011FC1046890B115E53C28F41432010B2E1E7F6BEC715A0519446E918984AD9951A796B054C0DD0F45032B3D0796A009B3DEDB379
311
D1E7750FF8805CD6608D1BB89EAD71D3E93C7589A217DA1BCD0D49A53BDEAEE6668BEBB90E7A2A2F55ABF47FD46459952C6112F7F7B26F504B0304140006080800548AD14243909CE77D0000009D0000000B0000006662782F636E782E786D6C4DCCD10A83201886E15B91FFDC954BB702359A7921B12C24D3613A76F9ABD1
311
C18E3E78F87879FB591D7A9BB8D9E005904B09C8F86718AD9F05E434E11A502B790C21FDDD00F96135020E06C9E718F2EBA4D14C4376695767FD72E29D125D6AAD30514D8D29BD31FC505786FB9E32A59AAE22BA8342F2E257DAF708CB2F504B0304140006080800548AD1429EA7D30F310100001402000031000000666278
311
2F37343145304545432D314339382D343436352D424332352D4444343543433941333145412F636F72652E786D6C8D515B6EC23010BC4AE42FAA2A894D9C10906344436ED00B04DB8005B1233F2A8EDF4D13A4F251A93F5E6B766676B4CBF68FE19E7C29E7B5350D2219468932C24A6D2E0D8AE19CD628D973E6AC0DBF6828
311
31FDA01A34C188B38BB3715C20614D5026006AAC540BD87BAF024AC41D3E0DF2E2AA863EEB630086BF65632F6EFD4565248336F038F3C14180641E32BD886F28E970D7B52969B7754A6955A61FEDBA4C8F475AB6EDF65090EEC0F259C8598C5A2E722D218E3E6BE5FE6B3289390B7A78C6174EF54149C4D7981429AE52B2F9
311
249B1DA977C5F61D97BB02B37CA2BF88E228FF1051FC2A8ADA8462BDC49D651E71C2F2B9C199B4F1747F86518FD1BA904CF3565E8937C4718609A9EA928264A6C202C0B3A28BA70FD6C18257B713B049391B5794B37CBA11949F03429DEEC9BF01504B0304140006080800548AD142842F349A540100003303000030000000
311
6662782F37343145304545432D314339382D343436352D424332352D4444343543433941333145412F636E782E786D6CC593CD6EC32010845F0571ADFC43ED26698489D4439FA0875E316C121A1B2CC055F3F65D1292E692437BE90559B3C3CCEA13E69BAF71209FE08371B6A3ACAC2901AB9C3676D7D1396E8B15251BC1BD
311
73F1C6468995237434C954F09D77F394250D5B390F11D5C1D843163D04377B0501E574930C4EC90103C016338A30F6A035687235E2D7163CAE82627F24710FE4F5E59DB8FE03540CBC4A298257A943F074E6A61B13256A90217434A83D8CB29473741AC2A1D432CA929597AE3B3BFD249174E152397B43527947D34945DEA8
311
448EBCC2A1E0217AA4974DF1380115729A06A36444C8D5C978F6083E1B1B176DF61A04EFD1CD164DDB62D869267834236487F22023682A1E6BD614F5A260CB37B65CB3D5BA797EA89FD64DCDAB6417BC776EC8973006BC9B887236828D54305EA5F13D7CD947B4F1C8DAF9E32F402280DC7AA673CDF86F3E6DFD773ED5E97D
311
232E8F7F81F806504B0304140006080800548AD142B2374958A505000080100000340000006662782F37343145304545432D314339382D343436352D424332352D4444343543433941333145412F6F626A656374732E786D6CAD57DB6EDB3810FD1541FBB2FBE0BB9D380B458563278551A42D6AB4D807030625510A379428
311
5054EAECD7EFA148C9926BA7DE455F2C8B1A0E67CE9CB9D07BB74FB9F34265C14476EB8EFA43D7A15928229625B76EA9E2DEDC75DEF99E1442B5C45C272329BD75F5B2EB7B8914656E97221A9392ABA3D587BBBF9C22A419759D9093A2B8758BF089A6A44F4A25225A3CF723A2483F89F7FD51DF0876D52692E44F474A7322
311
69A66029D63368718C51A3EEEBD01DF8DE407FF73DFD6BA526E7A506953FDDF359562892853F1C76A466329AAEEEC7B39BDE6C3A9DF4A657E351EFEEE16ED51B5D4F86CBABE5F266717F83830B25A1C95A2269ECFAEF818D64A137309F7CAF64999A8CAD880DD040D217A623E5FA6367E40D8C4CE39D75F294F9A1C8321A56
311
58018DCA3FAB3AA239CD22C49CD10296B5101A765F471AC7D6E7897EB747B6972F43A0BDA3A5A8B6BD7EB62D15C1DF70A1B88441B2A09A81064BEBA8E1EAF080702004B7DF58E1A44451C90877380B2491AFAE0F512DE27B1D359AC9526783F6C0F51105F3B94B17A4D1CF797ECACAB8E45CD3D8F5AB2CD82157A82A2ACBD8
311
3F541EAC6F23039B102BCD86B97548BDE6D4F56F0C45E6476C32403A312709420E37F5CEC9F8C8D1A5CED3F5CAF53F3C04FB8DCEDDD387E752E4542A4D1F50AB0E5CFDD428599B4617454E6F708F4C3980F205C87F44AA1F4C41DC24DB4FF7537B8A92242B622153C4C6193ABD217E86CEA8FAD5FF5BFFBC41B3B91BBD7378
311
22D81AAA5F8067D787762C5B70FADE0B082FE4C4BAB6090947D978641900D22471B8C012EA701CEC5D7F8D2A87AA8C5D84FB23B80C735FF0D71B58352814D549AD67062C8FCAE205051AB0558C841986FCD6C0439C7E2867D5C156EC1CBCB35F42D7C56AF36153CA9884F4D1E6F48AC62C630A2DEEC09BB6411DCC3B1E3DD3
311
D7EF424670F447BC376DBC537B5401B435E61AF8A4AEE9FAE57072E78010FB12A1CB8DF79313E0846EAC2DFD8FAC0829E724A3A2ACCF7DB37FA06D188875B26B26370DE6D058401AF3E52807D1A443C9720D62D3AD9AA2D93FE3DDD7F5473012F25C04841F848243E90D05177217BCEE4C553A89F4B72EB52D0403AD056CAF
311
72A44E7F8BF92E62715C16A8812760FDB65EB643A7AB022A44ADD524CB14EE23B788B49CADF5A2594B82462AB21D43DB44DA9D3CA0AD1F885A02540ACF595C501EEF18E765BA8B194733DAA5243F03C7FFB73F28D37C47525166EA8CEE8EE9680E5DDB3BE42DBE13153EB9FEA67AF6EE507A231A1DC2DC11D6ADE404569DD0
311
5EDF5DCFA7E3E1A2371B5E5DF7A68BD57D6F3E9BCD7BF7B3ABD9EC6E7AF5707D33AEE36494FB5EDD69DA098D28A1B379A564367C5FD7481F5B035CFF91A862FBDE6467FDFCBAEE6314F606D88376D96C5C442F18FB68F4730507C9938AD669CE694A3345740A3DEA3FFC0BC198D131C6ACAF5392D00BB47C7ABF3972062B17
311
ECFBACD39D7E3FDA6B57973A214F2A514F651A6484F1A38D8941B29F6789C5AF8E49F3347DA67ED56F3630184C0BC1598432183909152955288617F42099D202D46B8FF491BD7A5CB0FBC50C888A049CD6963C11CCC8BC405A805A65A8BAEBCE6F98E9F45875EBA2DBF69FF1632B85EB8033B72E6674C5425AF403F4673D09
311
55CAC1A5F6208FB99F6409C7A86D3635EFCD2E8D4DA7233722978C4FD62F53C1AD03282339C606CC43884E658CEF55B6D9EFE17F72BC36C7210A7F835235BE1C161A67AA6390A2C6297B59C00CF36C8FDE2351DF766BD4AF643A885C74C97A9304466B4F11995417056D9F3569B1FA3CC080E2AC3F39392F13C4F2724D3D49
311
41E6522738580456589D3951A0EAF2CFED672970914D9D07060A38BFEFE7577F6C97224D456696B60B7B1D76364FB8DC465B1407AA6F25C5763C1C8DB7D56DC05E50760129689F44C533161059C91AA03BE1072FCD95117DC87C68E4063A14470C5DAF1CDBD8A6506AE9D2AEAD1A1CCC1D19759043FA46A933A62D90BF7921
311
1854A230416294F7FF05504B0304140006080000548AD142000000000000000000000000350000006662782F37343145304545432D314339382D343436352D424332352D4444343543433941333145412F76657274696365732E62696E504B0304140006080800548AD142F270F1330600000004000000360000006662782F
311
37343145304545432D314339382D343436352D424332352D4444343543433941333145412F747269616E676C65732E62696E636660600000504B0304140006080000548AD142000000000000000000000000370000006662782F37343145304545432D314339382D343436352D424332352D4444343543433941333145412F
311
617474726962757465732E62696E504B0304140006080800548AD142D5987DFC8F00000041010000360000006662782F37343145304545432D314339382D343436352D424332352D4444343543433941333145412F6469726563746F72792E786D6C858F410EC2201045AF4266AF15DDB800BA74E7C21B903225242D632818
311
8F2FA5C4183471359997F9FF81E89FF3C41E1816475E02DF1F80A11FC8386F25A438EECEC07A250251FC3803E6F58C12560C4AD840E95E91C151A72936F496F35732D860FE635F62C8F2DA16B505C545B74125BAA2FA9E05D7CC053D063734D5C7665FD55B6B8D15D5E9BFEAFD8490FFA45E504B0304140006080800548AD1
311
423EE52B0EFD000000A00100003B0000006662782F37343145304545432D314339382D343436352D424332352D4444343543433941333145412F7265736F75726365732F636F72652E786D6C8D50596E833010BD0A9ADF8AC57142001947A29413F4029699502BC1465EAA1EBF7642A5F6AF3F33A3B7689E1EBB7CADF7EC13
311
AD5346F7408A0A32D4D2CC4A2F3D047FCD1BC82E9C5963FC2F19645AACD8438281B3C59AB0ED9034DAA3F611D566C61D14CEA1874CDEE3D183931FB88A42041F15EE566C42DEC4820529221D759C396F6380ECF9244DE0169D0956A263E593E52C0435EF1A35C79FEAAAD0026F87919CC6D73A9FEA69CC8F753BE6CD182F4A
311
9BA13E4E747A1B082B939933AFD69F8CD2A2F038033F5484E6559D93F33B3977A4E968FB529D3A5AB132C9FF98C236FFD31494F6F4B0C77DDA1CF014E4417056A6BEE27A941977EA967F03504B010214000A0000080000548AD1423DEE336E79000000790000001B00000000000000000000000000000000006175746F6465
311
736B2D64657369676E2D7061636B6167652E786D6C504B01021400140006080800548AD142D486FD9CA0000000F40000001300000000000000000000000000B20000005B436F6E74656E745F54797065735D2E786D6C504B01021400140006080800548AD142A461DD08ED0000007C01000008000000000000000000000000
311
0083010000636F72652E786D6C504B01021400140006080800548AD14255019EA25F0000007C000000070000000000000000000000000096020000636E782E786D6C504B01021400140006080800548AD1425B6EC6FD6A010000020300000C000000000000000000000000001A0300006662782F636F72652E786D6C504B01
311
021400140006080800548AD14243909CE77D0000009D0000000B00000000000000000000000000AE0400006662782F636E782E786D6C504B01021400140006080800548AD1429EA7D30F31010000140200003100000000000000000000000000540500006662782F37343145304545432D314339382D343436352D42433235
311
2D4444343543433941333145412F636F72652E786D6C504B01021400140006080800548AD142842F349A54010000330300003000000000000000000000000000D40600006662782F37343145304545432D314339382D343436352D424332352D4444343543433941333145412F636E782E786D6C504B010214001400060808
311
00548AD142B2374958A5050000801000003400000000000000000000000000760800006662782F37343145304545432D314339382D343436352D424332352D4444343543433941333145412F6F626A656374732E786D6C504B01021400140006080000548AD142000000000000000000000000350000000000000000000000
311
00006D0E00006662782F37343145304545432D314339382D343436352D424332352D4444343543433941333145412F76657274696365732E62696E504B01021400140006080800548AD142F270F13306000000040000003600000000000000000000000000C00E00006662782F37343145304545432D314339382D34343635
311
2D424332352D4444343543433941333145412F747269616E676C65732E62696E504B01021400140006080000548AD14200000000000000000000000037000000000000000000000000001A0F00006662782F37343145304545432D314339382D343436352D424332352D4444343543433941333145412F6174747269627574
311
65732E62696E504B01021400140006080800548AD142D5987DFC8F0000004101000036000000000000000000000000006F0F00006662782F37343145304545432D314339382D343436352D424332352D4444343543433941333145412F6469726563746F72792E786D6C504B01021400140006080800548AD1423EE52B0EFD
311
000000A00100003B00000000000000000000000000521000006662782F37343145304545432D314339382D343436352D424332352D4444343543433941333145412F7265736F75726365732F636F72652E786D6C504B0506000000000E000E0080040000A81100000000
310
504B03040A0000080000538AD1423DEE336E79000000790000001B0000006175746F6465736B2D64657369676E2D7061636B6167652E786D6C3C3F786D6C2076657273696F6E3D22312E302220656E636F64696E673D227574662D3822203F3E3C666F726D6174733E3C666F726D61743E687474703A2F2F736368656D612E
310
6175746F6465736B2E636F6D2F64657369676E2D7061636B6167652F323030393C2F666F726D61743E3C2F666F726D6174733E504B0304140006080800538AD142D486FD9CA0000000F4000000130000005B436F6E74656E745F54797065735D2E786D6C7D8EC10E82300C865F65E91D8A1E8C310C0EEA1BF002731658846E
310
D98AC1B77784ABF1D8FE5FBFBF75BBCE937A534CCEB38643598122B6FEE978D0B0485F9C41B54DDD7D022595594E1A469170414C76A4D9A4D207E29CF43ECE46F218070CC6BECC4078ACAA135ACF422C856C0E68EA1BF5669944DDD7BCDE7B1F8E415D77AECB980613C2E4AC91FC167A2B244592486606FC29C8FD7F045B9A
310
EF7053A7E60B504B0304140006080800538AD1429B5F60F0E90000007C01000008000000636F72652E786D6C8D904D6EC3201085AF82665B61839DD63FC244752B9FA01740401C94182C03558E5F481CA9DD7535338FF731A3C78EB7E58ABEF5E68DB303D08200D2563A65EC3C400C27DC023A72B639177ED90059B1E801B2
310
0C9CCD9B8BEB2E496783B621A9D629BD8BC27B1D00C96B6A06F0F2AC1751881892C35F8A55C88B9875419F5D8263340A3D961895FE3327A337E00D9D68D58C048F6347F1A1EA3EF17BD57679EC489AA6F163626586390B6679EE979B16412BE015A135266F98365FB4E969DBD7DD0B79ED6BC2CA6CFF03C555FD138AC686BA
310
DACF7D601E384D87DC1F382B7316A9DC834A35E7C67F00504B0304140006080800538AD14255019EA25F0000007C00000007000000636E782E786D6C4DCB3B0E80201045D1AD90E915ED2CF8AC45050C11660C8261F98AB1B07AC9C97D42D718D865D3E909258CFD00CCE24AC6E326A164D74DC0B4128928FF326038472BA1
310
3128B1252AC747C6BAB984FC68F0B87FE8960A5C09FE86CFB69FBA01504B0304140006080800538AD14271FC537965010000020300000C0000006662782F636F72652E786D6C8D52E16E8320107E15C2DF4511ED666D90666EE913EC05285267AA60104C1F7F87DA745D9A663141F8EEBEBBEF3E60FB4BDFA149D9B135BAC4
310
344E30525A9ABAD54D89BD3B455B8CF69C5963DCAF348CB4E85589038C396BACF1C30A49A39DD20E506D6AB582621C95C34876B029F128BF552F62E11D648CE77810F22C1A15D318C290C7D9E82C08404B93B0627E3A5E185970CEBC6FEB35DAD6D0AD3DB5CA629ED3034DF32A89AAAAA0D1262D3EA3F7745B846391C0E950
310
7D1C180964CE5CDB5FD549AB845335E66942B328798B68FE45F31DDDEEB2E22579DD65092321FD8EE487FA9F24DF6A97A5ABDC8536624E41C81CF8332D58E4D02826D0433823C144F8CD0EDF1B0D8680C94E1CBBEB1C678026259DB11B88D4C6DF4293E8BC82AE099A3F469628549E0BC0640FEBA44FEA3CAF0117287403D2
310
8483EDD1BBD09D2D5D572B0665A3C95D9036B617DD4DDC22F1B6DE1A3DA44BD319FB1F36594725AB9924BC5EFE03504B0304140006080800538AD142AD3321177E0000009D0000000B0000006662782F636E782E786D6C4DCCD10E82201886E15B61FF396929FD1E000E8AEEC3253A164223685D7EDA3CE8E8DB9E7D7B79FF
310
593C79DBF4723108381E6A2036DCE3E8C22CA0E48976407AC9538CF9EF06240C8B15B031483EA7589E3B8D761A8ACFAB7A171E3BD688A7CB156F5429DDD296B133D5DA286A9035D8A146661AA824AF7EA575B7B0FC02504B0304140006080800538AD14229B964302C01000014020000310000006662782F30373732434437
310
462D414142342D343535362D424245412D4537353337383742373545332F636F72652E786D6C8D515B6EC32010BC0AE2AB55E507C636698489E2363D412F4030495162B07854397ED7B523B57FF961D1ECCCECC0F2DD6DBCA26FED8371B6C3242F31D256B9C1D87387533C651B8C76827BE7E21F1A46568EBAC3338C053F7B
310
97A61552CE466D23A0D60D7A0565083A62A4AE70E970505F7A94B94C1118E1924F525DE459E7248736F0040FD14300B40C994F2C4AC6AAB777F691EDF77D9DD54DD3667D7FD86707D650B6613D6B0E94178B50F094CCB0CACD0071CCC968FFA8C92C163C9AF11E5F792DA31EB0A84A42B3B2CD08FB246C4B365BFAFA52365B
310
5AF262A6FF13A5697850948C8DB45AE32EB28005E1C5D2107C70E978BD87D1B7C9F988E6794F41AB6778555E928AD6B4A978B150E103C0B3AD57CF109D870F7EBA1C814D57E3B616BC987704E5778150E77D8A1F504B0304140006080800538AD142DA81ED705701000033030000300000006662782F30373732434437462D
310
414142342D343535362D424245412D4537353337383742373545332F636E782E786D6CBD93CD6EC32010845F0571ADFC439C3A698489D4439FA0875E316C121A1B2CC055F3F65D1292E6D243A5AA1764CD0E33AB4F986F3FC7817C800FC6D98EB2B2A604AC72DAD87D47E7B82BD6946C05F7CEC53B1B25568ED0D12453C1F7
310
DECD539634ECE43C445407638F59F410DCEC150494D34D323825070C005BCC28C2D883D6A0C9CD885F3BF0B80A8AFD89C4039097E737E2FA775031F02AA5085EA50EC1D3999BEE4C94A84186D0D1A00E30CA52CED16908C752CB284B565EBB7ED8E93B89A40BD7CAD91B92CA3B9A4E2AF2462572E4150E050FD123BD6C8AA7
310
09A890D33418252342AECEC68B47F0D9D8D82EB3D720788FEE66D1AED718769E091ECD08D9A13CC8089A8A45CD9AA26E0BB67A65AB0D5B6F9AA787FA71D3D4BC4A76C17BE7867C0963C0BB89286723D84805E3551AFF842FFB88361E593B7FFA054804905B2F746E197FC987B5CD72F98F7CAAF3FB465C1EFF02F105504B03
310
04140006080800538AD1429CD719A961070000991B0000340000006662782F30373732434437462D414142342D343535362D424245412D4537353337383742373545332F6F626A656374732E786D6CED595B73A33614FE2B0C7D691F8C4D6CE7D2217472DDF1EC647767DDDDE98367181964A24608461289D35FDFA30B1888
310
4970377DDB071B10D2D139DFB9EA10FCB1CDA8F388B920393B777D6FE23A98C57942587AEE9672333A759D3FC280E7B96C4C731D86327CEEAA61370C529E97851D4AF006955476466F2FFF72448C19769D982221CE5D11DFE30C79A8947982C583972089BC74B3F57CCF4C6C934D392AEE3B440BC43193C0298C33A0E218A6
310
FCF6E3C41D87C158BD0F03F56F674D07CD9AF5CF1A6BA9DB5C12262462F10B963A64A683589AFAB3EB9BA3F9D9683E9B4D47B3E3237F74797B793DF24FA693ABE3ABABB38B9B33606F9DE7D4CA94E002B304F4F7EC867E30566F6AD12D02FBB88E73C670AC8104A8B4585D82040BD8AA01DFA4FDE82B891AAFB5848DE7997A
310
6F59680C4FDB54FA660D03A2451704B1DB551257D7A67CF9FA6F105C0C314A2EB0046E85E4A05D0B0F07AF70C3493036A361B0DEE982082743127382A843C99A230E4A81A96A4A189805968C720E0EA41C2581D69C79DDB62DF0CCB75D671F979B9252E5196EA81D2B02F7C35268CEC83F98EFB86F22033C81B42561F2D472
310
299F0BEC8667C1580F8681BA4C8FEC4B03A4B3A128151A11F3B623E89572FDC5B51B7EBC5D6F972A1CECDFBCE07981B95446A7F4A8F90243B6578592DDD61FA439B5008431A0DA953B50BE02F29F207AEC5801BD71B29D6D6776AEE488894DCE33D08D33714613F89B38BEFE57F78DBB605C2F6E6BAF0F4F705305D5E98FE3
310
D996416365F96FC019068F60F0399FDA57CB1851B0E73BC2002065240ECD610842FB66BD75C305044E08F4B00AD1D0079181DD47B80DC696CC4E2B957B59AF6380A8DD633A4449009BB64860A3474F1F207B7012EFD4D414B10FDEF9BB98EBC5F5F2E3B2E41B14E33BEBD3D7784318919035F733D4C2BC25D1037E7ECA7902
310
82BEC47BD9C43BB35B09405B61AE804F2B10D4C36EE7D60631AC4B73156E823776002154AE6ED0BF2322C6942286F3B2DAB78E6ECA506B8FB735831B1E1988A7471D13E6F891A8AA029C6637A3C528E4FD98934281E8861F8C6475D0F47AA4FBB6F8041659CFEF99B560107A19A27FEAA0B50787966557485B206A81D7BB70
310
1EE734E7D1FA393291CE855A02D8687BCBF7165188F546498A0A7890F6BB2AA4A446DA28219B4D2920AEEE61F1FBE2AA690E136FEACF9DE67FC71967106DC17711B77ED7D92322194A71B44149DF76CDDD6ADA4293EC21CDF186825CE491C8E708C96892E0F410680E227EF6AED4539A0B41181690AFF682DF4463E2412031
310
DAAC58565AED004D44946189E8210828323DE0EAB4A36BDC184A87B779ACADF7358D3589FE4F16C111D492398B0894A29043DE64DCF7E61043DAE81A943BF882B555B4B518B48412227E8E9E3049EFE521A81BF23DB8C77024296594172806B31E40F685AF28A576785FA3F841E58F282EE97B1988C07413114ACB2C821F61
310
70F218E2DA75607A1585067113FB24CEA02843B2E44336399E4F5EEC636A866E086C6CB42114C27694A1A207F55640D4F58853836FA9F728755D664584B2BC64830CC59B76BDC992EFAA55911DC8AF2A15A16CAC085B82614098ACB36A15B3C1D475600537D281EA3912282BA83985BD9178FCDA9B34E5DE0DB8F5D3F7DD20
310
83C2AF477BCD883AAB60B03CB60A03F184647CEF864B7D1D5D42FD9DE06497EAAB5AB3590102622A92979C58157D5B4079636B3437BC4352AC3E98AC5B5DBF2D3CE87E04635803B54BBD70A180CE309348552677EA867E4510825B34CCF842E5D443A85C2489AE1A11BD257DEA6C9511AD4D33E215F798E519FCD88AB09896
310
095EA1443C447792464BA258B7527A19A9307E55C0CF1F961D78606480485F5481879F3A6BEDE8952A97F61291F765B6668840106C89961ADD78054BAD462A2DD75775A680BA0B0CCCAA78F6F364D16C47FC3C59A4D6307EEC6441F335A2BB68D3C8E6B132EB834E01757A5254DEE314A0BB0E35D53A89985C6EC5B7BE1441
310
4CAC82FCE062AC8A1986601FC7FF3969F72541B35D87FFC392B6FFA2E03828A9B426AB26D59EC275D14C61279727A7B3A3C9C5683E393E19CD2EAE6F46A7F3F9E9E8667E3C9F5FCE8E6F4FCEEA4C6C8887411DCB74EA826713D3AA61F5643180A6ACC82949E0309F382986902FE1483FA07BCE332C2077367BDD89EDC90F58
310
FD68DA9C12AD29AE38B947D01FA602B23A8851C6B23DEEFC029D4909E7EC73177A46DE03FC59AB741D483CE72E740A2489B1F0D6D06552FD3C4D1C32AE4EFD9618C431C4529511CDA2FAB95EA5B06945FF7ACA902C60E56AB530A06E2BA0F9D56A5068DE2C4FF1418257EC3848C2EDBA9450AC19597603B5307A9B9DFA8D6C
310
94B007BBF5165CF775B17C4FCF692132E88BC1AB4660A88E24E2A96E772BC62C4B17D75FC6D06673169F9D829629E87238A511C760CCA5AAA7C08AC02A2CCD024930D5ABDF575F780E5F7832471745CEAFDBD3E3DF56577996E5CC0CAD2EE05096C0772267790F5F7D9215D40E58F5D6C5EA68E21FAD744FDBB6D9A33512D8
310
5345110C54B58412A4637260972FFA53B67B3956AAE84C5F5C3B3688422FC0D8D18B16AFF9C6E5800FA9AF29CA63B49F57D2BEDAD61EEBA960131C1AD2E1BF504B0304140006080000538AD142000000000000000000000000350000006662782F30373732434437462D414142342D343535362D424245412D453735333738
310
3742373545332F76657274696365732E62696E504B0304140006080800538AD142F270F1330600000004000000360000006662782F30373732434437462D414142342D343535362D424245412D4537353337383742373545332F747269616E676C65732E62696E636660600000504B0304140006080000538AD14200000000
310
0000000000000000370000006662782F30373732434437462D414142342D343535362D424245412D4537353337383742373545332F617474726962757465732E62696E504B0304140006080800538AD142D5987DFC8F00000041010000360000006662782F30373732434437462D414142342D343535362D424245412D4537
310
353337383742373545332F6469726563746F72792E786D6C858F410EC2201045AF4266AF15DDB800BA74E7C21B903225242D6328188F2FA5C4183471359997F9FF81E89FF3C41E1816475E02DF1F80A11FC8386F25A438EECEC07A250251FC3803E6F58C12560C4AD840E95E91C151A72936F496F35732D860FE635F62C8F2
310
DA16B505C545B74125BAA2FA9E05D7CC053D063734D5C7665FD55B6B8D15D5E9BFEAFD8490FFA45E504B0304140006080800538AD142EA69C090FB000000A00100003B0000006662782F30373732434437462D414142342D343535362D424245412D4537353337383742373545332F7265736F75726365732F636F72652E78
310
6D6C8D50596E833010BD0A9ADF0AB0A12D8B8CA3D08A13F4029699102BC1465EAA1EBF76A052FBD71F8FE72D9AA7C74E5FEB3DFB44EB94D103D08240865A9A59E96580E02F790BD989336B8CFF25834C8B1507483070B65813B60392467BD43EA2DACC7880C239F490C97BFC0CE0E415575188E0A3C2DD8A4DC89B58B0A045
310
A4A38E33E76D0C90ED47D20BDCA233C14A74ACDC59CE4250F3A15173BCA92E0A2DF0864EB46ACE533E8E1DCD9FABEE3D3F576D97D68EC46D1ADF26562633675EAD3F19A545E171065E115AE7E435A7CD076D7ADAF675F7445EFA9AB032C9FF98C236FFD31494F67575C4DD6D0E388D411E046765EA2B8E479971A66EF93750
310
4B010214000A0000080000538AD1423DEE336E79000000790000001B00000000000000000000000000000000006175746F6465736B2D64657369676E2D7061636B6167652E786D6C504B01021400140006080800538AD142D486FD9CA0000000F40000001300000000000000000000000000B20000005B436F6E74656E745F
310
54797065735D2E786D6C504B01021400140006080800538AD1429B5F60F0E90000007C010000080000000000000000000000000083010000636F72652E786D6C504B01021400140006080800538AD14255019EA25F0000007C000000070000000000000000000000000092020000636E782E786D6C504B0102140014000608
310
0800538AD14271FC537965010000020300000C00000000000000000000000000160300006662782F636F72652E786D6C504B01021400140006080800538AD142AD3321177E0000009D0000000B00000000000000000000000000A50400006662782F636E782E786D6C504B01021400140006080800538AD14229B964302C01
310
00001402000031000000000000000000000000004C0500006662782F30373732434437462D414142342D343535362D424245412D4537353337383742373545332F636F72652E786D6C504B01021400140006080800538AD142DA81ED7057010000330300003000000000000000000000000000C70600006662782F30373732
310
434437462D414142342D343535362D424245412D4537353337383742373545332F636E782E786D6C504B01021400140006080800538AD1429CD719A961070000991B000034000000000000000000000000006C0800006662782F30373732434437462D414142342D343535362D424245412D4537353337383742373545332F
310
6F626A656374732E786D6C504B01021400140006080000538AD14200000000000000000000000035000000000000000000000000001F1000006662782F30373732434437462D414142342D343535362D424245412D4537353337383742373545332F76657274696365732E62696E504B01021400140006080800538AD142F2
310
70F13306000000040000003600000000000000000000000000721000006662782F30373732434437462D414142342D343535362D424245412D4537353337383742373545332F747269616E676C65732E62696E504B01021400140006080000538AD1420000000000000000000000003700000000000000000000000000CC10
310
00006662782F30373732434437462D414142342D343535362D424245412D4537353337383742373545332F617474726962757465732E62696E504B01021400140006080800538AD142D5987DFC8F000000410100003600000000000000000000000000211100006662782F30373732434437462D414142342D343535362D42
310
4245412D4537353337383742373545332F6469726563746F72792E786D6C504B01021400140006080800538AD142EA69C090FB000000A00100003B00000000000000000000000000041200006662782F30373732434437462D414142342D343535362D424245412D4537353337383742373545332F7265736F75726365732F
310
636F72652E786D6C504B0506000000000E000E0080040000581300000000
  0
XRECORD
  5
27
102
{ACAD_REACTORS
330
22
102
}
330
22
100
AcDbXrecord
280
     1
270
     1
271
     1
  0
XRECORD
  5
26
102
{ACAD_REACTORS
330
22
102
}
330
22
100
AcDbXrecord
280
     1
270
     1
271
     1
  0
XRECORD
  5
28
102
{ACAD_REACTORS
330
22
102
}
330
22
100
AcDbXrecord
280
     1
270
     1
271
     1
  0
XRECORD
  5
25
102
{ACAD_REACTORS
330
22
102
}
330
22
100
AcDbXrecord
280
     1
270
     1
271
     1
  0
XRECORD
  5
D7D
102
{ACAD_REACTORS
330
D7C
102
}
330
D7C
100
AcDbXrecord
280
     1
102
ACAD_ROUNDTRIP_2012_MLEADER_STYLE
298
     1
  0
CELLSTYLEMAP
  5
D7B
102
{ACAD_REACTORS
330
D7A
102
}
330
D7A
100
AcDbCellStyleMap
 90
        3
300
CELLSTYLE
  1
TABLEFORMAT_BEGIN
 90
        5
170
     1
 91
        0
 92
    32768
 62
   257
 93
        1
300
CONTENTFORMAT
  1
CONTENTFORMAT_BEGIN
 90
        0
 91
        0
 92
      512
 93
        0
300

 40
0.0
140
1.0
 94
        5
 62
     0
340
55
144
0.25
309
CONTENTFORMAT_END
171
     0
 94
        0
309
TABLEFORMAT_END
  1
CELLSTYLE_BEGIN
 90
        1
 91
        1
300
_TITLE
309
CELLSTYLE_END
300
CELLSTYLE
  1
TABLEFORMAT_BEGIN
 90
        5
170
     1
 91
        0
 92
        0
 62
   257
 93
        1
300
CONTENTFORMAT
  1
CONTENTFORMAT_BEGIN
 90
        0
 91
        0
 92
      512
 93
        0
300

 40
0.0
140
1.0
 94
        5
 62
     0
340
55
144
0.18
309
CONTENTFORMAT_END
171
     0
 94
        0
309
TABLEFORMAT_END
  1
CELLSTYLE_BEGIN
 90
        2
 91
        1
300
_HEADER
309
CELLSTYLE_END
300
CELLSTYLE
  1
TABLEFORMAT_BEGIN
 90
        5
170
     1
 91
        0
 92
        0
 62
   257
 93
        1
300
CONTENTFORMAT
  1
CONTENTFORMAT_BEGIN
 90
        0
 91
        0
 92
      512
 93
        0
300

 40
0.0
140
1.0
 94
        2
 62
     0
340
55
144
0.18
309
CONTENTFORMAT_END
171
     0
 94
        0
309
TABLEFORMAT_END
  1
CELLSTYLE_BEGIN
 90
        3
 91
        2
300
_DATA
309
CELLSTYLE_END
  0
ENDSEC
  0
EOF
