  0
SECTION
  2
HEADER
  9
$ACADVER
  1
AC1024
  9
$ACADMAINTVER
 70
    63
  9
$DWGCODEPAGE
  3
ANSI_1252
  9
$AUTHOR
  1
PR
  9
$REVISIONNUMBER
  1
-
  9
$CUSTOMPROPERTYTAG
  1
Manager
  9
$CUSTOMPROPERTY
  1

  9
$CUSTOMPROPERTYTAG
  1
Company
  9
$CUSTOMPROPERTY
  1

  9
$CUSTOMPROPERTYTAG
  1
Category
  9
$CUSTOMPROPERTY
  1

  9
$CUSTOMPROPERTYTAG
  1
Part Number
  9
$CUSTOMPROPERTY
  1
HWDWA90P36F1
  9
$CUSTOMPROPERTYTAG
  1
Description
  9
$CUSTOMPROPERTY
  1
N1P PANEL MASTER VIEW
  9
$CUSTOMPROPERTYTAG
  1
Project
  9
$CUSTOMPROPERTY
  1

  9
$CUSTOMPROPERTYTAG
  1
Designer
  9
$CUSTOMPROPERTY
  1
PR
  9
$CUSTOMPROPERTYTAG
  1
Engineer
  9
$CUSTOMPROPERTY
  1

  9
$CUSTOMPROPERTYTAG
  1
Authority
  9
$CUSTOMPROPERTY
  1

  9
$CUSTOMPROPERTYTAG
  1
Cost Center
  9
$CUSTOMPROPERTY
  1

  9
$CUSTOMPROPERTYTAG
  1
Vendor
  9
$CUSTOMPROPERTY
  1

  9
$CUSTOMPROPERTYTAG
  1
User Status
  9
$CUSTOMPROPERTY
  1

  9
$CUSTOMPROPERTYTAG
  1
Design Status
  9
$CUSTOMPROPERTY
  1
WorkInProgress
  9
$CUSTOMPROPERTYTAG
  1
Checked by
  9
$CUSTOMPROPERTY
  1
NJ
  9
$CUSTOMPROPERTYTAG
  1
Engr Approved by
  9
$CUSTOMPROPERTY
  1

  9
$CUSTOMPROPERTYTAG
  1
Date Eng Approved
  9
$CUSTOMPROPERTY
  1
06/19/2013
  9
$CUSTOMPROPERTYTAG
  1
Mfg Approved by
  9
$CUSTOMPROPERTY
  1

  9
$CUSTOMPROPERTYTAG
  1
DWG. NO
  9
$CUSTOMPROPERTY
  1

  9
$CUSTOMPROPERTYTAG
  1
NUMBER OF SHEETS
  9
$CUSTOMPROPERTY
  1
1
  9
$CUSTOMPROPERTYTAG
  1
DRAWING #
  9
$CUSTOMPROPERTY
  1
1
  9
$INSBASE
 10
0.0
 20
0.0
 30
0.0
  9
$EXTMIN
 10
0.0
 20
0.0
 30
0.0
  9
$EXTMAX
 10
238.0
 20
154.0
 30
0.0
  9
$LIMMIN
 10
0.0
 20
0.0
  9
$LIMMAX
 10
238.0
 20
154.0
  9
$ORTHOMODE
 70
     0
  9
$REGENMODE
 70
     1
  9
$FILLMODE
 70
     1
  9
$QTEXTMODE
 70
     0
  9
$MIRRTEXT
 70
     0
  9
$LTSCALE
 40
14.0
  9
$ATTMODE
 70
     1
  9
$TEXTSIZE
 40
0.2
  9
$TRACEWID
 40
0.05
  9
$TEXTSTYLE
  7
Standard
  9
$CLAYER
  8
0
  9
$CELTYPE
  6
ByLayer
  9
$CECOLOR
 62
   256
  9
$CELTSCALE
 40
1.0
  9
$DISPSILH
 70
     0
  9
$DIMSCALE
 40
1.0
  9
$DIMASZ
 40
0.0708661417322835
  9
$DIMEXO
 40
0.0625
  9
$DIMDLI
 40
0.38
  9
$DIMRND
 40
0.0
  9
$DIMDLE
 40
0.0
  9
$DIMEXE
 40
0.18
  9
$DIMTP
 40
0.0
  9
$DIMTM
 40
0.0
  9
$DIMTXT
 40
0.0708661417322835
  9
$DIMCEN
 40
0.09
  9
$DIMTSZ
 40
0.0
  9
$DIMTOL
 70
     0
  9
$DIMLIM
 70
     0
  9
$DIMTIH
 70
     1
  9
$DIMTOH
 70
     1
  9
$DIMSE1
 70
     0
  9
$DIMSE2
 70
     0
  9
$DIMTAD
 70
     0
  9
$DIMZIN
 70
     0
  9
$DIMBLK
  1

  9
$DIMASO
 70
     1
  9
$DIMSHO
 70
     1
  9
$DIMPOST
  1

  9
$DIMAPOST
  1

  9
$DIMALT
 70
     0
  9
$DIMALTD
 70
     2
  9
$DIMALTF
 40
25.4
  9
$DIMLFAC
 40
1.0
  9
$DIMTOFL
 70
     0
  9
$DIMTVP
 40
0.0
  9
$DIMTIX
 70
     0
  9
$DIMSOXD
 70
     0
  9
$DIMSAH
 70
     0
  9
$DIMBLK1
  1

  9
$DIMBLK2
  1

  9
$DIMSTYLE
  2
STANDARD
  9
$DIMCLRD
 70
     0
  9
$DIMCLRE
 70
     0
  9
$DIMCLRT
 70
     0
  9
$DIMTFAC
 40
1.0
  9
$DIMGAP
 40
0.09
  9
$DIMJUST
 70
     0
  9
$DIMSD1
 70
     0
  9
$DIMSD2
 70
     0
  9
$DIMTOLJ
 70
     1
  9
$DIMTZIN
 70
     0
  9
$DIMALTZ
 70
     0
  9
$DIMALTTZ
 70
     0
  9
$DIMUPT
 70
     0
  9
$DIMDEC
 70
     4
  9
$DIMTDEC
 70
     4
  9
$DIMALTU
 70
     2
  9
$DIMALTTD
 70
     2
  9
$DIMTXSTY
  7
Standard
  9
$DIMAUNIT
 70
     0
  9
$DIMADEC
 70
     0
  9
$DIMALTRND
 40
0.0
  9
$DIMAZIN
 70
     0
  9
$DIMDSEP
 70
    46
  9
$DIMATFIT
 70
     3
  9
$DIMFRAC
 70
     0
  9
$DIMLDRBLK
  1

  9
$DIMLUNIT
 70
     2
  9
$DIMLWD
 70
    -2
  9
$DIMLWE
 70
    -2
  9
$DIMTMOVE
 70
     0
  9
$DIMFXL
 40
1.0
  9
$DIMFXLON
 70
     0
  9
$DIMJOGANG
 40
0.7853981633974483
  9
$DIMTFILL
 70
     0
  9
$DIMTFILLCLR
 70
     0
  9
$DIMARCSYM
 70
     0
  9
$DIMLTYPE
  6

  9
$DIMLTEX1
  6

  9
$DIMLTEX2
  6

  9
$DIMTXTDIRECTION
 70
     0
  9
$LUNITS
 70
     2
  9
$LUPREC
 70
     4
  9
$SKETCHINC
 40
0.1
  9
$FILLETRAD
 40
0.0
  9
$AUNITS
 70
     0
  9
$AUPREC
 70
     0
  9
$MENU
  1
.
  9
$ELEVATION
 40
0.0
  9
$PELEVATION
 40
0.0
  9
$THICKNESS
 40
0.0
  9
$LIMCHECK
 70
     0
  9
$CHAMFERA
 40
0.0
  9
$CHAMFERB
 40
0.0
  9
$CHAMFERC
 40
0.0
  9
$CHAMFERD
 40
0.0
  9
$SKPOLY
 70
     0
  9
$TDCREATE
 40
2456465.807332952
  9
$TDUCREATE
 40
2456465.578166285
  9
$TDUPDATE
 40
2456465.807332963
  9
$TDUUPDATE
 40
2456465.578166296
  9
$TDINDWG
 40
0.0000470023
  9
$TDUSRTIMER
 40
0.0000470023
  9
$USRTIMER
 70
     1
  9
$ANGBASE
 50
0.0
  9
$ANGDIR
 70
     0
  9
$PDMODE
 70
     0
  9
$PDSIZE
 40
0.0
  9
$PLINEWID
 40
0.0
  9
$SPLFRAME
 70
     0
  9
$SPLINETYPE
 70
     6
  9
$SPLINESEGS
 70
     8
  9
$HANDSEED
  5
E89
  9
$SURFTAB1
 70
     6
  9
$SURFTAB2
 70
     6
  9
$SURFTYPE
 70
     6
  9
$SURFU
 70
     6
  9
$SURFV
 70
     6
  9
$UCSBASE
  2

  9
$UCSNAME
  2

  9
$UCSORG
 10
0.0
 20
0.0
 30
0.0
  9
$UCSXDIR
 10
1.0
 20
0.0
 30
0.0
  9
$UCSYDIR
 10
0.0
 20
1.0
 30
0.0
  9
$UCSORTHOREF
  2

  9
$UCSORTHOVIEW
 70
     0
  9
$UCSORGTOP
 10
0.0
 20
0.0
 30
0.0
  9
$UCSORGBOTTOM
 10
0.0
 20
0.0
 30
0.0
  9
$UCSORGLEFT
 10
0.0
 20
0.0
 30
0.0
  9
$UCSORGRIGHT
 10
0.0
 20
0.0
 30
0.0
  9
$UCSORGFRONT
 10
0.0
 20
0.0
 30
0.0
  9
$UCSORGBACK
 10
0.0
 20
0.0
 30
0.0
  9
$PUCSBASE
  2

  9
$PUCSNAME
  2

  9
$PUCSORG
 10
0.0
 20
0.0
 30
0.0
  9
$PUCSXDIR
 10
1.0
 20
0.0
 30
0.0
  9
$PUCSYDIR
 10
0.0
 20
1.0
 30
0.0
  9
$PUCSORTHOREF
  2

  9
$PUCSORTHOVIEW
 70
     0
  9
$PUCSORGTOP
 10
0.0
 20
0.0
 30
0.0
  9
$PUCSORGBOTTOM
 10
0.0
 20
0.0
 30
0.0
  9
$PUCSORGLEFT
 10
0.0
 20
0.0
 30
0.0
  9
$PUCSORGRIGHT
 10
0.0
 20
0.0
 30
0.0
  9
$PUCSORGFRONT
 10
0.0
 20
0.0
 30
0.0
  9
$PUCSORGBACK
 10
0.0
 20
0.0
 30
0.0
  9
$USERI1
 70
     0
  9
$USERI2
 70
     0
  9
$USERI3
 70
     0
  9
$USERI4
 70
     0
  9
$USERI5
 70
     0
  9
$USERR1
 40
0.0
  9
$USERR2
 40
0.0
  9
$USERR3
 40
0.0
  9
$USERR4
 40
0.0
  9
$USERR5
 40
0.0
  9
$WORLDVIEW
 70
     1
  9
$SHADEDGE
 70
     3
  9
$SHADEDIF
 70
    70
  9
$TILEMODE
 70
     1
  9
$MAXACTVP
 70
    64
  9
$PINSBASE
 10
0.0
 20
0.0
 30
0.0
  9
$PLIMCHECK
 70
     0
  9
$PEXTMIN
 10
0.0
 20
0.0
 30
0.0
  9
$PEXTMAX
 10
238.0
 20
154.0
 30
0.0
  9
$PLIMMIN
 10
0.0
 20
0.0
  9
$PLIMMAX
 10
238.0
 20
154.0
  9
$UNITMODE
 70
     0
  9
$VISRETAIN
 70
     1
  9
$PLINEGEN
 70
     0
  9
$PSLTSCALE
 70
     1
  9
$TREEDEPTH
 70
  3020
  9
$CMLSTYLE
  2
Standard
  9
$CMLJUST
 70
     0
  9
$CMLSCALE
 40
1.0
  9
$PROXYGRAPHICS
 70
     1
  9
$MEASUREMENT
 70
     0
  9
$CELWEIGHT
370
    -1
  9
$ENDCAPS
280
     0
  9
$JOINSTYLE
280
     0
  9
$LWDISPLAY
290
     0
  9
$INSUNITS
 70
     1
  9
$HYPERLINKBASE
  1

  9
$STYLESHEET
  1

  9
$XEDIT
290
     1
  9
$CEPSNTYPE
380
     0
  9
$PSTYLEMODE
290
     1
  9
$FINGERPRINTGUID
  2
{1E66FD2D-9DDE-4A0F-81EB-92A9670B641A}
  9
$VERSIONGUID
  2
{91705DD4-E664-4218-BE66-21511A4934E2}
  9
$EXTNAMES
290
     1
  9
$PSVPSCALE
 40
0.0
  9
$OLESTARTUP
290
     0
  9
$SORTENTS
280
   127
  9
$INDEXCTL
280
     0
  9
$HIDETEXT
280
     1
  9
$XCLIPFRAME
280
     2
  9
$HALOGAP
280
     0
  9
$OBSCOLOR
 70
   257
  9
$OBSLTYPE
280
     0
  9
$INTERSECTIONDISPLAY
280
     0
  9
$INTERSECTIONCOLOR
 70
   257
  9
$DIMASSOC
280
     1
  9
$PROJECTNAME
  1

  9
$CAMERADISPLAY
290
     0
  9
$LENSLENGTH
 40
50.0
  9
$CAMERAHEIGHT
 40
0.0
  9
$STEPSPERSEC
 40
2.0
  9
$STEPSIZE
 40
6.0
  9
$3DDWFPREC
 40
2.0
  9
$PSOLWIDTH
 40
0.25
  9
$PSOLHEIGHT
 40
4.0
  9
$LOFTANG1
 40
1.570796326794896
  9
$LOFTANG2
 40
1.570796326794896
  9
$LOFTMAG1
 40
0.0
  9
$LOFTMAG2
 40
0.0
  9
$LOFTPARAM
 70
     7
  9
$LOFTNORMALS
280
     1
  9
$LATITUDE
 40
37.795
  9
$LONGITUDE
 40
-122.394
  9
$NORTHDIRECTION
 40
0.0
  9
$TIMEZONE
 70
 -8000
  9
$LIGHTGLYPHDISPLAY
280
     1
  9
$TILEMODELIGHTSYNCH
280
     1
  9
$CMATERIAL
347
11
  9
$SOLIDHIST
280
     0
  9
$SHOWHIST
280
     1
  9
$DWFFRAME
280
     2
  9
$DGNFRAME
280
     0
  9
$REALWORLDSCALE
290
     1
  9
$INTERFERECOLOR
 62
     1
  9
$INTERFEREOBJVS
345
33
  9
$INTERFEREVPVS
346
30
  9
$CSHADOW
280
     0
  9
$SHADOWPLANELOCATION
 40
0.0
  0
ENDSEC
  0
SECTION
  2
CLASSES
  0
CLASS
  1
ACDBDICTIONARYWDFLT
  2
AcDbDictionaryWithDefault
  3
ObjectDBX Classes
 90
        0
 91
        1
280
     0
281
     0
  0
CLASS
  1
MATERIAL
  2
AcDbMaterial
  3
ObjectDBX Classes
 90
     1153
 91
        3
280
     0
281
     0
  0
CLASS
  1
VISUALSTYLE
  2
AcDbVisualStyle
  3
ObjectDBX Classes
 90
     4095
 91
       24
280
     0
281
     0
  0
CLASS
  1
SCALE
  2
AcDbScale
  3
ObjectDBX Classes
 90
     1153
 91
       17
280
     0
281
     0
  0
CLASS
  1
TABLESTYLE
  2
AcDbTableStyle
  3
ObjectDBX Classes
 90
     4095
 91
        1
280
     0
281
     0
  0
CLASS
  1
MLEADERSTYLE
  2
AcDbMLeaderStyle
  3
ACDB_MLEADERSTYLE_CLASS
 90
     4095
 91
        1
280
     0
281
     0
  0
CLASS
  1
DICTIONARYVAR
  2
AcDbDictionaryVar
  3
ObjectDBX Classes
 90
        0
 91
        3
280
     0
281
     0
  0
CLASS
  1
CELLSTYLEMAP
  2
AcDbCellStyleMap
  3
ObjectDBX Classes
 90
     1152
 91
        1
280
     0
281
     0
  0
ENDSEC
  0
SECTION
  2
TABLES
  0
TABLE
  2
VPORT
  5
8
330
0
100
AcDbSymbolTable
 70
     1
  0
VPORT
  5
57
330
8
100
AcDbSymbolTableRecord
100
AcDbViewportTableRecord
  2
*Active
 70
     0
 10
0.0
 20
0.0
 11
1.0
 21
1.0
 12
119.0
 22
77.0
 13
0.0
 23
0.0
 14
1.0
 24
1.0
 15
0.0
 25
0.0
 16
0.0
 26
0.0
 36
1.0
 17
0.0
 27
0.0
 37
0.0
 40
154.0
 41
1.545454545454545
 42
50.0
 43
0.0
 44
0.0
 50
0.0
 51
0.0
 71
     0
 72
   100
 73
     1
 74
     1
 75
     0
 76
     0
 77
     0
 78
     0
281
     0
 65
     1
110
0.0
120
0.0
130
0.0
111
1.0
121
0.0
131
0.0
112
0.0
122
1.0
132
0.0
 79
     0
146
0.0
 60
     3
 61
     5
292
     1
282
     1
141
0.0
142
0.0
 63
   250
421
  3355443
  0
ENDTAB
  0
TABLE
  2
LTYPE
  5
5
330
0
100
AcDbSymbolTable
 70
    59
  0
LTYPE
  5
5B
330
5
100
AcDbSymbolTableRecord
100
AcDbLinetypeTableRecord
  2
ByBlock
 70
     0
  3

 72
    65
 73
     0
 40
0.0
  0
LTYPE
  5
5C
330
5
100
AcDbSymbolTableRecord
100
AcDbLinetypeTableRecord
  2
ByLayer
 70
     0
  3

 72
    65
 73
     0
 40
0.0
  0
LTYPE
  5
5D
330
5
100
AcDbSymbolTableRecord
100
AcDbLinetypeTableRecord
  2
Continuous
 70
     0
  3
Solid line
 72
    65
 73
     0
 40
0.0
  0
LTYPE
  5
7C
330
5
100
AcDbSymbolTableRecord
100
AcDbLinetypeTableRecord
  2
BY_STANDARD
 70
     0
  3
By Standard ____________    ____    ____   _
 72
    65
 73
     6
 40
1.240299999999999
 49
0.6614
 74
     0
 49
-0.0827
 74
     0
 49
0.1654
 74
     0
 49
-0.0827
 74
     0
 49
0.1654
 74
     0
 49
-0.0827
 74
     0
  0
LTYPE
  5
7D
330
5
100
AcDbSymbolTableRecord
100
AcDbLinetypeTableRecord
  2
CHAIN
 70
     0
  3
Chain ____ _ ____ _ ____ _ ____ _ ____ _ ____
 72
    65
 73
     4
 40
0.7087
 49
0.4724000000000001
 74
     0
 49
-0.0591
 74
     0
 49
0.1181
 74
     0
 49
-0.0591
 74
     0
  0
LTYPE
  5
7E
330
5
100
AcDbSymbolTableRecord
100
AcDbLinetypeTableRecord
  2
DASH_DOT
 70
     0
  3
Dash dot __ . __ . __ . __ . __ . __ . __ . __
 72
    65
 73
     4
 40
0.37
 49
0.24
 74
     0
 49
-0.06
 74
     0
 49
0.01
 74
     0
 49
-0.06
 74
     0
  0
LTYPE
  5
7F
330
5
100
AcDbSymbolTableRecord
100
AcDbLinetypeTableRecord
  2
DOUBLE_DASH_DOT
 70
     0
  3
Double-Dash Dot __ __ . __ __ . __ __ . __ _
 72
    65
 73
     6
 40
0.4398
 49
0.24
 74
     0
 49
-0.06
 74
     0
 49
0.0098
 74
     0
 49
-0.06
 74
     0
 49
0.01
 74
     0
 49
-0.06
 74
     0
  0
LTYPE
  5
80
330
5
100
AcDbSymbolTableRecord
100
AcDbLinetypeTableRecord
  2
DASH_TRIPLE_DOT
 70
     0
  3
Dash Triple-Dot _ . . . _ . . . _ . . . _
 72
    65
 73
     8
 40
0.51
 49
0.24
 74
     0
 49
-0.06
 74
     0
 49
0.01
 74
     0
 49
-0.06
 74
     0
 49
0.01
 74
     0
 49
-0.06
 74
     0
 49
0.01
 74
     0
 49
-0.06
 74
     0
  0
LTYPE
  5
81
330
5
100
AcDbSymbolTableRecord
100
AcDbLinetypeTableRecord
  2
DASHED
 70
     0
  3
Dashed __ __ __ __ __ __ __ __ __ __ __ __ __ _
 72
    65
 73
     2
 40
0.2067
 49
0.1654
 74
     0
 49
-0.0413
 74
     0
  0
LTYPE
  5
82
330
5
100
AcDbSymbolTableRecord
100
AcDbLinetypeTableRecord
  2
DASH_DOUBLE_DOT
 70
     0
  3
Dash Double-Dot __ . . __ . . __ . . __ . .
 72
    65
 73
     6
 40
0.4398
 49
0.24
 74
     0
 49
-0.06
 74
     0
 49
0.0098
 74
     0
 49
-0.06
 74
     0
 49
0.01
 74
     0
 49
-0.06
 74
     0
  0
LTYPE
  5
83
330
5
100
AcDbSymbolTableRecord
100
AcDbLinetypeTableRecord
  2
DASHED_SPACE
 70
     0
  3
Dashed Space __ __ __ __ __ __ __ __ __ __ __ _
 72
    65
 73
     2
 40
0.2067
 49
0.1654
 74
     0
 49
-0.0413
 74
     0
  0
LTYPE
  5
84
330
5
100
AcDbSymbolTableRecord
100
AcDbLinetypeTableRecord
  2
DOTTED
 70
     0
  3
Dotted . . . . . . . . . . . . . . . . . . . . 
 72
    65
 73
     2
 40
0.0482
 49
0.0069
 74
     0
 49
-0.0413
 74
     0
  0
LTYPE
  5
85
330
5
100
AcDbSymbolTableRecord
100
AcDbLinetypeTableRecord
  2
DOUBLE_DASH_CHAIN
 70
     0
  3
Double-Dash Chain ______  __  __  ______  __  _
 72
    65
 73
     6
 40
1.240299999999999
 49
0.6614
 74
     0
 49
-0.0827
 74
     0
 49
0.1654
 74
     0
 49
-0.0827
 74
     0
 49
0.1654
 74
     0
 49
-0.0827
 74
     0
  0
LTYPE
  5
87
330
5
100
AcDbSymbolTableRecord
100
AcDbLinetypeTableRecord
  2
DOUBLE_DASH_DOUBLE_DOT
 70
     0
  3
Double-Dash Double-dot _ _ . . _ _ . . _
 72
    65
 73
     8
 40
0.7400000000000001
 49
0.24
 74
     0
 49
-0.06
 74
     0
 49
0.24
 74
     0
 49
-0.06
 74
     0
 49
0.01
 74
     0
 49
-0.06
 74
     0
 49
0.01
 74
     0
 49
-0.06
 74
     0
  0
LTYPE
  5
88
330
5
100
AcDbSymbolTableRecord
100
AcDbLinetypeTableRecord
  2
DOUBLE_DASH_TRIPLE_DOT
 70
     0
  3
Double Dash Triple Dot __ __ . . . __ __ . .
 72
    65
 73
    10
 40
0.8100000000000001
 49
0.24
 74
     0
 49
-0.06
 74
     0
 49
0.24
 74
     0
 49
-0.06
 74
     0
 49
0.01
 74
     0
 49
-0.06
 74
     0
 49
0.01
 74
     0
 49
-0.06
 74
     0
 49
0.01
 74
     0
 49
-0.06
 74
     0
  0
LTYPE
  5
89
330
5
100
AcDbSymbolTableRecord
100
AcDbLinetypeTableRecord
  2
LONG_DASH_DOTTED
 70
     0
  3
Long Dash Dotted ____ . ____ . ____ . ____ . _
 72
    65
 73
     4
 40
0.3543
 49
0.2362
 74
     0
 49
-0.0295
 74
     0
 49
0.0591
 74
     0
 49
-0.0295
 74
     0
  0
LTYPE
  5
8A
330
5
100
AcDbSymbolTableRecord
100
AcDbLinetypeTableRecord
  2
LONG_DASH_DOUBLE_DOT
 70
     0
  3
Long Dash Double Dot ________  .  .  ________  
 72
    65
 73
     6
 40
0.6799999999999999
 49
0.48
 74
     0
 49
-0.06
 74
     0
 49
0.01
 74
     0
 49
-0.06
 74
     0
 49
0.01
 74
     0
 49
-0.06
 74
     0
  0
LTYPE
  5
8B
330
5
100
AcDbSymbolTableRecord
100
AcDbLinetypeTableRecord
  2
LONG_DASH_TRIPLE_DOT
 70
     0
  3
Long Dash Triple Dot ____ ... ____ ... ____
 72
    65
 73
     8
 40
0.3689
 49
0.2362
 74
     0
 49
-0.0295
 74
     0
 49
0.0049
 74
     0
 49
-0.0295
 74
     0
 49
0.0049
 74
     0
 49
-0.0295
 74
     0
 49
0.0049
 74
     0
 49
-0.0295
 74
     0
  0
LTYPE
  5
8C
330
5
100
AcDbSymbolTableRecord
100
AcDbLinetypeTableRecord
  2
BORDER
 70
     0
  3
Border __ __ . __ __ . __ __ . __ __ . __ __ .
 72
    65
 73
     6
 40
1.75
 49
0.5
 74
     0
 49
-0.25
 74
     0
 49
0.5
 74
     0
 49
-0.25
 74
     0
 49
0.0
 74
     0
 49
-0.25
 74
     0
  0
LTYPE
  5
8D
330
5
100
AcDbSymbolTableRecord
100
AcDbLinetypeTableRecord
  2
BORDER2
 70
     0
  3
Border (.5x) __.__.__.__.__.__.__.__.__.__.__.
 72
    65
 73
     6
 40
0.875
 49
0.25
 74
     0
 49
-0.125
 74
     0
 49
0.25
 74
     0
 49
-0.125
 74
     0
 49
0.0
 74
     0
 49
-0.125
 74
     0
  0
LTYPE
  5
8E
330
5
100
AcDbSymbolTableRecord
100
AcDbLinetypeTableRecord
  2
BORDERX2
 70
     0
  3
Border (2x) ____  ____  .  ____  ____  .  ___
 72
    65
 73
     6
 40
3.5
 49
1.0
 74
     0
 49
-0.5
 74
     0
 49
1.0
 74
     0
 49
-0.5
 74
     0
 49
0.0
 74
     0
 49
-0.5
 74
     0
  0
LTYPE
  5
8F
330
5
100
AcDbSymbolTableRecord
100
AcDbLinetypeTableRecord
  2
CENTER
 70
     0
  3
Center ____ _ ____ _ ____ _ ____ _ ____ _ ____
 72
    65
 73
     4
 40
2.0
 49
1.25
 74
     0
 49
-0.25
 74
     0
 49
0.25
 74
     0
 49
-0.25
 74
     0
  0
LTYPE
  5
90
330
5
100
AcDbSymbolTableRecord
100
AcDbLinetypeTableRecord
  2
CENTER2
 70
     0
  3
Center (.5x) ___ _ ___ _ ___ _ ___ _ ___ _ ___
 72
    65
 73
     4
 40
1.125
 49
0.75
 74
     0
 49
-0.125
 74
     0
 49
0.125
 74
     0
 49
-0.125
 74
     0
  0
LTYPE
  5
91
330
5
100
AcDbSymbolTableRecord
100
AcDbLinetypeTableRecord
  2
CENTERX2
 70
     0
  3
Center (2x) ________  __  ________  __  _____
 72
    65
 73
     4
 40
4.0
 49
2.5
 74
     0
 49
-0.5
 74
     0
 49
0.5
 74
     0
 49
-0.5
 74
     0
  0
LTYPE
  5
92
330
5
100
AcDbSymbolTableRecord
100
AcDbLinetypeTableRecord
  2
DASHDOT2
 70
     0
  3
Dash dot (.5x) _._._._._._._._._._._._._._._.
 72
    65
 73
     4
 40
0.5
 49
0.25
 74
     0
 49
-0.125
 74
     0
 49
0.0
 74
     0
 49
-0.125
 74
     0
  0
LTYPE
  5
93
330
5
100
AcDbSymbolTableRecord
100
AcDbLinetypeTableRecord
  2
DASHDOTX2
 70
     0
  3
Dash dot (2x) ____  .  ____  .  ____  .  ___
 72
    65
 73
     4
 40
2.0
 49
1.0
 74
     0
 49
-0.5
 74
     0
 49
0.0
 74
     0
 49
-0.5
 74
     0
  0
LTYPE
  5
95
330
5
100
AcDbSymbolTableRecord
100
AcDbLinetypeTableRecord
  2
DASHED2
 70
     0
  3
Dashed (.5x) _ _ _ _ _ _ _ _ _ _ _ _ _ _ _ _ _
 72
    65
 73
     2
 40
0.375
 49
0.25
 74
     0
 49
-0.125
 74
     0
  0
LTYPE
  5
96
330
5
100
AcDbSymbolTableRecord
100
AcDbLinetypeTableRecord
  2
DASHEDX2
 70
     0
  3
Dashed (2x) ____  ____  ____  ____  ____  ___
 72
    65
 73
     2
 40
1.5
 49
1.0
 74
     0
 49
-0.5
 74
     0
  0
LTYPE
  5
97
330
5
100
AcDbSymbolTableRecord
100
AcDbLinetypeTableRecord
  2
DIVIDE
 70
     0
  3
Divide ____ . . ____ . . ____ . . ____ . . ____
 72
    65
 73
     6
 40
1.25
 49
0.5
 74
     0
 49
-0.25
 74
     0
 49
0.0
 74
     0
 49
-0.25
 74
     0
 49
0.0
 74
     0
 49
-0.25
 74
     0
  0
LTYPE
  5
98
330
5
100
AcDbSymbolTableRecord
100
AcDbLinetypeTableRecord
  2
DIVIDE2
 70
     0
  3
Divide (.5x) __..__..__..__..__..__..__..__.._
 72
    65
 73
     6
 40
0.625
 49
0.25
 74
     0
 49
-0.125
 74
     0
 49
0.0
 74
     0
 49
-0.125
 74
     0
 49
0.0
 74
     0
 49
-0.125
 74
     0
  0
LTYPE
  5
99
330
5
100
AcDbSymbolTableRecord
100
AcDbLinetypeTableRecord
  2
DIVIDEX2
 70
     0
  3
Divide (2x) ________  .  .  ________  .  .  _
 72
    65
 73
     6
 40
2.5
 49
1.0
 74
     0
 49
-0.5
 74
     0
 49
0.0
 74
     0
 49
-0.5
 74
     0
 49
0.0
 74
     0
 49
-0.5
 74
     0
  0
LTYPE
  5
9A
330
5
100
AcDbSymbolTableRecord
100
AcDbLinetypeTableRecord
  2
DOT
 70
     0
  3
Dot . . . . . . . . . . . . . . . . . . . . . .
 72
    65
 73
     2
 40
0.25
 49
0.0
 74
     0
 49
-0.25
 74
     0
  0
LTYPE
  5
9B
330
5
100
AcDbSymbolTableRecord
100
AcDbLinetypeTableRecord
  2
DOT2
 70
     0
  3
Dot (.5x) .....................................
 72
    65
 73
     2
 40
0.125
 49
0.0
 74
     0
 49
-0.125
 74
     0
  0
LTYPE
  5
9C
330
5
100
AcDbSymbolTableRecord
100
AcDbLinetypeTableRecord
  2
DOTX2
 70
     0
  3
Dot (2x) .  .  .  .  .  .  .  .  .  .  .  .  . 
 72
    65
 73
     2
 40
0.5
 49
0.0
 74
     0
 49
-0.5
 74
     0
  0
LTYPE
  5
9D
330
5
100
AcDbSymbolTableRecord
100
AcDbLinetypeTableRecord
  2
HIDDEN
 70
     0
  3
Hidden __ __ __ __ __ __ __ __ __ __ __ __ __ _
 72
    65
 73
     2
 40
0.375
 49
0.25
 74
     0
 49
-0.125
 74
     0
  0
LTYPE
  5
9E
330
5
100
AcDbSymbolTableRecord
100
AcDbLinetypeTableRecord
  2
HIDDEN2
 70
     0
  3
Hidden (.5x) _ _ _ _ _ _ _ _ _ _ _ _ _ _ _ _ _
 72
    65
 73
     2
 40
0.1875
 49
0.125
 74
     0
 49
-0.0625
 74
     0
  0
LTYPE
  5
9F
330
5
100
AcDbSymbolTableRecord
100
AcDbLinetypeTableRecord
  2
HIDDENX2
 70
     0
  3
Hidden (2x) ____ ____ ____ ____ ____ ____ ____
 72
    65
 73
     2
 40
0.75
 49
0.5
 74
     0
 49
-0.25
 74
     0
  0
LTYPE
  5
A0
330
5
100
AcDbSymbolTableRecord
100
AcDbLinetypeTableRecord
  2
PHANTOM
 70
     0
  3
Phantom ______  __  __  ______  __  __  ______
 72
    65
 73
     6
 40
2.5
 49
1.25
 74
     0
 49
-0.25
 74
     0
 49
0.25
 74
     0
 49
-0.25
 74
     0
 49
0.25
 74
     0
 49
-0.25
 74
     0
  0
LTYPE
  5
A1
330
5
100
AcDbSymbolTableRecord
100
AcDbLinetypeTableRecord
  2
PHANTOM2
 70
     0
  3
Phantom (.5x) ___ _ _ ___ _ _ ___ _ _ ___ _ _
 72
    65
 73
     6
 40
1.25
 49
0.625
 74
     0
 49
-0.125
 74
     0
 49
0.125
 74
     0
 49
-0.125
 74
     0
 49
0.125
 74
     0
 49
-0.125
 74
     0
  0
LTYPE
  5
A2
330
5
100
AcDbSymbolTableRecord
100
AcDbLinetypeTableRecord
  2
PHANTOMX2
 70
     0
  3
Phantom (2x) ____________    ____    ____   _
 72
    65
 73
     6
 40
5.0
 49
2.5
 74
     0
 49
-0.5
 74
     0
 49
0.5
 74
     0
 49
-0.5
 74
     0
 49
0.5
 74
     0
 49
-0.5
 74
     0
  0
LTYPE
  5
A3
330
5
100
AcDbSymbolTableRecord
100
AcDbLinetypeTableRecord
  2
ACAD_ISO02W100
 70
     0
  3
ISO dash __ __ __ __ __ __ __ __ __ __ __ __ __
 72
    65
 73
     2
 40
0.59
 49
0.47
 74
     0
 49
-0.12
 74
     0
  0
LTYPE
  5
A4
330
5
100
AcDbSymbolTableRecord
100
AcDbLinetypeTableRecord
  2
ACAD_ISO03W100
 70
     0
  3
ISO dash space __    __    __    __    __    __
 72
    65
 73
     2
 40
1.179999999999999
 49
0.47
 74
     0
 49
-0.71
 74
     0
  0
LTYPE
  5
A5
330
5
100
AcDbSymbolTableRecord
100
AcDbLinetypeTableRecord
  2
ACAD_ISO04W100
 70
     0
  3
ISO long-dash dot ____ . ____ . ____ . ____ . _
 72
    65
 73
     4
 40
1.179999999999999
 49
0.9399999999999998
 74
     0
 49
-0.12
 74
     0
 49
0.0
 74
     0
 49
-0.12
 74
     0
  0
LTYPE
  5
A6
330
5
100
AcDbSymbolTableRecord
100
AcDbLinetypeTableRecord
  2
ACAD_ISO05W100
 70
     0
  3
ISO long-dash double-dot ____ .. ____ .. ____ .
 72
    65
 73
     6
 40
1.299999999999999
 49
0.9399999999999998
 74
     0
 49
-0.12
 74
     0
 49
0.0
 74
     0
 49
-0.12
 74
     0
 49
0.0
 74
     0
 49
-0.12
 74
     0
  0
LTYPE
  5
A7
330
5
100
AcDbSymbolTableRecord
100
AcDbLinetypeTableRecord
  2
ACAD_ISO06W100
 70
     0
  3
ISO long-dash triple-dot ____ ... ____ ... ____
 72
    65
 73
     8
 40
1.419999999999999
 49
0.9399999999999998
 74
     0
 49
-0.12
 74
     0
 49
0.0
 74
     0
 49
-0.12
 74
     0
 49
0.0
 74
     0
 49
-0.12
 74
     0
 49
0.0
 74
     0
 49
-0.12
 74
     0
  0
LTYPE
  5
A8
330
5
100
AcDbSymbolTableRecord
100
AcDbLinetypeTableRecord
  2
ACAD_ISO07W100
 70
     0
  3
ISO dot . . . . . . . . . . . . . . . . . . . .
 72
    65
 73
     2
 40
0.12
 49
0.0
 74
     0
 49
-0.12
 74
     0
  0
LTYPE
  5
A9
330
5
100
AcDbSymbolTableRecord
100
AcDbLinetypeTableRecord
  2
ACAD_ISO08W100
 70
     0
  3
ISO long-dash short-dash ____ __ ____ __ ____ _
 72
    65
 73
     4
 40
0.95
 49
0.47
 74
     0
 49
-0.12
 74
     0
 49
0.24
 74
     0
 49
-0.12
 74
     0
  0
LTYPE
  5
AA
330
5
100
AcDbSymbolTableRecord
100
AcDbLinetypeTableRecord
  2
ACAD_ISO09W100
 70
     0
  3
ISO long-dash double-short-dash ____ __ __ ____
 72
    65
 73
     6
 40
1.31
 49
0.47
 74
     0
 49
-0.12
 74
     0
 49
0.24
 74
     0
 49
-0.12
 74
     0
 49
0.24
 74
     0
 49
-0.12
 74
     0
  0
LTYPE
  5
AB
330
5
100
AcDbSymbolTableRecord
100
AcDbLinetypeTableRecord
  2
ACAD_ISO10W100
 70
     0
  3
ISO dash dot __ . __ . __ . __ . __ . __ . __ .
 72
    65
 73
     4
 40
0.71
 49
0.47
 74
     0
 49
-0.12
 74
     0
 49
0.0
 74
     0
 49
-0.12
 74
     0
  0
LTYPE
  5
AC
330
5
100
AcDbSymbolTableRecord
100
AcDbLinetypeTableRecord
  2
ACAD_ISO11W100
 70
     0
  3
ISO double-dash dot __ __ . __ __ . __ __ . __ 
 72
    65
 73
     6
 40
1.299999999999999
 49
0.47
 74
     0
 49
-0.12
 74
     0
 49
0.47
 74
     0
 49
-0.12
 74
     0
 49
0.0
 74
     0
 49
-0.12
 74
     0
  0
LTYPE
  5
AD
330
5
100
AcDbSymbolTableRecord
100
AcDbLinetypeTableRecord
  2
ACAD_ISO12W100
 70
     0
  3
ISO dash double-dot __ . . __ . . __ . . __ . .
 72
    65
 73
     6
 40
0.8299999999999998
 49
0.47
 74
     0
 49
-0.12
 74
     0
 49
0.0
 74
     0
 49
-0.12
 74
     0
 49
0.0
 74
     0
 49
-0.12
 74
     0
  0
LTYPE
  5
AE
330
5
100
AcDbSymbolTableRecord
100
AcDbLinetypeTableRecord
  2
ACAD_ISO13W100
 70
     0
  3
ISO double-dash double-dot __ __ . . __ __ . . 
 72
    65
 73
     8
 40
1.419999999999999
 49
0.47
 74
     0
 49
-0.12
 74
     0
 49
0.47
 74
     0
 49
-0.12
 74
     0
 49
0.0
 74
     0
 49
-0.12
 74
     0
 49
0.0
 74
     0
 49
-0.12
 74
     0
  0
LTYPE
  5
AF
330
5
100
AcDbSymbolTableRecord
100
AcDbLinetypeTableRecord
  2
ACAD_ISO14W100
 70
     0
  3
ISO dash triple-dot __ . . . __ . . . __ . . . 
 72
    65
 73
     8
 40
0.95
 49
0.47
 74
     0
 49
-0.12
 74
     0
 49
0.0
 74
     0
 49
-0.12
 74
     0
 49
0.0
 74
     0
 49
-0.12
 74
     0
 49
0.0
 74
     0
 49
-0.12
 74
     0
  0
LTYPE
  5
B0
330
5
100
AcDbSymbolTableRecord
100
AcDbLinetypeTableRecord
  2
ACAD_ISO15W100
 70
     0
  3
ISO double-dash triple-dot __ __ . . . __ __ . 
 72
    65
 73
    10
 40
1.539999999999999
 49
0.47
 74
     0
 49
-0.12
 74
     0
 49
0.47
 74
     0
 49
-0.12
 74
     0
 49
0.0
 74
     0
 49
-0.12
 74
     0
 49
0.0
 74
     0
 49
-0.12
 74
     0
 49
0.0
 74
     0
 49
-0.12
 74
     0
  0
LTYPE
  5
B3
330
5
100
AcDbSymbolTableRecord
100
AcDbLinetypeTableRecord
  2
FENCELINE1
 70
     0
  3
Fenceline circle ----0-----0----0-----0----0---
 72
    65
 73
     4
 40
1.45
 49
0.25
 74
     0
 49
-0.1
 74
     4
 75
   133
340
B2
 46
0.1
 50
0.0
 44
-0.1
 45
0.0
 49
-0.1
 74
     0
 49
1.0
 74
     0
  0
LTYPE
  5
B4
330
5
100
AcDbSymbolTableRecord
100
AcDbLinetypeTableRecord
  2
FENCELINE2
 70
     0
  3
Fenceline square ----[]-----[]----[]-----[]----
 72
    65
 73
     4
 40
1.45
 49
0.25
 74
     0
 49
-0.1
 74
     4
 75
   132
340
B2
 46
0.1
 50
0.0
 44
-0.1
 45
0.0
 49
-0.1
 74
     0
 49
1.0
 74
     0
  0
LTYPE
  5
B5
330
5
100
AcDbSymbolTableRecord
100
AcDbLinetypeTableRecord
  2
TRACKS
 70
     0
  3
Tracks -|-|-|-|-|-|-|-|-|-|-|-|-|-|-|-|-|-|-|-|
 72
    65
 73
     2
 40
0.3
 49
0.15
 74
     4
 75
   130
340
B2
 46
0.25
 50
0.0
 44
0.0
 45
0.0
 49
0.15
 74
     0
  0
LTYPE
  5
B6
330
5
100
AcDbSymbolTableRecord
100
AcDbLinetypeTableRecord
  2
BATTING
 70
     0
  3
Batting SSSSSSSSSSSSSSSSSSSSSSSSSSSSSSSSSSSSSSS
 72
    65
 73
     4
 40
0.4001000000000001
 49
0.0001
 74
     0
 49
-0.1
 74
     4
 75
   134
340
B2
 46
0.1
 50
0.0
 44
-0.1
 45
0.0
 49
-0.2
 74
     4
 75
   134
340
B2
 46
0.1
 50
180.0
 44
0.1
 45
0.0
 49
-0.1
 74
     0
  0
LTYPE
  5
B7
330
5
100
AcDbSymbolTableRecord
100
AcDbLinetypeTableRecord
  2
HOT_WATER_SUPPLY
 70
     0
  3
Hot water supply ---- HW ---- HW ---- HW ----
 72
    65
 73
     3
 40
0.9
 49
0.5
 74
     0
 49
-0.2
 74
     2
 75
     0
340
55
 46
0.1
 50
0.0
 44
-0.1
 45
-0.05
  9
HW
 49
-0.2
 74
     0
  0
LTYPE
  5
B8
330
5
100
AcDbSymbolTableRecord
100
AcDbLinetypeTableRecord
  2
GAS_LINE
 70
     0
  3
Gas line ----GAS----GAS----GAS----GAS----GAS---
 72
    65
 73
     3
 40
0.95
 49
0.5
 74
     0
 49
-0.2
 74
     2
 75
     0
340
55
 46
0.1
 50
0.0
 44
-0.1
 45
-0.05
  9
GAS
 49
-0.25
 74
     0
  0
LTYPE
  5
B9
330
5
100
AcDbSymbolTableRecord
100
AcDbLinetypeTableRecord
  2
ZIGZAG
 70
     0
  3
Zig zag /\/\/\/\/\/\/\/\/\/\/\/\/\/\/\/\/\/\/\/
 72
    65
 73
     4
 40
0.8001000000000001
 49
0.0001
 74
     0
 49
-0.2
 74
     4
 75
   131
340
B2
 46
0.2
 50
0.0
 44
-0.2
 45
0.0
 49
-0.4
 74
     4
 75
   131
340
B2
 46
0.2
 50
180.0
 44
0.2
 45
0.0
 49
-0.2
 74
     0
  0
ENDTAB
  0
TABLE
  2
LAYER
  5
2
330
0
100
AcDbSymbolTable
 70
    27
  0
LAYER
  5
54
330
2
100
AcDbSymbolTableRecord
100
AcDbLayerTableRecord
  2
0
 70
     0
 62
     7
  6
Continuous
370
    18
390
F
347
21
  0
LAYER
  5
C0
330
2
100
AcDbSymbolTableRecord
100
AcDbLayerTableRecord
  2
Center Mark (ANSI)
 70
     0
 62
     7
  6
Continuous
370
    15
390
F
347
21
  0
LAYER
  5
C1
330
2
100
AcDbSymbolTableRecord
100
AcDbLayerTableRecord
  2
Centerline (ANSI)
 70
     0
 62
     7
  6
Continuous
370
    15
390
F
347
21
  0
LAYER
  5
C3
330
2
100
AcDbSymbolTableRecord
100
AcDbLayerTableRecord
  2
Dimension (ANSI)
 70
     0
 62
     7
  6
Continuous
370
    13
390
F
347
21
  0
LAYER
  5
C5
330
2
100
AcDbSymbolTableRecord
100
AcDbLayerTableRecord
  2
Hidden (ANSI)
 70
     0
 62
     7
  6
DASHED
370
    15
390
F
347
21
  0
LAYER
  5
CC
330
2
100
AcDbSymbolTableRecord
100
AcDbLayerTableRecord
  2
Symbol (ANSI)
 70
     0
 62
     7
  6
Continuous
370
    18
390
F
347
21
  0
LAYER
  5
CF
330
2
100
AcDbSymbolTableRecord
100
AcDbLayerTableRecord
  2
Visible (ANSI)
 70
     0
 62
     7
  6
Continuous
370
    13
390
F
347
21
  0
LAYER
  5
D0
330
2
100
AcDbSymbolTableRecord
100
AcDbLayerTableRecord
  2
Visible Narrow (ANSI)
 70
     0
 62
     7
  6
Continuous
370
    18
390
F
347
21
  0
LAYER
  5
551
330
2
100
AcDbSymbolTableRecord
100
AcDbLayerTableRecord
  2
Defpoints
 70
     0
 62
     7
  6
Continuous
290
     0
370
    -3
390
F
347
21
  0
ENDTAB
  0
TABLE
  2
STYLE
  5
3
330
0
100
AcDbSymbolTable
 70
    18
  0
STYLE
  5
55
330
3
100
AcDbSymbolTableRecord
100
AcDbTextStyleTableRecord
  2
Standard
 70
     0
 40
0.0
 41
1.0
 50
0.0
 71
     0
 42
0.2
  3
txt
  4

  0
STYLE
  5
5A
330
3
100
AcDbSymbolTableRecord
100
AcDbTextStyleTableRecord
  2
Annotative
 70
     0
 40
0.0
 41
1.0
 50
0.0
 71
     0
 42
0.2
  3
txt
  4

1001
AcadAnnotative
1000
AnnotativeData
1002
{
1070
     1
1070
     1
1002
}
  0
STYLE
  5
B2
330
3
100
AcDbSymbolTableRecord
100
AcDbTextStyleTableRecord
  2

 70
     1
 40
0.0
 41
1.0
 50
0.0
 71
     0
 42
0.2
  3
ltypeshp.shx
  4

  0
STYLE
  5
D4
330
3
100
AcDbSymbolTableRecord
100
AcDbTextStyleTableRecord
  2
ITALICC_120
 70
     0
 40
0.0
 41
1.0
 50
0.0
 71
     0
 42
0.2
  3
italicc.shx
  4

  0
STYLE
  5
D5
330
3
100
AcDbSymbolTableRecord
100
AcDbTextStyleTableRecord
  2
Label Text (ANSI)
 70
     0
 40
0.0
 41
1.0
 50
0.0
 71
     0
 42
0.2
  3
tahoma.ttf
  4

1001
ACAD
1000
Tahoma
1071
      256
  0
STYLE
  5
D6
330
3
100
AcDbSymbolTableRecord
100
AcDbTextStyleTableRecord
  2
Note Text (ANSI)
 70
     0
 40
0.0
 41
1.0
 50
0.0
 71
     0
 42
0.2
  3
tahoma.ttf
  4

1001
ACAD
1000
Tahoma
1071
      256
  0
STYLE
  5
D7
330
3
100
AcDbSymbolTableRecord
100
AcDbTextStyleTableRecord
  2
ROMANS
 70
     0
 40
0.0
 41
1.0
 50
0.0
 71
     0
 42
0.2
  3
romans.shx
  4

  0
STYLE
  5
D8
330
3
100
AcDbSymbolTableRecord
100
AcDbTextStyleTableRecord
  2
SANSSERIF_114
 70
     0
 40
0.0
 41
1.0
 50
0.0
 71
     0
 42
0.2
  3
tahoma.ttf
  4

1001
ACAD
1000
Tahoma
1071
      256
  0
STYLE
  5
D9
330
3
100
AcDbSymbolTableRecord
100
AcDbTextStyleTableRecord
  2
SANSSERIF_117
 70
     0
 40
0.0
 41
1.0
 50
0.0
 71
     0
 42
0.2
  3
tahoma.ttf
  4

1001
ACAD
1000
Tahoma
1071
      256
  0
STYLE
  5
DA
330
3
100
AcDbSymbolTableRecord
100
AcDbTextStyleTableRecord
  2
STANDARDAM_ANSI
 70
     0
 40
0.0
 41
1.0
 50
0.0
 71
     0
 42
0.2
  3
txt.shx
  4

  0
STYLE
  5
DB
330
3
100
AcDbSymbolTableRecord
100
AcDbTextStyleTableRecord
  2
StandardAM_ANSI$0
 70
     0
 40
0.0
 41
1.0
 50
0.0
 71
     0
 42
0.2
  3
txt.shx
  4

  0
STYLE
  5
DC
330
3
100
AcDbSymbolTableRecord
100
AcDbTextStyleTableRecord
  2
STANDARDAM_ANSI$3
 70
     0
 40
0.0
 41
1.0
 50
0.0
 71
     0
 42
0.2
  3
txt.shx
  4

  0
STYLE
  5
DD
330
3
100
AcDbSymbolTableRecord
100
AcDbTextStyleTableRecord
  2
STANDARDAM_ANSI$4
 70
     0
 40
0.0
 41
1.0
 50
0.0
 71
     0
 42
0.2
  3
txt.shx
  4

  0
STYLE
  5
DE
330
3
100
AcDbSymbolTableRecord
100
AcDbTextStyleTableRecord
  2
STANDARDAM_ANSI$7
 70
     0
 40
0.0
 41
1.0
 50
0.0
 71
     0
 42
0.2
  3
txt.shx
  4

  0
STYLE
  5
DF
330
3
100
AcDbSymbolTableRecord
100
AcDbTextStyleTableRecord
  2
STANDARDAM_ANSI$SF
 70
     0
 40
0.0
 41
1.0
 50
0.0
 71
     0
 42
0.2
  3
txt.shx
  4

  0
STYLE
  5
E0
330
3
100
AcDbSymbolTableRecord
100
AcDbTextStyleTableRecord
  2
STANDARDAM_ANSI$SH
 70
     0
 40
0.0
 41
1.0
 50
0.0
 71
     0
 42
0.2
  3
txt.shx
  4

  0
STYLE
  5
E1
330
3
100
AcDbSymbolTableRecord
100
AcDbTextStyleTableRecord
  2
STANDARDSTANDARD
 70
     0
 40
0.0
 41
1.0
 50
0.0
 71
     0
 42
0.2
  3
txt.shx
  4

  0
STYLE
  5
2E1
330
3
100
AcDbSymbolTableRecord
100
AcDbTextStyleTableRecord
  2
Text Style153
 70
     0
 40
0.0
 41
1.0
 50
0.0
 71
     0
 42
0.2
  3
tahoma.ttf
  4

1001
ACAD
1000
Tahoma
1071
      256
  0
ENDTAB
  0
TABLE
  2
VIEW
  5
6
330
0
100
AcDbSymbolTable
 70
     0
  0
ENDTAB
  0
TABLE
  2
UCS
  5
7
330
0
100
AcDbSymbolTable
 70
     0
  0
ENDTAB
  0
TABLE
  2
APPID
  5
9
330
0
100
AcDbSymbolTable
 70
     3
  0
APPID
  5
56
330
9
100
AcDbSymbolTableRecord
100
AcDbRegAppTableRecord
  2
ACAD
 70
     0
  0
APPID
  5
5E
330
9
100
AcDbSymbolTableRecord
100
AcDbRegAppTableRecord
  2
AcadAnnotative
 70
     0
  0
APPID
  5
C66
330
9
100
AcDbSymbolTableRecord
100
AcDbRegAppTableRecord
  2
ACAD_DSTYLE_DIMRADIAL_EXTENSION
 70
     0
  0
ENDTAB
  0
TABLE
  2
DIMSTYLE
  5
A
330
0
100
AcDbSymbolTable
 70
    27
100
AcDbDimStyleTable
 71
     2
340
F6
340
58
  0
DIMSTYLE
105
58
330
A
100
AcDbSymbolTableRecord
100
AcDbDimStyleTableRecord
  2
STANDARD
 70
     0
 41
0.1800000071525573
 42
0.0625
140
0.1800000071525574
144
1.0
147
0.0900000035762787
176
   256
177
   256
178
   256
274
     3
340
55
371
    -1
372
    -1
  0
DIMSTYLE
105
59
330
A
100
AcDbSymbolTableRecord
100
AcDbDimStyleTableRecord
  2
Annotative
 70
     0
340
55
1001
AcadAnnotative
1000
AnnotativeData
1002
{
1070
     1
1070
     1
1002
}
  0
DIMSTYLE
105
E2
330
A
100
AcDbSymbolTableRecord
100
AcDbDimStyleTableRecord
  2
AM_ANSI
 70
     0
  4
 mm
 40
14.0
 41
0.119999997317791
 42
0.05
 43
0.5
 44
0.1
 45
0.00000001
 78
     4
 79
     2
140
0.1200000047683716
146
0.7099999189376831
147
0.0599999986588955
176
   256
177
   256
178
     2
284
     4
340
DA
371
    -1
372
    -1
  0
DIMSTYLE
105
E3
330
A
100
AcDbSymbolTableRecord
100
AcDbDimStyleTableRecord
  2
AM_ANSI$7
 70
     0
  4
 mm
 40
14.0
 41
0.119999997317791
 42
0.05
 43
0.5
 44
0.1
 45
0.00000001
 78
     4
 79
     2
140
0.1200000047683716
146
0.7099999189376831
147
0.0599999986588955
176
   256
177
   256
178
     2
284
     4
340
DA
371
    -1
372
    -1
  0
DIMSTYLE
105
E4
330
A
100
AcDbSymbolTableRecord
100
AcDbDimStyleTableRecord
  2
AM_ANSI$0
 70
     0
  4
 mm
 40
14.0
 41
0.119999997317791
 42
0.05
 43
0.5
 44
0.1
 45
0.00000001
 78
     4
 79
     2
140
0.1200000047683716
146
0.7099999189376831
147
0.0599999986588955
176
   256
177
   256
178
     2
284
     4
340
DB
371
    -1
372
    -1
  0
DIMSTYLE
105
E5
330
A
100
AcDbSymbolTableRecord
100
AcDbDimStyleTableRecord
  2
AM_ANSI$0$7
 70
     0
  4
 mm
 40
14.0
 41
0.119999997317791
 42
0.05
 43
0.5
 44
0.1
 45
0.00000001
 78
     4
 79
     2
140
0.1200000047683716
146
0.7099999189376831
147
0.0599999986588955
176
   256
177
   256
178
     2
284
     4
340
DB
371
    -1
372
    -1
  0
DIMSTYLE
105
E6
330
A
100
AcDbSymbolTableRecord
100
AcDbDimStyleTableRecord
  2
AM_ANSI$3
 70
     0
  4
 mm
 40
14.0
 41
0.119999997317791
 42
0.05
 43
0.5
 44
0.1
 45
0.00000001
 78
     4
 79
     2
140
0.1200000047683716
146
0.7099999189376831
147
0.0599999986588955
176
   256
177
   256
178
     2
284
     4
340
DC
371
    -1
372
    -1
  0
DIMSTYLE
105
E7
330
A
100
AcDbSymbolTableRecord
100
AcDbDimStyleTableRecord
  2
AM_ANSI$3$7
 70
     0
  4
 mm
 40
14.0
 41
0.119999997317791
 42
0.05
 43
0.5
 44
0.1
 45
0.00000001
 78
     4
 79
     2
140
0.1200000047683716
146
0.7099999189376831
147
0.0599999986588955
176
   256
177
   256
178
     2
284
     4
340
DC
371
    -1
372
    -1
  0
DIMSTYLE
105
E8
330
A
100
AcDbSymbolTableRecord
100
AcDbDimStyleTableRecord
  2
AM_ANSI$4
 70
     0
  4
 mm
 40
14.0
 41
0.119999997317791
 42
0.05
 43
0.5
 44
0.1
 45
0.00000001
 78
     4
 79
     2
140
0.1200000047683716
146
0.7099999189376831
147
0.0599999986588955
176
   256
177
   256
178
     2
284
     4
340
DD
371
    -1
372
    -1
  0
DIMSTYLE
105
E9
330
A
100
AcDbSymbolTableRecord
100
AcDbDimStyleTableRecord
  2
AM_ANSI$4$7
 70
     0
  4
 mm
 40
14.0
 41
0.119999997317791
 42
0.05
 43
0.5
 44
0.1
 45
0.00000001
 78
     4
 79
     2
140
0.1200000047683716
146
0.7099999189376831
147
0.0599999986588955
176
   256
177
   256
178
     2
284
     4
340
DD
371
    -1
372
    -1
  0
DIMSTYLE
105
EA
330
A
100
AcDbSymbolTableRecord
100
AcDbDimStyleTableRecord
  2
AM_ANSI$SF
 70
     0
  4
 mm
 40
14.0
 41
0.119999997317791
 42
0.05
 43
0.5
 44
0.1
 45
0.00000001
 75
     1
 76
     1
 78
     4
 79
     2
140
0.1200000047683716
146
0.7099999189376831
147
0.0599999986588955
176
   256
177
   256
178
     2
284
     4
340
DF
371
    -1
372
    -1
  0
DIMSTYLE
105
EB
330
A
100
AcDbSymbolTableRecord
100
AcDbDimStyleTableRecord
  2
AM_ANSI$SF$7
 70
     0
  4
 mm
 40
14.0
 41
0.119999997317791
 42
0.05
 43
0.5
 44
0.1
 45
0.00000001
 75
     1
 76
     1
 78
     4
 79
     2
140
0.1200000047683716
146
0.7099999189376831
147
0.0599999986588955
176
   256
177
   256
178
     2
284
     4
340
DF
371
    -1
372
    -1
  0
DIMSTYLE
105
EC
330
A
100
AcDbSymbolTableRecord
100
AcDbDimStyleTableRecord
  2
AM_ANSI$SH
 70
     0
  4
 mm
 40
14.0
 41
0.119999997317791
 42
0.05
 43
0.5
 44
0.1
 45
0.00000001
 75
     1
 76
     1
 78
     4
 79
     2
140
0.1200000047683716
146
0.7099999189376831
147
0.0599999986588955
176
   256
177
   256
178
     2
284
     4
340
E0
371
    -1
372
    -1
  0
DIMSTYLE
105
ED
330
A
100
AcDbSymbolTableRecord
100
AcDbDimStyleTableRecord
  2
AM_ANSI$SH$7
 70
     0
  4
 mm
 40
14.0
 41
0.119999997317791
 42
0.05
 43
0.5
 44
0.1
 45
0.00000001
 75
     1
 76
     1
 78
     4
 79
     2
140
0.1200000047683716
146
0.7099999189376831
147
0.0599999986588955
176
   256
177
   256
178
     2
284
     4
340
E0
371
    -1
372
    -1
  0
DIMSTYLE
105
EE
330
A
100
AcDbSymbolTableRecord
100
AcDbDimStyleTableRecord
  2
Architectural (ANSI)
 70
     0
 40
14.0
 41
0.0984251946210861
 43
0.2362204724409449
 44
0.125
 45
0.00000001
 46
0.3937007874015748
 78
     3
 79
     3
140
0.1200000047683716
147
0.031496062992126
171
     1
176
   256
177
   256
178
   256
272
     2
274
     1
276
     2
277
     4
284
    12
285
     4
286
    12
340
D6
371
    -1
372
    -1
  0
DIMSTYLE
105
EF
330
A
100
AcDbSymbolTableRecord
100
AcDbDimStyleTableRecord
  2
Architectural (ANSI)$7
 70
     0
 40
14.0
 41
0.0984251946210861
 43
0.2362204724409449
 44
0.125
 45
0.00000001
 46
0.3937007874015748
 78
     3
 79
     3
140
0.1200000047683716
147
0.031496062992126
171
     1
176
   256
177
   256
178
   256
272
     2
274
     1
276
     2
277
     4
284
    12
285
     4
286
    12
340
D6
371
    -1
372
    -1
  0
DIMSTYLE
105
F0
330
A
100
AcDbSymbolTableRecord
100
AcDbDimStyleTableRecord
  2
Default - Fraction (ANSI)
 70
     0
 40
14.0
 41
0.0984251946210861
 43
0.2362204724409449
 44
0.125
 45
0.00000001
 46
0.3937007874015748
 79
     3
140
0.1200000047683716
147
0.031496062992126
171
     1
176
   256
177
   256
178
   256
272
     2
274
     1
276
     2
277
     5
284
    12
285
     4
286
    12
340
D6
371
    -1
372
    -1
  0
DIMSTYLE
105
F1
330
A
100
AcDbSymbolTableRecord
100
AcDbDimStyleTableRecord
  2
Default - Fraction (ANSI)$7
 70
     0
 40
14.0
 41
0.0984251946210861
 43
0.2362204724409449
 44
0.125
 45
0.00000001
 46
0.3937007874015748
 79
     3
140
0.1200000047683716
147
0.031496062992126
171
     1
176
   256
177
   256
178
   256
272
     2
274
     1
276
     2
277
     5
284
    12
285
     4
286
    12
340
D6
371
    -1
372
    -1
  0
DIMSTYLE
105
F2
330
A
100
AcDbSymbolTableRecord
100
AcDbDimStyleTableRecord
  2
Default - mm (ANSI)
 70
     0
 40
14.0
 41
0.0984251946210861
 42
0.063
 43
0.2362204724409449
 44
0.125
 45
0.00000001
 46
0.3937007874015748
 73
     0
 78
     4
 79
     1
140
0.1200000047683716
143
1.0
144
25.4
147
0.031496062992126
171
     1
176
   256
177
   256
178
   256
179
     1
271
     2
272
     2
274
     1
284
     4
285
     4
340
D6
371
    -1
372
    -1
  0
DIMSTYLE
105
F3
330
A
100
AcDbSymbolTableRecord
100
AcDbDimStyleTableRecord
  2
Default - mm (ANSI)$7
 70
     0
 40
14.0
 41
0.0984251946210861
 42
0.063
 43
0.2362204724409449
 44
0.125
 45
0.00000001
 46
0.3937007874015748
 73
     0
 78
     4
 79
     1
140
0.1200000047683716
143
1.0
144
25.4
147
0.031496062992126
171
     1
176
   256
177
   256
178
   256
179
     1
271
     2
272
     2
274
     1
284
     4
285
     4
340
D6
371
    -1
372
    -1
  0
DIMSTYLE
105
F4
330
A
100
AcDbSymbolTableRecord
100
AcDbDimStyleTableRecord
  2
Default - mm [in] (ANSI)
 70
     0
  4
 in
 40
14.0
 41
0.0984251946210861
 42
0.063
 43
0.25
 44
0.125
 45
0.00000001
 46
0.3937007874015748
 73
     0
 78
     4
 79
     1
140
0.1200000047683716
143
0.03937
144
25.4
147
0.031496062992126
170
     1
171
     3
176
   256
177
   256
178
   256
179
     1
271
     2
272
     2
274
     3
284
     4
285
     4
286
     4
340
D6
371
    -1
372
    -1
  0
DIMSTYLE
105
F5
330
A
100
AcDbSymbolTableRecord
100
AcDbDimStyleTableRecord
  2
Default - mm [in] (ANSI)$7
 70
     0
  4
 in
 40
14.0
 41
0.0984251946210861
 42
0.063
 43
0.25
 44
0.125
 45
0.00000001
 46
0.3937007874015748
 73
     0
 78
     4
 79
     1
140
0.1200000047683716
143
0.03937
144
25.4
147
0.031496062992126
170
     1
171
     3
176
   256
177
   256
178
   256
179
     1
271
     2
272
     2
274
     3
284
     4
285
     4
286
     4
340
D6
371
    -1
372
    -1
  0
DIMSTYLE
105
F6
102
{ACAD_REACTORS
330
54F
330
63B
330
725
330
80F
330
90F
330
9F9
330
AE3
330
BCD
330
C87
330
D90
102
}
330
A
100
AcDbSymbolTableRecord
100
AcDbDimStyleTableRecord
  2
Default (ANSI)
 70
     0
 40
14.0
 41
0.0984251946210861
 43
0.2362204724409449
 44
0.125
 45
0.00000001
 46
0.3937007874015748
 79
     1
140
0.1200000047683716
147
0.031496062992126
171
     1
176
   256
177
   256
178
   256
271
     2
272
     2
274
     1
284
     4
285
     4
340
D6
371
    -1
372
    -1
  0
DIMSTYLE
105
F7
330
A
100
AcDbSymbolTableRecord
100
AcDbDimStyleTableRecord
  2
Default (ANSI)$7
 70
     0
 40
14.0
 41
0.0984251946210861
 43
0.2362204724409449
 44
0.125
 45
0.00000001
 46
0.3937007874015748
 79
     1
140
0.1200000047683716
147
0.031496062992126
171
     1
176
   256
177
   256
178
   256
271
     2
272
     2
274
     1
284
     4
285
     4
340
D6
371
    -1
372
    -1
  0
DIMSTYLE
105
F8
330
A
100
AcDbSymbolTableRecord
100
AcDbDimStyleTableRecord
  2
Alternate (ANSI)
 70
     0
 40
14.0
 41
0.0979999974370003
340
55
342
F9
  0
DIMSTYLE
105
10B
330
A
100
AcDbSymbolTableRecord
100
AcDbDimStyleTableRecord
  2
Datum (ANSI)
 70
     0
 40
14.0
 41
0.0979999974370003
340
55
342
F9
  0
DIMSTYLE
105
11A
330
A
100
AcDbSymbolTableRecord
100
AcDbDimStyleTableRecord
  2
Large (ANSI)
 70
     0
 40
14.0
 41
0.1959999948740005
340
55
342
F9
  0
ENDTAB
  0
TABLE
  2
BLOCK_RECORD
  5
1
330
0
100
AcDbSymbolTable
 70
    14
  0
BLOCK_RECORD
  5
6C
330
1
100
AcDbSymbolTableRecord
100
AcDbBlockTableRecord
  2
*Model_Space
340
6F
 70
     0
280
     1
281
     0
  0
BLOCK_RECORD
  5
68
330
1
100
AcDbSymbolTableRecord
100
AcDbBlockTableRecord
  2
*Paper_Space
340
6B
 70
     0
280
     1
281
     0
  0
BLOCK_RECORD
  5
70
330
1
100
AcDbSymbolTableRecord
100
AcDbBlockTableRecord
  2
*Paper_Space0
340
73
 70
     0
280
     1
281
     0
  0
BLOCK_RECORD
  5
F9
330
1
100
AcDbSymbolTableRecord
100
AcDbBlockTableRecord
  2
_Closed
340
0
 70
     0
280
     1
281
     0
  0
BLOCK_RECORD
  5
100
330
1
100
AcDbSymbolTableRecord
100
AcDbBlockTableRecord
  2
DatumFilled45
340
0
 70
     0
280
     1
281
     0
  0
BLOCK_RECORD
  5
10C
330
1
100
AcDbSymbolTableRecord
100
AcDbBlockTableRecord
  2
Filled-1
340
0
 70
     0
280
     1
281
     0
  0
BLOCK_RECORD
  5
552
330
1
100
AcDbSymbolTableRecord
100
AcDbBlockTableRecord
  2
*D4
340
0
 70
     0
280
     1
281
     0
  0
BLOCK_RECORD
  5
63C
330
1
100
AcDbSymbolTableRecord
100
AcDbBlockTableRecord
  2
*D5
340
0
 70
     0
280
     1
281
     0
  0
BLOCK_RECORD
  5
726
330
1
100
AcDbSymbolTableRecord
100
AcDbBlockTableRecord
  2
*D6
340
0
 70
     0
280
     1
281
     0
  0
BLOCK_RECORD
  5
810
330
1
100
AcDbSymbolTableRecord
100
AcDbBlockTableRecord
  2
*D7
340
0
 70
     0
280
     1
281
     0
  0
BLOCK_RECORD
  5
910
330
1
100
AcDbSymbolTableRecord
100
AcDbBlockTableRecord
  2
*D8
340
0
 70
     0
280
     1
281
     0
  0
BLOCK_RECORD
  5
9FA
330
1
100
AcDbSymbolTableRecord
100
AcDbBlockTableRecord
  2
*D9
340
0
 70
     0
280
     1
281
     0
  0
BLOCK_RECORD
  5
AE4
330
1
100
AcDbSymbolTableRecord
100
AcDbBlockTableRecord
  2
*D10
340
0
 70
     0
280
     1
281
     0
  0
BLOCK_RECORD
  5
BCE
330
1
100
AcDbSymbolTableRecord
100
AcDbBlockTableRecord
  2
*D11
340
0
 70
     0
280
     1
281
     0
  0
BLOCK_RECORD
  5
C88
330
1
100
AcDbSymbolTableRecord
100
AcDbBlockTableRecord
  2
*D12
340
0
 70
     0
280
     1
281
     0
  0
BLOCK_RECORD
  5
D91
330
1
100
AcDbSymbolTableRecord
100
AcDbBlockTableRecord
  2
*D13
340
0
 70
     0
280
     1
281
     0
  0
ENDTAB
  0
ENDSEC
  0
SECTION
  2
BLOCKS
  0
BLOCK
  5
6D
330
6C
100
AcDbEntity
  8
0
100
AcDbBlockBegin
  2
*Model_Space
 70
     0
 10
0.0
 20
0.0
 30
0.0
  3
*Model_Space
  1

  0
ENDBLK
  5
6E
330
6C
100
AcDbEntity
  8
0
100
AcDbBlockEnd
  0
BLOCK
  5
69
330
68
100
AcDbEntity
 67
     1
  8
0
100
AcDbBlockBegin
  2
*Paper_Space
 70
     0
 10
0.0
 20
0.0
 30
0.0
  3
*Paper_Space
  1

  0
ENDBLK
  5
6A
330
68
100
AcDbEntity
 67
     1
  8
0
100
AcDbBlockEnd
  0
BLOCK
  5
71
330
70
100
AcDbEntity
 67
     1
  8
0
100
AcDbBlockBegin
  2
*Paper_Space0
 70
     0
 10
0.0
 20
0.0
 30
0.0
  3
*Paper_Space0
  1

  0
ENDBLK
  5
72
330
70
100
AcDbEntity
 67
     1
  8
0
100
AcDbBlockEnd
  0
BLOCK
  5
FE
330
F9
100
AcDbEntity
  8
0
100
AcDbBlockBegin
  2
_Closed
 70
     0
 10
0.0
 20
0.0
 30
0.0
  3
_Closed
  1

  0
LINE
  5
FA
330
F9
100
AcDbEntity
  8
0
  6
ByBlock
 62
     0
370
    -2
100
AcDbLine
 10
-1.0
 20
0.1666666666666666
 30
0.0
 11
0.0
 21
0.0
 31
0.0
  0
LINE
  5
FB
330
F9
100
AcDbEntity
  8
0
  6
ByBlock
 62
     0
370
    -2
100
AcDbLine
 10
0.0
 20
0.0
 30
0.0
 11
-1.0
 21
-0.1666666666666666
 31
0.0
  0
LINE
  5
FC
330
F9
100
AcDbEntity
  8
0
  6
ByBlock
 62
     0
370
    -2
100
AcDbLine
 10
-1.0
 20
0.1666666666666666
 30
0.0
 11
-1.0
 21
-0.1666666666666666
 31
0.0
  0
LINE
  5
FD
330
F9
100
AcDbEntity
  8
0
  6
ByBlock
 62
     0
370
    -2
100
AcDbLine
 10
0.0
 20
0.0
 30
0.0
 11
-1.0
 21
0.0
 31
0.0
  0
ENDBLK
  5
FF
330
F9
100
AcDbEntity
  8
0
100
AcDbBlockEnd
  0
BLOCK
  5
101
330
100
100
AcDbEntity
  8
0
100
AcDbBlockBegin
  2
DatumFilled45
 70
     0
 10
0.0
 20
0.0
 30
0.0
  3
DatumFilled45
  1

  0
POLYLINE
  5
103
330
100
100
AcDbEntity
  8
0
 62
     0
100
AcDb2dPolyline
 66
     1
 10
0.0
 20
0.0
 30
0.0
 70
   128
  0
VERTEX
  5
104
330
103
100
AcDbEntity
  8
0
 62
     0
100
AcDbVertex
100
AcDb2dVertex
 10
0.0
 20
0.9999999999999998
 30
0.0
  0
VERTEX
  5
105
330
103
100
AcDbEntity
  8
0
 62
     0
100
AcDbVertex
100
AcDb2dVertex
 10
0.0
 20
-0.9999999999999998
 30
0.0
  0
VERTEX
  5
107
330
103
100
AcDbEntity
  8
0
 62
     0
100
AcDbVertex
100
AcDb2dVertex
 10
-0.9999999999999998
 20
0.0
 30
0.0
  0
VERTEX
  5
108
330
103
100
AcDbEntity
  8
0
 62
     0
100
AcDbVertex
100
AcDb2dVertex
 10
0.0
 20
0.9999999999999998
 30
0.0
  0
SEQEND
  5
106
330
103
100
AcDbEntity
  8
0
 62
     0
  0
SOLID
  5
10A
330
100
100
AcDbEntity
  8
0
 62
     0
100
AcDbTrace
 10
0.0
 20
0.9999999999999998
 30
0.0
 11
0.0
 21
-0.9999999999999998
 31
0.0
 12
-0.9999999999999998
 22
0.0
 32
0.0
 13
0.0
 23
0.9999999999999998
 33
0.0
  0
ENDBLK
  5
102
330
100
100
AcDbEntity
  8
0
100
AcDbBlockEnd
  0
BLOCK
  5
10D
330
10C
100
AcDbEntity
  8
0
100
AcDbBlockBegin
  2
Filled-1
 70
     0
 10
0.0
 20
0.0
 30
0.0
  3
Filled-1
  1

  0
LINE
  5
10F
330
10C
100
AcDbEntity
  8
0
 62
     0
100
AcDbLine
 10
-0.9999999999999998
 20
0.0
 30
0.0
 11
0.0
 21
0.0
 31
0.0
  0
POLYLINE
  5
110
330
10C
100
AcDbEntity
  8
0
 62
     0
100
AcDb2dPolyline
 66
     1
 10
0.0
 20
0.0
 30
0.0
 70
   128
  0
VERTEX
  5
111
330
110
100
AcDbEntity
  8
0
 62
     0
100
AcDbVertex
100
AcDb2dVertex
 10
-0.9999999999999998
 20
-0.0994897959183674
 30
0.0
  0
VERTEX
  5
112
330
110
100
AcDbEntity
  8
0
 62
     0
100
AcDbVertex
100
AcDb2dVertex
 10
0.0
 20
0.0
 30
0.0
  0
VERTEX
  5
114
330
110
100
AcDbEntity
  8
0
 62
     0
100
AcDbVertex
100
AcDb2dVertex
 10
-0.9999999999999998
 20
0.0994897959183674
 30
0.0
  0
VERTEX
  5
115
330
110
100
AcDbEntity
  8
0
 62
     0
100
AcDbVertex
100
AcDb2dVertex
 10
-0.9999999999999998
 20
-0.0994897959183674
 30
0.0
  0
SEQEND
  5
113
330
110
100
AcDbEntity
  8
0
 62
     0
  0
SOLID
  5
116
330
10C
100
AcDbEntity
  8
0
 62
     0
100
AcDbTrace
 10
-0.9999999999999998
 20
-0.0994897959183674
 30
0.0
 11
0.0
 21
0.0
 31
0.0
 12
-0.9999999999999998
 22
0.0994897959183674
 32
0.0
 13
-0.9999999999999998
 23
-0.0994897959183674
 33
0.0
  0
LINE
  5
117
330
10C
100
AcDbEntity
  8
0
 62
     0
100
AcDbLine
 10
-0.9999999999999998
 20
-0.0994897959183674
 30
0.0
 11
0.0
 21
0.0
 31
0.0
  0
LINE
  5
118
330
10C
100
AcDbEntity
  8
0
 62
     0
100
AcDbLine
 10
0.0
 20
0.0
 30
0.0
 11
-0.9999999999999998
 21
0.0994897959183674
 31
0.0
  0
LINE
  5
119
330
10C
100
AcDbEntity
  8
0
 62
     0
100
AcDbLine
 10
-0.9999999999999998
 20
0.0994897959183674
 30
0.0
 11
-0.9999999999999998
 21
-0.0994897959183674
 31
0.0
  0
ENDBLK
  5
10E
330
10C
100
AcDbEntity
  8
0
100
AcDbBlockEnd
  0
BLOCK
  5
553
330
552
100
AcDbEntity
  8
0
100
AcDbBlockBegin
  2
*D4
 70
     1
 10
0.0
 20
0.0
 30
0.0
  3
*D4
  1

  0
LINE
  5
631
330
552
100
AcDbEntity
  8
Dimension (ANSI)
440
 16777216
100
AcDbLine
 10
42.98516442214085
 20
111.694628031595
 30
0.0
 11
42.98516442214085
 21
124.6956122835635
 31
0.0
  0
LINE
  5
632
330
552
100
AcDbEntity
  8
Dimension (ANSI)
440
 16777216
100
AcDbLine
 10
74.98516442214084
 20
111.694628031595
 30
0.0
 11
74.98516442214084
 21
124.6956122835635
 31
0.0
  0
LINE
  5
633
330
552
100
AcDbEntity
  8
Dimension (ANSI)
440
 16777216
100
AcDbLine
 10
44.36311714683605
 20
122.9456122835635
 30
0.0
 11
55.77317848095164
 21
122.9456122835635
 31
0.0
  0
LINE
  5
634
330
552
100
AcDbEntity
  8
Dimension (ANSI)
440
 16777216
100
AcDbLine
 10
73.60721169744564
 20
122.9456122835635
 30
0.0
 11
62.19715036333006
 21
122.9456122835635
 31
0.0
  0
SOLID
  5
635
330
552
100
AcDbEntity
  8
Dimension (ANSI)
440
 16777216
100
AcDbTrace
 10
44.36311714683605
 20
123.1752710710127
 30
0.0
 11
44.36311714683605
 21
122.7159534961143
 31
0.0
 12
42.98516442214085
 22
122.9456122835635
 32
0.0
 13
42.98516442214085
 23
122.9456122835635
 33
0.0
  0
SOLID
  5
636
330
552
100
AcDbEntity
  8
Dimension (ANSI)
440
 16777216
100
AcDbTrace
 10
73.60721169744564
 20
123.1752710710127
 30
0.0
 11
73.60721169744564
 21
122.7159534961143
 31
0.0
 12
74.98516442214084
 22
122.9456122835635
 32
0.0
 13
74.98516442214084
 23
122.9456122835635
 33
0.0
  0
MTEXT
  5
637
330
552
100
AcDbEntity
  8
Dimension (ANSI)
440
 16777216
100
AcDbMText
 10
56.21412336284141
 20
123.8205888069701
 30
0.0
 40
1.680000066757202
 41
0.0
 46
0.0
 71
     1
 72
     1
  1
\A1;32.00
  7
Note Text (ANSI)
 73
     1
 44
1.0
  0
POINT
  5
638
330
552
100
AcDbEntity
  8
Defpoints
 62
     0
440
 16777216
100
AcDbPoint
 10
42.98516442214085
 20
110.819628031595
 30
0.0
  0
POINT
  5
639
330
552
100
AcDbEntity
  8
Defpoints
 62
     0
440
 16777216
100
AcDbPoint
 10
74.98516442214084
 20
110.819628031595
 30
0.0
  0
POINT
  5
63A
330
552
100
AcDbEntity
  8
Defpoints
 62
     0
440
 16777216
100
AcDbPoint
 10
74.98516442214084
 20
122.9456122835635
 30
0.0
  0
ENDBLK
  5
554
330
552
100
AcDbEntity
  8
0
100
AcDbBlockEnd
  0
BLOCK
  5
63D
330
63C
100
AcDbEntity
  8
0
100
AcDbBlockBegin
  2
*D5
 70
     1
 10
0.0
 20
0.0
 30
0.0
  3
*D5
  1

  0
LINE
  5
71B
330
63C
100
AcDbEntity
  8
Dimension (ANSI)
440
 16777216
100
AcDbLine
 10
42.98516442214085
 20
111.694628031595
 30
0.0
 11
42.98516442214085
 21
119.3979803159533
 31
0.0
  0
LINE
  5
71C
330
63C
100
AcDbEntity
  8
Dimension (ANSI)
440
 16777216
100
AcDbLine
 10
43.86016442214084
 20
113.0111692923313
 30
0.0
 11
43.86016442214084
 21
119.3979803159533
 31
0.0
  0
LINE
  5
71D
330
63C
100
AcDbEntity
  8
Dimension (ANSI)
440
 16777216
100
AcDbLine
 10
45.23811714683605
 20
117.6479803159533
 30
0.0
 11
46.61606987153126
 21
117.6479803159533
 31
0.0
  0
LINE
  5
71E
330
63C
100
AcDbEntity
  8
Dimension (ANSI)
440
 16777216
100
AcDbLine
 10
41.60721169744564
 20
117.6479803159533
 30
0.0
 11
39.51727161738492
 21
117.6479803159533
 31
0.0
  0
SOLID
  5
71F
330
63C
100
AcDbEntity
  8
Dimension (ANSI)
440
 16777216
100
AcDbTrace
 10
45.23811714683605
 20
117.8776391034025
 30
0.0
 11
45.23811714683605
 21
117.4183215285041
 31
0.0
 12
43.86016442214084
 22
117.6479803159533
 32
0.0
 13
43.86016442214084
 23
117.6479803159533
 33
0.0
  0
SOLID
  5
720
330
63C
100
AcDbEntity
  8
Dimension (ANSI)
440
 16777216
100
AcDbTrace
 10
41.60721169744564
 20
117.8776391034025
 30
0.0
 11
41.60721169744564
 21
117.4183215285041
 31
0.0
 12
42.98516442214085
 22
117.6479803159533
 32
0.0
 13
42.98516442214085
 23
117.6479803159533
 33
0.0
  0
MTEXT
  5
721
330
63C
100
AcDbEntity
  8
Dimension (ANSI)
440
 16777216
100
AcDbMText
 10
34.76970469830217
 20
118.5263416615008
 30
0.0
 40
1.680000066757202
 41
0.0
 46
0.0
 71
     1
 72
     1
  1
\A1;0.88
  7
Note Text (ANSI)
 73
     1
 44
1.0
  0
POINT
  5
722
330
63C
100
AcDbEntity
  8
Defpoints
 62
     0
440
 16777216
100
AcDbPoint
 10
42.98516442214085
 20
110.819628031595
 30
0.0
  0
POINT
  5
723
330
63C
100
AcDbEntity
  8
Defpoints
 62
     0
440
 16777216
100
AcDbPoint
 10
43.86016442214084
 20
112.1361692923313
 30
0.0
  0
POINT
  5
724
330
63C
100
AcDbEntity
  8
Defpoints
 62
     0
440
 16777216
100
AcDbPoint
 10
43.86016442214084
 20
117.6479803159533
 30
0.0
  0
ENDBLK
  5
63E
330
63C
100
AcDbEntity
  8
0
100
AcDbBlockEnd
  0
BLOCK
  5
727
330
726
100
AcDbEntity
  8
0
100
AcDbBlockBegin
  2
*D6
 70
     1
 10
0.0
 20
0.0
 30
0.0
  3
*D6
  1

  0
LINE
  5
805
330
726
100
AcDbEntity
  8
Dimension (ANSI)
440
 16777216
100
AcDbLine
 10
43.86016442214084
 20
113.0111692923313
 30
0.0
 11
43.86016442214084
 21
119.3979803159533
 31
0.0
  0
LINE
  5
806
330
726
100
AcDbEntity
  8
Dimension (ANSI)
440
 16777216
100
AcDbLine
 10
74.11016442214084
 20
113.0111692923313
 30
0.0
 11
74.11016442214084
 21
119.3979803159533
 31
0.0
  0
LINE
  5
807
330
726
100
AcDbEntity
  8
Dimension (ANSI)
440
 16777216
100
AcDbLine
 10
45.23811714683605
 20
117.6479803159533
 30
0.0
 11
55.78671776951498
 21
117.6479803159533
 31
0.0
  0
LINE
  5
808
330
726
100
AcDbEntity
  8
Dimension (ANSI)
440
 16777216
100
AcDbLine
 10
72.73221169744563
 20
117.6479803159533
 30
0.0
 11
62.1836110747667
 21
117.6479803159533
 31
0.0
  0
SOLID
  5
809
330
726
100
AcDbEntity
  8
Dimension (ANSI)
440
 16777216
100
AcDbTrace
 10
45.23811714683605
 20
117.8776391034025
 30
0.0
 11
45.23811714683605
 21
117.4183215285041
 31
0.0
 12
43.86016442214084
 22
117.6479803159533
 32
0.0
 13
43.86016442214084
 23
117.6479803159533
 33
0.0
  0
SOLID
  5
80A
330
726
100
AcDbEntity
  8
Dimension (ANSI)
440
 16777216
100
AcDbTrace
 10
72.73221169744563
 20
117.8776391034025
 30
0.0
 11
72.73221169744563
 21
117.4183215285041
 31
0.0
 12
74.11016442214084
 22
117.6479803159533
 32
0.0
 13
74.11016442214084
 23
117.6479803159533
 33
0.0
  0
MTEXT
  5
80B
330
726
100
AcDbEntity
  8
Dimension (ANSI)
440
 16777216
100
AcDbMText
 10
56.22766265140474
 20
118.52295683936
 30
0.0
 40
1.680000066757202
 41
0.0
 46
0.0
 71
     1
 72
     1
  1
\A1;30.25
  7
Note Text (ANSI)
 73
     1
 44
1.0
  0
POINT
  5
80C
330
726
100
AcDbEntity
  8
Defpoints
 62
     0
440
 16777216
100
AcDbPoint
 10
43.86016442214084
 20
112.1361692923313
 30
0.0
  0
POINT
  5
80D
330
726
100
AcDbEntity
  8
Defpoints
 62
     0
440
 16777216
100
AcDbPoint
 10
74.11016442214084
 20
112.1361692923313
 30
0.0
  0
POINT
  5
80E
330
726
100
AcDbEntity
  8
Defpoints
 62
     0
440
 16777216
100
AcDbPoint
 10
74.11016442214084
 20
117.6479803159533
 30
0.0
  0
ENDBLK
  5
728
330
726
100
AcDbEntity
  8
0
100
AcDbBlockEnd
  0
BLOCK
  5
811
330
810
100
AcDbEntity
  8
0
100
AcDbBlockBegin
  2
*D7
 70
     1
 10
0.0
 20
0.0
 30
0.0
  3
*D7
  1

  0
LINE
  5
904
330
810
100
AcDbEntity
  8
Dimension (ANSI)
440
 16777216
100
AcDbLine
 10
42.2702056828771
 20
32.97966929233128
 30
0.0
 11
38.53906202370027
 21
32.97966929233128
 31
0.0
  0
LINE
  5
905
330
810
100
AcDbEntity
  8
Dimension (ANSI)
440
 16777216
100
AcDbLine
 10
40.95366442214085
 20
33.85466929233128
 30
0.0
 11
38.53906202370027
 21
33.85466929233128
 31
0.0
  0
LINE
  5
906
330
810
100
AcDbEntity
  8
Dimension (ANSI)
440
 16777216
100
AcDbLine
 10
40.28906202370026
 20
35.23262201702649
 30
0.0
 11
40.28906202370026
 21
36.61057474172169
 31
0.0
  0
LINE
  5
907
330
810
100
AcDbEntity
  8
Dimension (ANSI)
440
 16777216
100
AcDbLine
 10
40.28906202370026
 20
31.60171656763607
 30
0.0
 11
40.28906202370026
 21
28.96170196998132
 31
0.0
  0
LINE
  5
908
330
810
100
AcDbEntity
  8
Dimension (ANSI)
440
 16777216
100
AcDbLine
 10
40.28906202370026
 20
28.96170196998132
 30
0.0
 11
38.91110929900506
 21
28.96170196998132
 31
0.0
  0
SOLID
  5
909
330
810
100
AcDbEntity
  8
Dimension (ANSI)
440
 16777216
100
AcDbTrace
 10
40.05940323625106
 20
35.23262201702649
 30
0.0
 11
40.51872081114947
 21
35.23262201702649
 31
0.0
 12
40.28906202370026
 22
33.85466929233128
 32
0.0
 13
40.28906202370026
 23
33.85466929233128
 33
0.0
  0
SOLID
  5
90A
330
810
100
AcDbEntity
  8
Dimension (ANSI)
440
 16777216
100
AcDbTrace
 10
40.05940323625106
 20
31.60171656763607
 30
0.0
 11
40.51872081114947
 21
31.60171656763607
 31
0.0
 12
40.28906202370026
 22
32.97966929233128
 32
0.0
 13
40.28906202370026
 23
32.97966929233128
 33
0.0
  0
MTEXT
  5
90B
330
810
100
AcDbEntity
  8
Dimension (ANSI)
440
 16777216
100
AcDbMText
 10
34.1635423799223
 20
29.84006331552881
 30
0.0
 40
1.680000066757202
 41
0.0
 46
0.0
 71
     1
 72
     1
  1
\A1;0.88
  7
Note Text (ANSI)
 73
     1
 44
1.0
  0
POINT
  5
90C
330
810
100
AcDbEntity
  8
Defpoints
 62
     0
440
 16777216
100
AcDbPoint
 10
43.14520568287711
 20
32.97966929233128
 30
0.0
  0
POINT
  5
90D
330
810
100
AcDbEntity
  8
Defpoints
 62
     0
440
 16777216
100
AcDbPoint
 10
41.82866442214084
 20
33.85466929233128
 30
0.0
  0
POINT
  5
90E
330
810
100
AcDbEntity
  8
Defpoints
 62
     0
440
 16777216
100
AcDbPoint
 10
40.28906202370026
 20
33.85466929233128
 30
0.0
  0
ENDBLK
  5
812
330
810
100
AcDbEntity
  8
0
100
AcDbBlockEnd
  0
BLOCK
  5
911
330
910
100
AcDbEntity
  8
0
100
AcDbBlockBegin
  2
*D8
 70
     1
 10
0.0
 20
0.0
 30
0.0
  3
*D8
  1

  0
LINE
  5
9EF
330
910
100
AcDbEntity
  8
Dimension (ANSI)
440
 16777216
100
AcDbLine
 10
40.95366442214085
 20
33.85466929233128
 30
0.0
 11
34.56685339851881
 21
33.85466929233128
 31
0.0
  0
LINE
  5
9F0
330
910
100
AcDbEntity
  8
Dimension (ANSI)
440
 16777216
100
AcDbLine
 10
40.95366442214086
 20
71.97966929233128
 30
0.0
 11
34.56685339851882
 21
71.97966929233128
 31
0.0
  0
LINE
  5
9F1
330
910
100
AcDbEntity
  8
Dimension (ANSI)
440
 16777216
100
AcDbLine
 10
36.31685339851881
 20
35.23262201702649
 30
0.0
 11
36.31685339851882
 21
51.59786306489403
 31
0.0
  0
LINE
  5
9F2
330
910
100
AcDbEntity
  8
Dimension (ANSI)
440
 16777216
100
AcDbLine
 10
36.31685339851882
 20
70.60171656763607
 30
0.0
 11
36.31685339851882
 21
54.23647551976852
 31
0.0
  0
SOLID
  5
9F3
330
910
100
AcDbEntity
  8
Dimension (ANSI)
440
 16777216
100
AcDbTrace
 10
36.08719461106961
 20
35.23262201702649
 30
0.0
 11
36.54651218596801
 21
35.23262201702649
 31
0.0
 12
36.31685339851881
 22
33.85466929233128
 32
0.0
 13
36.31685339851881
 23
33.85466929233128
 33
0.0
  0
SOLID
  5
9F4
330
910
100
AcDbEntity
  8
Dimension (ANSI)
440
 16777216
100
AcDbTrace
 10
36.08719461106961
 20
70.60171656763607
 30
0.0
 11
36.54651218596802
 21
70.60171656763607
 31
0.0
 12
36.31685339851882
 22
71.97966929233128
 32
0.0
 13
36.31685339851882
 23
71.97966929233128
 33
0.0
  0
MTEXT
  5
9F5
330
910
100
AcDbEntity
  8
Dimension (ANSI)
440
 16777216
100
AcDbMText
 10
33.56442886099396
 20
53.79553063787876
 30
0.0
 40
1.680000066757202
 41
0.0
 46
0.0
 71
     1
 72
     1
  1
\A1;38.13
  7
Note Text (ANSI)
 73
     1
 44
1.0
  0
POINT
  5
9F6
330
910
100
AcDbEntity
  8
Defpoints
 62
     0
440
 16777216
100
AcDbPoint
 10
41.82866442214084
 20
33.85466929233128
 30
0.0
  0
POINT
  5
9F7
330
910
100
AcDbEntity
  8
Defpoints
 62
     0
440
 16777216
100
AcDbPoint
 10
41.82866442214086
 20
71.97966929233128
 30
0.0
  0
POINT
  5
9F8
330
910
100
AcDbEntity
  8
Defpoints
 62
     0
440
 16777216
100
AcDbPoint
 10
36.31685339851882
 20
71.97966929233128
 30
0.0
  0
ENDBLK
  5
912
330
910
100
AcDbEntity
  8
0
100
AcDbBlockEnd
  0
BLOCK
  5
9FB
330
9FA
100
AcDbEntity
  8
0
100
AcDbBlockBegin
  2
*D9
 70
     1
 10
0.0
 20
0.0
 30
0.0
  3
*D9
  1

  0
LINE
  5
AD9
330
9FA
100
AcDbEntity
  8
Dimension (ANSI)
440
 16777216
100
AcDbLine
 10
40.95366442214085
 20
33.85466929233128
 30
0.0
 11
26.85031796544795
 21
33.85466929233128
 31
0.0
  0
LINE
  5
ADA
330
9FA
100
AcDbEntity
  8
Dimension (ANSI)
440
 16777216
100
AcDbLine
 10
40.95366442214085
 20
110.1046692923313
 30
0.0
 11
26.85031796544797
 21
110.1046692923313
 31
0.0
  0
LINE
  5
ADB
330
9FA
100
AcDbEntity
  8
Dimension (ANSI)
440
 16777216
100
AcDbLine
 10
28.60031796544795
 20
35.23262201702649
 30
0.0
 11
28.60031796544796
 21
70.66374788703484
 31
0.0
  0
LINE
  5
ADC
330
9FA
100
AcDbEntity
  8
Dimension (ANSI)
440
 16777216
100
AcDbLine
 10
28.60031796544797
 20
108.7267165676361
 30
0.0
 11
28.60031796544796
 21
73.29559069762765
 31
0.0
  0
SOLID
  5
ADD
330
9FA
100
AcDbEntity
  8
Dimension (ANSI)
440
 16777216
100
AcDbTrace
 10
28.37065917799875
 20
35.23262201702649
 30
0.0
 11
28.82997675289715
 21
35.23262201702649
 31
0.0
 12
28.60031796544795
 22
33.85466929233128
 32
0.0
 13
28.60031796544795
 23
33.85466929233128
 33
0.0
  0
SOLID
  5
ADE
330
9FA
100
AcDbEntity
  8
Dimension (ANSI)
440
 16777216
100
AcDbTrace
 10
28.37065917799877
 20
108.7267165676361
 30
0.0
 11
28.82997675289717
 21
108.7267165676361
 31
0.0
 12
28.60031796544797
 22
110.1046692923313
 32
0.0
 13
28.60031796544797
 23
110.1046692923313
 33
0.0
  0
MTEXT
  5
ADF
330
9FA
100
AcDbEntity
  8
Dimension (ANSI)
440
 16777216
100
AcDbMText
 10
25.8439444687588
 20
72.8546458157379
 30
0.0
 40
1.680000066757202
 41
0.0
 46
0.0
 71
     1
 72
     1
  1
\A1;76.25
  7
Note Text (ANSI)
 73
     1
 44
1.0
  0
POINT
  5
AE0
330
9FA
100
AcDbEntity
  8
Defpoints
 62
     0
440
 16777216
100
AcDbPoint
 10
41.82866442214084
 20
33.85466929233128
 30
0.0
  0
POINT
  5
AE1
330
9FA
100
AcDbEntity
  8
Defpoints
 62
     0
440
 16777216
100
AcDbPoint
 10
41.82866442214084
 20
110.1046692923313
 30
0.0
  0
POINT
  5
AE2
330
9FA
100
AcDbEntity
  8
Defpoints
 62
     0
440
 16777216
100
AcDbPoint
 10
28.60031796544797
 20
110.1046692923313
 30
0.0
  0
ENDBLK
  5
9FC
330
9FA
100
AcDbEntity
  8
0
100
AcDbBlockEnd
  0
BLOCK
  5
AE5
330
AE4
100
AcDbEntity
  8
0
100
AcDbBlockBegin
  2
*D10
 70
     1
 10
0.0
 20
0.0
 30
0.0
  3
*D10
  1

  0
LINE
  5
BC3
330
AE4
100
AcDbEntity
  8
Dimension (ANSI)
440
 16777216
100
AcDbLine
 10
42.2702056828771
 20
32.97966929233128
 30
0.0
 11
16.89840729813417
 21
32.97966929233128
 31
0.0
  0
LINE
  5
BC4
330
AE4
100
AcDbEntity
  8
Dimension (ANSI)
440
 16777216
100
AcDbLine
 10
42.27020568287709
 20
110.9796692923312
 30
0.0
 11
16.89840729813418
 21
110.9796692923313
 31
0.0
  0
LINE
  5
BC5
330
AE4
100
AcDbEntity
  8
Dimension (ANSI)
440
 16777216
100
AcDbLine
 10
18.64840729813417
 20
34.35762201702649
 30
0.0
 11
18.64840729813417
 21
70.66036306489403
 31
0.0
  0
LINE
  5
BC6
330
AE4
100
AcDbEntity
  8
Dimension (ANSI)
440
 16777216
100
AcDbLine
 10
18.64840729813419
 20
109.6017165676361
 30
0.0
 11
18.64840729813418
 21
73.29897551976853
 31
0.0
  0
SOLID
  5
BC7
330
AE4
100
AcDbEntity
  8
Dimension (ANSI)
440
 16777216
100
AcDbTrace
 10
18.41874851068497
 20
34.35762201702649
 30
0.0
 11
18.87806608558337
 21
34.35762201702649
 31
0.0
 12
18.64840729813417
 22
32.97966929233128
 32
0.0
 13
18.64840729813417
 23
32.97966929233128
 33
0.0
  0
SOLID
  5
BC8
330
AE4
100
AcDbEntity
  8
Dimension (ANSI)
440
 16777216
100
AcDbTrace
 10
18.41874851068499
 20
109.6017165676361
 30
0.0
 11
18.87806608558339
 21
109.6017165676361
 31
0.0
 12
18.64840729813419
 22
110.9796692923313
 32
0.0
 13
18.64840729813419
 23
110.9796692923313
 33
0.0
  0
MTEXT
  5
BC9
330
AE4
100
AcDbEntity
  8
Dimension (ANSI)
440
 16777216
100
AcDbMText
 10
15.87849451288166
 20
72.85803063787877
 30
0.0
 40
1.680000066757202
 41
0.0
 46
0.0
 71
     1
 72
     1
  1
\A1;78.00
  7
Note Text (ANSI)
 73
     1
 44
1.0
  0
POINT
  5
BCA
330
AE4
100
AcDbEntity
  8
Defpoints
 62
     0
440
 16777216
100
AcDbPoint
 10
43.14520568287711
 20
32.97966929233128
 30
0.0
  0
POINT
  5
BCB
330
AE4
100
AcDbEntity
  8
Defpoints
 62
     0
440
 16777216
100
AcDbPoint
 10
43.1452056828771
 20
110.9796692923312
 30
0.0
  0
POINT
  5
BCC
330
AE4
100
AcDbEntity
  8
Defpoints
 62
     0
440
 16777216
100
AcDbPoint
 10
18.64840729813419
 20
110.9796692923313
 30
0.0
  0
ENDBLK
  5
AE6
330
AE4
100
AcDbEntity
  8
0
100
AcDbBlockEnd
  0
BLOCK
  5
BCF
330
BCE
100
AcDbEntity
  8
0
100
AcDbBlockBegin
  2
*D11
 70
     1
 10
0.0
 20
0.0
 30
0.0
  3
*D11
  1

  0
LINE
  5
C7F
330
BCE
100
AcDbEntity
  8
Dimension (ANSI)
440
 16777216
100
AcDbLine
 10
78.29493336903208
 20
30.86734892218307
 30
0.0
 11
76.41613805954986
 21
30.86734892218306
 31
0.0
  0
LINE
  5
C80
330
BCE
100
AcDbEntity
  8
Dimension (ANSI)
440
 16777216
100
AcDbLine
 10
76.41613805954986
 20
30.86734892218306
 30
0.0
 11
75.12416889372821
 21
32.54105661079262
 31
0.0
  0
MTEXT
  5
C81
330
BCE
100
AcDbEntity
  8
Dimension (ANSI)
440
 16777216
100
AcDbMText
 10
78.73587825092184
 20
30.86734892218306
 30
0.0
 40
1.680000066757202
 41
0.0
 46
0.0
 71
     4
 72
     1
  1
\A1;∅0.563{\P(6 PL.)}
  7
Note Text (ANSI)
 73
     1
 44
1.0
  0
SOLID
  5
C82
330
BCE
100
AcDbEntity
  8
Dimension (ANSI)
440
 16777216
100
AcDbTrace
 10
75.30596539273692
 20
32.68138904325501
 30
0.0
 11
74.94237239471949
 21
32.40072417833024
 31
0.0
 12
74.28217429895386
 22
33.63183560484492
 32
0.0
 13
74.28217429895386
 23
33.63183560484492
 33
0.0
  0
LINE
  5
C83
330
BCE
100
AcDbEntity
  8
Dimension (ANSI)
440
 16777216
100
AcDbLine
 10
72.85016442214083
 20
33.85466929233128
 30
0.0
 11
75.37016442214085
 21
33.85466929233128
 31
0.0
  0
LINE
  5
C84
330
BCE
100
AcDbEntity
  8
Dimension (ANSI)
440
 16777216
100
AcDbLine
 10
74.11016442214084
 20
32.59466929233128
 30
0.0
 11
74.11016442214084
 21
35.11466929233128
 31
0.0
  0
POINT
  5
C85
330
BCE
100
AcDbEntity
  8
Defpoints
 62
     0
440
 16777216
100
AcDbPoint
 10
74.28217429895386
 20
33.63183560484492
 30
0.0
  0
POINT
  5
C86
330
BCE
100
AcDbEntity
  8
Defpoints
 62
     0
440
 16777216
100
AcDbPoint
 10
73.93815454532783
 20
34.07750297981765
 30
0.0
  0
ENDBLK
  5
BD0
330
BCE
100
AcDbEntity
  8
0
100
AcDbBlockEnd
  0
BLOCK
  5
C89
330
C88
100
AcDbEntity
  8
0
100
AcDbBlockBegin
  2
*D12
 70
     1
 10
0.0
 20
0.0
 30
0.0
  3
*D12
  1

  0
LINE
  5
D87
330
C88
100
AcDbEntity
  8
Dimension (ANSI)
440
 16777216
100
AcDbLine
 10
66.98715967125912
 20
133.5407552170139
 30
0.0
 11
66.98715967125912
 21
132.1628024923187
 31
0.0
  0
LINE
  5
D88
330
C88
100
AcDbEntity
  8
Dimension (ANSI)
440
 16777216
100
AcDbLine
 10
66.98715967125912
 20
137.1716606664043
 30
0.0
 11
66.98715967125912
 21
141.7016752874174
 31
0.0
  0
LINE
  5
D89
330
C88
100
AcDbEntity
  8
Dimension (ANSI)
440
 16777216
100
AcDbLine
 10
66.98715967125912
 20
141.7016752874174
 30
0.0
 11
68.36511239595433
 21
141.7016752874174
 31
0.0
  0
SOLID
  5
D8A
330
C88
100
AcDbEntity
  8
Dimension (ANSI)
440
 16777216
100
AcDbTrace
 10
66.75750088380993
 20
133.5407552170139
 30
0.0
 11
67.21681845870832
 21
133.5407552170139
 31
0.0
 12
66.98715967125912
 22
134.9187079417091
 32
0.0
 13
66.98715967125912
 23
134.9187079417091
 33
0.0
  0
SOLID
  5
D8B
330
C88
100
AcDbEntity
  8
Dimension (ANSI)
440
 16777216
100
AcDbTrace
 10
66.75750088380993
 20
137.1716606664043
 30
0.0
 11
67.21681845870832
 21
137.1716606664043
 31
0.0
 12
66.98715967125912
 22
135.7937079417091
 32
0.0
 13
66.98715967125912
 23
135.7937079417091
 33
0.0
  0
MTEXT
  5
D8C
330
C88
100
AcDbEntity
  8
Dimension (ANSI)
440
 16777216
100
AcDbMText
 10
71.02537232818692
 20
141.7016752874175
 30
0.0
 40
1.680000066757202
 41
0.0
 46
0.0
 71
     5
 72
     1
  1
\A1;0.88{\PTYP.}
  7
Note Text (ANSI)
 73
     1
 44
1.0
  0
POINT
  5
D8D
330
C88
100
AcDbEntity
  8
Defpoints
 62
     0
440
 16777216
100
AcDbPoint
 10
71.02537232818692
 20
135.7937079417091
 30
0.0
  0
POINT
  5
D8E
330
C88
100
AcDbEntity
  8
Defpoints
 62
     0
440
 16777216
100
AcDbPoint
 10
71.0210423827222
 20
134.9187079417091
 30
0.0
  0
POINT
  5
D8F
330
C88
100
AcDbEntity
  8
Defpoints
 62
     0
440
 16777216
100
AcDbPoint
 10
66.98715967125912
 20
134.9187079417091
 30
0.0
  0
ENDBLK
  5
C8A
330
C88
100
AcDbEntity
  8
0
100
AcDbBlockEnd
  0
BLOCK
  5
D92
330
D91
100
AcDbEntity
  8
0
100
AcDbBlockBegin
  2
*D13
 70
     1
 10
0.0
 20
0.0
 30
0.0
  3
*D13
  1

  0
LINE
  5
E77
330
D91
100
AcDbEntity
  8
Dimension (ANSI)
440
 16777216
100
AcDbLine
 10
116.4959364413951
 20
107.1560821797434
 30
0.0
 11
115.1179837166999
 21
107.1560821797434
 31
0.0
  0
LINE
  5
E78
330
D91
100
AcDbEntity
  8
Dimension (ANSI)
440
 16777216
100
AcDbLine
 10
120.1268418907856
 20
107.1560821797434
 30
0.0
 11
122.2804538042733
 21
107.1560821797434
 31
0.0
  0
SOLID
  5
E79
330
D91
100
AcDbEntity
  8
Dimension (ANSI)
440
 16777216
100
AcDbTrace
 10
116.4959364413951
 20
107.3857409671926
 30
0.0
 11
116.4959364413951
 21
106.9264233922942
 31
0.0
 12
117.8738891660903
 22
107.1560821797434
 32
0.0
 13
117.8738891660903
 23
107.1560821797434
 33
0.0
  0
SOLID
  5
E7A
330
D91
100
AcDbEntity
  8
Dimension (ANSI)
440
 16777216
100
AcDbTrace
 10
120.1268418907856
 20
107.3857409671926
 30
0.0
 11
120.1268418907856
 21
106.9264233922942
 31
0.0
 12
118.7488891660904
 22
107.1560821797434
 32
0.0
 13
118.7488891660904
 23
107.1560821797434
 33
0.0
  0
MTEXT
  5
E7B
330
D91
100
AcDbEntity
  8
Dimension (ANSI)
440
 16777216
100
AcDbMText
 10
122.721398686163
 20
107.1560821797434
 30
0.0
 40
1.680000066757202
 41
0.0
 46
0.0
 71
     4
 72
     1
  1
\A1;0.88{\PTYP.}
  7
Note Text (ANSI)
 73
     1
 44
1.0
  0
POINT
  5
E7C
330
D91
100
AcDbEntity
  8
Defpoints
 62
     0
440
 16777216
100
AcDbPoint
 10
118.7488891660904
 20
107.1560821797434
 30
0.0
  0
POINT
  5
E7D
330
D91
100
AcDbEntity
  8
Defpoints
 62
     0
440
 16777216
100
AcDbPoint
 10
117.8738891660903
 20
107.1502963408794
 30
0.0
  0
POINT
  5
E7E
330
D91
100
AcDbEntity
  8
Defpoints
 62
     0
440
 16777216
100
AcDbPoint
 10
117.8738891660903
 20
107.1560821797434
 30
0.0
  0
ENDBLK
  5
D93
330
D91
100
AcDbEntity
  8
0
100
AcDbBlockEnd
  0
ENDSEC
  0
SECTION
  2
ENTITIES
  0
CIRCLE
  5
11B
330
6C
100
AcDbEntity
  8
Visible (ANSI)
100
AcDbCircle
 10
74.11016442214087
 20
71.97966929233129
 30
0.0
 40
0.2814999999999999
  0
CIRCLE
  5
11C
330
6C
100
AcDbEntity
  8
Visible (ANSI)
100
AcDbCircle
 10
43.86016442214086
 20
71.97966929233128
 30
0.0
 40
0.2814999999999999
  0
CIRCLE
  5
11D
330
6C
100
AcDbEntity
  8
Visible (ANSI)
100
AcDbCircle
 10
74.11016442214084
 20
110.1046692923313
 30
0.0
 40
0.2814999999999999
  0
CIRCLE
  5
11E
330
6C
100
AcDbEntity
  8
Visible (ANSI)
100
AcDbCircle
 10
43.86016442214085
 20
110.1046692923313
 30
0.0
 40
0.2814999999999999
  0
CIRCLE
  5
11F
330
6C
100
AcDbEntity
  8
Visible (ANSI)
100
AcDbCircle
 10
43.86016442214085
 20
33.85466929233129
 30
0.0
 40
0.2814999999999999
  0
CIRCLE
  5
120
330
6C
100
AcDbEntity
  8
Visible (ANSI)
100
AcDbCircle
 10
74.11016442214084
 20
33.85466929233129
 30
0.0
 40
0.2814999999999999
  0
LINE
  5
121
330
6C
100
AcDbEntity
  8
Visible (ANSI)
100
AcDbLine
 10
74.98516442214084
 20
110.819628031595
 30
0.0
 11
74.98516442214087
 21
33.13971055306751
 31
0.0
  0
LINE
  5
122
330
6C
100
AcDbEntity
  8
Visible (ANSI)
100
AcDbLine
 10
43.14520568287709
 20
110.9796692923312
 30
0.0
 11
74.82512316140461
 21
110.9796692923312
 31
0.0
  0
LINE
  5
123
330
6C
100
AcDbEntity
  8
Visible (ANSI)
100
AcDbLine
 10
42.98516442214087
 20
33.13971055306752
 30
0.0
 11
42.98516442214085
 21
110.819628031595
 31
0.0
  0
LINE
  5
124
330
6C
100
AcDbEntity
  8
Visible (ANSI)
100
AcDbLine
 10
74.82512316140463
 20
32.97966929233128
 30
0.0
 11
43.14520568287711
 21
32.97966929233128
 31
0.0
  0
LINE
  5
125
330
6C
100
AcDbEntity
  8
Hidden (ANSI)
 48
1.073742747306823
100
AcDbLine
 10
74.89141442214088
 20
33.13971055306752
 30
0.0
 11
74.89141442214084
 21
110.819628031595
 31
0.0
  0
LINE
  5
126
330
6C
100
AcDbEntity
  8
Hidden (ANSI)
 48
1.094751477241516
100
AcDbLine
 10
74.82512316140461
 20
110.8859192923313
 30
0.0
 11
43.14520568287709
 21
110.8859192923313
 31
0.0
  0
LINE
  5
127
330
6C
100
AcDbEntity
  8
Hidden (ANSI)
 48
1.073742747306823
100
AcDbLine
 10
43.07891442214084
 20
110.819628031595
 30
0.0
 11
43.07891442214088
 21
33.13971055306753
 31
0.0
  0
LINE
  5
128
330
6C
100
AcDbEntity
  8
Hidden (ANSI)
 48
1.094751477241516
100
AcDbLine
 10
43.14520568287711
 20
33.07341929233128
 30
0.0
 11
74.82512316140463
 21
33.07341929233128
 31
0.0
  0
POLYLINE
  5
129
330
6C
100
AcDbEntity
  8
Visible (ANSI)
100
AcDb2dPolyline
 66
     1
 10
0.0
 20
0.0
 30
0.0
 70
   128
  0
VERTEX
  5
12A
330
129
100
AcDbEntity
  8
Visible (ANSI)
100
AcDbVertex
100
AcDb2dVertex
 10
74.87581429276556
 20
110.8703207248792
 30
0.0
  0
VERTEX
  5
12B
330
129
100
AcDbEntity
  8
Visible (ANSI)
100
AcDbVertex
100
AcDb2dVertex
 10
74.88296609921396
 20
110.8682061210406
 30
0.0
  0
VERTEX
  5
12D
330
129
100
AcDbEntity
  8
Visible (ANSI)
100
AcDbVertex
100
AcDb2dVertex
 10
74.89008786867599
 20
110.8660975245993
 30
0.0
  0
VERTEX
  5
12E
330
129
100
AcDbEntity
  8
Visible (ANSI)
100
AcDbVertex
100
AcDb2dVertex
 10
74.89714656046671
 20
110.8639829207607
 30
0.0
  0
VERTEX
  5
12F
330
129
100
AcDbEntity
  8
Visible (ANSI)
100
AcDbVertex
100
AcDb2dVertex
 10
74.9041151412984
 20
110.8618683169222
 30
0.0
  0
VERTEX
  5
130
330
129
100
AcDbEntity
  8
Visible (ANSI)
100
AcDbVertex
100
AcDb2dVertex
 10
74.91096357418472
 20
110.8597597204808
 30
0.0
  0
VERTEX
  5
131
330
129
100
AcDbEntity
  8
Visible (ANSI)
100
AcDbVertex
100
AcDb2dVertex
 10
74.91766182213933
 20
110.8576451166423
 30
0.0
  0
VERTEX
  5
132
330
129
100
AcDbEntity
  8
Visible (ANSI)
100
AcDbVertex
100
AcDb2dVertex
 10
74.92417984817587
 20
110.8555365202009
 30
0.0
  0
VERTEX
  5
133
330
129
100
AcDbEntity
  8
Visible (ANSI)
100
AcDbVertex
100
AcDb2dVertex
 10
74.93049061900663
 20
110.8534219163624
 30
0.0
  0
VERTEX
  5
134
330
129
100
AcDbEntity
  8
Visible (ANSI)
100
AcDbVertex
100
AcDb2dVertex
 10
74.93656710134392
 20
110.8513073125238
 30
0.0
  0
VERTEX
  5
135
330
129
100
AcDbEntity
  8
Visible (ANSI)
100
AcDbVertex
100
AcDb2dVertex
 10
74.94238226190003
 20
110.8491987160825
 30
0.0
  0
VERTEX
  5
136
330
129
100
AcDbEntity
  8
Visible (ANSI)
100
AcDbVertex
100
AcDb2dVertex
 10
74.94791507478452
 20
110.8470841122439
 30
0.0
  0
VERTEX
  5
137
330
129
100
AcDbEntity
  8
Visible (ANSI)
100
AcDbVertex
100
AcDb2dVertex
 10
74.95313550301101
 20
110.8449755158026
 30
0.0
  0
VERTEX
  5
138
330
129
100
AcDbEntity
  8
Visible (ANSI)
100
AcDbVertex
100
AcDb2dVertex
 10
74.95802852808637
 20
110.842860911964
 30
0.0
  0
VERTEX
  5
139
330
129
100
AcDbEntity
  8
Visible (ANSI)
100
AcDbVertex
100
AcDb2dVertex
 10
74.96256711672287
 20
110.8407523155227
 30
0.0
  0
VERTEX
  5
13A
330
129
100
AcDbEntity
  8
Visible (ANSI)
100
AcDbVertex
100
AcDb2dVertex
 10
74.96673625042735
 20
110.8386377116841
 30
0.0
  0
VERTEX
  5
13B
330
129
100
AcDbEntity
  8
Visible (ANSI)
100
AcDbVertex
100
AcDb2dVertex
 10
74.97051490330935
 20
110.8365231078455
 30
0.0
  0
VERTEX
  5
13C
330
129
100
AcDbEntity
  8
Visible (ANSI)
100
AcDbVertex
100
AcDb2dVertex
 10
74.97388805687574
 20
110.8344145114042
 30
0.0
  0
VERTEX
  5
13D
330
129
100
AcDbEntity
  8
Visible (ANSI)
100
AcDbVertex
100
AcDb2dVertex
 10
74.9768406926333
 20
110.8322999075656
 30
0.0
  0
VERTEX
  5
13E
330
129
100
AcDbEntity
  8
Visible (ANSI)
100
AcDbVertex
100
AcDb2dVertex
 10
74.97936079578751
 20
110.8301913111243
 30
0.0
  0
VERTEX
  5
13F
330
129
100
AcDbEntity
  8
Visible (ANSI)
100
AcDbVertex
100
AcDb2dVertex
 10
74.98143935524248
 20
110.8280767072857
 30
0.0
  0
VERTEX
  5
140
330
129
100
AcDbEntity
  8
Visible (ANSI)
100
AcDbVertex
100
AcDb2dVertex
 10
74.98306435620367
 20
110.8259621034471
 30
0.0
  0
VERTEX
  5
141
330
129
100
AcDbEntity
  8
Visible (ANSI)
100
AcDbVertex
100
AcDb2dVertex
 10
74.9842297912738
 20
110.8238535070058
 30
0.0
  0
VERTEX
  5
142
330
129
100
AcDbEntity
  8
Visible (ANSI)
100
AcDbVertex
100
AcDb2dVertex
 10
74.9849296530556
 20
110.8217389031672
 30
0.0
  0
VERTEX
  5
143
330
129
100
AcDbEntity
  8
Visible (ANSI)
100
AcDbVertex
100
AcDb2dVertex
 10
74.98516394154908
 20
110.8196303067259
 30
0.0
  0
SEQEND
  5
12C
330
129
100
AcDbEntity
  8
Visible (ANSI)
  0
POLYLINE
  5
144
330
6C
100
AcDbEntity
  8
Visible (ANSI)
100
AcDb2dPolyline
 66
     1
 10
0.0
 20
0.0
 30
0.0
 70
   128
  0
VERTEX
  5
145
330
144
100
AcDbEntity
  8
Visible (ANSI)
100
AcDbVertex
100
AcDb2dVertex
 10
74.98516394154908
 20
33.13971055605428
 30
0.0
  0
VERTEX
  5
146
330
144
100
AcDbEntity
  8
Visible (ANSI)
100
AcDbVertex
100
AcDb2dVertex
 10
74.9849296530556
 20
33.13759841618724
 30
0.0
  0
VERTEX
  5
148
330
144
100
AcDbEntity
  8
Visible (ANSI)
100
AcDbVertex
100
AcDb2dVertex
 10
74.9842297912738
 20
33.13548627632019
 30
0.0
  0
VERTEX
  5
149
330
144
100
AcDbEntity
  8
Visible (ANSI)
100
AcDbVertex
100
AcDb2dVertex
 10
74.98306435620367
 20
33.13337414818634
 30
0.0
  0
VERTEX
  5
14A
330
144
100
AcDbEntity
  8
Visible (ANSI)
100
AcDbVertex
100
AcDb2dVertex
 10
74.98143935524248
 20
33.13126200831929
 30
0.0
  0
VERTEX
  5
14B
330
144
100
AcDbEntity
  8
Visible (ANSI)
100
AcDbVertex
100
AcDb2dVertex
 10
74.97936079578751
 20
33.12914986845225
 30
0.0
  0
VERTEX
  5
14C
330
144
100
AcDbEntity
  8
Visible (ANSI)
100
AcDbVertex
100
AcDb2dVertex
 10
74.9768406926333
 20
33.12703774031839
 30
0.0
  0
VERTEX
  5
14D
330
144
100
AcDbEntity
  8
Visible (ANSI)
100
AcDbVertex
100
AcDb2dVertex
 10
74.97388805687574
 20
33.12492560045135
 30
0.0
  0
VERTEX
  5
14E
330
144
100
AcDbEntity
  8
Visible (ANSI)
100
AcDbVertex
100
AcDb2dVertex
 10
74.97051490330935
 20
33.1228134605843
 30
0.0
  0
VERTEX
  5
14F
330
144
100
AcDbEntity
  8
Visible (ANSI)
100
AcDbVertex
100
AcDb2dVertex
 10
74.96673625042735
 20
33.12070133245046
 30
0.0
  0
VERTEX
  5
150
330
144
100
AcDbEntity
  8
Visible (ANSI)
100
AcDbVertex
100
AcDb2dVertex
 10
74.96256711672287
 20
33.11858919258341
 30
0.0
  0
VERTEX
  5
151
330
144
100
AcDbEntity
  8
Visible (ANSI)
100
AcDbVertex
100
AcDb2dVertex
 10
74.95802852808637
 20
33.11647705271636
 30
0.0
  0
VERTEX
  5
152
330
144
100
AcDbEntity
  8
Visible (ANSI)
100
AcDbVertex
100
AcDb2dVertex
 10
74.95313550301101
 20
33.11436492458251
 30
0.0
  0
VERTEX
  5
153
330
144
100
AcDbEntity
  8
Visible (ANSI)
100
AcDbVertex
100
AcDb2dVertex
 10
74.94791507478452
 20
33.11225278471547
 30
0.0
  0
VERTEX
  5
154
330
144
100
AcDbEntity
  8
Visible (ANSI)
100
AcDbVertex
100
AcDb2dVertex
 10
74.94238226190003
 20
33.11014065658162
 30
0.0
  0
VERTEX
  5
155
330
144
100
AcDbEntity
  8
Visible (ANSI)
100
AcDbVertex
100
AcDb2dVertex
 10
74.93656710134392
 20
33.10802851671457
 30
0.0
  0
VERTEX
  5
156
330
144
100
AcDbEntity
  8
Visible (ANSI)
100
AcDbVertex
100
AcDb2dVertex
 10
74.93049061900663
 20
33.10591637684753
 30
0.0
  0
VERTEX
  5
157
330
144
100
AcDbEntity
  8
Visible (ANSI)
100
AcDbVertex
100
AcDb2dVertex
 10
74.92417984817587
 20
33.10380424871367
 30
0.0
  0
VERTEX
  5
158
330
144
100
AcDbEntity
  8
Visible (ANSI)
100
AcDbVertex
100
AcDb2dVertex
 10
74.91766182213933
 20
33.10169210884663
 30
0.0
  0
VERTEX
  5
159
330
144
100
AcDbEntity
  8
Visible (ANSI)
100
AcDbVertex
100
AcDb2dVertex
 10
74.91096357418472
 20
33.09957996897958
 30
0.0
  0
VERTEX
  5
15A
330
144
100
AcDbEntity
  8
Visible (ANSI)
100
AcDbVertex
100
AcDb2dVertex
 10
74.9041151412984
 20
33.09746784084573
 30
0.0
  0
VERTEX
  5
15B
330
144
100
AcDbEntity
  8
Visible (ANSI)
100
AcDbVertex
100
AcDb2dVertex
 10
74.89714656046671
 20
33.09535570097869
 30
0.0
  0
VERTEX
  5
15C
330
144
100
AcDbEntity
  8
Visible (ANSI)
100
AcDbVertex
100
AcDb2dVertex
 10
74.89008786867599
 20
33.09324356111164
 30
0.0
  0
VERTEX
  5
15D
330
144
100
AcDbEntity
  8
Visible (ANSI)
100
AcDbVertex
100
AcDb2dVertex
 10
74.88296609921396
 20
33.09113143297779
 30
0.0
  0
VERTEX
  5
15E
330
144
100
AcDbEntity
  8
Visible (ANSI)
100
AcDbVertex
100
AcDb2dVertex
 10
74.87581429276556
 20
33.08901929311075
 30
0.0
  0
SEQEND
  5
147
330
144
100
AcDbEntity
  8
Visible (ANSI)
  0
POLYLINE
  5
15F
330
6C
100
AcDbEntity
  8
Visible (ANSI)
100
AcDb2dPolyline
 66
     1
 10
0.0
 20
0.0
 30
0.0
 70
   128
  0
VERTEX
  5
160
330
15F
100
AcDbEntity
  8
Visible (ANSI)
100
AcDbVertex
100
AcDb2dVertex
 10
43.09451442292033
 20
110.8703207248792
 30
0.0
  0
VERTEX
  5
161
330
15F
100
AcDbEntity
  8
Visible (ANSI)
100
AcDbVertex
100
AcDb2dVertex
 10
43.09662656278738
 20
110.877469527629
 30
0.0
  0
VERTEX
  5
163
330
15F
100
AcDbEntity
  8
Visible (ANSI)
100
AcDbVertex
100
AcDb2dVertex
 10
43.09873869092123
 20
110.8845943007896
 30
0.0
  0
VERTEX
  5
164
330
15F
100
AcDbEntity
  8
Visible (ANSI)
100
AcDbVertex
100
AcDb2dVertex
 10
43.10085083078827
 20
110.8916529925804
 30
0.0
  0
VERTEX
  5
165
330
15F
100
AcDbEntity
  8
Visible (ANSI)
100
AcDbVertex
100
AcDb2dVertex
 10
43.10296297065532
 20
110.8986215734121
 30
0.0
  0
VERTEX
  5
166
330
15F
100
AcDbEntity
  8
Visible (ANSI)
100
AcDbVertex
100
AcDb2dVertex
 10
43.10507509878917
 20
110.9054700062984
 30
0.0
  0
VERTEX
  5
167
330
15F
100
AcDbEntity
  8
Visible (ANSI)
100
AcDbVertex
100
AcDb2dVertex
 10
43.10718723865622
 20
110.912168254253
 30
0.0
  0
VERTEX
  5
168
330
15F
100
AcDbEntity
  8
Visible (ANSI)
100
AcDbVertex
100
AcDb2dVertex
 10
43.10929937852327
 20
110.9186862802895
 30
0.0
  0
VERTEX
  5
169
330
15F
100
AcDbEntity
  8
Visible (ANSI)
100
AcDbVertex
100
AcDb2dVertex
 10
43.11141150665711
 20
110.9249940474217
 30
0.0
  0
VERTEX
  5
16A
330
15F
100
AcDbEntity
  8
Visible (ANSI)
100
AcDbVertex
100
AcDb2dVertex
 10
43.11352364652416
 20
110.9310735334576
 30
0.0
  0
VERTEX
  5
16B
330
15F
100
AcDbEntity
  8
Visible (ANSI)
100
AcDbVertex
100
AcDb2dVertex
 10
43.11563578639121
 20
110.9368886940137
 30
0.0
  0
VERTEX
  5
16C
330
15F
100
AcDbEntity
  8
Visible (ANSI)
100
AcDbVertex
100
AcDb2dVertex
 10
43.11774791452505
 20
110.9424215068982
 30
0.0
  0
VERTEX
  5
16D
330
15F
100
AcDbEntity
  8
Visible (ANSI)
100
AcDbVertex
100
AcDb2dVertex
 10
43.1198600543921
 20
110.9476419351247
 30
0.0
  0
VERTEX
  5
16E
330
15F
100
AcDbEntity
  8
Visible (ANSI)
100
AcDbVertex
100
AcDb2dVertex
 10
43.12197218252594
 20
110.9525319565014
 30
0.0
  0
VERTEX
  5
16F
330
15F
100
AcDbEntity
  8
Visible (ANSI)
100
AcDbVertex
100
AcDb2dVertex
 10
43.12408432239299
 20
110.9570735488365
 30
0.0
  0
VERTEX
  5
170
330
15F
100
AcDbEntity
  8
Visible (ANSI)
100
AcDbVertex
100
AcDb2dVertex
 10
43.12619646226004
 20
110.961242682541
 30
0.0
  0
VERTEX
  5
171
330
15F
100
AcDbEntity
  8
Visible (ANSI)
100
AcDbVertex
100
AcDb2dVertex
 10
43.12830859039389
 20
110.965021335423
 30
0.0
  0
VERTEX
  5
172
330
15F
100
AcDbEntity
  8
Visible (ANSI)
100
AcDbVertex
100
AcDb2dVertex
 10
43.13042073026093
 20
110.9683914852908
 30
0.0
  0
VERTEX
  5
173
330
15F
100
AcDbEntity
  8
Visible (ANSI)
100
AcDbVertex
100
AcDb2dVertex
 10
43.13253287012798
 20
110.971347124747
 30
0.0
  0
VERTEX
  5
174
330
15F
100
AcDbEntity
  8
Visible (ANSI)
100
AcDbVertex
100
AcDb2dVertex
 10
43.13464499826184
 20
110.9738642242025
 30
0.0
  0
VERTEX
  5
175
330
15F
100
AcDbEntity
  8
Visible (ANSI)
100
AcDbVertex
100
AcDb2dVertex
 10
43.13675713812888
 20
110.9759427836575
 30
0.0
  0
VERTEX
  5
176
330
15F
100
AcDbEntity
  8
Visible (ANSI)
100
AcDbVertex
100
AcDb2dVertex
 10
43.13886927799592
 20
110.9775707883173
 30
0.0
  0
VERTEX
  5
177
330
15F
100
AcDbEntity
  8
Visible (ANSI)
100
AcDbVertex
100
AcDb2dVertex
 10
43.14098140612977
 20
110.9787362233875
 30
0.0
  0
VERTEX
  5
178
330
15F
100
AcDbEntity
  8
Visible (ANSI)
100
AcDbVertex
100
AcDb2dVertex
 10
43.14309354599682
 20
110.9794330814706
 30
0.0
  0
VERTEX
  5
179
330
15F
100
AcDbEntity
  8
Visible (ANSI)
100
AcDbVertex
100
AcDb2dVertex
 10
43.14520568586387
 20
110.9796673699641
 30
0.0
  0
SEQEND
  5
162
330
15F
100
AcDbEntity
  8
Visible (ANSI)
  0
POLYLINE
  5
17A
330
6C
100
AcDbEntity
  8
Visible (ANSI)
100
AcDb2dPolyline
 66
     1
 10
0.0
 20
0.0
 30
0.0
 70
   128
  0
VERTEX
  5
17B
330
17A
100
AcDbEntity
  8
Visible (ANSI)
100
AcDbVertex
100
AcDb2dVertex
 10
74.82512387461227
 20
110.9796673699641
 30
0.0
  0
VERTEX
  5
17C
330
17A
100
AcDbEntity
  8
Visible (ANSI)
100
AcDbVertex
100
AcDb2dVertex
 10
74.82723547475221
 20
110.9794330814706
 30
0.0
  0
VERTEX
  5
17E
330
17A
100
AcDbEntity
  8
Visible (ANSI)
100
AcDbVertex
100
AcDb2dVertex
 10
74.82934707489215
 20
110.9787362233875
 30
0.0
  0
VERTEX
  5
17F
330
17A
100
AcDbEntity
  8
Visible (ANSI)
100
AcDbVertex
100
AcDb2dVertex
 10
74.8314586750321
 20
110.9775707883173
 30
0.0
  0
VERTEX
  5
180
330
17A
100
AcDbEntity
  8
Visible (ANSI)
100
AcDbVertex
100
AcDb2dVertex
 10
74.83357027517205
 20
110.9759427836575
 30
0.0
  0
VERTEX
  5
181
330
17A
100
AcDbEntity
  8
Visible (ANSI)
100
AcDbVertex
100
AcDb2dVertex
 10
74.83568487901064
 20
110.9738642242025
 30
0.0
  0
VERTEX
  5
182
330
17A
100
AcDbEntity
  8
Visible (ANSI)
100
AcDbVertex
100
AcDb2dVertex
 10
74.83779647915058
 20
110.971347124747
 30
0.0
  0
VERTEX
  5
183
330
17A
100
AcDbEntity
  8
Visible (ANSI)
100
AcDbVertex
100
AcDb2dVertex
 10
74.83990807929053
 20
110.9683914852908
 30
0.0
  0
VERTEX
  5
184
330
17A
100
AcDbEntity
  8
Visible (ANSI)
100
AcDbVertex
100
AcDb2dVertex
 10
74.84201967943048
 20
110.965021335423
 30
0.0
  0
VERTEX
  5
185
330
17A
100
AcDbEntity
  8
Visible (ANSI)
100
AcDbVertex
100
AcDb2dVertex
 10
74.84413127957044
 20
110.961242682541
 30
0.0
  0
VERTEX
  5
186
330
17A
100
AcDbEntity
  8
Visible (ANSI)
100
AcDbVertex
100
AcDb2dVertex
 10
74.84624588340901
 20
110.9570735488365
 30
0.0
  0
VERTEX
  5
187
330
17A
100
AcDbEntity
  8
Visible (ANSI)
100
AcDbVertex
100
AcDb2dVertex
 10
74.84835748354896
 20
110.9525319565014
 30
0.0
  0
VERTEX
  5
188
330
17A
100
AcDbEntity
  8
Visible (ANSI)
100
AcDbVertex
100
AcDb2dVertex
 10
74.8504690836889
 20
110.9476419351247
 30
0.0
  0
VERTEX
  5
189
330
17A
100
AcDbEntity
  8
Visible (ANSI)
100
AcDbVertex
100
AcDb2dVertex
 10
74.85258068382886
 20
110.9424215068982
 30
0.0
  0
VERTEX
  5
18A
330
17A
100
AcDbEntity
  8
Visible (ANSI)
100
AcDbVertex
100
AcDb2dVertex
 10
74.8546922839688
 20
110.9368886940137
 30
0.0
  0
VERTEX
  5
18B
330
17A
100
AcDbEntity
  8
Visible (ANSI)
100
AcDbVertex
100
AcDb2dVertex
 10
74.85680388410876
 20
110.9310735334576
 30
0.0
  0
VERTEX
  5
18C
330
17A
100
AcDbEntity
  8
Visible (ANSI)
100
AcDbVertex
100
AcDb2dVertex
 10
74.85891848794733
 20
110.9249940474217
 30
0.0
  0
VERTEX
  5
18D
330
17A
100
AcDbEntity
  8
Visible (ANSI)
100
AcDbVertex
100
AcDb2dVertex
 10
74.86103008808729
 20
110.9186862802895
 30
0.0
  0
VERTEX
  5
18E
330
17A
100
AcDbEntity
  8
Visible (ANSI)
100
AcDbVertex
100
AcDb2dVertex
 10
74.86314168822724
 20
110.912168254253
 30
0.0
  0
VERTEX
  5
18F
330
17A
100
AcDbEntity
  8
Visible (ANSI)
100
AcDbVertex
100
AcDb2dVertex
 10
74.86525328836717
 20
110.9054700062984
 30
0.0
  0
VERTEX
  5
190
330
17A
100
AcDbEntity
  8
Visible (ANSI)
100
AcDbVertex
100
AcDb2dVertex
 10
74.86736488850714
 20
110.8986215734121
 30
0.0
  0
VERTEX
  5
191
330
17A
100
AcDbEntity
  8
Visible (ANSI)
100
AcDbVertex
100
AcDb2dVertex
 10
74.8694794923457
 20
110.8916529925804
 30
0.0
  0
VERTEX
  5
192
330
17A
100
AcDbEntity
  8
Visible (ANSI)
100
AcDbVertex
100
AcDb2dVertex
 10
74.87159109248567
 20
110.8845943007896
 30
0.0
  0
VERTEX
  5
193
330
17A
100
AcDbEntity
  8
Visible (ANSI)
100
AcDbVertex
100
AcDb2dVertex
 10
74.87370269262561
 20
110.877469527629
 30
0.0
  0
VERTEX
  5
194
330
17A
100
AcDbEntity
  8
Visible (ANSI)
100
AcDbVertex
100
AcDb2dVertex
 10
74.87581429276556
 20
110.8703207248792
 30
0.0
  0
SEQEND
  5
17D
330
17A
100
AcDbEntity
  8
Visible (ANSI)
  0
POLYLINE
  5
195
330
6C
100
AcDbEntity
  8
Visible (ANSI)
100
AcDb2dPolyline
 66
     1
 10
0.0
 20
0.0
 30
0.0
 70
   128
  0
VERTEX
  5
196
330
195
100
AcDbEntity
  8
Visible (ANSI)
100
AcDbVertex
100
AcDb2dVertex
 10
43.09451442292033
 20
33.08901929311075
 30
0.0
  0
VERTEX
  5
197
330
195
100
AcDbEntity
  8
Visible (ANSI)
100
AcDbVertex
100
AcDb2dVertex
 10
43.08736259300554
 20
33.09113143297779
 30
0.0
  0
VERTEX
  5
199
330
195
100
AcDbEntity
  8
Visible (ANSI)
100
AcDbVertex
100
AcDb2dVertex
 10
43.0802413808704
 20
33.09324356111164
 30
0.0
  0
VERTEX
  5
19A
330
195
100
AcDbEntity
  8
Visible (ANSI)
100
AcDbVertex
100
AcDb2dVertex
 10
43.07318129282914
 20
33.09535570097869
 30
0.0
  0
VERTEX
  5
19B
330
195
100
AcDbEntity
  8
Visible (ANSI)
100
AcDbVertex
100
AcDb2dVertex
 10
43.06621255946587
 20
33.09746784084573
 30
0.0
  0
VERTEX
  5
19C
330
195
100
AcDbEntity
  8
Visible (ANSI)
100
AcDbVertex
100
AcDb2dVertex
 10
43.05936501830259
 20
33.09957996897958
 30
0.0
  0
VERTEX
  5
19D
330
195
100
AcDbEntity
  8
Visible (ANSI)
100
AcDbVertex
100
AcDb2dVertex
 10
43.05266799060055
 20
33.10169210884663
 30
0.0
  0
VERTEX
  5
19E
330
195
100
AcDbEntity
  8
Visible (ANSI)
100
AcDbVertex
100
AcDb2dVertex
 10
43.04615015229518
 20
33.10380424871367
 30
0.0
  0
VERTEX
  5
19F
330
195
100
AcDbEntity
  8
Visible (ANSI)
100
AcDbVertex
100
AcDb2dVertex
 10
43.03983942253061
 20
33.10591637684753
 30
0.0
  0
VERTEX
  5
1A0
330
195
100
AcDbEntity
  8
Visible (ANSI)
100
AcDbVertex
100
AcDb2dVertex
 10
43.03376281699473
 20
33.10802851671457
 30
0.0
  0
VERTEX
  5
1A1
330
195
100
AcDbEntity
  8
Visible (ANSI)
100
AcDbVertex
100
AcDb2dVertex
 10
43.02794635992028
 20
33.11014065658162
 30
0.0
  0
VERTEX
  5
1A2
330
195
100
AcDbEntity
  8
Visible (ANSI)
100
AcDbVertex
100
AcDb2dVertex
 10
43.02241495795284
 20
33.11225278471547
 30
0.0
  0
VERTEX
  5
1A3
330
195
100
AcDbEntity
  8
Visible (ANSI)
100
AcDbVertex
100
AcDb2dVertex
 10
43.01719229455216
 20
33.11436492458251
 30
0.0
  0
VERTEX
  5
1A4
330
195
100
AcDbEntity
  8
Visible (ANSI)
100
AcDbVertex
100
AcDb2dVertex
 10
43.01230073905982
 20
33.11647705271636
 30
0.0
  0
VERTEX
  5
1A5
330
195
100
AcDbEntity
  8
Visible (ANSI)
100
AcDbVertex
100
AcDb2dVertex
 10
43.00776123376724
 20
33.11858919258341
 30
0.0
  0
VERTEX
  5
1A6
330
195
100
AcDbEntity
  8
Visible (ANSI)
100
AcDbVertex
100
AcDb2dVertex
 10
43.00359322058315
 20
33.12070133245046
 30
0.0
  0
VERTEX
  5
1A7
330
195
100
AcDbEntity
  8
Visible (ANSI)
100
AcDbVertex
100
AcDb2dVertex
 10
42.99981454423474
 20
33.1228134605843
 30
0.0
  0
VERTEX
  5
1A8
330
195
100
AcDbEntity
  8
Visible (ANSI)
100
AcDbVertex
100
AcDb2dVertex
 10
42.99644138773507
 20
33.12492560045135
 30
0.0
  0
VERTEX
  5
1A9
330
195
100
AcDbEntity
  8
Visible (ANSI)
100
AcDbVertex
100
AcDb2dVertex
 10
42.99348819538393
 20
33.12703774031839
 30
0.0
  0
VERTEX
  5
1AA
330
195
100
AcDbEntity
  8
Visible (ANSI)
100
AcDbVertex
100
AcDb2dVertex
 10
42.99096761263526
 20
33.12914986845225
 30
0.0
  0
VERTEX
  5
1AB
330
195
100
AcDbEntity
  8
Visible (ANSI)
100
AcDbVertex
100
AcDb2dVertex
 10
42.98889043293101
 20
33.13126200831929
 30
0.0
  0
VERTEX
  5
1AC
330
195
100
AcDbEntity
  8
Visible (ANSI)
100
AcDbVertex
100
AcDb2dVertex
 10
42.98726555168511
 20
33.13337414818634
 30
0.0
  0
VERTEX
  5
1AD
330
195
100
AcDbEntity
  8
Visible (ANSI)
100
AcDbVertex
100
AcDb2dVertex
 10
42.98609992659217
 20
33.13548627632019
 30
0.0
  0
VERTEX
  5
1AE
330
195
100
AcDbEntity
  8
Visible (ANSI)
100
AcDbVertex
100
AcDb2dVertex
 10
42.98539854889038
 20
33.13759841618724
 30
0.0
  0
VERTEX
  5
1AF
330
195
100
AcDbEntity
  8
Visible (ANSI)
100
AcDbVertex
100
AcDb2dVertex
 10
42.98516442214087
 20
33.13971055605428
 30
0.0
  0
SEQEND
  5
198
330
195
100
AcDbEntity
  8
Visible (ANSI)
  0
POLYLINE
  5
1B0
330
6C
100
AcDbEntity
  8
Visible (ANSI)
100
AcDb2dPolyline
 66
     1
 10
0.0
 20
0.0
 30
0.0
 70
   128
  0
VERTEX
  5
1B1
330
1B0
100
AcDbEntity
  8
Visible (ANSI)
100
AcDbVertex
100
AcDb2dVertex
 10
42.98516442214085
 20
110.8196303067259
 30
0.0
  0
VERTEX
  5
1B2
330
1B0
100
AcDbEntity
  8
Visible (ANSI)
100
AcDbVertex
100
AcDb2dVertex
 10
42.98539854889038
 20
110.8217389031672
 30
0.0
  0
VERTEX
  5
1B4
330
1B0
100
AcDbEntity
  8
Visible (ANSI)
100
AcDbVertex
100
AcDb2dVertex
 10
42.98609992659217
 20
110.8238535070058
 30
0.0
  0
VERTEX
  5
1B5
330
1B0
100
AcDbEntity
  8
Visible (ANSI)
100
AcDbVertex
100
AcDb2dVertex
 10
42.98726555168511
 20
110.8259621034471
 30
0.0
  0
VERTEX
  5
1B6
330
1B0
100
AcDbEntity
  8
Visible (ANSI)
100
AcDbVertex
100
AcDb2dVertex
 10
42.98889043293101
 20
110.8280767072857
 30
0.0
  0
VERTEX
  5
1B7
330
1B0
100
AcDbEntity
  8
Visible (ANSI)
100
AcDbVertex
100
AcDb2dVertex
 10
42.99096761263526
 20
110.8301913111243
 30
0.0
  0
VERTEX
  5
1B8
330
1B0
100
AcDbEntity
  8
Visible (ANSI)
100
AcDbVertex
100
AcDb2dVertex
 10
42.99348819538393
 20
110.8322999075656
 30
0.0
  0
VERTEX
  5
1B9
330
1B0
100
AcDbEntity
  8
Visible (ANSI)
100
AcDbVertex
100
AcDb2dVertex
 10
42.99644138773507
 20
110.8344145114042
 30
0.0
  0
VERTEX
  5
1BA
330
1B0
100
AcDbEntity
  8
Visible (ANSI)
100
AcDbVertex
100
AcDb2dVertex
 10
42.99981454423474
 20
110.8365231078455
 30
0.0
  0
VERTEX
  5
1BB
330
1B0
100
AcDbEntity
  8
Visible (ANSI)
100
AcDbVertex
100
AcDb2dVertex
 10
43.00359322058315
 20
110.8386377116841
 30
0.0
  0
VERTEX
  5
1BC
330
1B0
100
AcDbEntity
  8
Visible (ANSI)
100
AcDbVertex
100
AcDb2dVertex
 10
43.00776123376724
 20
110.8407523155227
 30
0.0
  0
VERTEX
  5
1BD
330
1B0
100
AcDbEntity
  8
Visible (ANSI)
100
AcDbVertex
100
AcDb2dVertex
 10
43.01230073905982
 20
110.842860911964
 30
0.0
  0
VERTEX
  5
1BE
330
1B0
100
AcDbEntity
  8
Visible (ANSI)
100
AcDbVertex
100
AcDb2dVertex
 10
43.01719229455216
 20
110.8449755158026
 30
0.0
  0
VERTEX
  5
1BF
330
1B0
100
AcDbEntity
  8
Visible (ANSI)
100
AcDbVertex
100
AcDb2dVertex
 10
43.02241495795284
 20
110.8470841122439
 30
0.0
  0
VERTEX
  5
1C0
330
1B0
100
AcDbEntity
  8
Visible (ANSI)
100
AcDbVertex
100
AcDb2dVertex
 10
43.02794635992028
 20
110.8491987160825
 30
0.0
  0
VERTEX
  5
1C1
330
1B0
100
AcDbEntity
  8
Visible (ANSI)
100
AcDbVertex
100
AcDb2dVertex
 10
43.03376281699473
 20
110.8513073125238
 30
0.0
  0
VERTEX
  5
1C2
330
1B0
100
AcDbEntity
  8
Visible (ANSI)
100
AcDbVertex
100
AcDb2dVertex
 10
43.03983942253061
 20
110.8534219163624
 30
0.0
  0
VERTEX
  5
1C3
330
1B0
100
AcDbEntity
  8
Visible (ANSI)
100
AcDbVertex
100
AcDb2dVertex
 10
43.04615015229518
 20
110.8555365202009
 30
0.0
  0
VERTEX
  5
1C4
330
1B0
100
AcDbEntity
  8
Visible (ANSI)
100
AcDbVertex
100
AcDb2dVertex
 10
43.05266799060055
 20
110.8576451166423
 30
0.0
  0
VERTEX
  5
1C5
330
1B0
100
AcDbEntity
  8
Visible (ANSI)
100
AcDbVertex
100
AcDb2dVertex
 10
43.05936501830259
 20
110.8597597204808
 30
0.0
  0
VERTEX
  5
1C6
330
1B0
100
AcDbEntity
  8
Visible (ANSI)
100
AcDbVertex
100
AcDb2dVertex
 10
43.06621255946587
 20
110.8618683169222
 30
0.0
  0
VERTEX
  5
1C7
330
1B0
100
AcDbEntity
  8
Visible (ANSI)
100
AcDbVertex
100
AcDb2dVertex
 10
43.07318129282914
 20
110.8639829207607
 30
0.0
  0
VERTEX
  5
1C8
330
1B0
100
AcDbEntity
  8
Visible (ANSI)
100
AcDbVertex
100
AcDb2dVertex
 10
43.0802413808704
 20
110.8660975245993
 30
0.0
  0
VERTEX
  5
1C9
330
1B0
100
AcDbEntity
  8
Visible (ANSI)
100
AcDbVertex
100
AcDb2dVertex
 10
43.08736259300554
 20
110.8682061210406
 30
0.0
  0
VERTEX
  5
1CA
330
1B0
100
AcDbEntity
  8
Visible (ANSI)
100
AcDbVertex
100
AcDb2dVertex
 10
43.09451442292033
 20
110.8703207248792
 30
0.0
  0
SEQEND
  5
1B3
330
1B0
100
AcDbEntity
  8
Visible (ANSI)
  0
POLYLINE
  5
1CB
330
6C
100
AcDbEntity
  8
Visible (ANSI)
100
AcDb2dPolyline
 66
     1
 10
0.0
 20
0.0
 30
0.0
 70
   128
  0
VERTEX
  5
1CC
330
1CB
100
AcDbEntity
  8
Visible (ANSI)
100
AcDbVertex
100
AcDb2dVertex
 10
74.87581429276556
 20
33.08901929311075
 30
0.0
  0
VERTEX
  5
1CD
330
1CB
100
AcDbEntity
  8
Visible (ANSI)
100
AcDbVertex
100
AcDb2dVertex
 10
74.87370269262561
 20
33.08186746319595
 30
0.0
  0
VERTEX
  5
1CF
330
1CB
100
AcDbEntity
  8
Visible (ANSI)
100
AcDbVertex
100
AcDb2dVertex
 10
74.87159109248567
 20
33.07474625106081
 30
0.0
  0
VERTEX
  5
1D0
330
1CB
100
AcDbEntity
  8
Visible (ANSI)
100
AcDbVertex
100
AcDb2dVertex
 10
74.8694794923457
 20
33.06768616301955
 30
0.0
  0
VERTEX
  5
1D1
330
1CB
100
AcDbEntity
  8
Visible (ANSI)
100
AcDbVertex
100
AcDb2dVertex
 10
74.86736488850714
 20
33.06071742965629
 30
0.0
  0
VERTEX
  5
1D2
330
1CB
100
AcDbEntity
  8
Visible (ANSI)
100
AcDbVertex
100
AcDb2dVertex
 10
74.86525328836717
 20
33.053869888493
 30
0.0
  0
VERTEX
  5
1D3
330
1CB
100
AcDbEntity
  8
Visible (ANSI)
100
AcDbVertex
100
AcDb2dVertex
 10
74.86314168822724
 20
33.04717286079096
 30
0.0
  0
VERTEX
  5
1D4
330
1CB
100
AcDbEntity
  8
Visible (ANSI)
100
AcDbVertex
100
AcDb2dVertex
 10
74.86103008808729
 20
33.04065502248559
 30
0.0
  0
VERTEX
  5
1D5
330
1CB
100
AcDbEntity
  8
Visible (ANSI)
100
AcDbVertex
100
AcDb2dVertex
 10
74.85891848794733
 20
33.03434429272102
 30
0.0
  0
VERTEX
  5
1D6
330
1CB
100
AcDbEntity
  8
Visible (ANSI)
100
AcDbVertex
100
AcDb2dVertex
 10
74.85680388410876
 20
33.02826768718515
 30
0.0
  0
VERTEX
  5
1D7
330
1CB
100
AcDbEntity
  8
Visible (ANSI)
100
AcDbVertex
100
AcDb2dVertex
 10
74.8546922839688
 20
33.02245123011069
 30
0.0
  0
VERTEX
  5
1D8
330
1CB
100
AcDbEntity
  8
Visible (ANSI)
100
AcDbVertex
100
AcDb2dVertex
 10
74.85258068382886
 20
33.01691982814325
 30
0.0
  0
VERTEX
  5
1D9
330
1CB
100
AcDbEntity
  8
Visible (ANSI)
100
AcDbVertex
100
AcDb2dVertex
 10
74.8504690836889
 20
33.01169716474257
 30
0.0
  0
VERTEX
  5
1DA
330
1CB
100
AcDbEntity
  8
Visible (ANSI)
100
AcDbVertex
100
AcDb2dVertex
 10
74.84835748354896
 20
33.00680560925024
 30
0.0
  0
VERTEX
  5
1DB
330
1CB
100
AcDbEntity
  8
Visible (ANSI)
100
AcDbVertex
100
AcDb2dVertex
 10
74.84624588340901
 20
33.00226610395765
 30
0.0
  0
VERTEX
  5
1DC
330
1CB
100
AcDbEntity
  8
Visible (ANSI)
100
AcDbVertex
100
AcDb2dVertex
 10
74.84413127957044
 20
32.99809809077357
 30
0.0
  0
VERTEX
  5
1DD
330
1CB
100
AcDbEntity
  8
Visible (ANSI)
100
AcDbVertex
100
AcDb2dVertex
 10
74.84201967943048
 20
32.99431941442516
 30
0.0
  0
VERTEX
  5
1DE
330
1CB
100
AcDbEntity
  8
Visible (ANSI)
100
AcDbVertex
100
AcDb2dVertex
 10
74.83990807929053
 20
32.99094625792548
 30
0.0
  0
VERTEX
  5
1DF
330
1CB
100
AcDbEntity
  8
Visible (ANSI)
100
AcDbVertex
100
AcDb2dVertex
 10
74.83779647915058
 20
32.98799306557434
 30
0.0
  0
VERTEX
  5
1E0
330
1CB
100
AcDbEntity
  8
Visible (ANSI)
100
AcDbVertex
100
AcDb2dVertex
 10
74.83568487901064
 20
32.98547248282567
 30
0.0
  0
VERTEX
  5
1E1
330
1CB
100
AcDbEntity
  8
Visible (ANSI)
100
AcDbVertex
100
AcDb2dVertex
 10
74.83357027517205
 20
32.98339530312143
 30
0.0
  0
VERTEX
  5
1E2
330
1CB
100
AcDbEntity
  8
Visible (ANSI)
100
AcDbVertex
100
AcDb2dVertex
 10
74.8314586750321
 20
32.98177042187552
 30
0.0
  0
VERTEX
  5
1E3
330
1CB
100
AcDbEntity
  8
Visible (ANSI)
100
AcDbVertex
100
AcDb2dVertex
 10
74.82934707489215
 20
32.98060479678259
 30
0.0
  0
VERTEX
  5
1E4
330
1CB
100
AcDbEntity
  8
Visible (ANSI)
100
AcDbVertex
100
AcDb2dVertex
 10
74.82723547475221
 20
32.9799034190808
 30
0.0
  0
VERTEX
  5
1E5
330
1CB
100
AcDbEntity
  8
Visible (ANSI)
100
AcDbVertex
100
AcDb2dVertex
 10
74.82512387461227
 20
32.97966929233128
 30
0.0
  0
SEQEND
  5
1CE
330
1CB
100
AcDbEntity
  8
Visible (ANSI)
  0
POLYLINE
  5
1E6
330
6C
100
AcDbEntity
  8
Visible (ANSI)
100
AcDb2dPolyline
 66
     1
 10
0.0
 20
0.0
 30
0.0
 70
   128
  0
VERTEX
  5
1E7
330
1E6
100
AcDbEntity
  8
Visible (ANSI)
100
AcDbVertex
100
AcDb2dVertex
 10
43.14520568586387
 20
32.97966929233128
 30
0.0
  0
VERTEX
  5
1E8
330
1E6
100
AcDbEntity
  8
Visible (ANSI)
100
AcDbVertex
100
AcDb2dVertex
 10
43.14309354599682
 20
32.9799034190808
 30
0.0
  0
VERTEX
  5
1EA
330
1E6
100
AcDbEntity
  8
Visible (ANSI)
100
AcDbVertex
100
AcDb2dVertex
 10
43.14098140612977
 20
32.98060479678259
 30
0.0
  0
VERTEX
  5
1EB
330
1E6
100
AcDbEntity
  8
Visible (ANSI)
100
AcDbVertex
100
AcDb2dVertex
 10
43.13886927799592
 20
32.98177042187552
 30
0.0
  0
VERTEX
  5
1EC
330
1E6
100
AcDbEntity
  8
Visible (ANSI)
100
AcDbVertex
100
AcDb2dVertex
 10
43.13675713812888
 20
32.98339530312143
 30
0.0
  0
VERTEX
  5
1ED
330
1E6
100
AcDbEntity
  8
Visible (ANSI)
100
AcDbVertex
100
AcDb2dVertex
 10
43.13464499826184
 20
32.98547248282567
 30
0.0
  0
VERTEX
  5
1EE
330
1E6
100
AcDbEntity
  8
Visible (ANSI)
100
AcDbVertex
100
AcDb2dVertex
 10
43.13253287012798
 20
32.98799306557434
 30
0.0
  0
VERTEX
  5
1EF
330
1E6
100
AcDbEntity
  8
Visible (ANSI)
100
AcDbVertex
100
AcDb2dVertex
 10
43.13042073026093
 20
32.99094625792548
 30
0.0
  0
VERTEX
  5
1F0
330
1E6
100
AcDbEntity
  8
Visible (ANSI)
100
AcDbVertex
100
AcDb2dVertex
 10
43.12830859039389
 20
32.99431941442516
 30
0.0
  0
VERTEX
  5
1F1
330
1E6
100
AcDbEntity
  8
Visible (ANSI)
100
AcDbVertex
100
AcDb2dVertex
 10
43.12619646226004
 20
32.99809809077357
 30
0.0
  0
VERTEX
  5
1F2
330
1E6
100
AcDbEntity
  8
Visible (ANSI)
100
AcDbVertex
100
AcDb2dVertex
 10
43.12408432239299
 20
33.00226610395765
 30
0.0
  0
VERTEX
  5
1F3
330
1E6
100
AcDbEntity
  8
Visible (ANSI)
100
AcDbVertex
100
AcDb2dVertex
 10
43.12197218252594
 20
33.00680560925024
 30
0.0
  0
VERTEX
  5
1F4
330
1E6
100
AcDbEntity
  8
Visible (ANSI)
100
AcDbVertex
100
AcDb2dVertex
 10
43.1198600543921
 20
33.01169716474257
 30
0.0
  0
VERTEX
  5
1F5
330
1E6
100
AcDbEntity
  8
Visible (ANSI)
100
AcDbVertex
100
AcDb2dVertex
 10
43.11774791452505
 20
33.01691982814325
 30
0.0
  0
VERTEX
  5
1F6
330
1E6
100
AcDbEntity
  8
Visible (ANSI)
100
AcDbVertex
100
AcDb2dVertex
 10
43.11563578639121
 20
33.02245123011069
 30
0.0
  0
VERTEX
  5
1F7
330
1E6
100
AcDbEntity
  8
Visible (ANSI)
100
AcDbVertex
100
AcDb2dVertex
 10
43.11352364652416
 20
33.02826768718515
 30
0.0
  0
VERTEX
  5
1F8
330
1E6
100
AcDbEntity
  8
Visible (ANSI)
100
AcDbVertex
100
AcDb2dVertex
 10
43.11141150665711
 20
33.03434429272102
 30
0.0
  0
VERTEX
  5
1F9
330
1E6
100
AcDbEntity
  8
Visible (ANSI)
100
AcDbVertex
100
AcDb2dVertex
 10
43.10929937852327
 20
33.04065502248559
 30
0.0
  0
VERTEX
  5
1FA
330
1E6
100
AcDbEntity
  8
Visible (ANSI)
100
AcDbVertex
100
AcDb2dVertex
 10
43.10718723865622
 20
33.04717286079096
 30
0.0
  0
VERTEX
  5
1FB
330
1E6
100
AcDbEntity
  8
Visible (ANSI)
100
AcDbVertex
100
AcDb2dVertex
 10
43.10507509878917
 20
33.053869888493
 30
0.0
  0
VERTEX
  5
1FC
330
1E6
100
AcDbEntity
  8
Visible (ANSI)
100
AcDbVertex
100
AcDb2dVertex
 10
43.10296297065532
 20
33.06071742965629
 30
0.0
  0
VERTEX
  5
1FD
330
1E6
100
AcDbEntity
  8
Visible (ANSI)
100
AcDbVertex
100
AcDb2dVertex
 10
43.10085083078827
 20
33.06768616301955
 30
0.0
  0
VERTEX
  5
1FE
330
1E6
100
AcDbEntity
  8
Visible (ANSI)
100
AcDbVertex
100
AcDb2dVertex
 10
43.09873869092123
 20
33.07474625106081
 30
0.0
  0
VERTEX
  5
1FF
330
1E6
100
AcDbEntity
  8
Visible (ANSI)
100
AcDbVertex
100
AcDb2dVertex
 10
43.09662656278738
 20
33.08186746319595
 30
0.0
  0
VERTEX
  5
200
330
1E6
100
AcDbEntity
  8
Visible (ANSI)
100
AcDbVertex
100
AcDb2dVertex
 10
43.09451442292033
 20
33.08901929311075
 30
0.0
  0
SEQEND
  5
1E9
330
1E6
100
AcDbEntity
  8
Visible (ANSI)
  0
LINE
  5
201
330
6C
100
AcDbEntity
  8
Hidden (ANSI)
 48
0.0126546649262309
100
AcDbLine
 10
74.89141442214088
 20
33.13971055306752
 30
0.0
 11
74.98516442214087
 21
33.13971055306752
 31
0.0
  0
POLYLINE
  5
202
330
6C
100
AcDbEntity
  8
Hidden (ANSI)
 48
0.0075598061084747
100
AcDb2dPolyline
 66
     1
 10
0.0
 20
0.0
 30
0.0
 70
   128
  0
VERTEX
  5
203
330
202
100
AcDbEntity
  8
Hidden (ANSI)
 48
0.0075598061084747
100
AcDbVertex
100
AcDb2dVertex
 10
74.87581429276556
 20
33.08901929311075
 30
0.0
  0
VERTEX
  5
204
330
202
100
AcDbEntity
  8
Hidden (ANSI)
 48
0.0075598061084747
100
AcDbVertex
100
AcDb2dVertex
 10
74.87683555030123
 20
33.09113143297779
 30
0.0
  0
VERTEX
  5
206
330
202
100
AcDbEntity
  8
Hidden (ANSI)
 48
0.0075598061084747
100
AcDbVertex
100
AcDb2dVertex
 10
74.87785080043964
 20
33.09324356111164
 30
0.0
  0
VERTEX
  5
207
330
202
100
AcDbEntity
  8
Hidden (ANSI)
 48
0.0075598061084747
100
AcDbVertex
100
AcDb2dVertex
 10
74.87885703948215
 20
33.09535570097869
 30
0.0
  0
VERTEX
  5
208
330
202
100
AcDbEntity
  8
Hidden (ANSI)
 48
0.0075598061084747
100
AcDbVertex
100
AcDb2dVertex
 10
74.87985126373013
 20
33.09746784084573
 30
0.0
  0
VERTEX
  5
209
330
202
100
AcDbEntity
  8
Hidden (ANSI)
 48
0.0075598061084747
100
AcDbVertex
100
AcDb2dVertex
 10
74.8808274657863
 20
33.09957996897958
 30
0.0
  0
VERTEX
  5
20A
330
202
100
AcDbEntity
  8
Hidden (ANSI)
 48
0.0075598061084747
100
AcDbVertex
100
AcDb2dVertex
 10
74.88178564565065
 20
33.10169210884663
 30
0.0
  0
VERTEX
  5
20B
330
202
100
AcDbEntity
  8
Hidden (ANSI)
 48
0.0075598061084747
100
AcDbVertex
100
AcDb2dVertex
 10
74.88271378852866
 20
33.10380424871367
 30
0.0
  0
VERTEX
  5
20C
330
202
100
AcDbEntity
  8
Hidden (ANSI)
 48
0.0075598061084747
100
AcDbVertex
100
AcDb2dVertex
 10
74.88361489811897
 20
33.10591637684753
 30
0.0
  0
VERTEX
  5
20D
330
202
100
AcDbEntity
  8
Hidden (ANSI)
 48
0.0075598061084747
100
AcDbVertex
100
AcDb2dVertex
 10
74.88447996332566
 20
33.10802851671457
 30
0.0
  0
VERTEX
  5
20E
330
202
100
AcDbEntity
  8
Hidden (ANSI)
 48
0.0075598061084747
100
AcDbVertex
100
AcDb2dVertex
 10
74.88531198784738
 20
33.11014065658162
 30
0.0
  0
VERTEX
  5
20F
330
202
100
AcDbEntity
  8
Hidden (ANSI)
 48
0.0075598061084747
100
AcDbVertex
100
AcDb2dVertex
 10
74.88609895688958
 20
33.11225278471547
 30
0.0
  0
VERTEX
  5
210
330
202
100
AcDbEntity
  8
Hidden (ANSI)
 48
0.0075598061084747
100
AcDbVertex
100
AcDb2dVertex
 10
74.8868438741509
 20
33.11436492458251
 30
0.0
  0
VERTEX
  5
211
330
202
100
AcDbEntity
  8
Hidden (ANSI)
 48
0.0075598061084747
100
AcDbVertex
100
AcDb2dVertex
 10
74.8875437359327
 20
33.11647705271636
 30
0.0
  0
VERTEX
  5
212
330
202
100
AcDbEntity
  8
Hidden (ANSI)
 48
0.0075598061084747
100
AcDbVertex
100
AcDb2dVertex
 10
74.88818953113907
 20
33.11858919258341
 30
0.0
  0
VERTEX
  5
213
330
202
100
AcDbEntity
  8
Hidden (ANSI)
 48
0.0075598061084747
100
AcDbVertex
100
AcDb2dVertex
 10
74.88878426346868
 20
33.12070133245046
 30
0.0
  0
VERTEX
  5
214
330
202
100
AcDbEntity
  8
Hidden (ANSI)
 48
0.0075598061084747
100
AcDbVertex
100
AcDb2dVertex
 10
74.88932492922287
 20
33.1228134605843
 30
0.0
  0
VERTEX
  5
215
330
202
100
AcDbEntity
  8
Hidden (ANSI)
 48
0.0075598061084747
100
AcDbVertex
100
AcDb2dVertex
 10
74.88980552100436
 20
33.12492560045135
 30
0.0
  0
VERTEX
  5
216
330
202
100
AcDbEntity
  8
Hidden (ANSI)
 48
0.0075598061084747
100
AcDbVertex
100
AcDb2dVertex
 10
74.89022603881316
 20
33.12703774031839
 30
0.0
  0
VERTEX
  5
217
330
202
100
AcDbEntity
  8
Hidden (ANSI)
 48
0.0075598061084747
100
AcDbVertex
100
AcDb2dVertex
 10
74.89058648264929
 20
33.12914986845225
 30
0.0
  0
VERTEX
  5
218
330
202
100
AcDbEntity
  8
Hidden (ANSI)
 48
0.0075598061084747
100
AcDbVertex
100
AcDb2dVertex
 10
74.89088384881409
 20
33.13126200831929
 30
0.0
  0
VERTEX
  5
219
330
202
100
AcDbEntity
  8
Hidden (ANSI)
 48
0.0075598061084747
100
AcDbVertex
100
AcDb2dVertex
 10
74.89111513360893
 20
33.13337414818634
 30
0.0
  0
VERTEX
  5
21A
330
202
100
AcDbEntity
  8
Hidden (ANSI)
 48
0.0075598061084747
100
AcDbVertex
100
AcDb2dVertex
 10
74.89128033703382
 20
33.13548627632019
 30
0.0
  0
VERTEX
  5
21B
330
202
100
AcDbEntity
  8
Hidden (ANSI)
 48
0.0075598061084747
100
AcDbVertex
100
AcDb2dVertex
 10
74.89138246278739
 20
33.13759841618724
 30
0.0
  0
VERTEX
  5
21C
330
202
100
AcDbEntity
  8
Hidden (ANSI)
 48
0.0075598061084747
100
AcDbVertex
100
AcDb2dVertex
 10
74.89141550347238
 20
33.13971055605428
 30
0.0
  0
SEQEND
  5
205
330
202
100
AcDbEntity
  8
Hidden (ANSI)
 48
0.0075598061084747
  0
LINE
  5
21D
330
6C
100
AcDbEntity
  8
Hidden (ANSI)
 48
0.0126546649262309
100
AcDbLine
 10
74.89141442214084
 20
110.819628031595
 30
0.0
 11
74.98516442214084
 21
110.819628031595
 31
0.0
  0
POLYLINE
  5
21E
330
6C
100
AcDbEntity
  8
Hidden (ANSI)
 48
0.0075597036629915
100
AcDb2dPolyline
 66
     1
 10
0.0
 20
0.0
 30
0.0
 70
   128
  0
VERTEX
  5
21F
330
21E
100
AcDbEntity
  8
Hidden (ANSI)
 48
0.0075597036629915
100
AcDbVertex
100
AcDb2dVertex
 10
74.87581429276556
 20
110.8703207248792
 30
0.0
  0
VERTEX
  5
220
330
21E
100
AcDbEntity
  8
Hidden (ANSI)
 48
0.0075597036629915
100
AcDbVertex
100
AcDb2dVertex
 10
74.87683555030123
 20
110.8682061210406
 30
0.0
  0
VERTEX
  5
222
330
21E
100
AcDbEntity
  8
Hidden (ANSI)
 48
0.0075597036629915
100
AcDbVertex
100
AcDb2dVertex
 10
74.87785080043964
 20
110.8660975245993
 30
0.0
  0
VERTEX
  5
223
330
21E
100
AcDbEntity
  8
Hidden (ANSI)
 48
0.0075597036629915
100
AcDbVertex
100
AcDb2dVertex
 10
74.87885703948215
 20
110.8639829207607
 30
0.0
  0
VERTEX
  5
224
330
21E
100
AcDbEntity
  8
Hidden (ANSI)
 48
0.0075597036629915
100
AcDbVertex
100
AcDb2dVertex
 10
74.87985126373013
 20
110.8618683169222
 30
0.0
  0
VERTEX
  5
225
330
21E
100
AcDbEntity
  8
Hidden (ANSI)
 48
0.0075597036629915
100
AcDbVertex
100
AcDb2dVertex
 10
74.8808274657863
 20
110.8597597204808
 30
0.0
  0
VERTEX
  5
226
330
21E
100
AcDbEntity
  8
Hidden (ANSI)
 48
0.0075597036629915
100
AcDbVertex
100
AcDb2dVertex
 10
74.88178564565065
 20
110.8576451166423
 30
0.0
  0
VERTEX
  5
227
330
21E
100
AcDbEntity
  8
Hidden (ANSI)
 48
0.0075597036629915
100
AcDbVertex
100
AcDb2dVertex
 10
74.88271378852866
 20
110.8555365202009
 30
0.0
  0
VERTEX
  5
228
330
21E
100
AcDbEntity
  8
Hidden (ANSI)
 48
0.0075597036629915
100
AcDbVertex
100
AcDb2dVertex
 10
74.88361489811897
 20
110.8534219163624
 30
0.0
  0
VERTEX
  5
229
330
21E
100
AcDbEntity
  8
Hidden (ANSI)
 48
0.0075597036629915
100
AcDbVertex
100
AcDb2dVertex
 10
74.88447996332566
 20
110.8513073125238
 30
0.0
  0
VERTEX
  5
22A
330
21E
100
AcDbEntity
  8
Hidden (ANSI)
 48
0.0075597036629915
100
AcDbVertex
100
AcDb2dVertex
 10
74.88531198784738
 20
110.8491987160825
 30
0.0
  0
VERTEX
  5
22B
330
21E
100
AcDbEntity
  8
Hidden (ANSI)
 48
0.0075597036629915
100
AcDbVertex
100
AcDb2dVertex
 10
74.88609895688958
 20
110.8470841122439
 30
0.0
  0
VERTEX
  5
22C
330
21E
100
AcDbEntity
  8
Hidden (ANSI)
 48
0.0075597036629915
100
AcDbVertex
100
AcDb2dVertex
 10
74.8868438741509
 20
110.8449755158026
 30
0.0
  0
VERTEX
  5
22D
330
21E
100
AcDbEntity
  8
Hidden (ANSI)
 48
0.0075597036629915
100
AcDbVertex
100
AcDb2dVertex
 10
74.8875437359327
 20
110.842860911964
 30
0.0
  0
VERTEX
  5
22E
330
21E
100
AcDbEntity
  8
Hidden (ANSI)
 48
0.0075597036629915
100
AcDbVertex
100
AcDb2dVertex
 10
74.88818953113907
 20
110.8407523155227
 30
0.0
  0
VERTEX
  5
22F
330
21E
100
AcDbEntity
  8
Hidden (ANSI)
 48
0.0075597036629915
100
AcDbVertex
100
AcDb2dVertex
 10
74.88878426346868
 20
110.8386377116841
 30
0.0
  0
VERTEX
  5
230
330
21E
100
AcDbEntity
  8
Hidden (ANSI)
 48
0.0075597036629915
100
AcDbVertex
100
AcDb2dVertex
 10
74.88932492922287
 20
110.8365231078455
 30
0.0
  0
VERTEX
  5
231
330
21E
100
AcDbEntity
  8
Hidden (ANSI)
 48
0.0075597036629915
100
AcDbVertex
100
AcDb2dVertex
 10
74.88980552100436
 20
110.8344145114042
 30
0.0
  0
VERTEX
  5
232
330
21E
100
AcDbEntity
  8
Hidden (ANSI)
 48
0.0075597036629915
100
AcDbVertex
100
AcDb2dVertex
 10
74.89022603881316
 20
110.8322999075656
 30
0.0
  0
VERTEX
  5
233
330
21E
100
AcDbEntity
  8
Hidden (ANSI)
 48
0.0075597036629915
100
AcDbVertex
100
AcDb2dVertex
 10
74.89058648264929
 20
110.8301913111243
 30
0.0
  0
VERTEX
  5
234
330
21E
100
AcDbEntity
  8
Hidden (ANSI)
 48
0.0075597036629915
100
AcDbVertex
100
AcDb2dVertex
 10
74.89088384881409
 20
110.8280767072857
 30
0.0
  0
VERTEX
  5
235
330
21E
100
AcDbEntity
  8
Hidden (ANSI)
 48
0.0075597036629915
100
AcDbVertex
100
AcDb2dVertex
 10
74.89111513360893
 20
110.8259621034471
 30
0.0
  0
VERTEX
  5
236
330
21E
100
AcDbEntity
  8
Hidden (ANSI)
 48
0.0075597036629915
100
AcDbVertex
100
AcDb2dVertex
 10
74.89128033703382
 20
110.8238535070058
 30
0.0
  0
VERTEX
  5
237
330
21E
100
AcDbEntity
  8
Hidden (ANSI)
 48
0.0075597036629915
100
AcDbVertex
100
AcDb2dVertex
 10
74.89138246278739
 20
110.8217389031672
 30
0.0
  0
VERTEX
  5
238
330
21E
100
AcDbEntity
  8
Hidden (ANSI)
 48
0.0075597036629915
100
AcDbVertex
100
AcDb2dVertex
 10
74.89141550347238
 20
110.8196303067259
 30
0.0
  0
SEQEND
  5
221
330
21E
100
AcDbEntity
  8
Hidden (ANSI)
 48
0.0075597036629915
  0
LINE
  5
239
330
6C
100
AcDbEntity
  8
Hidden (ANSI)
 48
0.0126546649262309
100
AcDbLine
 10
74.82512316140461
 20
110.8859192923313
 30
0.0
 11
74.82512316140461
 21
110.9796692923312
 31
0.0
  0
POLYLINE
  5
23A
330
6C
100
AcDbEntity
  8
Hidden (ANSI)
 48
0.0075596394017339
100
AcDb2dPolyline
 66
     1
 10
0.0
 20
0.0
 30
0.0
 70
   128
  0
VERTEX
  5
23B
330
23A
100
AcDbEntity
  8
Hidden (ANSI)
 48
0.0075596394017339
100
AcDbVertex
100
AcDb2dVertex
 10
74.87581429276556
 20
110.8703207248792
 30
0.0
  0
VERTEX
  5
23C
330
23A
100
AcDbEntity
  8
Hidden (ANSI)
 48
0.0075596394017339
100
AcDbVertex
100
AcDb2dVertex
 10
74.87370269262561
 20
110.8713419824149
 30
0.0
  0
VERTEX
  5
23E
330
23A
100
AcDbEntity
  8
Hidden (ANSI)
 48
0.0075596394017339
100
AcDbVertex
100
AcDb2dVertex
 10
74.87159109248567
 20
110.8723572325533
 30
0.0
  0
VERTEX
  5
23F
330
23A
100
AcDbEntity
  8
Hidden (ANSI)
 48
0.0075596394017339
100
AcDbVertex
100
AcDb2dVertex
 10
74.8694794923457
 20
110.8733604678972
 30
0.0
  0
VERTEX
  5
240
330
23A
100
AcDbEntity
  8
Hidden (ANSI)
 48
0.0075596394017339
100
AcDbVertex
100
AcDb2dVertex
 10
74.86736488850714
 20
110.8743576958438
 30
0.0
  0
VERTEX
  5
241
330
23A
100
AcDbEntity
  8
Hidden (ANSI)
 48
0.0075596394017339
100
AcDbVertex
100
AcDb2dVertex
 10
74.86525328836717
 20
110.8753308942013
 30
0.0
  0
VERTEX
  5
242
330
23A
100
AcDbEntity
  8
Hidden (ANSI)
 48
0.0075596394017339
100
AcDbVertex
100
AcDb2dVertex
 10
74.86314168822724
 20
110.8762920777643
 30
0.0
  0
VERTEX
  5
243
330
23A
100
AcDbEntity
  8
Hidden (ANSI)
 48
0.0075596394017339
100
AcDbVertex
100
AcDb2dVertex
 10
74.86103008808729
 20
110.8772172169437
 30
0.0
  0
VERTEX
  5
244
330
23A
100
AcDbEntity
  8
Hidden (ANSI)
 48
0.0075596394017339
100
AcDbVertex
100
AcDb2dVertex
 10
74.85891848794733
 20
110.878118326534
 30
0.0
  0
VERTEX
  5
245
330
23A
100
AcDbEntity
  8
Hidden (ANSI)
 48
0.0075596394017339
100
AcDbVertex
100
AcDb2dVertex
 10
74.85680388410876
 20
110.8789833917407
 30
0.0
  0
VERTEX
  5
246
330
23A
100
AcDbEntity
  8
Hidden (ANSI)
 48
0.0075596394017339
100
AcDbVertex
100
AcDb2dVertex
 10
74.8546922839688
 20
110.879818419961
 30
0.0
  0
VERTEX
  5
247
330
23A
100
AcDbEntity
  8
Hidden (ANSI)
 48
0.0075596394017339
100
AcDbVertex
100
AcDb2dVertex
 10
74.85258068382886
 20
110.8806053890032
 30
0.0
  0
VERTEX
  5
248
330
23A
100
AcDbEntity
  8
Hidden (ANSI)
 48
0.0075596394017339
100
AcDbVertex
100
AcDb2dVertex
 10
74.8504690836889
 20
110.8813503062646
 30
0.0
  0
VERTEX
  5
249
330
23A
100
AcDbEntity
  8
Hidden (ANSI)
 48
0.0075596394017339
100
AcDbVertex
100
AcDb2dVertex
 10
74.84835748354896
 20
110.8820471643477
 30
0.0
  0
VERTEX
  5
24A
330
23A
100
AcDbEntity
  8
Hidden (ANSI)
 48
0.0075596394017339
100
AcDbVertex
100
AcDb2dVertex
 10
74.84624588340901
 20
110.8826959632527
 30
0.0
  0
VERTEX
  5
24B
330
23A
100
AcDbEntity
  8
Hidden (ANSI)
 48
0.0075596394017339
100
AcDbVertex
100
AcDb2dVertex
 10
74.84413127957044
 20
110.8832906955823
 30
0.0
  0
VERTEX
  5
24C
330
23A
100
AcDbEntity
  8
Hidden (ANSI)
 48
0.0075596394017339
100
AcDbVertex
100
AcDb2dVertex
 10
74.84201967943048
 20
110.8838313613365
 30
0.0
  0
VERTEX
  5
24D
330
23A
100
AcDbEntity
  8
Hidden (ANSI)
 48
0.0075596394017339
100
AcDbVertex
100
AcDb2dVertex
 10
74.83990807929053
 20
110.884311953118
 30
0.0
  0
VERTEX
  5
24E
330
23A
100
AcDbEntity
  8
Hidden (ANSI)
 48
0.0075596394017339
100
AcDbVertex
100
AcDb2dVertex
 10
74.83779647915058
 20
110.8847324709268
 30
0.0
  0
VERTEX
  5
24F
330
23A
100
AcDbEntity
  8
Hidden (ANSI)
 48
0.0075596394017339
100
AcDbVertex
100
AcDb2dVertex
 10
74.83568487901064
 20
110.885092914763
 30
0.0
  0
VERTEX
  5
250
330
23A
100
AcDbEntity
  8
Hidden (ANSI)
 48
0.0075596394017339
100
AcDbVertex
100
AcDb2dVertex
 10
74.83357027517205
 20
110.8853872772291
 30
0.0
  0
VERTEX
  5
251
330
23A
100
AcDbEntity
  8
Hidden (ANSI)
 48
0.0075596394017339
100
AcDbVertex
100
AcDb2dVertex
 10
74.8314586750321
 20
110.8856215657226
 30
0.0
  0
VERTEX
  5
252
330
23A
100
AcDbEntity
  8
Hidden (ANSI)
 48
0.0075596394017339
100
AcDbVertex
100
AcDb2dVertex
 10
74.82934707489215
 20
110.8857837654489
 30
0.0
  0
VERTEX
  5
253
330
23A
100
AcDbEntity
  8
Hidden (ANSI)
 48
0.0075596394017339
100
AcDbVertex
100
AcDb2dVertex
 10
74.82723547475221
 20
110.8858858912024
 30
0.0
  0
VERTEX
  5
254
330
23A
100
AcDbEntity
  8
Hidden (ANSI)
 48
0.0075596394017339
100
AcDbVertex
100
AcDb2dVertex
 10
74.82512387461227
 20
110.885921935586
 30
0.0
  0
SEQEND
  5
23D
330
23A
100
AcDbEntity
  8
Hidden (ANSI)
 48
0.0075596394017339
  0
LINE
  5
255
330
6C
100
AcDbEntity
  8
Hidden (ANSI)
 48
0.0126546649262309
100
AcDbLine
 10
43.14520568287709
 20
110.8859192923313
 30
0.0
 11
43.14520568287709
 21
110.9796692923312
 31
0.0
  0
POLYLINE
  5
256
330
6C
100
AcDbEntity
  8
Hidden (ANSI)
 48
0.0075597432442009
100
AcDb2dPolyline
 66
     1
 10
0.0
 20
0.0
 30
0.0
 70
   128
  0
VERTEX
  5
257
330
256
100
AcDbEntity
  8
Hidden (ANSI)
 48
0.0075597432442009
100
AcDbVertex
100
AcDb2dVertex
 10
43.09451442292033
 20
110.8703207248792
 30
0.0
  0
VERTEX
  5
258
330
256
100
AcDbEntity
  8
Hidden (ANSI)
 48
0.0075597432442009
100
AcDbVertex
100
AcDb2dVertex
 10
43.09662656278738
 20
110.8713419824149
 30
0.0
  0
VERTEX
  5
25A
330
256
100
AcDbEntity
  8
Hidden (ANSI)
 48
0.0075597432442009
100
AcDbVertex
100
AcDb2dVertex
 10
43.09873869092123
 20
110.8723572325533
 30
0.0
  0
VERTEX
  5
25B
330
256
100
AcDbEntity
  8
Hidden (ANSI)
 48
0.0075597432442009
100
AcDbVertex
100
AcDb2dVertex
 10
43.10085083078827
 20
110.8733604678972
 30
0.0
  0
VERTEX
  5
25C
330
256
100
AcDbEntity
  8
Hidden (ANSI)
 48
0.0075597432442009
100
AcDbVertex
100
AcDb2dVertex
 10
43.10296297065532
 20
110.8743576958438
 30
0.0
  0
VERTEX
  5
25D
330
256
100
AcDbEntity
  8
Hidden (ANSI)
 48
0.0075597432442009
100
AcDbVertex
100
AcDb2dVertex
 10
43.10507509878917
 20
110.8753308942013
 30
0.0
  0
VERTEX
  5
25E
330
256
100
AcDbEntity
  8
Hidden (ANSI)
 48
0.0075597432442009
100
AcDbVertex
100
AcDb2dVertex
 10
43.10718723865622
 20
110.8762920777643
 30
0.0
  0
VERTEX
  5
25F
330
256
100
AcDbEntity
  8
Hidden (ANSI)
 48
0.0075597432442009
100
AcDbVertex
100
AcDb2dVertex
 10
43.10929937852327
 20
110.8772172169437
 30
0.0
  0
VERTEX
  5
260
330
256
100
AcDbEntity
  8
Hidden (ANSI)
 48
0.0075597432442009
100
AcDbVertex
100
AcDb2dVertex
 10
43.11141150665711
 20
110.878118326534
 30
0.0
  0
VERTEX
  5
261
330
256
100
AcDbEntity
  8
Hidden (ANSI)
 48
0.0075597432442009
100
AcDbVertex
100
AcDb2dVertex
 10
43.11352364652416
 20
110.8789833917407
 30
0.0
  0
VERTEX
  5
262
330
256
100
AcDbEntity
  8
Hidden (ANSI)
 48
0.0075597432442009
100
AcDbVertex
100
AcDb2dVertex
 10
43.11563578639121
 20
110.879818419961
 30
0.0
  0
VERTEX
  5
263
330
256
100
AcDbEntity
  8
Hidden (ANSI)
 48
0.0075597432442009
100
AcDbVertex
100
AcDb2dVertex
 10
43.11774791452505
 20
110.8806053890032
 30
0.0
  0
VERTEX
  5
264
330
256
100
AcDbEntity
  8
Hidden (ANSI)
 48
0.0075597432442009
100
AcDbVertex
100
AcDb2dVertex
 10
43.1198600543921
 20
110.8813503062646
 30
0.0
  0
VERTEX
  5
265
330
256
100
AcDbEntity
  8
Hidden (ANSI)
 48
0.0075597432442009
100
AcDbVertex
100
AcDb2dVertex
 10
43.12197218252594
 20
110.8820471643477
 30
0.0
  0
VERTEX
  5
266
330
256
100
AcDbEntity
  8
Hidden (ANSI)
 48
0.0075597432442009
100
AcDbVertex
100
AcDb2dVertex
 10
43.12408432239299
 20
110.8826959632527
 30
0.0
  0
VERTEX
  5
267
330
256
100
AcDbEntity
  8
Hidden (ANSI)
 48
0.0075597432442009
100
AcDbVertex
100
AcDb2dVertex
 10
43.12619646226004
 20
110.8832906955823
 30
0.0
  0
VERTEX
  5
268
330
256
100
AcDbEntity
  8
Hidden (ANSI)
 48
0.0075597432442009
100
AcDbVertex
100
AcDb2dVertex
 10
43.12830859039389
 20
110.8838313613365
 30
0.0
  0
VERTEX
  5
269
330
256
100
AcDbEntity
  8
Hidden (ANSI)
 48
0.0075597432442009
100
AcDbVertex
100
AcDb2dVertex
 10
43.13042073026093
 20
110.884311953118
 30
0.0
  0
VERTEX
  5
26A
330
256
100
AcDbEntity
  8
Hidden (ANSI)
 48
0.0075597432442009
100
AcDbVertex
100
AcDb2dVertex
 10
43.13253287012798
 20
110.8847324709268
 30
0.0
  0
VERTEX
  5
26B
330
256
100
AcDbEntity
  8
Hidden (ANSI)
 48
0.0075597432442009
100
AcDbVertex
100
AcDb2dVertex
 10
43.13464499826184
 20
110.885092914763
 30
0.0
  0
VERTEX
  5
26C
330
256
100
AcDbEntity
  8
Hidden (ANSI)
 48
0.0075597432442009
100
AcDbVertex
100
AcDb2dVertex
 10
43.13675713812888
 20
110.8853872772291
 30
0.0
  0
VERTEX
  5
26D
330
256
100
AcDbEntity
  8
Hidden (ANSI)
 48
0.0075597432442009
100
AcDbVertex
100
AcDb2dVertex
 10
43.13886927799592
 20
110.8856215657226
 30
0.0
  0
VERTEX
  5
26E
330
256
100
AcDbEntity
  8
Hidden (ANSI)
 48
0.0075597432442009
100
AcDbVertex
100
AcDb2dVertex
 10
43.14098140612977
 20
110.8857837654489
 30
0.0
  0
VERTEX
  5
26F
330
256
100
AcDbEntity
  8
Hidden (ANSI)
 48
0.0075597432442009
100
AcDbVertex
100
AcDb2dVertex
 10
43.14309354599682
 20
110.8858858912024
 30
0.0
  0
VERTEX
  5
270
330
256
100
AcDbEntity
  8
Hidden (ANSI)
 48
0.0075597432442009
100
AcDbVertex
100
AcDb2dVertex
 10
43.14520568586387
 20
110.885921935586
 30
0.0
  0
SEQEND
  5
259
330
256
100
AcDbEntity
  8
Hidden (ANSI)
 48
0.0075597432442009
  0
LINE
  5
271
330
6C
100
AcDbEntity
  8
Hidden (ANSI)
 48
0.0126546649262309
100
AcDbLine
 10
43.07891442214084
 20
110.819628031595
 30
0.0
 11
42.98516442214085
 21
110.819628031595
 31
0.0
  0
POLYLINE
  5
272
330
6C
100
AcDbEntity
  8
Hidden (ANSI)
 48
0.0075597004033625
100
AcDb2dPolyline
 66
     1
 10
0.0
 20
0.0
 30
0.0
 70
   128
  0
VERTEX
  5
273
330
272
100
AcDbEntity
  8
Hidden (ANSI)
 48
0.0075597004033625
100
AcDbVertex
100
AcDb2dVertex
 10
43.09451442292033
 20
110.8703207248792
 30
0.0
  0
VERTEX
  5
274
330
272
100
AcDbEntity
  8
Hidden (ANSI)
 48
0.0075597004033625
100
AcDbVertex
100
AcDb2dVertex
 10
43.09349412750687
 20
110.8682061210406
 30
0.0
  0
VERTEX
  5
276
330
272
100
AcDbEntity
  8
Hidden (ANSI)
 48
0.0075597004033625
100
AcDbVertex
100
AcDb2dVertex
 10
43.09247820857619
 20
110.8660975245993
 30
0.0
  0
VERTEX
  5
277
330
272
100
AcDbEntity
  8
Hidden (ANSI)
 48
0.0075597004033625
100
AcDbVertex
100
AcDb2dVertex
 10
43.09147100741146
 20
110.8639829207607
 30
0.0
  0
VERTEX
  5
278
330
272
100
AcDbEntity
  8
Hidden (ANSI)
 48
0.0075597004033625
100
AcDbVertex
100
AcDb2dVertex
 10
43.09047684182949
 20
110.8618683169222
 30
0.0
  0
VERTEX
  5
279
330
272
100
AcDbEntity
  8
Hidden (ANSI)
 48
0.0075597004033625
100
AcDbVertex
100
AcDb2dVertex
 10
43.08949997098104
 20
110.8597597204808
 30
0.0
  0
VERTEX
  5
27A
330
272
100
AcDbEntity
  8
Hidden (ANSI)
 48
0.0075597004033625
100
AcDbVertex
100
AcDb2dVertex
 10
43.08854456015136
 20
110.8576451166423
 30
0.0
  0
VERTEX
  5
27B
330
272
100
AcDbEntity
  8
Hidden (ANSI)
 48
0.0075597004033625
100
AcDbVertex
100
AcDb2dVertex
 10
43.08761471595967
 20
110.8555365202009
 30
0.0
  0
VERTEX
  5
27C
330
272
100
AcDbEntity
  8
Hidden (ANSI)
 48
0.0075597004033625
100
AcDbVertex
100
AcDb2dVertex
 10
43.08671442769322
 20
110.8534219163624
 30
0.0
  0
VERTEX
  5
27D
330
272
100
AcDbEntity
  8
Hidden (ANSI)
 48
0.0075597004033625
100
AcDbVertex
100
AcDb2dVertex
 10
43.08584753210766
 20
110.8513073125238
 30
0.0
  0
VERTEX
  5
27E
330
272
100
AcDbEntity
  8
Hidden (ANSI)
 48
0.0075597004033625
100
AcDbVertex
100
AcDb2dVertex
 10
43.08501774862672
 20
110.8491987160825
 30
0.0
  0
VERTEX
  5
27F
330
272
100
AcDbEntity
  8
Hidden (ANSI)
 48
0.0075597004033625
100
AcDbVertex
100
AcDb2dVertex
 10
43.08422863240933
 20
110.8470841122439
 30
0.0
  0
VERTEX
  5
280
330
272
100
AcDbEntity
  8
Hidden (ANSI)
 48
0.0075597004033625
100
AcDbVertex
100
AcDb2dVertex
 10
43.08348355674984
 20
110.8449755158026
 30
0.0
  0
VERTEX
  5
281
330
272
100
AcDbEntity
  8
Hidden (ANSI)
 48
0.0075597004033625
100
AcDbVertex
100
AcDb2dVertex
 10
43.08278571894465
 20
110.842860911964
 30
0.0
  0
VERTEX
  5
282
330
272
100
AcDbEntity
  8
Hidden (ANSI)
 48
0.0075597004033625
100
AcDbVertex
100
AcDb2dVertex
 10
43.08213811095921
 20
110.8407523155227
 30
0.0
  0
VERTEX
  5
283
330
272
100
AcDbEntity
  8
Hidden (ANSI)
 48
0.0075597004033625
100
AcDbVertex
100
AcDb2dVertex
 10
43.08154349596159
 20
110.8386377116841
 30
0.0
  0
VERTEX
  5
284
330
272
100
AcDbEntity
  8
Hidden (ANSI)
 48
0.0075597004033625
100
AcDbVertex
100
AcDb2dVertex
 10
43.0810044259223
 20
110.8365231078455
 30
0.0
  0
VERTEX
  5
285
330
272
100
AcDbEntity
  8
Hidden (ANSI)
 48
0.0075597004033625
100
AcDbVertex
100
AcDb2dVertex
 10
43.08052320641473
 20
110.8344145114042
 30
0.0
  0
VERTEX
  5
286
330
272
100
AcDbEntity
  8
Hidden (ANSI)
 48
0.0075597004033625
100
AcDbVertex
100
AcDb2dVertex
 10
43.08010190248166
 20
110.8322999075656
 30
0.0
  0
VERTEX
  5
287
330
272
100
AcDbEntity
  8
Hidden (ANSI)
 48
0.0075597004033625
100
AcDbVertex
100
AcDb2dVertex
 10
43.07974230930238
 20
110.8301913111243
 30
0.0
  0
VERTEX
  5
288
330
272
100
AcDbEntity
  8
Hidden (ANSI)
 48
0.0075597004033625
100
AcDbVertex
100
AcDb2dVertex
 10
43.07944598152558
 20
110.8280767072857
 30
0.0
  0
VERTEX
  5
289
330
272
100
AcDbEntity
  8
Hidden (ANSI)
 48
0.0075597004033625
100
AcDbVertex
100
AcDb2dVertex
 10
43.07921417460344
 20
110.8259621034471
 30
0.0
  0
VERTEX
  5
28A
330
272
100
AcDbEntity
  8
Hidden (ANSI)
 48
0.0075597004033625
100
AcDbVertex
100
AcDb2dVertex
 10
43.07904787999116
 20
110.8238535070058
 30
0.0
  0
VERTEX
  5
28B
330
272
100
AcDbEntity
  8
Hidden (ANSI)
 48
0.0075597004033625
100
AcDbVertex
100
AcDb2dVertex
 10
43.078947825147
 20
110.8217389031672
 30
0.0
  0
VERTEX
  5
28C
330
272
100
AcDbEntity
  8
Hidden (ANSI)
 48
0.0075597004033625
100
AcDbVertex
100
AcDb2dVertex
 10
43.07891442073289
 20
110.8196303067259
 30
0.0
  0
SEQEND
  5
275
330
272
100
AcDbEntity
  8
Hidden (ANSI)
 48
0.0075597004033625
  0
LINE
  5
28D
330
6C
100
AcDbEntity
  8
Hidden (ANSI)
 48
0.0126546649262309
100
AcDbLine
 10
43.07891442214088
 20
33.13971055306752
 30
0.0
 11
42.98516442214087
 21
33.13971055306752
 31
0.0
  0
POLYLINE
  5
28E
330
6C
100
AcDbEntity
  8
Hidden (ANSI)
 48
0.0075598023831844
100
AcDb2dPolyline
 66
     1
 10
0.0
 20
0.0
 30
0.0
 70
   128
  0
VERTEX
  5
28F
330
28E
100
AcDbEntity
  8
Hidden (ANSI)
 48
0.0075598023831844
100
AcDbVertex
100
AcDb2dVertex
 10
43.09451442292033
 20
33.08901929311075
 30
0.0
  0
VERTEX
  5
290
330
28E
100
AcDbEntity
  8
Hidden (ANSI)
 48
0.0075598023831844
100
AcDbVertex
100
AcDb2dVertex
 10
43.09349412750687
 20
33.09113143297779
 30
0.0
  0
VERTEX
  5
292
330
28E
100
AcDbEntity
  8
Hidden (ANSI)
 48
0.0075598023831844
100
AcDbVertex
100
AcDb2dVertex
 10
43.09247820857619
 20
33.09324356111164
 30
0.0
  0
VERTEX
  5
293
330
28E
100
AcDbEntity
  8
Hidden (ANSI)
 48
0.0075598023831844
100
AcDbVertex
100
AcDb2dVertex
 10
43.09147100741146
 20
33.09535570097869
 30
0.0
  0
VERTEX
  5
294
330
28E
100
AcDbEntity
  8
Hidden (ANSI)
 48
0.0075598023831844
100
AcDbVertex
100
AcDb2dVertex
 10
43.09047684182949
 20
33.09746784084573
 30
0.0
  0
VERTEX
  5
295
330
28E
100
AcDbEntity
  8
Hidden (ANSI)
 48
0.0075598023831844
100
AcDbVertex
100
AcDb2dVertex
 10
43.08949997098104
 20
33.09957996897958
 30
0.0
  0
VERTEX
  5
296
330
28E
100
AcDbEntity
  8
Hidden (ANSI)
 48
0.0075598023831844
100
AcDbVertex
100
AcDb2dVertex
 10
43.08854456015136
 20
33.10169210884663
 30
0.0
  0
VERTEX
  5
297
330
28E
100
AcDbEntity
  8
Hidden (ANSI)
 48
0.0075598023831844
100
AcDbVertex
100
AcDb2dVertex
 10
43.08761471595967
 20
33.10380424871367
 30
0.0
  0
VERTEX
  5
298
330
28E
100
AcDbEntity
  8
Hidden (ANSI)
 48
0.0075598023831844
100
AcDbVertex
100
AcDb2dVertex
 10
43.08671442769322
 20
33.10591637684753
 30
0.0
  0
VERTEX
  5
299
330
28E
100
AcDbEntity
  8
Hidden (ANSI)
 48
0.0075598023831844
100
AcDbVertex
100
AcDb2dVertex
 10
43.08584753210766
 20
33.10802851671457
 30
0.0
  0
VERTEX
  5
29A
330
28E
100
AcDbEntity
  8
Hidden (ANSI)
 48
0.0075598023831844
100
AcDbVertex
100
AcDb2dVertex
 10
43.08501774862672
 20
33.11014065658162
 30
0.0
  0
VERTEX
  5
29B
330
28E
100
AcDbEntity
  8
Hidden (ANSI)
 48
0.0075598023831844
100
AcDbVertex
100
AcDb2dVertex
 10
43.08422863240933
 20
33.11225278471547
 30
0.0
  0
VERTEX
  5
29C
330
28E
100
AcDbEntity
  8
Hidden (ANSI)
 48
0.0075598023831844
100
AcDbVertex
100
AcDb2dVertex
 10
43.08348355674984
 20
33.11436492458251
 30
0.0
  0
VERTEX
  5
29D
330
28E
100
AcDbEntity
  8
Hidden (ANSI)
 48
0.0075598023831844
100
AcDbVertex
100
AcDb2dVertex
 10
43.08278571894465
 20
33.11647705271636
 30
0.0
  0
VERTEX
  5
29E
330
28E
100
AcDbEntity
  8
Hidden (ANSI)
 48
0.0075598023831844
100
AcDbVertex
100
AcDb2dVertex
 10
43.08213811095921
 20
33.11858919258341
 30
0.0
  0
VERTEX
  5
29F
330
28E
100
AcDbEntity
  8
Hidden (ANSI)
 48
0.0075598023831844
100
AcDbVertex
100
AcDb2dVertex
 10
43.08154349596159
 20
33.12070133245046
 30
0.0
  0
VERTEX
  5
2A0
330
28E
100
AcDbEntity
  8
Hidden (ANSI)
 48
0.0075598023831844
100
AcDbVertex
100
AcDb2dVertex
 10
43.0810044259223
 20
33.1228134605843
 30
0.0
  0
VERTEX
  5
2A1
330
28E
100
AcDbEntity
  8
Hidden (ANSI)
 48
0.0075598023831844
100
AcDbVertex
100
AcDb2dVertex
 10
43.08052320641473
 20
33.12492560045135
 30
0.0
  0
VERTEX
  5
2A2
330
28E
100
AcDbEntity
  8
Hidden (ANSI)
 48
0.0075598023831844
100
AcDbVertex
100
AcDb2dVertex
 10
43.08010190248166
 20
33.12703774031839
 30
0.0
  0
VERTEX
  5
2A3
330
28E
100
AcDbEntity
  8
Hidden (ANSI)
 48
0.0075598023831844
100
AcDbVertex
100
AcDb2dVertex
 10
43.07974230930238
 20
33.12914986845225
 30
0.0
  0
VERTEX
  5
2A4
330
28E
100
AcDbEntity
  8
Hidden (ANSI)
 48
0.0075598023831844
100
AcDbVertex
100
AcDb2dVertex
 10
43.07944598152558
 20
33.13126200831929
 30
0.0
  0
VERTEX
  5
2A5
330
28E
100
AcDbEntity
  8
Hidden (ANSI)
 48
0.0075598023831844
100
AcDbVertex
100
AcDb2dVertex
 10
43.07921417460344
 20
33.13337414818634
 30
0.0
  0
VERTEX
  5
2A6
330
28E
100
AcDbEntity
  8
Hidden (ANSI)
 48
0.0075598023831844
100
AcDbVertex
100
AcDb2dVertex
 10
43.07904787999116
 20
33.13548627632019
 30
0.0
  0
VERTEX
  5
2A7
330
28E
100
AcDbEntity
  8
Hidden (ANSI)
 48
0.0075598023831844
100
AcDbVertex
100
AcDb2dVertex
 10
43.078947825147
 20
33.13759841618724
 30
0.0
  0
VERTEX
  5
2A8
330
28E
100
AcDbEntity
  8
Hidden (ANSI)
 48
0.0075598023831844
100
AcDbVertex
100
AcDb2dVertex
 10
43.07891442073289
 20
33.13971055605428
 30
0.0
  0
SEQEND
  5
291
330
28E
100
AcDbEntity
  8
Hidden (ANSI)
 48
0.0075598023831844
  0
LINE
  5
2A9
330
6C
100
AcDbEntity
  8
Hidden (ANSI)
 48
0.0126546649262309
100
AcDbLine
 10
43.14520568287711
 20
33.07341929233128
 30
0.0
 11
43.14520568287711
 21
32.97966929233128
 31
0.0
  0
POLYLINE
  5
2AA
330
6C
100
AcDbEntity
  8
Hidden (ANSI)
 48
0.0075598023831844
100
AcDb2dPolyline
 66
     1
 10
0.0
 20
0.0
 30
0.0
 70
   128
  0
VERTEX
  5
2AB
330
2AA
100
AcDbEntity
  8
Hidden (ANSI)
 48
0.0075598023831844
100
AcDbVertex
100
AcDb2dVertex
 10
43.09451442292033
 20
33.08901929311075
 30
0.0
  0
VERTEX
  5
2AC
330
2AA
100
AcDbEntity
  8
Hidden (ANSI)
 48
0.0075598023831844
100
AcDbVertex
100
AcDb2dVertex
 10
43.09662656278738
 20
33.08799899769728
 30
0.0
  0
VERTEX
  5
2AE
330
2AA
100
AcDbEntity
  8
Hidden (ANSI)
 48
0.0075598023831844
100
AcDbVertex
100
AcDb2dVertex
 10
43.09873869092123
 20
33.08698307876659
 30
0.0
  0
VERTEX
  5
2AF
330
2AA
100
AcDbEntity
  8
Hidden (ANSI)
 48
0.0075598023831844
100
AcDbVertex
100
AcDb2dVertex
 10
43.10085083078827
 20
33.08597587760187
 30
0.0
  0
VERTEX
  5
2B0
330
2AA
100
AcDbEntity
  8
Hidden (ANSI)
 48
0.0075598023831844
100
AcDbVertex
100
AcDb2dVertex
 10
43.10296297065532
 20
33.08498171201989
 30
0.0
  0
VERTEX
  5
2B1
330
2AA
100
AcDbEntity
  8
Hidden (ANSI)
 48
0.0075598023831844
100
AcDbVertex
100
AcDb2dVertex
 10
43.10507509878917
 20
33.08400484117146
 30
0.0
  0
VERTEX
  5
2B2
330
2AA
100
AcDbEntity
  8
Hidden (ANSI)
 48
0.0075598023831844
100
AcDbVertex
100
AcDb2dVertex
 10
43.10718723865622
 20
33.08304943034177
 30
0.0
  0
VERTEX
  5
2B3
330
2AA
100
AcDbEntity
  8
Hidden (ANSI)
 48
0.0075598023831844
100
AcDbVertex
100
AcDb2dVertex
 10
43.10929937852327
 20
33.08211958615008
 30
0.0
  0
VERTEX
  5
2B4
330
2AA
100
AcDbEntity
  8
Hidden (ANSI)
 48
0.0075598023831844
100
AcDbVertex
100
AcDb2dVertex
 10
43.11141150665711
 20
33.08121929788362
 30
0.0
  0
VERTEX
  5
2B5
330
2AA
100
AcDbEntity
  8
Hidden (ANSI)
 48
0.0075598023831844
100
AcDbVertex
100
AcDb2dVertex
 10
43.11352364652416
 20
33.08035240229808
 30
0.0
  0
VERTEX
  5
2B6
330
2AA
100
AcDbEntity
  8
Hidden (ANSI)
 48
0.0075598023831844
100
AcDbVertex
100
AcDb2dVertex
 10
43.11563578639121
 20
33.07952261881714
 30
0.0
  0
VERTEX
  5
2B7
330
2AA
100
AcDbEntity
  8
Hidden (ANSI)
 48
0.0075598023831844
100
AcDbVertex
100
AcDb2dVertex
 10
43.11774791452505
 20
33.07873350259974
 30
0.0
  0
VERTEX
  5
2B8
330
2AA
100
AcDbEntity
  8
Hidden (ANSI)
 48
0.0075598023831844
100
AcDbVertex
100
AcDb2dVertex
 10
43.1198600543921
 20
33.07798842694025
 30
0.0
  0
VERTEX
  5
2B9
330
2AA
100
AcDbEntity
  8
Hidden (ANSI)
 48
0.0075598023831844
100
AcDbVertex
100
AcDb2dVertex
 10
43.12197218252594
 20
33.07729058913507
 30
0.0
  0
VERTEX
  5
2BA
330
2AA
100
AcDbEntity
  8
Hidden (ANSI)
 48
0.0075598023831844
100
AcDbVertex
100
AcDb2dVertex
 10
43.12408432239299
 20
33.07664298114962
 30
0.0
  0
VERTEX
  5
2BB
330
2AA
100
AcDbEntity
  8
Hidden (ANSI)
 48
0.0075598023831844
100
AcDbVertex
100
AcDb2dVertex
 10
43.12619646226004
 20
33.076048366152
 30
0.0
  0
VERTEX
  5
2BC
330
2AA
100
AcDbEntity
  8
Hidden (ANSI)
 48
0.0075598023831844
100
AcDbVertex
100
AcDb2dVertex
 10
43.12830859039389
 20
33.07550929611271
 30
0.0
  0
VERTEX
  5
2BD
330
2AA
100
AcDbEntity
  8
Hidden (ANSI)
 48
0.0075598023831844
100
AcDbVertex
100
AcDb2dVertex
 10
43.13042073026093
 20
33.07502807660514
 30
0.0
  0
VERTEX
  5
2BE
330
2AA
100
AcDbEntity
  8
Hidden (ANSI)
 48
0.0075598023831844
100
AcDbVertex
100
AcDb2dVertex
 10
43.13253287012798
 20
33.07460677267208
 30
0.0
  0
VERTEX
  5
2BF
330
2AA
100
AcDbEntity
  8
Hidden (ANSI)
 48
0.0075598023831844
100
AcDbVertex
100
AcDb2dVertex
 10
43.13464499826184
 20
33.0742471794928
 30
0.0
  0
VERTEX
  5
2C0
330
2AA
100
AcDbEntity
  8
Hidden (ANSI)
 48
0.0075598023831844
100
AcDbVertex
100
AcDb2dVertex
 10
43.13675713812888
 20
33.073950851716
 30
0.0
  0
VERTEX
  5
2C1
330
2AA
100
AcDbEntity
  8
Hidden (ANSI)
 48
0.0075598023831844
100
AcDbVertex
100
AcDb2dVertex
 10
43.13886927799592
 20
33.07371904479385
 30
0.0
  0
VERTEX
  5
2C2
330
2AA
100
AcDbEntity
  8
Hidden (ANSI)
 48
0.0075598023831844
100
AcDbVertex
100
AcDb2dVertex
 10
43.14098140612977
 20
33.07355275018156
 30
0.0
  0
VERTEX
  5
2C3
330
2AA
100
AcDbEntity
  8
Hidden (ANSI)
 48
0.0075598023831844
100
AcDbVertex
100
AcDb2dVertex
 10
43.14309354599682
 20
33.07345269533741
 30
0.0
  0
VERTEX
  5
2C4
330
2AA
100
AcDbEntity
  8
Hidden (ANSI)
 48
0.0075598023831844
100
AcDbVertex
100
AcDb2dVertex
 10
43.14520568586387
 20
33.0734192909233
 30
0.0
  0
SEQEND
  5
2AD
330
2AA
100
AcDbEntity
  8
Hidden (ANSI)
 48
0.0075598023831844
  0
LINE
  5
2C5
330
6C
100
AcDbEntity
  8
Hidden (ANSI)
 48
0.0126546649262309
100
AcDbLine
 10
74.82512316140463
 20
33.07341929233128
 30
0.0
 11
74.82512316140463
 21
32.97966929233128
 31
0.0
  0
POLYLINE
  5
2C6
330
6C
100
AcDbEntity
  8
Hidden (ANSI)
 48
0.0075596994720399
100
AcDb2dPolyline
 66
     1
 10
0.0
 20
0.0
 30
0.0
 70
   128
  0
VERTEX
  5
2C7
330
2C6
100
AcDbEntity
  8
Hidden (ANSI)
 48
0.0075596994720399
100
AcDbVertex
100
AcDb2dVertex
 10
74.87581429276556
 20
33.08901929311075
 30
0.0
  0
VERTEX
  5
2C8
330
2C6
100
AcDbEntity
  8
Hidden (ANSI)
 48
0.0075596994720399
100
AcDbVertex
100
AcDb2dVertex
 10
74.87370269262561
 20
33.08799899769728
 30
0.0
  0
VERTEX
  5
2CA
330
2C6
100
AcDbEntity
  8
Hidden (ANSI)
 48
0.0075596994720399
100
AcDbVertex
100
AcDb2dVertex
 10
74.87159109248567
 20
33.08698307876659
 30
0.0
  0
VERTEX
  5
2CB
330
2C6
100
AcDbEntity
  8
Hidden (ANSI)
 48
0.0075596994720399
100
AcDbVertex
100
AcDb2dVertex
 10
74.8694794923457
 20
33.08597587760187
 30
0.0
  0
VERTEX
  5
2CC
330
2C6
100
AcDbEntity
  8
Hidden (ANSI)
 48
0.0075596994720399
100
AcDbVertex
100
AcDb2dVertex
 10
74.86736488850714
 20
33.08498171201989
 30
0.0
  0
VERTEX
  5
2CD
330
2C6
100
AcDbEntity
  8
Hidden (ANSI)
 48
0.0075596994720399
100
AcDbVertex
100
AcDb2dVertex
 10
74.86525328836717
 20
33.08400484117146
 30
0.0
  0
VERTEX
  5
2CE
330
2C6
100
AcDbEntity
  8
Hidden (ANSI)
 48
0.0075596994720399
100
AcDbVertex
100
AcDb2dVertex
 10
74.86314168822724
 20
33.08304943034177
 30
0.0
  0
VERTEX
  5
2CF
330
2C6
100
AcDbEntity
  8
Hidden (ANSI)
 48
0.0075596994720399
100
AcDbVertex
100
AcDb2dVertex
 10
74.86103008808729
 20
33.08211958615008
 30
0.0
  0
VERTEX
  5
2D0
330
2C6
100
AcDbEntity
  8
Hidden (ANSI)
 48
0.0075596994720399
100
AcDbVertex
100
AcDb2dVertex
 10
74.85891848794733
 20
33.08121929788362
 30
0.0
  0
VERTEX
  5
2D1
330
2C6
100
AcDbEntity
  8
Hidden (ANSI)
 48
0.0075596994720399
100
AcDbVertex
100
AcDb2dVertex
 10
74.85680388410876
 20
33.08035240229808
 30
0.0
  0
VERTEX
  5
2D2
330
2C6
100
AcDbEntity
  8
Hidden (ANSI)
 48
0.0075596994720399
100
AcDbVertex
100
AcDb2dVertex
 10
74.8546922839688
 20
33.07952261881714
 30
0.0
  0
VERTEX
  5
2D3
330
2C6
100
AcDbEntity
  8
Hidden (ANSI)
 48
0.0075596994720399
100
AcDbVertex
100
AcDb2dVertex
 10
74.85258068382886
 20
33.07873350259974
 30
0.0
  0
VERTEX
  5
2D4
330
2C6
100
AcDbEntity
  8
Hidden (ANSI)
 48
0.0075596994720399
100
AcDbVertex
100
AcDb2dVertex
 10
74.8504690836889
 20
33.07798842694025
 30
0.0
  0
VERTEX
  5
2D5
330
2C6
100
AcDbEntity
  8
Hidden (ANSI)
 48
0.0075596994720399
100
AcDbVertex
100
AcDb2dVertex
 10
74.84835748354896
 20
33.07729058913507
 30
0.0
  0
VERTEX
  5
2D6
330
2C6
100
AcDbEntity
  8
Hidden (ANSI)
 48
0.0075596994720399
100
AcDbVertex
100
AcDb2dVertex
 10
74.84624588340901
 20
33.07664298114962
 30
0.0
  0
VERTEX
  5
2D7
330
2C6
100
AcDbEntity
  8
Hidden (ANSI)
 48
0.0075596994720399
100
AcDbVertex
100
AcDb2dVertex
 10
74.84413127957044
 20
33.076048366152
 30
0.0
  0
VERTEX
  5
2D8
330
2C6
100
AcDbEntity
  8
Hidden (ANSI)
 48
0.0075596994720399
100
AcDbVertex
100
AcDb2dVertex
 10
74.84201967943048
 20
33.07550929611271
 30
0.0
  0
VERTEX
  5
2D9
330
2C6
100
AcDbEntity
  8
Hidden (ANSI)
 48
0.0075596994720399
100
AcDbVertex
100
AcDb2dVertex
 10
74.83990807929053
 20
33.07502807660514
 30
0.0
  0
VERTEX
  5
2DA
330
2C6
100
AcDbEntity
  8
Hidden (ANSI)
 48
0.0075596994720399
100
AcDbVertex
100
AcDb2dVertex
 10
74.83779647915058
 20
33.07460677267208
 30
0.0
  0
VERTEX
  5
2DB
330
2C6
100
AcDbEntity
  8
Hidden (ANSI)
 48
0.0075596994720399
100
AcDbVertex
100
AcDb2dVertex
 10
74.83568487901064
 20
33.0742471794928
 30
0.0
  0
VERTEX
  5
2DC
330
2C6
100
AcDbEntity
  8
Hidden (ANSI)
 48
0.0075596994720399
100
AcDbVertex
100
AcDb2dVertex
 10
74.83357027517205
 20
33.073950851716
 30
0.0
  0
VERTEX
  5
2DD
330
2C6
100
AcDbEntity
  8
Hidden (ANSI)
 48
0.0075596994720399
100
AcDbVertex
100
AcDb2dVertex
 10
74.8314586750321
 20
33.07371904479385
 30
0.0
  0
VERTEX
  5
2DE
330
2C6
100
AcDbEntity
  8
Hidden (ANSI)
 48
0.0075596994720399
100
AcDbVertex
100
AcDb2dVertex
 10
74.82934707489215
 20
33.07355275018156
 30
0.0
  0
VERTEX
  5
2DF
330
2C6
100
AcDbEntity
  8
Hidden (ANSI)
 48
0.0075596994720399
100
AcDbVertex
100
AcDb2dVertex
 10
74.82723547475221
 20
33.07345269533741
 30
0.0
  0
VERTEX
  5
2E0
330
2C6
100
AcDbEntity
  8
Hidden (ANSI)
 48
0.0075596994720399
100
AcDbVertex
100
AcDb2dVertex
 10
74.82512387461227
 20
33.0734192909233
 30
0.0
  0
SEQEND
  5
2C9
330
2C6
100
AcDbEntity
  8
Hidden (ANSI)
 48
0.0075596994720399
  0
MTEXT
  5
2E2
330
6C
100
AcDbEntity
  8
Symbol (ANSI)
100
AcDbMText
 10
52.74302191397925
 20
26.70533577372023
 30
0.0
 40
1.680000020763066
 41
0.0
 46
0.0
 71
     7
 72
     1
  1
FRONT VIEW
  7
Text Style153
 73
     1
 44
1.0
  0
LINE
  5
2E4
330
6C
100
AcDbEntity
  8
Symbol (ANSI)
370
    30
100
AcDbLine
 10
52.57502148182184
 20
26.36273285047177
 30
0.0
 11
66.08173154182132
 21
26.36273285047177
 31
0.0
  0
POLYLINE
  5
2E5
330
6C
100
AcDbEntity
  8
Visible (ANSI)
100
AcDb2dPolyline
 66
     1
 10
0.0
 20
0.0
 30
0.0
 70
   128
  0
VERTEX
  5
2E6
330
2E5
100
AcDbEntity
  8
Visible (ANSI)
100
AcDbVertex
100
AcDb2dVertex
 10
117.8738891674983
 20
110.8703207248792
 30
0.0
  0
VERTEX
  5
2E7
330
2E5
100
AcDbEntity
  8
Visible (ANSI)
100
AcDbVertex
100
AcDb2dVertex
 10
117.874123291727
 20
110.8682061210406
 30
0.0
  0
VERTEX
  5
2E9
330
2E5
100
AcDbEntity
  8
Visible (ANSI)
100
AcDbVertex
100
AcDb2dVertex
 10
117.874824672958
 20
110.8660975245993
 30
0.0
  0
VERTEX
  5
2EA
330
2E5
100
AcDbEntity
  8
Visible (ANSI)
100
AcDbVertex
100
AcDb2dVertex
 10
117.8759902957592
 20
110.8639829207607
 30
0.0
  0
VERTEX
  5
2EB
330
2E5
100
AcDbEntity
  8
Visible (ANSI)
100
AcDbVertex
100
AcDb2dVertex
 10
117.8776151793885
 20
110.8618683169221
 30
0.0
  0
VERTEX
  5
2EC
330
2E5
100
AcDbEntity
  8
Visible (ANSI)
100
AcDbVertex
100
AcDb2dVertex
 10
117.8796923543261
 20
110.8597597204808
 30
0.0
  0
VERTEX
  5
2ED
330
2E5
100
AcDbEntity
  8
Visible (ANSI)
100
AcDbVertex
100
AcDb2dVertex
 10
117.8822129385414
 20
110.8576451166422
 30
0.0
  0
VERTEX
  5
2EE
330
2E5
100
AcDbEntity
  8
Visible (ANSI)
100
AcDbVertex
100
AcDb2dVertex
 10
117.8851661316259
 20
110.8555365202009
 30
0.0
  0
VERTEX
  5
2EF
330
2E5
100
AcDbEntity
  8
Visible (ANSI)
100
AcDbVertex
100
AcDb2dVertex
 10
117.8885392910588
 20
110.8534219163624
 30
0.0
  0
VERTEX
  5
2F0
330
2E5
100
AcDbEntity
  8
Visible (ANSI)
100
AcDbVertex
100
AcDb2dVertex
 10
117.8923179615407
 20
110.8513073125238
 30
0.0
  0
VERTEX
  5
2F1
330
2E5
100
AcDbEntity
  8
Visible (ANSI)
100
AcDbVertex
100
AcDb2dVertex
 10
117.8964859805914
 20
110.8491987160824
 30
0.0
  0
VERTEX
  5
2F2
330
2E5
100
AcDbEntity
  8
Visible (ANSI)
100
AcDbVertex
100
AcDb2dVertex
 10
117.9010254844173
 20
110.8470841122439
 30
0.0
  0
VERTEX
  5
2F3
330
2E5
100
AcDbEntity
  8
Visible (ANSI)
100
AcDbVertex
100
AcDb2dVertex
 10
117.9059170369763
 20
110.8449755158026
 30
0.0
  0
VERTEX
  5
2F4
330
2E5
100
AcDbEntity
  8
Visible (ANSI)
100
AcDbVertex
100
AcDb2dVertex
 10
117.911139700377
 20
110.842860911964
 30
0.0
  0
VERTEX
  5
2F5
330
2E5
100
AcDbEntity
  8
Visible (ANSI)
100
AcDbVertex
100
AcDb2dVertex
 10
117.9166711052777
 20
110.8407523155227
 30
0.0
  0
VERTEX
  5
2F6
330
2E5
100
AcDbEntity
  8
Visible (ANSI)
100
AcDbVertex
100
AcDb2dVertex
 10
117.9224875623522
 20
110.8386377116841
 30
0.0
  0
VERTEX
  5
2F7
330
2E5
100
AcDbEntity
  8
Visible (ANSI)
100
AcDbVertex
100
AcDb2dVertex
 10
117.9285641649548
 20
110.8365231078455
 30
0.0
  0
VERTEX
  5
2F8
330
2E5
100
AcDbEntity
  8
Visible (ANSI)
100
AcDbVertex
100
AcDb2dVertex
 10
117.9348748976527
 20
110.8344145114042
 30
0.0
  0
VERTEX
  5
2F9
330
2E5
100
AcDbEntity
  8
Visible (ANSI)
100
AcDbVertex
100
AcDb2dVertex
 10
117.9413927330247
 20
110.8322999075656
 30
0.0
  0
VERTEX
  5
2FA
330
2E5
100
AcDbEntity
  8
Visible (ANSI)
100
AcDbVertex
100
AcDb2dVertex
 10
117.9480897607268
 20
110.8301913111243
 30
0.0
  0
VERTEX
  5
2FB
330
2E5
100
AcDbEntity
  8
Visible (ANSI)
100
AcDbVertex
100
AcDb2dVertex
 10
117.9549373033567
 20
110.8280767072857
 30
0.0
  0
VERTEX
  5
2FC
330
2E5
100
AcDbEntity
  8
Visible (ANSI)
100
AcDbVertex
100
AcDb2dVertex
 10
117.9619060392866
 20
110.8259621034471
 30
0.0
  0
VERTEX
  5
2FD
330
2E5
100
AcDbEntity
  8
Visible (ANSI)
100
AcDbVertex
100
AcDb2dVertex
 10
117.9689661269612
 20
110.8238535070058
 30
0.0
  0
VERTEX
  5
2FE
330
2E5
100
AcDbEntity
  8
Visible (ANSI)
100
AcDbVertex
100
AcDb2dVertex
 10
117.9760873339631
 20
110.8217389031672
 30
0.0
  0
VERTEX
  5
2FF
330
2E5
100
AcDbEntity
  8
Visible (ANSI)
100
AcDbVertex
100
AcDb2dVertex
 10
117.9832391668111
 20
110.8196303067259
 30
0.0
  0
SEQEND
  5
2E8
330
2E5
100
AcDbEntity
  8
Visible (ANSI)
  0
POLYLINE
  5
300
330
6C
100
AcDbEntity
  8
Visible (ANSI)
100
AcDb2dPolyline
 66
     1
 10
0.0
 20
0.0
 30
0.0
 70
   128
  0
VERTEX
  5
301
330
300
100
AcDbEntity
  8
Visible (ANSI)
100
AcDbVertex
100
AcDb2dVertex
 10
117.9832391668111
 20
33.13971055605426
 30
0.0
  0
VERTEX
  5
302
330
300
100
AcDbEntity
  8
Visible (ANSI)
100
AcDbVertex
100
AcDb2dVertex
 10
117.9760873339631
 20
33.13759841618722
 30
0.0
  0
VERTEX
  5
304
330
300
100
AcDbEntity
  8
Visible (ANSI)
100
AcDbVertex
100
AcDb2dVertex
 10
117.9689661269612
 20
33.13548627632016
 30
0.0
  0
VERTEX
  5
305
330
300
100
AcDbEntity
  8
Visible (ANSI)
100
AcDbVertex
100
AcDb2dVertex
 10
117.9619060392866
 20
33.13337414818632
 30
0.0
  0
VERTEX
  5
306
330
300
100
AcDbEntity
  8
Visible (ANSI)
100
AcDbVertex
100
AcDb2dVertex
 10
117.9549373033567
 20
33.13126200831927
 30
0.0
  0
VERTEX
  5
307
330
300
100
AcDbEntity
  8
Visible (ANSI)
100
AcDbVertex
100
AcDb2dVertex
 10
117.9480897607268
 20
33.12914986845223
 30
0.0
  0
VERTEX
  5
308
330
300
100
AcDbEntity
  8
Visible (ANSI)
100
AcDbVertex
100
AcDb2dVertex
 10
117.9413927330247
 20
33.12703774031837
 30
0.0
  0
VERTEX
  5
309
330
300
100
AcDbEntity
  8
Visible (ANSI)
100
AcDbVertex
100
AcDb2dVertex
 10
117.9348748976527
 20
33.12492560045133
 30
0.0
  0
VERTEX
  5
30A
330
300
100
AcDbEntity
  8
Visible (ANSI)
100
AcDbVertex
100
AcDb2dVertex
 10
117.9285641649548
 20
33.12281346058429
 30
0.0
  0
VERTEX
  5
30B
330
300
100
AcDbEntity
  8
Visible (ANSI)
100
AcDbVertex
100
AcDb2dVertex
 10
117.9224875623522
 20
33.12070133245044
 30
0.0
  0
VERTEX
  5
30C
330
300
100
AcDbEntity
  8
Visible (ANSI)
100
AcDbVertex
100
AcDb2dVertex
 10
117.9166711052777
 20
33.11858919258339
 30
0.0
  0
VERTEX
  5
30D
330
300
100
AcDbEntity
  8
Visible (ANSI)
100
AcDbVertex
100
AcDb2dVertex
 10
117.911139700377
 20
33.11647705271634
 30
0.0
  0
VERTEX
  5
30E
330
300
100
AcDbEntity
  8
Visible (ANSI)
100
AcDbVertex
100
AcDb2dVertex
 10
117.9059170369763
 20
33.11436492458249
 30
0.0
  0
VERTEX
  5
30F
330
300
100
AcDbEntity
  8
Visible (ANSI)
100
AcDbVertex
100
AcDb2dVertex
 10
117.9010254844173
 20
33.11225278471545
 30
0.0
  0
VERTEX
  5
310
330
300
100
AcDbEntity
  8
Visible (ANSI)
100
AcDbVertex
100
AcDb2dVertex
 10
117.8964859805914
 20
33.1101406565816
 30
0.0
  0
VERTEX
  5
311
330
300
100
AcDbEntity
  8
Visible (ANSI)
100
AcDbVertex
100
AcDb2dVertex
 10
117.8923179615407
 20
33.10802851671455
 30
0.0
  0
VERTEX
  5
312
330
300
100
AcDbEntity
  8
Visible (ANSI)
100
AcDbVertex
100
AcDb2dVertex
 10
117.8885392910588
 20
33.1059163768475
 30
0.0
  0
VERTEX
  5
313
330
300
100
AcDbEntity
  8
Visible (ANSI)
100
AcDbVertex
100
AcDb2dVertex
 10
117.8851661316259
 20
33.10380424871366
 30
0.0
  0
VERTEX
  5
314
330
300
100
AcDbEntity
  8
Visible (ANSI)
100
AcDbVertex
100
AcDb2dVertex
 10
117.8822129385414
 20
33.10169210884661
 30
0.0
  0
VERTEX
  5
315
330
300
100
AcDbEntity
  8
Visible (ANSI)
100
AcDbVertex
100
AcDb2dVertex
 10
117.8796923543261
 20
33.09957996897956
 30
0.0
  0
VERTEX
  5
316
330
300
100
AcDbEntity
  8
Visible (ANSI)
100
AcDbVertex
100
AcDb2dVertex
 10
117.8776151793885
 20
33.09746784084571
 30
0.0
  0
VERTEX
  5
317
330
300
100
AcDbEntity
  8
Visible (ANSI)
100
AcDbVertex
100
AcDb2dVertex
 10
117.8759902957592
 20
33.09535570097867
 30
0.0
  0
VERTEX
  5
318
330
300
100
AcDbEntity
  8
Visible (ANSI)
100
AcDbVertex
100
AcDb2dVertex
 10
117.874824672958
 20
33.09324356111162
 30
0.0
  0
VERTEX
  5
319
330
300
100
AcDbEntity
  8
Visible (ANSI)
100
AcDbVertex
100
AcDb2dVertex
 10
117.874123291727
 20
33.09113143297777
 30
0.0
  0
VERTEX
  5
31A
330
300
100
AcDbEntity
  8
Visible (ANSI)
100
AcDbVertex
100
AcDb2dVertex
 10
117.8738891674983
 20
33.08901929311073
 30
0.0
  0
SEQEND
  5
303
330
300
100
AcDbEntity
  8
Visible (ANSI)
  0
LINE
  5
31B
330
6C
100
AcDbEntity
  8
Visible (ANSI)
100
AcDbLine
 10
118.7488891660904
 20
33.1397105530675
 30
0.0
 11
117.9832391660904
 21
33.1397105530675
 31
0.0
  0
LINE
  5
31C
330
6C
100
AcDbEntity
  8
Visible (ANSI)
100
AcDbLine
 10
117.9509681072194
 20
33.08901929233127
 30
0.0
 11
117.8738891660903
 21
33.08901929233126
 31
0.0
  0
LINE
  5
31D
330
6C
100
AcDbEntity
  8
Visible (ANSI)
100
AcDbLine
 10
117.9676391660903
 20
33.08901929233126
 30
0.0
 11
117.9509681072194
 21
33.08901929233127
 31
0.0
  0
POLYLINE
  5
31E
330
6C
100
AcDbEntity
  8
Visible (ANSI)
100
AcDb2dPolyline
 66
     1
 10
0.0
 20
0.0
 30
0.0
 70
   128
  0
VERTEX
  5
31F
330
31E
100
AcDbEntity
  8
Visible (ANSI)
100
AcDbVertex
100
AcDb2dVertex
 10
117.9676391660903
 20
33.08901929311073
 30
0.0
  0
VERTEX
  5
320
330
31E
100
AcDbEntity
  8
Visible (ANSI)
100
AcDbVertex
100
AcDb2dVertex
 10
117.9676725668865
 20
33.09113143297777
 30
0.0
  0
VERTEX
  5
322
330
31E
100
AcDbEntity
  8
Visible (ANSI)
100
AcDbVertex
100
AcDb2dVertex
 10
117.9677726262538
 20
33.09324356111162
 30
0.0
  0
VERTEX
  5
323
330
31E
100
AcDbEntity
  8
Visible (ANSI)
100
AcDbVertex
100
AcDb2dVertex
 10
117.9679389157213
 20
33.09535570097867
 30
0.0
  0
VERTEX
  5
324
330
31E
100
AcDbEntity
  8
Visible (ANSI)
100
AcDbVertex
100
AcDb2dVertex
 10
117.9681707232164
 20
33.09746784084571
 30
0.0
  0
VERTEX
  5
325
330
31E
100
AcDbEntity
  8
Visible (ANSI)
100
AcDbVertex
100
AcDb2dVertex
 10
117.9684670560348
 20
33.09957996897956
 30
0.0
  0
VERTEX
  5
326
330
31E
100
AcDbEntity
  8
Visible (ANSI)
100
AcDbVertex
100
AcDb2dVertex
 10
117.9688266453641
 20
33.10169210884661
 30
0.0
  0
VERTEX
  5
327
330
31E
100
AcDbEntity
  8
Visible (ANSI)
100
AcDbVertex
100
AcDb2dVertex
 10
117.9692479514055
 20
33.10380424871366
 30
0.0
  0
VERTEX
  5
328
330
31E
100
AcDbEntity
  8
Visible (ANSI)
100
AcDbVertex
100
AcDb2dVertex
 10
117.9697291698131
 20
33.1059163768475
 30
0.0
  0
VERTEX
  5
329
330
31E
100
AcDbEntity
  8
Visible (ANSI)
100
AcDbVertex
100
AcDb2dVertex
 10
117.9702682402191
 20
33.10802851671455
 30
0.0
  0
VERTEX
  5
32A
330
31E
100
AcDbEntity
  8
Visible (ANSI)
100
AcDbVertex
100
AcDb2dVertex
 10
117.9708628541167
 20
33.1101406565816
 30
0.0
  0
VERTEX
  5
32B
330
31E
100
AcDbEntity
  8
Visible (ANSI)
100
AcDbVertex
100
AcDb2dVertex
 10
117.9715104650354
 20
33.11225278471545
 30
0.0
  0
VERTEX
  5
32C
330
31E
100
AcDbEntity
  8
Visible (ANSI)
100
AcDbVertex
100
AcDb2dVertex
 10
117.972208300274
 20
33.11436492458249
 30
0.0
  0
VERTEX
  5
32D
330
31E
100
AcDbEntity
  8
Visible (ANSI)
100
AcDbVertex
100
AcDb2dVertex
 10
117.9729533715335
 20
33.11647705271634
 30
0.0
  0
VERTEX
  5
32E
330
31E
100
AcDbEntity
  8
Visible (ANSI)
100
AcDbVertex
100
AcDb2dVertex
 10
117.9737424877509
 20
33.11858919258339
 30
0.0
  0
VERTEX
  5
32F
330
31E
100
AcDbEntity
  8
Visible (ANSI)
100
AcDbVertex
100
AcDb2dVertex
 10
117.9745722701319
 20
33.12070133245044
 30
0.0
  0
VERTEX
  5
330
330
31E
100
AcDbEntity
  8
Visible (ANSI)
100
AcDbVertex
100
AcDb2dVertex
 10
117.9754391664507
 20
33.12281346058429
 30
0.0
  0
VERTEX
  5
331
330
31E
100
AcDbEntity
  8
Visible (ANSI)
100
AcDbVertex
100
AcDb2dVertex
 10
117.9763394627838
 20
33.12492560045133
 30
0.0
  0
VERTEX
  5
332
330
31E
100
AcDbEntity
  8
Visible (ANSI)
100
AcDbVertex
100
AcDb2dVertex
 10
117.9772693047755
 20
33.12703774031837
 30
0.0
  0
VERTEX
  5
333
330
31E
100
AcDbEntity
  8
Visible (ANSI)
100
AcDbVertex
100
AcDb2dVertex
 10
117.9782247104719
 20
33.12914986845223
 30
0.0
  0
VERTEX
  5
334
330
31E
100
AcDbEntity
  8
Visible (ANSI)
100
AcDbVertex
100
AcDb2dVertex
 10
117.9792015886536
 20
33.13126200831927
 30
0.0
  0
VERTEX
  5
335
330
31E
100
AcDbEntity
  8
Visible (ANSI)
100
AcDbVertex
100
AcDb2dVertex
 10
117.9801957571689
 20
33.13337414818632
 30
0.0
  0
VERTEX
  5
336
330
31E
100
AcDbEntity
  8
Visible (ANSI)
100
AcDbVertex
100
AcDb2dVertex
 10
117.9812029568669
 20
33.13548627632016
 30
0.0
  0
VERTEX
  5
337
330
31E
100
AcDbEntity
  8
Visible (ANSI)
100
AcDbVertex
100
AcDb2dVertex
 10
117.9822188772643
 20
33.13759841618722
 30
0.0
  0
VERTEX
  5
338
330
31E
100
AcDbEntity
  8
Visible (ANSI)
100
AcDbVertex
100
AcDb2dVertex
 10
117.9832391668111
 20
33.13971055605426
 30
0.0
  0
SEQEND
  5
321
330
31E
100
AcDbEntity
  8
Visible (ANSI)
  0
POLYLINE
  5
339
330
6C
100
AcDbEntity
  8
Visible (ANSI)
100
AcDb2dPolyline
 66
     1
 10
0.0
 20
0.0
 30
0.0
 70
   128
  0
VERTEX
  5
33A
330
339
100
AcDbEntity
  8
Visible (ANSI)
100
AcDbVertex
100
AcDb2dVertex
 10
117.9676391660903
 20
110.8703207248792
 30
0.0
  0
VERTEX
  5
33B
330
339
100
AcDbEntity
  8
Visible (ANSI)
100
AcDbVertex
100
AcDb2dVertex
 10
117.9676725668865
 20
110.8682061210406
 30
0.0
  0
VERTEX
  5
33D
330
339
100
AcDbEntity
  8
Visible (ANSI)
100
AcDbVertex
100
AcDb2dVertex
 10
117.9677726262538
 20
110.8660975245993
 30
0.0
  0
VERTEX
  5
33E
330
339
100
AcDbEntity
  8
Visible (ANSI)
100
AcDbVertex
100
AcDb2dVertex
 10
117.9679389157213
 20
110.8639829207607
 30
0.0
  0
VERTEX
  5
33F
330
339
100
AcDbEntity
  8
Visible (ANSI)
100
AcDbVertex
100
AcDb2dVertex
 10
117.9681707232164
 20
110.8618683169221
 30
0.0
  0
VERTEX
  5
340
330
339
100
AcDbEntity
  8
Visible (ANSI)
100
AcDbVertex
100
AcDb2dVertex
 10
117.9684670560348
 20
110.8597597204808
 30
0.0
  0
VERTEX
  5
341
330
339
100
AcDbEntity
  8
Visible (ANSI)
100
AcDbVertex
100
AcDb2dVertex
 10
117.9688266453641
 20
110.8576451166422
 30
0.0
  0
VERTEX
  5
342
330
339
100
AcDbEntity
  8
Visible (ANSI)
100
AcDbVertex
100
AcDb2dVertex
 10
117.9692479514055
 20
110.8555365202009
 30
0.0
  0
VERTEX
  5
343
330
339
100
AcDbEntity
  8
Visible (ANSI)
100
AcDbVertex
100
AcDb2dVertex
 10
117.9697291698131
 20
110.8534219163624
 30
0.0
  0
VERTEX
  5
344
330
339
100
AcDbEntity
  8
Visible (ANSI)
100
AcDbVertex
100
AcDb2dVertex
 10
117.9702682402191
 20
110.8513073125238
 30
0.0
  0
VERTEX
  5
345
330
339
100
AcDbEntity
  8
Visible (ANSI)
100
AcDbVertex
100
AcDb2dVertex
 10
117.9708628541167
 20
110.8491987160824
 30
0.0
  0
VERTEX
  5
346
330
339
100
AcDbEntity
  8
Visible (ANSI)
100
AcDbVertex
100
AcDb2dVertex
 10
117.9715104650354
 20
110.8470841122439
 30
0.0
  0
VERTEX
  5
347
330
339
100
AcDbEntity
  8
Visible (ANSI)
100
AcDbVertex
100
AcDb2dVertex
 10
117.972208300274
 20
110.8449755158026
 30
0.0
  0
VERTEX
  5
348
330
339
100
AcDbEntity
  8
Visible (ANSI)
100
AcDbVertex
100
AcDb2dVertex
 10
117.9729533715335
 20
110.842860911964
 30
0.0
  0
VERTEX
  5
349
330
339
100
AcDbEntity
  8
Visible (ANSI)
100
AcDbVertex
100
AcDb2dVertex
 10
117.9737424877509
 20
110.8407523155227
 30
0.0
  0
VERTEX
  5
34A
330
339
100
AcDbEntity
  8
Visible (ANSI)
100
AcDbVertex
100
AcDb2dVertex
 10
117.9745722701319
 20
110.8386377116841
 30
0.0
  0
VERTEX
  5
34B
330
339
100
AcDbEntity
  8
Visible (ANSI)
100
AcDbVertex
100
AcDb2dVertex
 10
117.9754391664507
 20
110.8365231078455
 30
0.0
  0
VERTEX
  5
34C
330
339
100
AcDbEntity
  8
Visible (ANSI)
100
AcDbVertex
100
AcDb2dVertex
 10
117.9763394627838
 20
110.8344145114042
 30
0.0
  0
VERTEX
  5
34D
330
339
100
AcDbEntity
  8
Visible (ANSI)
100
AcDbVertex
100
AcDb2dVertex
 10
117.9772693047755
 20
110.8322999075656
 30
0.0
  0
VERTEX
  5
34E
330
339
100
AcDbEntity
  8
Visible (ANSI)
100
AcDbVertex
100
AcDb2dVertex
 10
117.9782247104719
 20
110.8301913111243
 30
0.0
  0
VERTEX
  5
34F
330
339
100
AcDbEntity
  8
Visible (ANSI)
100
AcDbVertex
100
AcDb2dVertex
 10
117.9792015886536
 20
110.8280767072857
 30
0.0
  0
VERTEX
  5
350
330
339
100
AcDbEntity
  8
Visible (ANSI)
100
AcDbVertex
100
AcDb2dVertex
 10
117.9801957571689
 20
110.8259621034471
 30
0.0
  0
VERTEX
  5
351
330
339
100
AcDbEntity
  8
Visible (ANSI)
100
AcDbVertex
100
AcDb2dVertex
 10
117.9812029568669
 20
110.8238535070058
 30
0.0
  0
VERTEX
  5
352
330
339
100
AcDbEntity
  8
Visible (ANSI)
100
AcDbVertex
100
AcDb2dVertex
 10
117.9822188772643
 20
110.8217389031672
 30
0.0
  0
VERTEX
  5
353
330
339
100
AcDbEntity
  8
Visible (ANSI)
100
AcDbVertex
100
AcDb2dVertex
 10
117.9832391668111
 20
110.8196303067259
 30
0.0
  0
SEQEND
  5
33C
330
339
100
AcDbEntity
  8
Visible (ANSI)
  0
LINE
  5
354
330
6C
100
AcDbEntity
  8
Visible (ANSI)
100
AcDbLine
 10
117.9676391660903
 20
110.8703192923312
 30
0.0
 11
117.9509681072194
 21
110.8703192923312
 31
0.0
  0
LINE
  5
355
330
6C
100
AcDbEntity
  8
Visible (ANSI)
100
AcDbLine
 10
117.9509681072194
 20
110.8703192923312
 30
0.0
 11
117.8738891660903
 21
110.8703192923312
 31
0.0
  0
LINE
  5
356
330
6C
100
AcDbEntity
  8
Visible (ANSI)
100
AcDbLine
 10
117.9832391660904
 20
110.819628031595
 30
0.0
 11
118.7488891660904
 21
110.819628031595
 31
0.0
  0
POLYLINE
  5
357
330
6C
100
AcDbEntity
  8
Visible (ANSI)
100
AcDb2dPolyline
 66
     1
 10
0.0
 20
0.0
 30
0.0
 70
   128
  0
VERTEX
  5
358
330
357
100
AcDbEntity
  8
Visible (ANSI)
100
AcDbVertex
100
AcDb2dVertex
 10
117.9832391668111
 20
110.9796673699641
 30
0.0
  0
VERTEX
  5
359
330
357
100
AcDbEntity
  8
Visible (ANSI)
100
AcDbVertex
100
AcDb2dVertex
 10
117.976087333963
 20
110.9794330814706
 30
0.0
  0
VERTEX
  5
35B
330
357
100
AcDbEntity
  8
Visible (ANSI)
100
AcDbVertex
100
AcDb2dVertex
 10
117.9689661269611
 20
110.9787362233874
 30
0.0
  0
VERTEX
  5
35C
330
357
100
AcDbEntity
  8
Visible (ANSI)
100
AcDbVertex
100
AcDb2dVertex
 10
117.9619060392866
 20
110.9775707883173
 30
0.0
  0
VERTEX
  5
35D
330
357
100
AcDbEntity
  8
Visible (ANSI)
100
AcDbVertex
100
AcDb2dVertex
 10
117.9549373033566
 20
110.9759427836575
 30
0.0
  0
VERTEX
  5
35E
330
357
100
AcDbEntity
  8
Visible (ANSI)
100
AcDbVertex
100
AcDb2dVertex
 10
117.9480897607267
 20
110.9738642242025
 30
0.0
  0
VERTEX
  5
35F
330
357
100
AcDbEntity
  8
Visible (ANSI)
100
AcDbVertex
100
AcDb2dVertex
 10
117.9413927330247
 20
110.971347124747
 30
0.0
  0
VERTEX
  5
360
330
357
100
AcDbEntity
  8
Visible (ANSI)
100
AcDbVertex
100
AcDb2dVertex
 10
117.9348748976526
 20
110.9683914852907
 30
0.0
  0
VERTEX
  5
361
330
357
100
AcDbEntity
  8
Visible (ANSI)
100
AcDbVertex
100
AcDb2dVertex
 10
117.9285641649547
 20
110.965021335423
 30
0.0
  0
VERTEX
  5
362
330
357
100
AcDbEntity
  8
Visible (ANSI)
100
AcDbVertex
100
AcDb2dVertex
 10
117.9224875623522
 20
110.961242682541
 30
0.0
  0
VERTEX
  5
363
330
357
100
AcDbEntity
  8
Visible (ANSI)
100
AcDbVertex
100
AcDb2dVertex
 10
117.9166711052777
 20
110.9570735488365
 30
0.0
  0
VERTEX
  5
364
330
357
100
AcDbEntity
  8
Visible (ANSI)
100
AcDbVertex
100
AcDb2dVertex
 10
117.911139700377
 20
110.9525319565014
 30
0.0
  0
VERTEX
  5
365
330
357
100
AcDbEntity
  8
Visible (ANSI)
100
AcDbVertex
100
AcDb2dVertex
 10
117.9059170369763
 20
110.9476419351246
 30
0.0
  0
VERTEX
  5
366
330
357
100
AcDbEntity
  8
Visible (ANSI)
100
AcDbVertex
100
AcDb2dVertex
 10
117.9010254844173
 20
110.9424215068982
 30
0.0
  0
VERTEX
  5
367
330
357
100
AcDbEntity
  8
Visible (ANSI)
100
AcDbVertex
100
AcDb2dVertex
 10
117.8964859805913
 20
110.9368886940137
 30
0.0
  0
VERTEX
  5
368
330
357
100
AcDbEntity
  8
Visible (ANSI)
100
AcDbVertex
100
AcDb2dVertex
 10
117.8923179615406
 20
110.9310735334576
 30
0.0
  0
VERTEX
  5
369
330
357
100
AcDbEntity
  8
Visible (ANSI)
100
AcDbVertex
100
AcDb2dVertex
 10
117.8885392910588
 20
110.9249940474217
 30
0.0
  0
VERTEX
  5
36A
330
357
100
AcDbEntity
  8
Visible (ANSI)
100
AcDbVertex
100
AcDb2dVertex
 10
117.8851661316258
 20
110.9186862802895
 30
0.0
  0
VERTEX
  5
36B
330
357
100
AcDbEntity
  8
Visible (ANSI)
100
AcDbVertex
100
AcDb2dVertex
 10
117.8822129385414
 20
110.912168254253
 30
0.0
  0
VERTEX
  5
36C
330
357
100
AcDbEntity
  8
Visible (ANSI)
100
AcDbVertex
100
AcDb2dVertex
 10
117.8796923543261
 20
110.9054700062984
 30
0.0
  0
VERTEX
  5
36D
330
357
100
AcDbEntity
  8
Visible (ANSI)
100
AcDbVertex
100
AcDb2dVertex
 10
117.8776151793884
 20
110.898621573412
 30
0.0
  0
VERTEX
  5
36E
330
357
100
AcDbEntity
  8
Visible (ANSI)
100
AcDbVertex
100
AcDb2dVertex
 10
117.8759902957592
 20
110.8916529925804
 30
0.0
  0
VERTEX
  5
36F
330
357
100
AcDbEntity
  8
Visible (ANSI)
100
AcDbVertex
100
AcDb2dVertex
 10
117.874824672958
 20
110.8845943007896
 30
0.0
  0
VERTEX
  5
370
330
357
100
AcDbEntity
  8
Visible (ANSI)
100
AcDbVertex
100
AcDb2dVertex
 10
117.874123291727
 20
110.877469527629
 30
0.0
  0
VERTEX
  5
371
330
357
100
AcDbEntity
  8
Visible (ANSI)
100
AcDbVertex
100
AcDb2dVertex
 10
117.8738891674983
 20
110.8703207248792
 30
0.0
  0
SEQEND
  5
35A
330
357
100
AcDbEntity
  8
Visible (ANSI)
  0
LINE
  5
372
330
6C
100
AcDbEntity
  8
Visible (ANSI)
100
AcDbLine
 10
117.9832391660903
 20
110.8859192923312
 30
0.0
 11
118.7488891660903
 21
110.8859192923313
 31
0.0
  0
LINE
  5
373
330
6C
100
AcDbEntity
  8
Visible (ANSI)
100
AcDbLine
 10
118.7488891660903
 20
110.9796692923312
 30
0.0
 11
117.9832391660903
 21
110.9796692923312
 31
0.0
  0
LINE
  5
374
330
6C
100
AcDbEntity
  8
Visible (ANSI)
100
AcDbLine
 10
117.9832391660903
 20
110.8859192923312
 30
0.0
 11
117.9832391660903
 21
110.9796692923312
 31
0.0
  0
LINE
  5
375
330
6C
100
AcDbEntity
  8
Visible (ANSI)
100
AcDbLine
 10
118.7488891660903
 20
110.8859192923313
 30
0.0
 11
118.7488891660903
 21
110.9796692923312
 31
0.0
  0
POLYLINE
  5
376
330
6C
100
AcDbEntity
  8
Visible (ANSI)
100
AcDb2dPolyline
 66
     1
 10
0.0
 20
0.0
 30
0.0
 70
   128
  0
VERTEX
  5
377
330
376
100
AcDbEntity
  8
Visible (ANSI)
100
AcDbVertex
100
AcDb2dVertex
 10
117.9676391660903
 20
110.8703207248792
 30
0.0
  0
VERTEX
  5
378
330
376
100
AcDbEntity
  8
Visible (ANSI)
100
AcDbVertex
100
AcDb2dVertex
 10
117.9676725668865
 20
110.8713419824149
 30
0.0
  0
VERTEX
  5
37A
330
376
100
AcDbEntity
  8
Visible (ANSI)
100
AcDbVertex
100
AcDb2dVertex
 10
117.9677726262538
 20
110.8723572325533
 30
0.0
  0
VERTEX
  5
37B
330
376
100
AcDbEntity
  8
Visible (ANSI)
100
AcDbVertex
100
AcDb2dVertex
 10
117.9679389157213
 20
110.8733604678972
 30
0.0
  0
VERTEX
  5
37C
330
376
100
AcDbEntity
  8
Visible (ANSI)
100
AcDbVertex
100
AcDb2dVertex
 10
117.9681707232164
 20
110.8743576958438
 30
0.0
  0
VERTEX
  5
37D
330
376
100
AcDbEntity
  8
Visible (ANSI)
100
AcDbVertex
100
AcDb2dVertex
 10
117.9684670560348
 20
110.8753308942013
 30
0.0
  0
VERTEX
  5
37E
330
376
100
AcDbEntity
  8
Visible (ANSI)
100
AcDbVertex
100
AcDb2dVertex
 10
117.9688266453641
 20
110.8762920777643
 30
0.0
  0
VERTEX
  5
37F
330
376
100
AcDbEntity
  8
Visible (ANSI)
100
AcDbVertex
100
AcDb2dVertex
 10
117.9692479514055
 20
110.8772172169437
 30
0.0
  0
VERTEX
  5
380
330
376
100
AcDbEntity
  8
Visible (ANSI)
100
AcDbVertex
100
AcDb2dVertex
 10
117.9697291698131
 20
110.878118326534
 30
0.0
  0
VERTEX
  5
381
330
376
100
AcDbEntity
  8
Visible (ANSI)
100
AcDbVertex
100
AcDb2dVertex
 10
117.9702682402191
 20
110.8789833917406
 30
0.0
  0
VERTEX
  5
382
330
376
100
AcDbEntity
  8
Visible (ANSI)
100
AcDbVertex
100
AcDb2dVertex
 10
117.9708628541167
 20
110.879818419961
 30
0.0
  0
VERTEX
  5
383
330
376
100
AcDbEntity
  8
Visible (ANSI)
100
AcDbVertex
100
AcDb2dVertex
 10
117.9715104650354
 20
110.8806053890032
 30
0.0
  0
VERTEX
  5
384
330
376
100
AcDbEntity
  8
Visible (ANSI)
100
AcDbVertex
100
AcDb2dVertex
 10
117.972208300274
 20
110.8813503062646
 30
0.0
  0
VERTEX
  5
385
330
376
100
AcDbEntity
  8
Visible (ANSI)
100
AcDbVertex
100
AcDb2dVertex
 10
117.9729533715335
 20
110.8820471643477
 30
0.0
  0
VERTEX
  5
386
330
376
100
AcDbEntity
  8
Visible (ANSI)
100
AcDbVertex
100
AcDb2dVertex
 10
117.9737424877509
 20
110.8826959632527
 30
0.0
  0
VERTEX
  5
387
330
376
100
AcDbEntity
  8
Visible (ANSI)
100
AcDbVertex
100
AcDb2dVertex
 10
117.9745722701319
 20
110.8832906955823
 30
0.0
  0
VERTEX
  5
388
330
376
100
AcDbEntity
  8
Visible (ANSI)
100
AcDbVertex
100
AcDb2dVertex
 10
117.9754391664507
 20
110.8838313613365
 30
0.0
  0
VERTEX
  5
389
330
376
100
AcDbEntity
  8
Visible (ANSI)
100
AcDbVertex
100
AcDb2dVertex
 10
117.9763394627837
 20
110.884311953118
 30
0.0
  0
VERTEX
  5
38A
330
376
100
AcDbEntity
  8
Visible (ANSI)
100
AcDbVertex
100
AcDb2dVertex
 10
117.9772693047755
 20
110.8847324709268
 30
0.0
  0
VERTEX
  5
38B
330
376
100
AcDbEntity
  8
Visible (ANSI)
100
AcDbVertex
100
AcDb2dVertex
 10
117.9782247104719
 20
110.885092914763
 30
0.0
  0
VERTEX
  5
38C
330
376
100
AcDbEntity
  8
Visible (ANSI)
100
AcDbVertex
100
AcDb2dVertex
 10
117.9792015886536
 20
110.8853872772291
 30
0.0
  0
VERTEX
  5
38D
330
376
100
AcDbEntity
  8
Visible (ANSI)
100
AcDbVertex
100
AcDb2dVertex
 10
117.9801957571688
 20
110.8856215657226
 30
0.0
  0
VERTEX
  5
38E
330
376
100
AcDbEntity
  8
Visible (ANSI)
100
AcDbVertex
100
AcDb2dVertex
 10
117.9812029568669
 20
110.8857837654488
 30
0.0
  0
VERTEX
  5
38F
330
376
100
AcDbEntity
  8
Visible (ANSI)
100
AcDbVertex
100
AcDb2dVertex
 10
117.9822188772642
 20
110.8858858912024
 30
0.0
  0
VERTEX
  5
390
330
376
100
AcDbEntity
  8
Visible (ANSI)
100
AcDbVertex
100
AcDb2dVertex
 10
117.9832391668111
 20
110.885921935586
 30
0.0
  0
SEQEND
  5
379
330
376
100
AcDbEntity
  8
Visible (ANSI)
  0
POLYLINE
  5
391
330
6C
100
AcDbEntity
  8
Visible (ANSI)
100
AcDb2dPolyline
 66
     1
 10
0.0
 20
0.0
 30
0.0
 70
   128
  0
VERTEX
  5
392
330
391
100
AcDbEntity
  8
Visible (ANSI)
100
AcDbVertex
100
AcDb2dVertex
 10
117.8738891674983
 20
33.08901929311073
 30
0.0
  0
VERTEX
  5
393
330
391
100
AcDbEntity
  8
Visible (ANSI)
100
AcDbVertex
100
AcDb2dVertex
 10
117.874123291727
 20
33.08186746319594
 30
0.0
  0
VERTEX
  5
395
330
391
100
AcDbEntity
  8
Visible (ANSI)
100
AcDbVertex
100
AcDb2dVertex
 10
117.874824672958
 20
33.07474625106079
 30
0.0
  0
VERTEX
  5
396
330
391
100
AcDbEntity
  8
Visible (ANSI)
100
AcDbVertex
100
AcDb2dVertex
 10
117.8759902957592
 20
33.06768616301953
 30
0.0
  0
VERTEX
  5
397
330
391
100
AcDbEntity
  8
Visible (ANSI)
100
AcDbVertex
100
AcDb2dVertex
 10
117.8776151793884
 20
33.06071742965627
 30
0.0
  0
VERTEX
  5
398
330
391
100
AcDbEntity
  8
Visible (ANSI)
100
AcDbVertex
100
AcDb2dVertex
 10
117.8796923543261
 20
33.05386988849298
 30
0.0
  0
VERTEX
  5
399
330
391
100
AcDbEntity
  8
Visible (ANSI)
100
AcDbVertex
100
AcDb2dVertex
 10
117.8822129385414
 20
33.04717286079095
 30
0.0
  0
VERTEX
  5
39A
330
391
100
AcDbEntity
  8
Visible (ANSI)
100
AcDbVertex
100
AcDb2dVertex
 10
117.8851661316258
 20
33.04065502248557
 30
0.0
  0
VERTEX
  5
39B
330
391
100
AcDbEntity
  8
Visible (ANSI)
100
AcDbVertex
100
AcDb2dVertex
 10
117.8885392910588
 20
33.034344292721
 30
0.0
  0
VERTEX
  5
39C
330
391
100
AcDbEntity
  8
Visible (ANSI)
100
AcDbVertex
100
AcDb2dVertex
 10
117.8923179615406
 20
33.02826768718513
 30
0.0
  0
VERTEX
  5
39D
330
391
100
AcDbEntity
  8
Visible (ANSI)
100
AcDbVertex
100
AcDb2dVertex
 10
117.8964859805913
 20
33.02245123011067
 30
0.0
  0
VERTEX
  5
39E
330
391
100
AcDbEntity
  8
Visible (ANSI)
100
AcDbVertex
100
AcDb2dVertex
 10
117.9010254844173
 20
33.01691982814323
 30
0.0
  0
VERTEX
  5
39F
330
391
100
AcDbEntity
  8
Visible (ANSI)
100
AcDbVertex
100
AcDb2dVertex
 10
117.9059170369763
 20
33.01169716474255
 30
0.0
  0
VERTEX
  5
3A0
330
391
100
AcDbEntity
  8
Visible (ANSI)
100
AcDbVertex
100
AcDb2dVertex
 10
117.911139700377
 20
33.00680560925022
 30
0.0
  0
VERTEX
  5
3A1
330
391
100
AcDbEntity
  8
Visible (ANSI)
100
AcDbVertex
100
AcDb2dVertex
 10
117.9166711052777
 20
33.00226610395764
 30
0.0
  0
VERTEX
  5
3A2
330
391
100
AcDbEntity
  8
Visible (ANSI)
100
AcDbVertex
100
AcDb2dVertex
 10
117.9224875623522
 20
32.99809809077355
 30
0.0
  0
VERTEX
  5
3A3
330
391
100
AcDbEntity
  8
Visible (ANSI)
100
AcDbVertex
100
AcDb2dVertex
 10
117.9285641649547
 20
32.99431941442513
 30
0.0
  0
VERTEX
  5
3A4
330
391
100
AcDbEntity
  8
Visible (ANSI)
100
AcDbVertex
100
AcDb2dVertex
 10
117.9348748976526
 20
32.99094625792546
 30
0.0
  0
VERTEX
  5
3A5
330
391
100
AcDbEntity
  8
Visible (ANSI)
100
AcDbVertex
100
AcDb2dVertex
 10
117.9413927330247
 20
32.98799306557433
 30
0.0
  0
VERTEX
  5
3A6
330
391
100
AcDbEntity
  8
Visible (ANSI)
100
AcDbVertex
100
AcDb2dVertex
 10
117.9480897607267
 20
32.98547248282564
 30
0.0
  0
VERTEX
  5
3A7
330
391
100
AcDbEntity
  8
Visible (ANSI)
100
AcDbVertex
100
AcDb2dVertex
 10
117.9549373033566
 20
32.98339530312141
 30
0.0
  0
VERTEX
  5
3A8
330
391
100
AcDbEntity
  8
Visible (ANSI)
100
AcDbVertex
100
AcDb2dVertex
 10
117.9619060392866
 20
32.9817704218755
 30
0.0
  0
VERTEX
  5
3A9
330
391
100
AcDbEntity
  8
Visible (ANSI)
100
AcDbVertex
100
AcDb2dVertex
 10
117.9689661269611
 20
32.98060479678257
 30
0.0
  0
VERTEX
  5
3AA
330
391
100
AcDbEntity
  8
Visible (ANSI)
100
AcDbVertex
100
AcDb2dVertex
 10
117.976087333963
 20
32.97990341908078
 30
0.0
  0
VERTEX
  5
3AB
330
391
100
AcDbEntity
  8
Visible (ANSI)
100
AcDbVertex
100
AcDb2dVertex
 10
117.9832391668111
 20
32.97966929233127
 30
0.0
  0
SEQEND
  5
394
330
391
100
AcDbEntity
  8
Visible (ANSI)
  0
LINE
  5
3AC
330
6C
100
AcDbEntity
  8
Visible (ANSI)
100
AcDbLine
 10
117.9832391660903
 20
33.07341929233126
 30
0.0
 11
118.7488891660903
 21
33.07341929233126
 31
0.0
  0
LINE
  5
3AD
330
6C
100
AcDbEntity
  8
Visible (ANSI)
100
AcDbLine
 10
117.9832391660903
 20
33.07341929233126
 30
0.0
 11
117.9832391660903
 21
32.97966929233127
 31
0.0
  0
POLYLINE
  5
3AE
330
6C
100
AcDbEntity
  8
Visible (ANSI)
100
AcDb2dPolyline
 66
     1
 10
0.0
 20
0.0
 30
0.0
 70
   128
  0
VERTEX
  5
3AF
330
3AE
100
AcDbEntity
  8
Visible (ANSI)
100
AcDbVertex
100
AcDb2dVertex
 10
117.9676391660903
 20
33.08901929311073
 30
0.0
  0
VERTEX
  5
3B0
330
3AE
100
AcDbEntity
  8
Visible (ANSI)
100
AcDbVertex
100
AcDb2dVertex
 10
117.9676725668865
 20
33.08799899769726
 30
0.0
  0
VERTEX
  5
3B2
330
3AE
100
AcDbEntity
  8
Visible (ANSI)
100
AcDbVertex
100
AcDb2dVertex
 10
117.9677726262538
 20
33.08698307876658
 30
0.0
  0
VERTEX
  5
3B3
330
3AE
100
AcDbEntity
  8
Visible (ANSI)
100
AcDbVertex
100
AcDb2dVertex
 10
117.9679389157213
 20
33.08597587760186
 30
0.0
  0
VERTEX
  5
3B4
330
3AE
100
AcDbEntity
  8
Visible (ANSI)
100
AcDbVertex
100
AcDb2dVertex
 10
117.9681707232164
 20
33.08498171201988
 30
0.0
  0
VERTEX
  5
3B5
330
3AE
100
AcDbEntity
  8
Visible (ANSI)
100
AcDbVertex
100
AcDb2dVertex
 10
117.9684670560348
 20
33.08400484117143
 30
0.0
  0
VERTEX
  5
3B6
330
3AE
100
AcDbEntity
  8
Visible (ANSI)
100
AcDbVertex
100
AcDb2dVertex
 10
117.9688266453641
 20
33.08304943034175
 30
0.0
  0
VERTEX
  5
3B7
330
3AE
100
AcDbEntity
  8
Visible (ANSI)
100
AcDbVertex
100
AcDb2dVertex
 10
117.9692479514055
 20
33.08211958615006
 30
0.0
  0
VERTEX
  5
3B8
330
3AE
100
AcDbEntity
  8
Visible (ANSI)
100
AcDbVertex
100
AcDb2dVertex
 10
117.9697291698131
 20
33.0812192978836
 30
0.0
  0
VERTEX
  5
3B9
330
3AE
100
AcDbEntity
  8
Visible (ANSI)
100
AcDbVertex
100
AcDb2dVertex
 10
117.9702682402191
 20
33.08035240229806
 30
0.0
  0
VERTEX
  5
3BA
330
3AE
100
AcDbEntity
  8
Visible (ANSI)
100
AcDbVertex
100
AcDb2dVertex
 10
117.9708628541167
 20
33.07952261881712
 30
0.0
  0
VERTEX
  5
3BB
330
3AE
100
AcDbEntity
  8
Visible (ANSI)
100
AcDbVertex
100
AcDb2dVertex
 10
117.9715104650354
 20
33.07873350259972
 30
0.0
  0
VERTEX
  5
3BC
330
3AE
100
AcDbEntity
  8
Visible (ANSI)
100
AcDbVertex
100
AcDb2dVertex
 10
117.972208300274
 20
33.07798842694023
 30
0.0
  0
VERTEX
  5
3BD
330
3AE
100
AcDbEntity
  8
Visible (ANSI)
100
AcDbVertex
100
AcDb2dVertex
 10
117.9729533715335
 20
33.07729058913505
 30
0.0
  0
VERTEX
  5
3BE
330
3AE
100
AcDbEntity
  8
Visible (ANSI)
100
AcDbVertex
100
AcDb2dVertex
 10
117.9737424877509
 20
33.0766429811496
 30
0.0
  0
VERTEX
  5
3BF
330
3AE
100
AcDbEntity
  8
Visible (ANSI)
100
AcDbVertex
100
AcDb2dVertex
 10
117.9745722701319
 20
33.07604836615198
 30
0.0
  0
VERTEX
  5
3C0
330
3AE
100
AcDbEntity
  8
Visible (ANSI)
100
AcDbVertex
100
AcDb2dVertex
 10
117.9754391664507
 20
33.07550929611269
 30
0.0
  0
VERTEX
  5
3C1
330
3AE
100
AcDbEntity
  8
Visible (ANSI)
100
AcDbVertex
100
AcDb2dVertex
 10
117.9763394627837
 20
33.07502807660512
 30
0.0
  0
VERTEX
  5
3C2
330
3AE
100
AcDbEntity
  8
Visible (ANSI)
100
AcDbVertex
100
AcDb2dVertex
 10
117.9772693047755
 20
33.07460677267206
 30
0.0
  0
VERTEX
  5
3C3
330
3AE
100
AcDbEntity
  8
Visible (ANSI)
100
AcDbVertex
100
AcDb2dVertex
 10
117.9782247104719
 20
33.07424717949277
 30
0.0
  0
VERTEX
  5
3C4
330
3AE
100
AcDbEntity
  8
Visible (ANSI)
100
AcDbVertex
100
AcDb2dVertex
 10
117.9792015886536
 20
33.07395085171598
 30
0.0
  0
VERTEX
  5
3C5
330
3AE
100
AcDbEntity
  8
Visible (ANSI)
100
AcDbVertex
100
AcDb2dVertex
 10
117.9801957571688
 20
33.07371904479384
 30
0.0
  0
VERTEX
  5
3C6
330
3AE
100
AcDbEntity
  8
Visible (ANSI)
100
AcDbVertex
100
AcDb2dVertex
 10
117.9812029568669
 20
33.07355275018155
 30
0.0
  0
VERTEX
  5
3C7
330
3AE
100
AcDbEntity
  8
Visible (ANSI)
100
AcDbVertex
100
AcDb2dVertex
 10
117.9822188772642
 20
33.07345269533739
 30
0.0
  0
VERTEX
  5
3C8
330
3AE
100
AcDbEntity
  8
Visible (ANSI)
100
AcDbVertex
100
AcDb2dVertex
 10
117.9832391668111
 20
33.07341929092328
 30
0.0
  0
SEQEND
  5
3B1
330
3AE
100
AcDbEntity
  8
Visible (ANSI)
  0
LINE
  5
3C9
330
6C
100
AcDbEntity
  8
Visible (ANSI)
100
AcDbLine
 10
117.9832391660903
 20
32.97966929233127
 30
0.0
 11
118.7488891660903
 21
32.97966929233127
 31
0.0
  0
LINE
  5
3CA
330
6C
100
AcDbEntity
  8
Visible (ANSI)
100
AcDbLine
 10
118.7488891660903
 20
33.07341929233126
 30
0.0
 11
118.7488891660903
 21
32.97966929233127
 31
0.0
  0
LINE
  5
3CB
330
6C
100
AcDbEntity
  8
Visible (ANSI)
100
AcDbLine
 10
117.8738891660903
 20
33.08901929233126
 30
0.0
 11
117.8738891660903
 21
110.8703192923312
 31
0.0
  0
LINE
  5
3CC
330
6C
100
AcDbEntity
  8
Hidden (ANSI)
 48
1.075144052505493
100
AcDbLine
 10
117.9676391660903
 20
110.8703192923312
 30
0.0
 11
117.9676391660903
 21
33.08901929233127
 31
0.0
  0
LINE
  5
3CD
330
6C
100
AcDbEntity
  8
Visible (ANSI)
100
AcDbLine
 10
118.7488891660904
 20
110.819628031595
 30
0.0
 11
118.7488891660904
 21
33.13971055306749
 31
0.0
  0
LINE
  5
3CE
330
6C
100
AcDbEntity
  8
Hidden (ANSI)
 48
0.0126546649262309
100
AcDbLine
 10
117.9676391660901
 20
71.69816929233127
 30
0.0
 11
117.8738891660901
 21
71.69816929233127
 31
0.0
  0
LINE
  5
3CF
330
6C
100
AcDbEntity
  8
Hidden (ANSI)
 48
0.0126546649262309
100
AcDbLine
 10
117.9676391660901
 20
72.26116929233127
 30
0.0
 11
117.8738891660901
 21
72.26116929233127
 31
0.0
  0
LINE
  5
3D0
330
6C
100
AcDbEntity
  8
Hidden (ANSI)
 48
0.0126546649262309
100
AcDbLine
 10
117.9676391660901
 20
109.8231692923312
 30
0.0
 11
117.8738891660901
 21
109.8231692923312
 31
0.0
  0
LINE
  5
3D1
330
6C
100
AcDbEntity
  8
Hidden (ANSI)
 48
0.0126546649262309
100
AcDbLine
 10
117.9676391660901
 20
110.3861692923312
 30
0.0
 11
117.8738891660901
 21
110.3861692923312
 31
0.0
  0
LINE
  5
3D2
330
6C
100
AcDbEntity
  8
Hidden (ANSI)
 48
0.0126546649262309
100
AcDbLine
 10
117.9676391660901
 20
33.57316929233127
 30
0.0
 11
117.8738891660901
 21
33.57316929233127
 31
0.0
  0
LINE
  5
3D3
330
6C
100
AcDbEntity
  8
Hidden (ANSI)
 48
0.0126546649262309
100
AcDbLine
 10
117.9676391660901
 20
34.13616929233126
 30
0.0
 11
117.8738891660901
 21
34.13616929233126
 31
0.0
  0
MTEXT
  5
3D4
330
6C
100
AcDbEntity
  8
Symbol (ANSI)
100
AcDbMText
 10
113.0641587884114
 20
26.71622718240172
 30
0.0
 40
1.680000020763066
 41
0.0
 46
0.0
 71
     7
 72
     1
  1
SIDE VIEW
  7
Text Style153
 73
     1
 44
1.0
  0
LINE
  5
3D5
330
6C
100
AcDbEntity
  8
Symbol (ANSI)
370
    30
100
AcDbLine
 10
112.9781425671468
 20
26.36817855609582
 30
0.0
 11
124.3310760528237
 21
26.36817855609582
 31
0.0
  0
ELLIPSE
  5
3D6
330
6C
100
AcDbEntity
  8
Visible (ANSI)
100
AcDbEllipse
 10
193.2042657766885
 20
64.58654884863749
 30
0.0
 11
-0.1638904954878452
 21
0.2846004434873442
 31
0.0
210
0.0
220
0.0
230
0.9999999999999998
 40
0.578093115915809
 41
0.0
 42
6.283185307179586
  0
ELLIPSE
  5
3D7
330
6C
100
AcDbEntity
  8
Visible (ANSI)
100
AcDbEllipse
 10
193.2816055808808
 20
64.63108587983352
 30
0.0
 11
-0.1638904954878445
 21
0.284600443487343
 31
0.0
210
0.0
220
0.0
230
1.0
 40
0.578093115915809
 41
0.2372585647783909
 42
2.904334088811472
  0
ELLIPSE
  5
3D8
330
6C
100
AcDbEntity
  8
Visible (ANSI)
100
AcDbEllipse
 10
168.2492889573095
 20
78.95716424788995
 30
0.0
 11
-0.1638904954878452
 21
0.2846004434873442
 31
0.0
210
0.0
220
0.0
230
0.9999999999999998
 40
0.578093115915809
 41
0.0
 42
6.283185307179586
  0
ELLIPSE
  5
3D9
330
6C
100
AcDbEntity
  8
Visible (ANSI)
100
AcDbEllipse
 10
168.3266287615018
 20
79.00170127908601
 30
0.0
 11
-0.1638904954878438
 21
0.2846004434873418
 31
0.0
210
0.0
220
0.0
230
1.0
 40
0.578093115915809
 41
0.2372585647784397
 42
2.904334088811397
  0
ELLIPSE
  5
3DA
330
6C
100
AcDbEntity
  8
Visible (ANSI)
100
AcDbEllipse
 10
193.2042657766885
 20
100.9503636723628
 30
0.0
 11
-0.1638904954878452
 21
0.2846004434873442
 31
0.0
210
0.0
220
0.0
230
0.9999999999999998
 40
0.578093115915809
 41
0.0
 42
6.283185307179586
  0
ELLIPSE
  5
3DB
330
6C
100
AcDbEntity
  8
Visible (ANSI)
100
AcDbEllipse
 10
193.2816055808808
 20
100.9949007035588
 30
0.0
 11
-0.1638904954878459
 21
0.2846004434873453
 31
0.0
210
0.0
220
0.0
230
1.0
 40
0.578093115915809
 41
0.2372585647784879
 42
2.904334088811283
  0
ELLIPSE
  5
3DC
330
6C
100
AcDbEntity
  8
Visible (ANSI)
100
AcDbEllipse
 10
168.2492889573096
 20
115.3209790716153
 30
0.0
 11
-0.1638904954878452
 21
0.2846004434873442
 31
0.0
210
0.0
220
0.0
230
0.9999999999999998
 40
0.578093115915809
 41
0.0
 42
6.283185307179586
  0
ELLIPSE
  5
3DD
330
6C
100
AcDbEntity
  8
Visible (ANSI)
100
AcDbEllipse
 10
168.3266287615019
 20
115.3655161028113
 30
0.0
 11
-0.1638904954878479
 21
0.2846004434873489
 31
0.0
210
0.0
220
0.0
230
1.0
 40
0.578093115915809
 41
0.2372585647784088
 42
2.904334088811378
  0
ELLIPSE
  5
3DE
330
6C
100
AcDbEntity
  8
Visible (ANSI)
100
AcDbEllipse
 10
168.2492889573094
 20
42.59334942416462
 30
0.0
 11
-0.1638904954878452
 21
0.2846004434873442
 31
0.0
210
0.0
220
0.0
230
0.9999999999999998
 40
0.578093115915809
 41
0.0
 42
6.283185307179586
  0
ELLIPSE
  5
3DF
330
6C
100
AcDbEntity
  8
Visible (ANSI)
100
AcDbEllipse
 10
168.3266287615017
 20
42.63788645536066
 30
0.0
 11
-0.1638904954878452
 21
0.284600443487344
 31
0.0
210
0.0
220
0.0
230
1.0
 40
0.578093115915809
 41
0.2372585647784238
 42
2.904334088811387
  0
ELLIPSE
  5
3E0
330
6C
100
AcDbEntity
  8
Visible (ANSI)
100
AcDbEllipse
 10
193.2042657766884
 20
28.22273402491215
 30
0.0
 11
-0.1638904954878452
 21
0.2846004434873442
 31
0.0
210
0.0
220
0.0
230
0.9999999999999998
 40
0.578093115915809
 41
0.0
 42
6.283185307179586
  0
ELLIPSE
  5
3E1
330
6C
100
AcDbEntity
  8
Visible (ANSI)
100
AcDbEllipse
 10
193.2816055808806
 20
28.26727105610819
 30
0.0
 11
-0.1638904954878431
 21
0.2846004434873404
 31
0.0
210
0.0
220
0.0
230
1.0
 40
0.578093115915809
 41
0.2372585647782968
 42
2.904334088811293
  0
LINE
  5
3E2
330
6C
100
AcDbEntity
  8
Visible Narrow (ANSI)
100
AcDbLine
 10
194.0163130967598
 20
101.2685639129974
 30
0.0
 11
194.0163130967596
 21
27.17707185499242
 31
0.0
  0
LINE
  5
3E3
330
6C
100
AcDbEntity
  8
Visible Narrow (ANSI)
100
AcDbLine
 10
193.8358948015399
 20
27.12872227811126
 30
0.0
 11
193.8358948015401
 21
101.3169134898785
 31
0.0
  0
LINE
  5
3E4
330
6C
100
AcDbEntity
  8
Visible Narrow (ANSI)
100
AcDbLine
 10
167.7496872366504
 20
116.5471559112734
 30
0.0
 11
193.8842857925675
 21
101.497241532299
 31
0.0
  0
LINE
  5
3E5
330
6C
100
AcDbEntity
  8
Visible Narrow (ANSI)
100
AcDbLine
 10
193.8358948015401
 20
101.3169134898785
 30
0.0
 11
167.6176599324581
 21
116.4149908184162
 31
0.0
  0
LINE
  5
3E6
330
6C
100
AcDbEntity
  8
Visible Narrow (ANSI)
100
AcDbLine
 10
167.6176599324581
 20
116.4149908184162
 30
0.0
 11
167.617659932458
 21
42.22679960664887
 31
0.0
  0
LINE
  5
3E7
330
6C
100
AcDbEntity
  8
Visible Narrow (ANSI)
100
AcDbLine
 10
167.617659932458
 20
42.22679960664887
 30
0.0
 11
193.8358948015399
 21
27.12872227811126
 31
0.0
  0
LINE
  5
3E8
330
6C
100
AcDbEntity
  8
Visible (ANSI)
100
AcDbLine
 10
167.580294080068
 20
116.4427640231626
 30
0.0
 11
167.5802940800678
 21
42.30292238827652
 31
0.0
  0
LINE
  5
3E9
330
6C
100
AcDbEntity
  8
Visible (ANSI)
100
AcDbLine
 10
167.6651656036649
 20
42.15612283539203
 30
0.0
 11
193.8414793567669
 21
27.08218627200975
 31
0.0
  0
POLYLINE
  5
3EA
330
6C
100
AcDbEntity
  8
Visible (ANSI)
100
AcDb2dPolyline
 66
     1
 10
0.0
 20
0.0
 30
0.0
 70
   128
  0
VERTEX
  5
3EB
330
3EA
100
AcDbEntity
  8
Visible (ANSI)
100
AcDbVertex
100
AcDb2dVertex
 10
193.8358946959724
 20
101.31691491838
 30
0.0
  0
VERTEX
  5
3EC
330
3EA
100
AcDbEntity
  8
Visible (ANSI)
100
AcDbVertex
100
AcDb2dVertex
 10
193.8419877779174
 20
101.3116116730695
 30
0.0
  0
VERTEX
  5
3EE
330
3EA
100
AcDbEntity
  8
Visible (ANSI)
100
AcDbVertex
100
AcDb2dVertex
 10
193.8484415479735
 20
101.306550402955
 30
0.0
  0
VERTEX
  5
3EF
330
3EA
100
AcDbEntity
  8
Visible (ANSI)
100
AcDbVertex
100
AcDb2dVertex
 10
193.8552262613619
 20
101.3017339121127
 30
0.0
  0
VERTEX
  5
3F0
330
3EA
100
AcDbEntity
  8
Visible (ANSI)
100
AcDbVertex
100
AcDb2dVertex
 10
193.8623155078551
 20
101.2971784067468
 30
0.0
  0
VERTEX
  5
3F1
330
3EA
100
AcDbEntity
  8
Visible (ANSI)
100
AcDbVertex
100
AcDb2dVertex
 10
193.8696787586434
 20
101.2929005752119
 30
0.0
  0
VERTEX
  5
3F2
330
3EA
100
AcDbEntity
  8
Visible (ANSI)
100
AcDbVertex
100
AcDb2dVertex
 10
193.8772839071758
 20
101.2888990076458
 30
0.0
  0
VERTEX
  5
3F3
330
3EA
100
AcDbEntity
  8
Visible (ANSI)
100
AcDbVertex
100
AcDb2dVertex
 10
193.8850972643201
 20
101.2851943023798
 30
0.0
  0
VERTEX
  5
3F4
330
3EA
100
AcDbEntity
  8
Visible (ANSI)
100
AcDbVertex
100
AcDb2dVertex
 10
193.8930860992044
 20
101.2817818361451
 30
0.0
  0
VERTEX
  5
3F5
330
3EA
100
AcDbEntity
  8
Visible (ANSI)
100
AcDbVertex
100
AcDb2dVertex
 10
193.9012161854904
 20
101.2786733141468
 30
0.0
  0
VERTEX
  5
3F6
330
3EA
100
AcDbEntity
  8
Visible (ANSI)
100
AcDbVertex
100
AcDb2dVertex
 10
193.9094518884878
 20
101.2758796305746
 30
0.0
  0
VERTEX
  5
3F7
330
3EA
100
AcDbEntity
  8
Visible (ANSI)
100
AcDbVertex
100
AcDb2dVertex
 10
193.917761125844
 20
101.2733908278485
 30
0.0
  0
VERTEX
  5
3F8
330
3EA
100
AcDbEntity
  8
Visible (ANSI)
100
AcDbVertex
100
AcDb2dVertex
 10
193.9261030843929
 20
101.2712234018416
 30
0.0
  0
VERTEX
  5
3F9
330
3EA
100
AcDbEntity
  8
Visible (ANSI)
100
AcDbVertex
100
AcDb2dVertex
 10
193.9344481016302
 20
101.2693630807038
 30
0.0
  0
VERTEX
  5
3FA
330
3EA
100
AcDbEntity
  8
Visible (ANSI)
100
AcDbVertex
100
AcDb2dVertex
 10
193.9427554224664
 20
101.267823539868
 30
0.0
  0
VERTEX
  5
3FB
330
3EA
100
AcDbEntity
  8
Visible (ANSI)
100
AcDbVertex
100
AcDb2dVertex
 10
193.9509931145793
 20
101.2665892003829
 30
0.0
  0
VERTEX
  5
3FC
330
3EA
100
AcDbEntity
  8
Visible (ANSI)
100
AcDbVertex
100
AcDb2dVertex
 10
193.95912328556
 20
101.2656639485359
 30
0.0
  0
VERTEX
  5
3FD
330
3EA
100
AcDbEntity
  8
Visible (ANSI)
100
AcDbVertex
100
AcDb2dVertex
 10
193.9671120841467
 20
101.265048289988
 30
0.0
  0
VERTEX
  5
3FE
330
3EA
100
AcDbEntity
  8
Visible (ANSI)
100
AcDbVertex
100
AcDb2dVertex
 10
193.9749248242296
 20
101.264725059987
 30
0.0
  0
VERTEX
  5
3FF
330
3EA
100
AcDbEntity
  8
Visible (ANSI)
100
AcDbVertex
100
AcDb2dVertex
 10
193.9825285692498
 20
101.2646981669375
 30
0.0
  0
VERTEX
  5
400
330
3EA
100
AcDbEntity
  8
Visible (ANSI)
100
AcDbVertex
100
AcDb2dVertex
 10
193.9898922277825
 20
101.2649468083603
 30
0.0
  0
VERTEX
  5
401
330
3EA
100
AcDbEntity
  8
Visible (ANSI)
100
AcDbVertex
100
AcDb2dVertex
 10
193.9969816990192
 20
101.2654684923279
 30
0.0
  0
VERTEX
  5
402
330
3EA
100
AcDbEntity
  8
Visible (ANSI)
100
AcDbVertex
100
AcDb2dVertex
 10
194.0037674090827
 20
101.2662576260308
 30
0.0
  0
VERTEX
  5
403
330
3EA
100
AcDbEntity
  8
Visible (ANSI)
100
AcDbVertex
100
AcDb2dVertex
 10
194.0102194616513
 20
101.2672912413198
 30
0.0
  0
VERTEX
  5
404
330
3EA
100
AcDbEntity
  8
Visible (ANSI)
100
AcDbVertex
100
AcDb2dVertex
 10
194.0163127008865
 20
101.2685663116817
 30
0.0
  0
SEQEND
  5
3ED
330
3EA
100
AcDbEntity
  8
Visible (ANSI)
  0
POLYLINE
  5
405
330
6C
100
AcDbEntity
  8
Visible (ANSI)
100
AcDb2dPolyline
 66
     1
 10
0.0
 20
0.0
 30
0.0
 70
   128
  0
VERTEX
  5
406
330
405
100
AcDbEntity
  8
Visible (ANSI)
100
AcDbVertex
100
AcDb2dVertex
 10
194.0163127008863
 20
27.17707208649437
 30
0.0
  0
VERTEX
  5
407
330
405
100
AcDbEntity
  8
Visible (ANSI)
100
AcDbVertex
100
AcDb2dVertex
 10
194.0102194616511
 20
27.17177125682651
 30
0.0
  0
VERTEX
  5
409
330
405
100
AcDbEntity
  8
Visible (ANSI)
100
AcDbVertex
100
AcDb2dVertex
 10
194.0037674090825
 20
27.16670615234622
 30
0.0
  0
VERTEX
  5
40A
330
405
100
AcDbEntity
  8
Visible (ANSI)
100
AcDbVertex
100
AcDb2dVertex
 10
193.996981699019
 20
27.16189127052859
 30
0.0
  0
VERTEX
  5
40B
330
405
100
AcDbEntity
  8
Visible (ANSI)
100
AcDbVertex
100
AcDb2dVertex
 10
193.9898922277823
 20
27.15733809736971
 30
0.0
  0
VERTEX
  5
40C
330
405
100
AcDbEntity
  8
Visible (ANSI)
100
AcDbVertex
100
AcDb2dVertex
 10
193.9825285692496
 20
27.15305796675555
 30
0.0
  0
VERTEX
  5
40D
330
405
100
AcDbEntity
  8
Visible (ANSI)
100
AcDbVertex
100
AcDb2dVertex
 10
193.9749248242294
 20
27.14905911169042
 30
0.0
  0
VERTEX
  5
40E
330
405
100
AcDbEntity
  8
Visible (ANSI)
100
AcDbVertex
100
AcDb2dVertex
 10
193.9671120841465
 20
27.1453508525001
 30
0.0
  0
VERTEX
  5
40F
330
405
100
AcDbEntity
  8
Visible (ANSI)
100
AcDbVertex
100
AcDb2dVertex
 10
193.9591232855598
 20
27.14194075174212
 30
0.0
  0
VERTEX
  5
410
330
405
100
AcDbEntity
  8
Visible (ANSI)
100
AcDbVertex
100
AcDb2dVertex
 10
193.9509931145791
 20
27.13883452558897
 30
0.0
  0
VERTEX
  5
411
330
405
100
AcDbEntity
  8
Visible (ANSI)
100
AcDbVertex
100
AcDb2dVertex
 10
193.9427554224662
 20
27.13603737588273
 30
0.0
  0
VERTEX
  5
412
330
405
100
AcDbEntity
  8
Visible (ANSI)
100
AcDbVertex
100
AcDb2dVertex
 10
193.9344481016301
 20
27.13355115741262
 30
0.0
  0
VERTEX
  5
413
330
405
100
AcDbEntity
  8
Visible (ANSI)
100
AcDbVertex
100
AcDb2dVertex
 10
193.9261030843927
 20
27.13138000055027
 30
0.0
  0
VERTEX
  5
414
330
405
100
AcDbEntity
  8
Visible (ANSI)
100
AcDbVertex
100
AcDb2dVertex
 10
193.9177611258438
 20
27.1295216672513
 30
0.0
  0
VERTEX
  5
415
330
405
100
AcDbEntity
  8
Visible (ANSI)
100
AcDbVertex
100
AcDb2dVertex
 10
193.9094518884876
 20
27.12797899197728
 30
0.0
  0
VERTEX
  5
416
330
405
100
AcDbEntity
  8
Visible (ANSI)
100
AcDbVertex
100
AcDb2dVertex
 10
193.9012161854902
 20
27.12674691624363
 30
0.0
  0
VERTEX
  5
417
330
405
100
AcDbEntity
  8
Visible (ANSI)
100
AcDbVertex
100
AcDb2dVertex
 10
193.8930860992042
 20
27.12582394905056
 30
0.0
  0
VERTEX
  5
418
330
405
100
AcDbEntity
  8
Visible (ANSI)
100
AcDbVertex
100
AcDb2dVertex
 10
193.8850972643199
 20
27.12520493728521
 30
0.0
  0
VERTEX
  5
419
330
405
100
AcDbEntity
  8
Visible (ANSI)
100
AcDbVertex
100
AcDb2dVertex
 10
193.8772839071755
 20
27.12488388324526
 30
0.0
  0
VERTEX
  5
41A
330
405
100
AcDbEntity
  8
Visible (ANSI)
100
AcDbVertex
100
AcDb2dVertex
 10
193.8696787586432
 20
27.12485396162011
 30
0.0
  0
VERTEX
  5
41B
330
405
100
AcDbEntity
  8
Visible (ANSI)
100
AcDbVertex
100
AcDb2dVertex
 10
193.8623155078549
 20
27.12510604504025
 30
0.0
  0
VERTEX
  5
41C
330
405
100
AcDbEntity
  8
Visible (ANSI)
100
AcDbVertex
100
AcDb2dVertex
 10
193.8552262613617
 20
27.12563006121485
 30
0.0
  0
VERTEX
  5
41D
330
405
100
AcDbEntity
  8
Visible (ANSI)
100
AcDbVertex
100
AcDb2dVertex
 10
193.8484415479733
 20
27.12641506286586
 30
0.0
  0
VERTEX
  5
41E
330
405
100
AcDbEntity
  8
Visible (ANSI)
100
AcDbVertex
100
AcDb2dVertex
 10
193.8419877779172
 20
27.12745058486557
 30
0.0
  0
VERTEX
  5
41F
330
405
100
AcDbEntity
  8
Visible (ANSI)
100
AcDbVertex
100
AcDb2dVertex
 10
193.8358946959722
 20
27.12872234098484
 30
0.0
  0
SEQEND
  5
408
330
405
100
AcDbEntity
  8
Visible (ANSI)
  0
LINE
  5
420
330
6C
100
AcDbEntity
  8
Visible (ANSI)
100
AcDbLine
 10
193.9406689004321
 20
101.3140773798226
 30
0.0
 11
194.5706023174188
 21
101.6768319088361
 31
0.0
  0
LINE
  5
421
330
6C
100
AcDbEntity
  8
Visible (ANSI)
100
AcDbLine
 10
194.647942121611
 20
27.54080281963507
 30
0.0
 11
194.0163130967596
 21
27.17707185499243
 31
0.0
  0
LINE
  5
422
330
6C
100
AcDbEntity
  8
Visible (ANSI)
100
AcDbLine
 10
193.9528293734796
 20
101.3051217578704
 30
0.0
 11
194.0163130967598
 21
101.2685639129974
 31
0.0
  0
POLYLINE
  5
423
330
6C
100
AcDbEntity
  8
Visible (ANSI)
100
AcDb2dPolyline
 66
     1
 10
0.0
 20
0.0
 30
0.0
 70
   128
  0
VERTEX
  5
424
330
423
100
AcDbEntity
  8
Visible (ANSI)
100
AcDbVertex
100
AcDb2dVertex
 10
193.9132344990031
 20
101.3614519489072
 30
0.0
  0
VERTEX
  5
425
330
423
100
AcDbEntity
  8
Visible (ANSI)
100
AcDbVertex
100
AcDb2dVertex
 10
193.9138559245505
 20
101.3596552115637
 30
0.0
  0
VERTEX
  5
427
330
423
100
AcDbEntity
  8
Visible (ANSI)
100
AcDbVertex
100
AcDb2dVertex
 10
193.9145059860353
 20
101.3578806944454
 30
0.0
  0
VERTEX
  5
428
330
423
100
AcDbEntity
  8
Visible (ANSI)
100
AcDbVertex
100
AcDb2dVertex
 10
193.9151796318926
 20
101.3561197365468
 30
0.0
  0
VERTEX
  5
429
330
423
100
AcDbEntity
  8
Visible (ANSI)
100
AcDbVertex
100
AcDb2dVertex
 10
193.9158791807498
 20
101.3543822789633
 30
0.0
  0
VERTEX
  5
42A
330
423
100
AcDbEntity
  8
Visible (ANSI)
100
AcDbVertex
100
AcDb2dVertex
 10
193.9165994542394
 20
101.3526595876691
 30
0.0
  0
VERTEX
  5
42B
330
423
100
AcDbEntity
  8
Visible (ANSI)
100
AcDbVertex
100
AcDb2dVertex
 10
193.9173426450185
 20
101.3509558013323
 30
0.0
  0
VERTEX
  5
42C
330
423
100
AcDbEntity
  8
Visible (ANSI)
100
AcDbVertex
100
AcDb2dVertex
 10
193.918105927876
 20
101.349277876792
 30
0.0
  0
VERTEX
  5
42D
330
423
100
AcDbEntity
  8
Visible (ANSI)
100
AcDbVertex
100
AcDb2dVertex
 10
193.9188864161595
 20
101.3476155458487
 30
0.0
  0
VERTEX
  5
42E
330
423
100
AcDbEntity
  8
Visible (ANSI)
100
AcDbVertex
100
AcDb2dVertex
 10
193.919683640872
 20
101.3459799981958
 30
0.0
  0
VERTEX
  5
42F
330
423
100
AcDbEntity
  8
Visible (ANSI)
100
AcDbVertex
100
AcDb2dVertex
 10
193.9204921178047
 20
101.3443623236853
 30
0.0
  0
VERTEX
  5
430
330
423
100
AcDbEntity
  8
Visible (ANSI)
100
AcDbVertex
100
AcDb2dVertex
 10
193.9213162159945
 20
101.3427707902804
 30
0.0
  0
VERTEX
  5
431
330
423
100
AcDbEntity
  8
Visible (ANSI)
100
AcDbVertex
100
AcDb2dVertex
 10
193.9221503364408
 20
101.3411964217287
 30
0.0
  0
VERTEX
  5
432
330
423
100
AcDbEntity
  8
Visible (ANSI)
100
AcDbVertex
100
AcDb2dVertex
 10
193.9229937798076
 20
101.3396445451947
 30
0.0
  0
VERTEX
  5
433
330
423
100
AcDbEntity
  8
Visible (ANSI)
100
AcDbVertex
100
AcDb2dVertex
 10
193.9238433157481
 20
101.3381218842152
 30
0.0
  0
VERTEX
  5
434
330
423
100
AcDbEntity
  8
Visible (ANSI)
100
AcDbVertex
100
AcDb2dVertex
 10
193.9246981390578
 20
101.3366165153328
 30
0.0
  0
VERTEX
  5
435
330
423
100
AcDbEntity
  8
Visible (ANSI)
100
AcDbVertex
100
AcDb2dVertex
 10
193.9255549160927
 20
101.3351408324845
 30
0.0
  0
VERTEX
  5
436
330
423
100
AcDbEntity
  8
Visible (ANSI)
100
AcDbVertex
100
AcDb2dVertex
 10
193.9264127436444
 20
101.3336828557765
 30
0.0
  0
VERTEX
  5
437
330
423
100
AcDbEntity
  8
Visible (ANSI)
100
AcDbVertex
100
AcDb2dVertex
 10
193.9272731483348
 20
101.3322520702184
 30
0.0
  0
VERTEX
  5
438
330
423
100
AcDbEntity
  8
Visible (ANSI)
100
AcDbVertex
100
AcDb2dVertex
 10
193.9281277021339
 20
101.3308407243122
 30
0.0
  0
VERTEX
  5
439
330
423
100
AcDbEntity
  8
Visible (ANSI)
100
AcDbVertex
100
AcDb2dVertex
 10
193.9289803236839
 20
101.329451096771
 30
0.0
  0
VERTEX
  5
43A
330
423
100
AcDbEntity
  8
Visible (ANSI)
100
AcDbVertex
100
AcDb2dVertex
 10
193.9298249803022
 20
101.3280911512577
 30
0.0
  0
VERTEX
  5
43B
330
423
100
AcDbEntity
  8
Visible (ANSI)
100
AcDbVertex
100
AcDb2dVertex
 10
193.9306605576486
 20
101.3267487862956
 30
0.0
  0
VERTEX
  5
43C
330
423
100
AcDbEntity
  8
Visible (ANSI)
100
AcDbVertex
100
AcDb2dVertex
 10
193.931485906295
 20
101.3254347997439
 30
0.0
  0
VERTEX
  5
43D
330
423
100
AcDbEntity
  8
Visible (ANSI)
100
AcDbVertex
100
AcDb2dVertex
 10
193.9322998453555
 20
101.3241370518047
 30
0.0
  0
SEQEND
  5
426
330
423
100
AcDbEntity
  8
Visible (ANSI)
  0
LINE
  5
43E
330
6C
100
AcDbEntity
  8
Visible (ANSI)
100
AcDbLine
 10
193.9132346057323
 20
101.3614505210746
 30
0.0
 11
193.8994816838256
 21
101.3535307400718
 31
0.0
  0
LINE
  5
43F
330
6C
100
AcDbEntity
  8
Visible (ANSI)
100
AcDbLine
 10
193.8994816838256
 20
101.3535307400718
 30
0.0
 11
193.8358948015401
 21
101.3169134898785
 31
0.0
  0
LINE
  5
440
330
6C
100
AcDbEntity
  8
Visible (ANSI)
100
AcDbLine
 10
194.0163130967598
 20
101.2685639129974
 30
0.0
 11
194.6479421216111
 21
101.63229487764
 31
0.0
  0
LINE
  5
441
330
6C
100
AcDbEntity
  8
Visible (ANSI)
100
AcDbLine
 10
194.5706023174188
 20
101.6768319088361
 30
0.0
 11
194.6479421216111
 21
101.63229487764
 31
0.0
  0
POLYLINE
  5
442
330
6C
100
AcDbEntity
  8
Visible (ANSI)
100
AcDb2dPolyline
 66
     1
 10
0.0
 20
0.0
 30
0.0
 70
   128
  0
VERTEX
  5
443
330
442
100
AcDbEntity
  8
Visible (ANSI)
100
AcDbVertex
100
AcDb2dVertex
 10
167.6176599342627
 20
116.4149921850861
 30
0.0
  0
VERTEX
  5
444
330
442
100
AcDbEntity
  8
Visible (ANSI)
100
AcDbVertex
100
AcDb2dVertex
 10
167.6195955033907
 20
116.4209185755045
 30
0.0
  0
VERTEX
  5
446
330
442
100
AcDbEntity
  8
Visible (ANSI)
100
AcDbVertex
100
AcDb2dVertex
 10
167.6219165301999
 20
116.4270440278452
 30
0.0
  0
VERTEX
  5
447
330
442
100
AcDbEntity
  8
Visible (ANSI)
100
AcDbVertex
100
AcDb2dVertex
 10
167.6246205464448
 20
116.433326989246
 30
0.0
  0
VERTEX
  5
448
330
442
100
AcDbEntity
  8
Visible (ANSI)
100
AcDbVertex
100
AcDb2dVertex
 10
167.6277034335431
 20
116.4397421795795
 30
0.0
  0
VERTEX
  5
449
330
442
100
AcDbEntity
  8
Visible (ANSI)
100
AcDbVertex
100
AcDb2dVertex
 10
167.6311594322551
 20
116.4462576440411
 30
0.0
  0
VERTEX
  5
44A
330
442
100
AcDbEntity
  8
Visible (ANSI)
100
AcDbVertex
100
AcDb2dVertex
 10
167.6349812346381
 20
116.4528405025433
 30
0.0
  0
VERTEX
  5
44B
330
442
100
AcDbEntity
  8
Visible (ANSI)
100
AcDbVertex
100
AcDb2dVertex
 10
167.6391599211302
 20
116.4594569803728
 30
0.0
  0
VERTEX
  5
44C
330
442
100
AcDbEntity
  8
Visible (ANSI)
100
AcDbVertex
100
AcDb2dVertex
 10
167.6436850525047
 20
116.4660724276997
 30
0.0
  0
VERTEX
  5
44D
330
442
100
AcDbEntity
  8
Visible (ANSI)
100
AcDbVertex
100
AcDb2dVertex
 10
167.6485447231065
 20
116.4726627765608
 30
0.0
  0
VERTEX
  5
44E
330
442
100
AcDbEntity
  8
Visible (ANSI)
100
AcDbVertex
100
AcDb2dVertex
 10
167.6537255898904
 20
116.4791859750431
 30
0.0
  0
VERTEX
  5
44F
330
442
100
AcDbEntity
  8
Visible (ANSI)
100
AcDbVertex
100
AcDb2dVertex
 10
167.6592129062992
 20
116.4856163526606
 30
0.0
  0
VERTEX
  5
450
330
442
100
AcDbEntity
  8
Visible (ANSI)
100
AcDbVertex
100
AcDb2dVertex
 10
167.664990657775
 20
116.4919160155196
 30
0.0
  0
VERTEX
  5
451
330
442
100
AcDbEntity
  8
Visible (ANSI)
100
AcDbVertex
100
AcDb2dVertex
 10
167.6710415520798
 20
116.4980578383224
 30
0.0
  0
VERTEX
  5
452
330
442
100
AcDbEntity
  8
Visible (ANSI)
100
AcDbVertex
100
AcDb2dVertex
 10
167.677347154807
 20
116.5040139934479
 30
0.0
  0
VERTEX
  5
453
330
442
100
AcDbEntity
  8
Visible (ANSI)
100
AcDbVertex
100
AcDb2dVertex
 10
167.6838879135801
 20
116.5097503130375
 30
0.0
  0
VERTEX
  5
454
330
442
100
AcDbEntity
  8
Visible (ANSI)
100
AcDbVertex
100
AcDb2dVertex
 10
167.6906432717853
 20
116.5152377808165
 30
0.0
  0
VERTEX
  5
455
330
442
100
AcDbEntity
  8
Visible (ANSI)
100
AcDbVertex
100
AcDb2dVertex
 10
167.6975917871443
 20
116.5204468370458
 30
0.0
  0
VERTEX
  5
456
330
442
100
AcDbEntity
  8
Visible (ANSI)
100
AcDbVertex
100
AcDb2dVertex
 10
167.7047111534928
 20
116.5253589177221
 30
0.0
  0
VERTEX
  5
457
330
442
100
AcDbEntity
  8
Visible (ANSI)
100
AcDbVertex
100
AcDb2dVertex
 10
167.7119783362923
 20
116.5299378497431
 30
0.0
  0
VERTEX
  5
458
330
442
100
AcDbEntity
  8
Visible (ANSI)
100
AcDbVertex
100
AcDb2dVertex
 10
167.7193696972517
 20
116.5341699984265
 30
0.0
  0
VERTEX
  5
459
330
442
100
AcDbEntity
  8
Visible (ANSI)
100
AcDbVertex
100
AcDb2dVertex
 10
167.7268610375826
 20
116.538029979994
 30
0.0
  0
VERTEX
  5
45A
330
442
100
AcDbEntity
  8
Visible (ANSI)
100
AcDbVertex
100
AcDb2dVertex
 10
167.7344277295787
 20
116.5414921636698
 30
0.0
  0
VERTEX
  5
45B
330
442
100
AcDbEntity
  8
Visible (ANSI)
100
AcDbVertex
100
AcDb2dVertex
 10
167.7420448521268
 20
116.5445364461578
 30
0.0
  0
VERTEX
  5
45C
330
442
100
AcDbEntity
  8
Visible (ANSI)
100
AcDbVertex
100
AcDb2dVertex
 10
167.749687239709
 20
116.5471540766336
 30
0.0
  0
SEQEND
  5
445
330
442
100
AcDbEntity
  8
Visible (ANSI)
  0
POLYLINE
  5
45D
330
6C
100
AcDbEntity
  8
Visible (ANSI)
100
AcDb2dPolyline
 66
     1
 10
0.0
 20
0.0
 30
0.0
 70
   128
  0
VERTEX
  5
45E
330
45D
100
AcDbEntity
  8
Visible (ANSI)
100
AcDbVertex
100
AcDb2dVertex
 10
193.8842863815284
 20
101.4972393602604
 30
0.0
  0
VERTEX
  5
45F
330
45D
100
AcDbEntity
  8
Visible (ANSI)
100
AcDbVertex
100
AcDb2dVertex
 10
193.8801284016806
 20
101.4926151928198
 30
0.0
  0
VERTEX
  5
461
330
45D
100
AcDbEntity
  8
Visible (ANSI)
100
AcDbVertex
100
AcDb2dVertex
 10
193.8759956868669
 20
101.487564373367
 30
0.0
  0
VERTEX
  5
462
330
45D
100
AcDbEntity
  8
Visible (ANSI)
100
AcDbVertex
100
AcDb2dVertex
 10
193.8719133929259
 20
101.4820956583004
 30
0.0
  0
VERTEX
  5
463
330
45D
100
AcDbEntity
  8
Visible (ANSI)
100
AcDbVertex
100
AcDb2dVertex
 10
193.8679064603293
 20
101.476229139768
 30
0.0
  0
VERTEX
  5
464
330
45D
100
AcDbEntity
  8
Visible (ANSI)
100
AcDbVertex
100
AcDb2dVertex
 10
193.8640019850292
 20
101.4699890271777
 30
0.0
  0
VERTEX
  5
465
330
45D
100
AcDbEntity
  8
Visible (ANSI)
100
AcDbVertex
100
AcDb2dVertex
 10
193.8602192002848
 20
101.4634035637657
 30
0.0
  0
VERTEX
  5
466
330
45D
100
AcDbEntity
  8
Visible (ANSI)
100
AcDbVertex
100
AcDb2dVertex
 10
193.8565842416706
 20
101.4564849461246
 30
0.0
  0
VERTEX
  5
467
330
45D
100
AcDbEntity
  8
Visible (ANSI)
100
AcDbVertex
100
AcDb2dVertex
 10
193.853120134046
 20
101.4492693529305
 30
0.0
  0
VERTEX
  5
468
330
45D
100
AcDbEntity
  8
Visible (ANSI)
100
AcDbVertex
100
AcDb2dVertex
 10
193.8498491738958
 20
101.4417753537606
 30
0.0
  0
VERTEX
  5
469
330
45D
100
AcDbEntity
  8
Visible (ANSI)
100
AcDbVertex
100
AcDb2dVertex
 10
193.8467953007821
 20
101.434031070264
 30
0.0
  0
VERTEX
  5
46A
330
45D
100
AcDbEntity
  8
Visible (ANSI)
100
AcDbVertex
100
AcDb2dVertex
 10
193.8439741057893
 20
101.4260683781737
 30
0.0
  0
VERTEX
  5
46B
330
45D
100
AcDbEntity
  8
Visible (ANSI)
100
AcDbVertex
100
AcDb2dVertex
 10
193.8414076095396
 20
101.4179200239801
 30
0.0
  0
VERTEX
  5
46C
330
45D
100
AcDbEntity
  8
Visible (ANSI)
100
AcDbVertex
100
AcDb2dVertex
 10
193.8391142657982
 20
101.4096138241561
 30
0.0
  0
VERTEX
  5
46D
330
45D
100
AcDbEntity
  8
Visible (ANSI)
100
AcDbVertex
100
AcDb2dVertex
 10
193.8371113474443
 20
101.4011769151478
 30
0.0
  0
VERTEX
  5
46E
330
45D
100
AcDbEntity
  8
Visible (ANSI)
100
AcDbVertex
100
AcDb2dVertex
 10
193.8354148883948
 20
101.3926471797007
 30
0.0
  0
VERTEX
  5
46F
330
45D
100
AcDbEntity
  8
Visible (ANSI)
100
AcDbVertex
100
AcDb2dVertex
 10
193.8340421034524
 20
101.3840488669326
 30
0.0
  0
VERTEX
  5
470
330
45D
100
AcDbEntity
  8
Visible (ANSI)
100
AcDbVertex
100
AcDb2dVertex
 10
193.833001370133
 20
101.3754268882148
 30
0.0
  0
VERTEX
  5
471
330
45D
100
AcDbEntity
  8
Visible (ANSI)
100
AcDbVertex
100
AcDb2dVertex
 10
193.8323070913752
 20
101.3668038734204
 30
0.0
  0
VERTEX
  5
472
330
45D
100
AcDbEntity
  8
Visible (ANSI)
100
AcDbVertex
100
AcDb2dVertex
 10
193.8319696967266
 20
101.3582144779534
 30
0.0
  0
VERTEX
  5
473
330
45D
100
AcDbEntity
  8
Visible (ANSI)
100
AcDbVertex
100
AcDb2dVertex
 10
193.8319980960696
 20
101.349692482101
 30
0.0
  0
VERTEX
  5
474
330
45D
100
AcDbEntity
  8
Visible (ANSI)
100
AcDbVertex
100
AcDb2dVertex
 10
193.8324020946307
 20
101.3412693278605
 30
0.0
  0
VERTEX
  5
475
330
45D
100
AcDbEntity
  8
Visible (ANSI)
100
AcDbVertex
100
AcDb2dVertex
 10
193.8331824861202
 20
101.3329798294948
 30
0.0
  0
VERTEX
  5
476
330
45D
100
AcDbEntity
  8
Visible (ANSI)
100
AcDbVertex
100
AcDb2dVertex
 10
193.834345857366
 20
101.3248478457633
 30
0.0
  0
VERTEX
  5
477
330
45D
100
AcDbEntity
  8
Visible (ANSI)
100
AcDbVertex
100
AcDb2dVertex
 10
193.8358946959724
 20
101.31691491838
 30
0.0
  0
SEQEND
  5
460
330
45D
100
AcDbEntity
  8
Visible (ANSI)
  0
LINE
  5
478
330
6C
100
AcDbEntity
  8
Visible (ANSI)
100
AcDbLine
 10
193.8859696227078
 20
101.4087919688081
 30
0.0
 11
194.5159148174188
 21
101.771553280162
 31
0.0
  0
LINE
  5
479
330
6C
100
AcDbEntity
  8
Visible (ANSI)
100
AcDbLine
 10
194.5159148174188
 20
101.8609724969417
 30
0.0
 11
193.8842857925675
 21
101.497241532299
 31
0.0
  0
LINE
  5
47A
330
6C
100
AcDbEntity
  8
Visible (ANSI)
100
AcDbLine
 10
193.8842857925675
 20
101.4237232544753
 30
0.0
 11
193.8842857925675
 21
101.497241532299
 31
0.0
  0
LINE
  5
47B
330
6C
100
AcDbEntity
  8
Visible (ANSI)
100
AcDbLine
 10
194.5159148174188
 20
101.771553280162
 30
0.0
 11
194.5159148174188
 21
101.8609724969417
 31
0.0
  0
POLYLINE
  5
47C
330
6C
100
AcDbEntity
  8
Visible (ANSI)
100
AcDb2dPolyline
 66
     1
 10
0.0
 20
0.0
 30
0.0
 70
   128
  0
VERTEX
  5
47D
330
47C
100
AcDbEntity
  8
Visible (ANSI)
100
AcDbVertex
100
AcDb2dVertex
 10
193.9132344990031
 20
101.3614519489072
 30
0.0
  0
VERTEX
  5
47E
330
47C
100
AcDbEntity
  8
Visible (ANSI)
100
AcDbVertex
100
AcDb2dVertex
 10
193.9119925293561
 20
101.3628827114424
 30
0.0
  0
VERTEX
  5
480
330
47C
100
AcDbEntity
  8
Visible (ANSI)
100
AcDbVertex
100
AcDb2dVertex
 10
193.9107792043666
 20
101.3643356992242
 30
0.0
  0
VERTEX
  5
481
330
47C
100
AcDbEntity
  8
Visible (ANSI)
100
AcDbVertex
100
AcDb2dVertex
 10
193.9095919503259
 20
101.3657950943802
 30
0.0
  0
VERTEX
  5
482
330
47C
100
AcDbEntity
  8
Visible (ANSI)
100
AcDbVertex
100
AcDb2dVertex
 10
193.9084355637084
 20
101.3672694110189
 30
0.0
  0
VERTEX
  5
483
330
47C
100
AcDbEntity
  8
Visible (ANSI)
100
AcDbVertex
100
AcDb2dVertex
 10
193.9073073439205
 20
101.3687542179706
 30
0.0
  0
VERTEX
  5
484
330
47C
100
AcDbEntity
  8
Visible (ANSI)
100
AcDbVertex
100
AcDb2dVertex
 10
193.9062070055334
 20
101.3702493508678
 30
0.0
  0
VERTEX
  5
485
330
47C
100
AcDbEntity
  8
Visible (ANSI)
100
AcDbVertex
100
AcDb2dVertex
 10
193.9051342009776
 20
101.3717431497876
 30
0.0
  0
VERTEX
  5
486
330
47C
100
AcDbEntity
  8
Visible (ANSI)
100
AcDbVertex
100
AcDb2dVertex
 10
193.9040860435627
 20
101.3732482660505
 30
0.0
  0
VERTEX
  5
487
330
47C
100
AcDbEntity
  8
Visible (ANSI)
100
AcDbVertex
100
AcDb2dVertex
 10
193.9030670196123
 20
101.374755845505
 30
0.0
  0
VERTEX
  5
488
330
47C
100
AcDbEntity
  8
Visible (ANSI)
100
AcDbVertex
100
AcDb2dVertex
 10
193.9020741225403
 20
101.3762670106572
 30
0.0
  0
VERTEX
  5
489
330
47C
100
AcDbEntity
  8
Visible (ANSI)
100
AcDbVertex
100
AcDb2dVertex
 10
193.9011067655333
 20
101.377769963813
 30
0.0
  0
VERTEX
  5
48A
330
47C
100
AcDbEntity
  8
Visible (ANSI)
100
AcDbVertex
100
AcDb2dVertex
 10
193.9001643045335
 20
101.379275793855
 30
0.0
  0
VERTEX
  5
48B
330
47C
100
AcDbEntity
  8
Visible (ANSI)
100
AcDbVertex
100
AcDb2dVertex
 10
193.8992435622797
 20
101.3807797951189
 30
0.0
  0
VERTEX
  5
48C
330
47C
100
AcDbEntity
  8
Visible (ANSI)
100
AcDbVertex
100
AcDb2dVertex
 10
193.898348741444
 20
101.3822786799942
 30
0.0
  0
VERTEX
  5
48D
330
47C
100
AcDbEntity
  8
Visible (ANSI)
100
AcDbVertex
100
AcDb2dVertex
 10
193.8974765587456
 20
101.3837676817641
 30
0.0
  0
VERTEX
  5
48E
330
47C
100
AcDbEntity
  8
Visible (ANSI)
100
AcDbVertex
100
AcDb2dVertex
 10
193.8966261577091
 20
101.3852463072173
 30
0.0
  0
VERTEX
  5
48F
330
47C
100
AcDbEntity
  8
Visible (ANSI)
100
AcDbVertex
100
AcDb2dVertex
 10
193.8957966345214
 20
101.3867140358822
 30
0.0
  0
VERTEX
  5
490
330
47C
100
AcDbEntity
  8
Visible (ANSI)
100
AcDbVertex
100
AcDb2dVertex
 10
193.8949845599544
 20
101.3881717468819
 30
0.0
  0
VERTEX
  5
491
330
47C
100
AcDbEntity
  8
Visible (ANSI)
100
AcDbVertex
100
AcDb2dVertex
 10
193.8941938943927
 20
101.389616013082
 30
0.0
  0
VERTEX
  5
492
330
47C
100
AcDbEntity
  8
Visible (ANSI)
100
AcDbVertex
100
AcDb2dVertex
 10
193.8934211224014
 20
101.3910419340769
 30
0.0
  0
VERTEX
  5
493
330
47C
100
AcDbEntity
  8
Visible (ANSI)
100
AcDbVertex
100
AcDb2dVertex
 10
193.8926651665429
 20
101.3924546192969
 30
0.0
  0
VERTEX
  5
494
330
47C
100
AcDbEntity
  8
Visible (ANSI)
100
AcDbVertex
100
AcDb2dVertex
 10
193.891924911872
 20
101.3938419669169
 30
0.0
  0
VERTEX
  5
495
330
47C
100
AcDbEntity
  8
Visible (ANSI)
100
AcDbVertex
100
AcDb2dVertex
 10
193.8911967304306
 20
101.3952162013899
 30
0.0
  0
VERTEX
  5
496
330
47C
100
AcDbEntity
  8
Visible (ANSI)
100
AcDbVertex
100
AcDb2dVertex
 10
193.8904843959726
 20
101.3965680582225
 30
0.0
  0
SEQEND
  5
47F
330
47C
100
AcDbEntity
  8
Visible (ANSI)
  0
LINE
  5
497
330
6C
100
AcDbEntity
  8
Visible (ANSI)
100
AcDbLine
 10
167.7496872366504
 20
116.5471559112734
 30
0.0
 11
168.3813162615017
 21
116.9108868759161
 31
0.0
  0
POLYLINE
  5
498
330
6C
100
AcDbEntity
  8
Visible (ANSI)
100
AcDb2dPolyline
 66
     1
 10
0.0
 20
0.0
 30
0.0
 70
   128
  0
VERTEX
  5
499
330
498
100
AcDbEntity
  8
Visible (ANSI)
100
AcDbVertex
100
AcDb2dVertex
 10
167.6176599342625
 20
42.22679960769091
 30
0.0
  0
VERTEX
  5
49A
330
498
100
AcDbEntity
  8
Visible (ANSI)
100
AcDbVertex
100
AcDb2dVertex
 10
167.6147566773645
 20
42.22953439535243
 30
0.0
  0
VERTEX
  5
49C
330
498
100
AcDbEntity
  8
Visible (ANSI)
100
AcDbVertex
100
AcDb2dVertex
 10
167.6119531182282
 20
42.23232296089348
 30
0.0
  0
VERTEX
  5
49D
330
498
100
AcDbEntity
  8
Visible (ANSI)
100
AcDbVertex
100
AcDb2dVertex
 10
167.6092522768246
 20
42.2351633868175
 30
0.0
  0
VERTEX
  5
49E
330
498
100
AcDbEntity
  8
Visible (ANSI)
100
AcDbVertex
100
AcDb2dVertex
 10
167.6066570279339
 20
42.23805373346144
 30
0.0
  0
VERTEX
  5
49F
330
498
100
AcDbEntity
  8
Visible (ANSI)
100
AcDbVertex
100
AcDb2dVertex
 10
167.6041701640615
 20
42.24099196348788
 30
0.0
  0
VERTEX
  5
4A0
330
498
100
AcDbEntity
  8
Visible (ANSI)
100
AcDbVertex
100
AcDb2dVertex
 10
167.6017943422009
 20
42.24397602288059
 30
0.0
  0
VERTEX
  5
4A1
330
498
100
AcDbEntity
  8
Visible (ANSI)
100
AcDbVertex
100
AcDb2dVertex
 10
167.5995321128726
 20
42.24700378516141
 30
0.0
  0
VERTEX
  5
4A2
330
498
100
AcDbEntity
  8
Visible (ANSI)
100
AcDbVertex
100
AcDb2dVertex
 10
167.5973858910855
 20
42.25007309040828
 30
0.0
  0
VERTEX
  5
4A3
330
498
100
AcDbEntity
  8
Visible (ANSI)
100
AcDbVertex
100
AcDb2dVertex
 10
167.5953579756958
 20
42.25318171734197
 30
0.0
  0
VERTEX
  5
4A4
330
498
100
AcDbEntity
  8
Visible (ANSI)
100
AcDbVertex
100
AcDb2dVertex
 10
167.5934505397275
 20
42.25632743923888
 30
0.0
  0
VERTEX
  5
4A5
330
498
100
AcDbEntity
  8
Visible (ANSI)
100
AcDbVertex
100
AcDb2dVertex
 10
167.5916656255327
 20
42.25950795957092
 30
0.0
  0
VERTEX
  5
4A6
330
498
100
AcDbEntity
  8
Visible (ANSI)
100
AcDbVertex
100
AcDb2dVertex
 10
167.5900051496317
 20
42.26272094283522
 30
0.0
  0
VERTEX
  5
4A7
330
498
100
AcDbEntity
  8
Visible (ANSI)
100
AcDbVertex
100
AcDb2dVertex
 10
167.5884708785137
 20
42.26596403401996
 30
0.0
  0
VERTEX
  5
4A8
330
498
100
AcDbEntity
  8
Visible (ANSI)
100
AcDbVertex
100
AcDb2dVertex
 10
167.5870644673554
 20
42.26923483630836
 30
0.0
  0
VERTEX
  5
4A9
330
498
100
AcDbEntity
  8
Visible (ANSI)
100
AcDbVertex
100
AcDb2dVertex
 10
167.5857874164627
 20
42.27253091382254
 30
0.0
  0
VERTEX
  5
4AA
330
498
100
AcDbEntity
  8
Visible (ANSI)
100
AcDbVertex
100
AcDb2dVertex
 10
167.5846410954701
 20
42.27584983917512
 30
0.0
  0
VERTEX
  5
4AB
330
498
100
AcDbEntity
  8
Visible (ANSI)
100
AcDbVertex
100
AcDb2dVertex
 10
167.5836267239811
 20
42.27918912632227
 30
0.0
  0
VERTEX
  5
4AC
330
498
100
AcDbEntity
  8
Visible (ANSI)
100
AcDbVertex
100
AcDb2dVertex
 10
167.5827453957674
 20
42.28254627254136
 30
0.0
  0
VERTEX
  5
4AD
330
498
100
AcDbEntity
  8
Visible (ANSI)
100
AcDbVertex
100
AcDb2dVertex
 10
167.5819980569897
 20
42.28591877092926
 30
0.0
  0
VERTEX
  5
4AE
330
498
100
AcDbEntity
  8
Visible (ANSI)
100
AcDbVertex
100
AcDb2dVertex
 10
167.5813855037782
 20
42.28930408392591
 30
0.0
  0
VERTEX
  5
4AF
330
498
100
AcDbEntity
  8
Visible (ANSI)
100
AcDbVertex
100
AcDb2dVertex
 10
167.5809083870723
 20
42.29269965163205
 30
0.0
  0
VERTEX
  5
4B0
330
498
100
AcDbEntity
  8
Visible (ANSI)
100
AcDbVertex
100
AcDb2dVertex
 10
167.5805672295591
 20
42.29610294354148
 30
0.0
  0
VERTEX
  5
4B1
330
498
100
AcDbEntity
  8
Visible (ANSI)
100
AcDbVertex
100
AcDb2dVertex
 10
167.5803623869565
 20
42.29951138024597
 30
0.0
  0
VERTEX
  5
4B2
330
498
100
AcDbEntity
  8
Visible (ANSI)
100
AcDbVertex
100
AcDb2dVertex
 10
167.5802940770507
 20
42.302922389348
 30
0.0
  0
SEQEND
  5
49B
330
498
100
AcDbEntity
  8
Visible (ANSI)
  0
POLYLINE
  5
4B3
330
6C
100
AcDbEntity
  8
Visible (ANSI)
100
AcDb2dPolyline
 66
     1
 10
0.0
 20
0.0
 30
0.0
 70
   128
  0
VERTEX
  5
4B4
330
4B3
100
AcDbEntity
  8
Visible (ANSI)
100
AcDbVertex
100
AcDb2dVertex
 10
167.6176599330528
 20
116.4705393982827
 30
0.0
  0
VERTEX
  5
4B5
330
4B3
100
AcDbEntity
  8
Visible (ANSI)
100
AcDbVertex
100
AcDb2dVertex
 10
167.6119531166781
 20
116.469041801795
 30
0.0
  0
VERTEX
  5
4B7
330
4B3
100
AcDbEntity
  8
Visible (ANSI)
100
AcDbVertex
100
AcDb2dVertex
 10
167.6066570277073
 20
116.4673425113424
 30
0.0
  0
VERTEX
  5
4B8
330
4B3
100
AcDbEntity
  8
Visible (ANSI)
100
AcDbVertex
100
AcDb2dVertex
 10
167.6017943441672
 20
116.4654459803146
 30
0.0
  0
VERTEX
  5
4B9
330
4B3
100
AcDbEntity
  8
Visible (ANSI)
100
AcDbVertex
100
AcDb2dVertex
 10
167.5973858889683
 20
116.4633804018911
 30
0.0
  0
VERTEX
  5
4BA
330
4B3
100
AcDbEntity
  8
Visible (ANSI)
100
AcDbVertex
100
AcDb2dVertex
 10
167.5934505403326
 20
116.4611575280995
 30
0.0
  0
VERTEX
  5
4BB
330
4B3
100
AcDbEntity
  8
Visible (ANSI)
100
AcDbVertex
100
AcDb2dVertex
 10
167.5900051490269
 20
116.4587897845058
 30
0.0
  0
VERTEX
  5
4BC
330
4B3
100
AcDbEntity
  8
Visible (ANSI)
100
AcDbVertex
100
AcDb2dVertex
 10
167.5870644685655
 20
116.4563073819658
 30
0.0
  0
VERTEX
  5
4BD
330
4B3
100
AcDbEntity
  8
Visible (ANSI)
100
AcDbVertex
100
AcDb2dVertex
 10
167.5846410918405
 20
116.4537181272138
 30
0.0
  0
VERTEX
  5
4BE
330
4B3
100
AcDbEntity
  8
Visible (ANSI)
100
AcDbVertex
100
AcDb2dVertex
 10
167.5827453993973
 20
116.4510531816453
 30
0.0
  0
VERTEX
  5
4BF
330
4B3
100
AcDbEntity
  8
Visible (ANSI)
100
AcDbVertex
100
AcDb2dVertex
 10
167.5813855025685
 20
116.4483268622391
 30
0.0
  0
VERTEX
  5
4C0
330
4B3
100
AcDbEntity
  8
Visible (ANSI)
100
AcDbVertex
100
AcDb2dVertex
 10
167.5805672271394
 20
116.445553748648
 30
0.0
  0
VERTEX
  5
4C1
330
4B3
100
AcDbEntity
  8
Visible (ANSI)
100
AcDbVertex
100
AcDb2dVertex
 10
167.5802940770509
 20
116.4427657906393
 30
0.0
  0
VERTEX
  5
4C2
330
4B3
100
AcDbEntity
  8
Visible (ANSI)
100
AcDbVertex
100
AcDb2dVertex
 10
167.5805672295593
 20
116.4399721041386
 30
0.0
  0
VERTEX
  5
4C3
330
4B3
100
AcDbEntity
  8
Visible (ANSI)
100
AcDbVertex
100
AcDb2dVertex
 10
167.5813855037784
 20
116.4372047225232
 30
0.0
  0
VERTEX
  5
4C4
330
4B3
100
AcDbEntity
  8
Visible (ANSI)
100
AcDbVertex
100
AcDb2dVertex
 10
167.5827453957676
 20
116.4344726704446
 30
0.0
  0
VERTEX
  5
4C5
330
4B3
100
AcDbEntity
  8
Visible (ANSI)
100
AcDbVertex
100
AcDb2dVertex
 10
167.5846410954703
 20
116.4318077262696
 30
0.0
  0
VERTEX
  5
4C6
330
4B3
100
AcDbEntity
  8
Visible (ANSI)
100
AcDbVertex
100
AcDb2dVertex
 10
167.5870644673556
 20
116.429224201403
 30
0.0
  0
VERTEX
  5
4C7
330
4B3
100
AcDbEntity
  8
Visible (ANSI)
100
AcDbVertex
100
AcDb2dVertex
 10
167.5900051496318
 20
116.4267360672358
 30
0.0
  0
VERTEX
  5
4C8
330
4B3
100
AcDbEntity
  8
Visible (ANSI)
100
AcDbVertex
100
AcDb2dVertex
 10
167.5934505397276
 20
116.4243740528307
 30
0.0
  0
VERTEX
  5
4C9
330
4B3
100
AcDbEntity
  8
Visible (ANSI)
100
AcDbVertex
100
AcDb2dVertex
 10
167.5973858910857
 20
116.4221454521148
 30
0.0
  0
VERTEX
  5
4CA
330
4B3
100
AcDbEntity
  8
Visible (ANSI)
100
AcDbVertex
100
AcDb2dVertex
 10
167.6017943422011
 20
116.4200798737785
 30
0.0
  0
VERTEX
  5
4CB
330
4B3
100
AcDbEntity
  8
Visible (ANSI)
100
AcDbVertex
100
AcDb2dVertex
 10
167.6066570279342
 20
116.4181890735506
 30
0.0
  0
VERTEX
  5
4CC
330
4B3
100
AcDbEntity
  8
Visible (ANSI)
100
AcDbVertex
100
AcDb2dVertex
 10
167.6119531182284
 20
116.4164840490974
 30
0.0
  0
VERTEX
  5
4CD
330
4B3
100
AcDbEntity
  8
Visible (ANSI)
100
AcDbVertex
100
AcDb2dVertex
 10
167.6176599342627
 20
116.4149921850861
 30
0.0
  0
SEQEND
  5
4B6
330
4B3
100
AcDbEntity
  8
Visible (ANSI)
  0
LINE
  5
4CE
330
6C
100
AcDbEntity
  8
Visible (ANSI)
100
AcDbLine
 10
168.1381031657529
 20
42.58967443310367
 30
0.0
 11
168.3266287615015
 21
42.69823910335079
 31
0.0
  0
LINE
  5
4CF
330
6C
100
AcDbEntity
  8
Visible (ANSI)
100
AcDbLine
 10
167.6801479234631
 20
116.5065216687004
 30
0.0
 11
167.6176599324581
 21
116.4705372279091
 31
0.0
  0
LINE
  5
4D0
330
6C
100
AcDbEntity
  8
Visible (ANSI)
100
AcDbLine
 10
167.638543391001
 20
116.4585112439502
 30
0.0
 11
167.6176599324581
 21
116.4705372279091
 31
0.0
  0
POLYLINE
  5
4D1
330
6C
100
AcDbEntity
  8
Visible (ANSI)
100
AcDb2dPolyline
 66
     1
 10
0.0
 20
0.0
 30
0.0
 70
   128
  0
VERTEX
  5
4D2
330
4D1
100
AcDbEntity
  8
Visible (ANSI)
100
AcDbVertex
100
AcDb2dVertex
 10
193.8358946959722
 20
27.12872234098484
 30
0.0
  0
VERTEX
  5
4D3
330
4D1
100
AcDbEntity
  8
Visible (ANSI)
100
AcDbVertex
100
AcDb2dVertex
 10
193.8343458573658
 20
27.12301525373005
 30
0.0
  0
VERTEX
  5
4D5
330
4D1
100
AcDbEntity
  8
Visible (ANSI)
100
AcDbVertex
100
AcDb2dVertex
 10
193.83318248612
 20
27.11755934575588
 30
0.0
  0
VERTEX
  5
4D6
330
4D1
100
AcDbEntity
  8
Visible (ANSI)
100
AcDbVertex
100
AcDb2dVertex
 10
193.8324020946305
 20
27.11238228162068
 30
0.0
  0
VERTEX
  5
4D7
330
4D1
100
AcDbEntity
  8
Visible (ANSI)
100
AcDbVertex
100
AcDb2dVertex
 10
193.8319980960694
 20
27.10751195618837
 30
0.0
  0
VERTEX
  5
4D8
330
4D1
100
AcDbEntity
  8
Visible (ANSI)
100
AcDbVertex
100
AcDb2dVertex
 10
193.8319696967264
 20
27.10297066380027
 30
0.0
  0
VERTEX
  5
4D9
330
4D1
100
AcDbEntity
  8
Visible (ANSI)
100
AcDbVertex
100
AcDb2dVertex
 10
193.832307091375
 20
27.09878357865115
 30
0.0
  0
VERTEX
  5
4DA
330
4D1
100
AcDbEntity
  8
Visible (ANSI)
100
AcDbVertex
100
AcDb2dVertex
 10
193.8330013701327
 20
27.09497292113086
 30
0.0
  0
VERTEX
  5
4DB
330
4D1
100
AcDbEntity
  8
Visible (ANSI)
100
AcDbVertex
100
AcDb2dVertex
 10
193.8340421034522
 20
27.09155931468123
 30
0.0
  0
VERTEX
  5
4DC
330
4D1
100
AcDbEntity
  8
Visible (ANSI)
100
AcDbVertex
100
AcDb2dVertex
 10
193.8354148883946
 20
27.08856308678317
 30
0.0
  0
VERTEX
  5
4DD
330
4D1
100
AcDbEntity
  8
Visible (ANSI)
100
AcDbVertex
100
AcDb2dVertex
 10
193.8371113474442
 20
27.08599852742063
 30
0.0
  0
VERTEX
  5
4DE
330
4D1
100
AcDbEntity
  8
Visible (ANSI)
100
AcDbVertex
100
AcDb2dVertex
 10
193.839114265798
 20
27.08388233321471
 30
0.0
  0
VERTEX
  5
4DF
330
4D1
100
AcDbEntity
  8
Visible (ANSI)
100
AcDbVertex
100
AcDb2dVertex
 10
193.8414076095394
 20
27.08222786024866
 30
0.0
  0
VERTEX
  5
4E0
330
4D1
100
AcDbEntity
  8
Visible (ANSI)
100
AcDbVertex
100
AcDb2dVertex
 10
193.8439741057891
 20
27.08104649772226
 30
0.0
  0
VERTEX
  5
4E1
330
4D1
100
AcDbEntity
  8
Visible (ANSI)
100
AcDbVertex
100
AcDb2dVertex
 10
193.8467953007819
 20
27.08034759368065
 30
0.0
  0
VERTEX
  5
4E2
330
4D1
100
AcDbEntity
  8
Visible (ANSI)
100
AcDbVertex
100
AcDb2dVertex
 10
193.8498491738956
 20
27.08013986496442
 30
0.0
  0
VERTEX
  5
4E3
330
4D1
100
AcDbEntity
  8
Visible (ANSI)
100
AcDbVertex
100
AcDb2dVertex
 10
193.8531201340459
 20
27.08042564588649
 30
0.0
  0
VERTEX
  5
4E4
330
4D1
100
AcDbEntity
  8
Visible (ANSI)
100
AcDbVertex
100
AcDb2dVertex
 10
193.8565842416705
 20
27.08120943989253
 30
0.0
  0
VERTEX
  5
4E5
330
4D1
100
AcDbEntity
  8
Visible (ANSI)
100
AcDbVertex
100
AcDb2dVertex
 10
193.8602192002846
 20
27.08249218433588
 30
0.0
  0
VERTEX
  5
4E6
330
4D1
100
AcDbEntity
  8
Visible (ANSI)
100
AcDbVertex
100
AcDb2dVertex
 10
193.8640019850291
 20
27.08427268137884
 30
0.0
  0
VERTEX
  5
4E7
330
4D1
100
AcDbEntity
  8
Visible (ANSI)
100
AcDbVertex
100
AcDb2dVertex
 10
193.8679064603291
 20
27.08654902926778
 30
0.0
  0
VERTEX
  5
4E8
330
4D1
100
AcDbEntity
  8
Visible (ANSI)
100
AcDbVertex
100
AcDb2dVertex
 10
193.8719133929257
 20
27.0893129290272
 30
0.0
  0
VERTEX
  5
4E9
330
4D1
100
AcDbEntity
  8
Visible (ANSI)
100
AcDbVertex
100
AcDb2dVertex
 10
193.8759956868668
 20
27.09255826730397
 30
0.0
  0
VERTEX
  5
4EA
330
4D1
100
AcDbEntity
  8
Visible (ANSI)
100
AcDbVertex
100
AcDb2dVertex
 10
193.8801284016804
 20
27.09627544250335
 30
0.0
  0
VERTEX
  5
4EB
330
4D1
100
AcDbEntity
  8
Visible (ANSI)
100
AcDbVertex
100
AcDb2dVertex
 10
193.8842863815282
 20
27.10045283315297
 30
0.0
  0
SEQEND
  5
4D4
330
4D1
100
AcDbEntity
  8
Visible (ANSI)
  0
POLYLINE
  5
4EC
330
6C
100
AcDbEntity
  8
Visible (ANSI)
100
AcDb2dPolyline
 66
     1
 10
0.0
 20
0.0
 30
0.0
 70
   128
  0
VERTEX
  5
4ED
330
4EC
100
AcDbEntity
  8
Visible (ANSI)
100
AcDbVertex
100
AcDb2dVertex
 10
167.6651655983085
 20
42.15612283621114
 30
0.0
  0
VERTEX
  5
4EE
330
4EC
100
AcDbEntity
  8
Visible (ANSI)
100
AcDbVertex
100
AcDb2dVertex
 10
167.6622302542182
 20
42.15789240000982
 30
0.0
  0
VERTEX
  5
4F0
330
4EC
100
AcDbEntity
  8
Visible (ANSI)
100
AcDbVertex
100
AcDb2dVertex
 10
167.659365627783
 20
42.15977957077803
 30
0.0
  0
VERTEX
  5
4F1
330
4EC
100
AcDbEntity
  8
Visible (ANSI)
100
AcDbVertex
100
AcDb2dVertex
 10
167.6565738823475
 20
42.16178285534756
 30
0.0
  0
VERTEX
  5
4F2
330
4EC
100
AcDbEntity
  8
Visible (ANSI)
100
AcDbVertex
100
AcDb2dVertex
 10
167.653857074783
 20
42.16390064035301
 30
0.0
  0
VERTEX
  5
4F3
330
4EC
100
AcDbEntity
  8
Visible (ANSI)
100
AcDbVertex
100
AcDb2dVertex
 10
167.6512171700065
 20
42.16613119232895
 30
0.0
  0
VERTEX
  5
4F4
330
4EC
100
AcDbEntity
  8
Visible (ANSI)
100
AcDbVertex
100
AcDb2dVertex
 10
167.6486560990573
 20
42.16847264372093
 30
0.0
  0
VERTEX
  5
4F5
330
4EC
100
AcDbEntity
  8
Visible (ANSI)
100
AcDbVertex
100
AcDb2dVertex
 10
167.6461756526232
 20
42.17092302359648
 30
0.0
  0
VERTEX
  5
4F6
330
4EC
100
AcDbEntity
  8
Visible (ANSI)
100
AcDbVertex
100
AcDb2dVertex
 10
167.6437775826747
 20
42.1734802297859
 30
0.0
  0
VERTEX
  5
4F7
330
4EC
100
AcDbEntity
  8
Visible (ANSI)
100
AcDbVertex
100
AcDb2dVertex
 10
167.6414635105103
 20
42.17614206511325
 30
0.0
  0
VERTEX
  5
4F8
330
4EC
100
AcDbEntity
  8
Visible (ANSI)
100
AcDbVertex
100
AcDb2dVertex
 10
167.639235004192
 20
42.17890618720878
 30
0.0
  0
VERTEX
  5
4F9
330
4EC
100
AcDbEntity
  8
Visible (ANSI)
100
AcDbVertex
100
AcDb2dVertex
 10
167.637093510789
 20
42.18177016711149
 30
0.0
  0
VERTEX
  5
4FA
330
4EC
100
AcDbEntity
  8
Visible (ANSI)
100
AcDbVertex
100
AcDb2dVertex
 10
167.6350403902564
 20
42.18473148092971
 30
0.0
  0
VERTEX
  5
4FB
330
4EC
100
AcDbEntity
  8
Visible (ANSI)
100
AcDbVertex
100
AcDb2dVertex
 10
167.6330769251139
 20
42.18778746518435
 30
0.0
  0
VERTEX
  5
4FC
330
4EC
100
AcDbEntity
  8
Visible (ANSI)
100
AcDbVertex
100
AcDb2dVertex
 10
167.6312042720492
 20
42.19093538376166
 30
0.0
  0
VERTEX
  5
4FD
330
4EC
100
AcDbEntity
  8
Visible (ANSI)
100
AcDbVertex
100
AcDb2dVertex
 10
167.6294235296734
 20
42.19417237774726
 30
0.0
  0
VERTEX
  5
4FE
330
4EC
100
AcDbEntity
  8
Visible (ANSI)
100
AcDbVertex
100
AcDb2dVertex
 10
167.6277356514069
 20
42.19749552123084
 30
0.0
  0
VERTEX
  5
4FF
330
4EC
100
AcDbEntity
  8
Visible (ANSI)
100
AcDbVertex
100
AcDb2dVertex
 10
167.6261415325938
 20
42.20090176550149
 30
0.0
  0
VERTEX
  5
500
330
4EC
100
AcDbEntity
  8
Visible (ANSI)
100
AcDbVertex
100
AcDb2dVertex
 10
167.6246419379061
 20
42.2043879864698
 30
0.0
  0
VERTEX
  5
501
330
4EC
100
AcDbEntity
  8
Visible (ANSI)
100
AcDbVertex
100
AcDb2dVertex
 10
167.6232375352221
 20
42.20795098751966
 30
0.0
  0
VERTEX
  5
502
330
4EC
100
AcDbEntity
  8
Visible (ANSI)
100
AcDbVertex
100
AcDb2dVertex
 10
167.6219289149848
 20
42.21158746602113
 30
0.0
  0
VERTEX
  5
503
330
4EC
100
AcDbEntity
  8
Visible (ANSI)
100
AcDbVertex
100
AcDb2dVertex
 10
167.6207165224463
 20
42.21529405234832
 30
0.0
  0
VERTEX
  5
504
330
4EC
100
AcDbEntity
  8
Visible (ANSI)
100
AcDbVertex
100
AcDb2dVertex
 10
167.6196007447825
 20
42.21906728764832
 30
0.0
  0
VERTEX
  5
505
330
4EC
100
AcDbEntity
  8
Visible (ANSI)
100
AcDbVertex
100
AcDb2dVertex
 10
167.6185818239782
 20
42.22290367405022
 30
0.0
  0
VERTEX
  5
506
330
4EC
100
AcDbEntity
  8
Visible (ANSI)
100
AcDbVertex
100
AcDb2dVertex
 10
167.6176599342625
 20
42.22679960769091
 30
0.0
  0
SEQEND
  5
4EF
330
4EC
100
AcDbEntity
  8
Visible (ANSI)
  0
LINE
  5
507
330
6C
100
AcDbEntity
  8
Visible (ANSI)
100
AcDbLine
 10
168.1930885741046
 20
42.49512461578791
 30
0.0
 11
168.3813162615016
 21
42.60351773202486
 31
0.0
  0
LINE
  5
508
330
6C
100
AcDbEntity
  8
Visible (ANSI)
100
AcDbLine
 10
193.8842857925673
 20
27.12515891914355
 30
0.0
 11
193.8842857925673
 21
27.10045317162816
 31
0.0
  0
LINE
  5
509
330
6C
100
AcDbEntity
  8
Visible (ANSI)
100
AcDbLine
 10
193.8842857925673
 20
27.10045317162816
 30
0.0
 11
193.9508431089804
 21
27.13878098107086
 31
0.0
  0
LINE
  5
50A
330
6C
100
AcDbEntity
  8
Visible (ANSI)
100
AcDbLine
 10
194.0145089720768
 20
27.17544371328823
 30
0.0
 11
194.5159148174186
 21
27.46418413627083
 31
0.0
  0
LINE
  5
50B
330
6C
100
AcDbEntity
  8
Visible (ANSI)
100
AcDbLine
 10
194.5159148174186
 20
27.46477335166636
 30
0.0
 11
194.5159148174186
 21
27.46418413627083
 31
0.0
  0
POLYLINE
  5
50C
330
6C
100
AcDbEntity
  8
Visible (ANSI)
100
AcDb2dPolyline
 66
     1
 10
0.0
 20
0.0
 30
0.0
 70
   128
  0
VERTEX
  5
50D
330
50C
100
AcDbEntity
  8
Visible (ANSI)
100
AcDbVertex
100
AcDb2dVertex
 10
193.9322998453555
 20
101.3241370518047
 30
0.0
  0
VERTEX
  5
50E
330
50C
100
AcDbEntity
  8
Visible (ANSI)
100
AcDbVertex
100
AcDb2dVertex
 10
193.9365145984808
 20
101.3184347153073
 30
0.0
  0
VERTEX
  5
510
330
50C
100
AcDbEntity
  8
Visible (ANSI)
100
AcDbVertex
100
AcDb2dVertex
 10
193.9414976184444
 20
101.3133146345818
 30
0.0
  0
VERTEX
  5
511
330
50C
100
AcDbEntity
  8
Visible (ANSI)
100
AcDbVertex
100
AcDb2dVertex
 10
193.9470341527586
 20
101.3088557455533
 30
0.0
  0
VERTEX
  5
512
330
50C
100
AcDbEntity
  8
Visible (ANSI)
100
AcDbVertex
100
AcDb2dVertex
 10
193.9528282636207
 20
101.3051245677116
 30
0.0
  0
SEQEND
  5
50F
330
50C
100
AcDbEntity
  8
Visible (ANSI)
  0
POLYLINE
  5
513
330
6C
100
AcDbEntity
  8
Visible (ANSI)
100
AcDb2dPolyline
 66
     1
 10
0.0
 20
0.0
 30
0.0
 70
   128
  0
VERTEX
  5
514
330
513
100
AcDbEntity
  8
Visible (ANSI)
100
AcDbVertex
100
AcDb2dVertex
 10
193.8842863815284
 20
101.4237249302498
 30
0.0
  0
VERTEX
  5
515
330
513
100
AcDbEntity
  8
Visible (ANSI)
100
AcDbVertex
100
AcDb2dVertex
 10
193.8846271893734
 20
101.4168635146835
 30
0.0
  0
VERTEX
  5
517
330
513
100
AcDbEntity
  8
Visible (ANSI)
100
AcDbVertex
100
AcDb2dVertex
 10
193.8857216542209
 20
101.4098860323197
 30
0.0
  0
VERTEX
  5
518
330
513
100
AcDbEntity
  8
Visible (ANSI)
100
AcDbVertex
100
AcDb2dVertex
 10
193.8876635264495
 20
101.4030269728605
 30
0.0
  0
VERTEX
  5
519
330
513
100
AcDbEntity
  8
Visible (ANSI)
100
AcDbVertex
100
AcDb2dVertex
 10
193.8904843959726
 20
101.3965680582225
 30
0.0
  0
SEQEND
  5
516
330
513
100
AcDbEntity
  8
Visible (ANSI)
  0
LINE
  5
51A
330
6C
100
AcDbEntity
  8
Visible (ANSI)
100
AcDbLine
 10
194.6479421216111
 20
101.63229487764
 30
0.0
 11
194.647942121611
 21
27.54080281963508
 31
0.0
  0
LINE
  5
51B
330
6C
100
AcDbEntity
  8
Visible (ANSI)
100
AcDbLine
 10
168.3813162615017
 20
116.9108868759161
 30
0.0
 11
194.5159148174188
 21
101.8609724969417
 31
0.0
  0
LINE
  5
51C
330
6C
100
AcDbEntity
  8
Visible (ANSI)
100
AcDbLine
 10
168.3266287615015
 20
42.69823910335079
 30
0.0
 11
168.3266287615015
 21
42.80198103288328
 31
0.0
  0
LINE
  5
51D
330
6C
100
AcDbEntity
  8
Visible (ANSI)
100
AcDbLine
 10
168.3266287615016
 20
78.73320517750241
 30
0.0
 11
168.3266287615016
 21
79.16579585660866
 31
0.0
  0
LINE
  5
51E
330
6C
100
AcDbEntity
  8
Visible (ANSI)
100
AcDbLine
 10
168.3266287615017
 20
115.0970200012277
 30
0.0
 11
168.3266287615017
 21
115.529610680334
 31
0.0
  0
LINE
  5
51F
330
6C
100
AcDbEntity
  8
Visible (ANSI)
100
AcDbLine
 10
193.4241987738261
 20
28.18228081090645
 30
0.0
 11
193.0493932542485
 21
28.398116954949
 31
0.0
  0
LINE
  5
520
330
6C
100
AcDbEntity
  8
Visible (ANSI)
100
AcDbLine
 10
168.4692219544471
 20
42.55289621015893
 30
0.0
 11
168.3813162615016
 21
42.60351773202486
 31
0.0
  0
SPLINE
  5
521
330
6C
100
AcDbEntity
  8
Visible (ANSI)
100
AcDbSpline
210
0.0
220
0.0
230
1.0
 70
     8
 71
     3
 72
    11
 73
     7
 74
     0
 42
0.0000000001
 43
0.0000000001
 40
0.0
 40
0.0
 40
0.0
 40
0.0
 40
1.084645898258641
 40
1.084645898258641
 40
1.084645898258641
 40
1.570796326794961
 40
1.570796326794961
 40
1.570796326794961
 40
1.570796326794961
 10
74.87581442215963
 20
134.9187079417091
 30
0.0
 10
74.91534976515116
 20
134.9187079417091
 30
0.0
 10
74.95402298263214
 20
134.9420120997742
 30
0.0
 10
74.97249491512767
 20
134.9769667998206
 30
0.0
 10
74.98077424196883
 20
134.9926338875165
 30
0.0
 10
74.98516442215965
 20
135.0103377585889
 30
0.0
 10
74.98516442215965
 20
135.028057941709
 30
0.0
  0
LINE
  5
522
330
6C
100
AcDbEntity
  8
Visible (ANSI)
100
AcDbLine
 10
74.89141442215964
 20
135.0280579417091
 30
0.0
 11
74.8914144221597
 21
135.793707941709
 31
0.0
  0
LINE
  5
523
330
6C
100
AcDbEntity
  8
Visible (ANSI)
100
AcDbLine
 10
74.89141442215964
 20
135.0280579417091
 30
0.0
 11
74.98516442215965
 21
135.028057941709
 31
0.0
  0
SPLINE
  5
524
330
6C
100
AcDbEntity
  8
Visible (ANSI)
100
AcDbSpline
210
0.0
220
0.0
230
1.0
 70
     8
 71
     3
 72
     8
 73
     4
 74
     0
 42
0.0000000001
 43
0.0000000001
 40
0.0
 40
0.0
 40
0.0
 40
0.0
 40
1.570796326794961
 40
1.570796326794961
 40
1.570796326794961
 40
1.570796326794961
 10
74.87581442215965
 20
135.0124579417091
 30
0.0
 10
74.88398256305898
 20
135.0124579417091
 30
0.0
 10
74.89141442215966
 20
135.0198898008097
 30
0.0
 10
74.89141442215966
 20
135.028057941709
 30
0.0
  0
LINE
  5
525
330
6C
100
AcDbEntity
  8
Visible (ANSI)
100
AcDbLine
 10
74.87581442215966
 20
135.0124579417091
 30
0.0
 11
74.87581442215965
 21
134.9957868828381
 31
0.0
  0
LINE
  5
526
330
6C
100
AcDbEntity
  8
Visible (ANSI)
100
AcDbLine
 10
74.87581442215965
 20
134.9957868828381
 30
0.0
 11
74.87581442215966
 21
134.9187079417091
 31
0.0
  0
LINE
  5
527
330
6C
100
AcDbEntity
  8
Visible (ANSI)
100
AcDbLine
 10
74.98516442215965
 20
135.028057941709
 30
0.0
 11
74.9851644221597
 21
135.793707941709
 31
0.0
  0
LINE
  5
528
330
6C
100
AcDbEntity
  8
Visible (ANSI)
100
AcDbLine
 10
74.8914144221597
 20
135.793707941709
 30
0.0
 11
74.9851644221597
 21
135.793707941709
 31
0.0
  0
SPLINE
  5
529
330
6C
100
AcDbEntity
  8
Visible (ANSI)
100
AcDbSpline
210
0.0
220
0.0
230
1.0
 70
     8
 71
     3
 72
    11
 73
     7
 74
     0
 42
0.0000000001
 43
0.0000000001
 40
0.0
 40
0.0
 40
0.0
 40
0.0
 40
1.084645898259629
 40
1.084645898259629
 40
1.084645898259629
 40
1.570796326794961
 40
1.570796326794961
 40
1.570796326794961
 40
1.570796326794961
 10
43.09451442215965
 20
134.9187079417091
 30
0.0
 10
43.10618197937194
 20
134.9187079417091
 30
0.0
 10
43.11784953658422
 20
134.9420120997743
 30
0.0
 10
43.1295170937965
 20
134.9769667998208
 30
0.0
 10
43.1347466234963
 20
134.9926338875166
 30
0.0
 10
43.1399761531961
 20
135.010337758589
 30
0.0
 10
43.1452056828959
 20
135.0280579417091
 30
0.0
  0
SPLINE
  5
52A
330
6C
100
AcDbEntity
  8
Visible (ANSI)
100
AcDbSpline
210
0.0
220
0.0
230
1.0
 70
     8
 71
     3
 72
    11
 73
     7
 74
     0
 42
0.0000000001
 43
0.0000000001
 40
0.0
 40
0.0
 40
0.0
 40
0.0
 40
1.084645898258976
 40
1.084645898258976
 40
1.084645898258976
 40
1.570796326794961
 40
1.570796326794961
 40
1.570796326794961
 40
1.570796326794961
 10
74.82512316142342
 20
135.0280579417091
 30
0.0
 10
74.83679071863569
 20
134.9885225987175
 30
0.0
 10
74.84845827584797
 20
134.9498493812365
 30
0.0
 10
74.86012583306025
 20
134.931377448741
 30
0.0
 10
74.86535536276004
 20
134.9230981218999
 30
0.0
 10
74.87058489245985
 20
134.9187079417091
 30
0.0
 10
74.87581442215966
 20
134.9187079417091
 30
0.0
  0
LINE
  5
52B
330
6C
100
AcDbEntity
  8
Visible (ANSI)
100
AcDbLine
 10
74.82512316142342
 20
135.7937079417091
 30
0.0
 11
74.82512316142342
 21
135.0280579417091
 31
0.0
  0
SPLINE
  5
52C
330
6C
100
AcDbEntity
  8
Visible (ANSI)
100
AcDbSpline
210
0.0
220
0.0
230
1.0
 70
     8
 71
     3
 72
     8
 73
     4
 74
     0
 42
0.0000000001
 43
0.0000000001
 40
0.0
 40
0.0
 40
0.0
 40
0.0
 40
1.570796326794961
 40
1.570796326794961
 40
1.570796326794961
 40
1.570796326794961
 10
74.87581442215966
 20
135.0124579417091
 30
0.0
 10
74.85891733524758
 20
135.0124579417091
 30
0.0
 10
74.8420202483355
 20
135.0198898008097
 30
0.0
 10
74.82512316142342
 20
135.0280579417091
 30
0.0
  0
SPLINE
  5
52D
330
6C
100
AcDbEntity
  8
Visible (ANSI)
100
AcDbSpline
210
0.0
220
0.0
230
1.0
 70
     8
 71
     3
 72
     8
 73
     4
 74
     0
 42
0.0000000001
 43
0.0000000001
 40
0.0
 40
0.0
 40
0.0
 40
0.0
 40
1.570796326794961
 40
1.570796326794961
 40
1.570796326794961
 40
1.570796326794961
 10
43.09451442215965
 20
135.0124579417091
 30
0.0
 10
43.11141150907173
 20
135.0124579417091
 30
0.0
 10
43.12830859598381
 20
135.0198898008097
 30
0.0
 10
43.1452056828959
 20
135.0280579417091
 30
0.0
  0
LINE
  5
52E
330
6C
100
AcDbEntity
  8
Visible (ANSI)
100
AcDbLine
 10
43.09451442215966
 20
135.0124579417091
 30
0.0
 11
43.09451442215965
 21
134.9957868828381
 31
0.0
  0
LINE
  5
52F
330
6C
100
AcDbEntity
  8
Visible (ANSI)
100
AcDbLine
 10
43.09451442215965
 20
134.9957868828381
 30
0.0
 11
43.09451442215966
 21
134.9187079417091
 31
0.0
  0
LINE
  5
530
330
6C
100
AcDbEntity
  8
Visible (ANSI)
100
AcDbLine
 10
43.1452056828959
 20
135.0280579417091
 30
0.0
 11
43.1452056828959
 21
135.7937079417091
 31
0.0
  0
SPLINE
  5
531
330
6C
100
AcDbEntity
  8
Visible (ANSI)
100
AcDbSpline
210
0.0
220
0.0
230
1.0
 70
     8
 71
     3
 72
    11
 73
     7
 74
     0
 42
0.0000000001
 43
0.0000000001
 40
0.0
 40
0.0
 40
0.0
 40
0.0
 40
1.084645898258924
 40
1.084645898258924
 40
1.084645898258924
 40
1.570796326795045
 40
1.570796326795045
 40
1.570796326795045
 40
1.570796326795045
 10
42.98516442215965
 20
135.0280579417091
 30
0.0
 10
42.98516442215965
 20
134.9885225987175
 30
0.0
 10
43.00846858022481
 20
134.9498493812365
 30
0.0
 10
43.04342328027129
 20
134.931377448741
 30
0.0
 10
43.05909036796712
 20
134.9230981218999
 30
0.0
 10
43.07679423903951
 20
134.9187079417091
 30
0.0
 10
43.09451442215966
 20
134.9187079417091
 30
0.0
  0
LINE
  5
532
330
6C
100
AcDbEntity
  8
Visible (ANSI)
100
AcDbLine
 10
43.07891442215965
 20
135.0280579417091
 30
0.0
 11
43.07891442215965
 21
135.793707941709
 31
0.0
  0
LINE
  5
533
330
6C
100
AcDbEntity
  8
Visible (ANSI)
100
AcDbLine
 10
42.98516442215965
 20
135.793707941709
 30
0.0
 11
42.98516442215965
 21
135.0280579417091
 31
0.0
  0
LINE
  5
534
330
6C
100
AcDbEntity
  8
Visible (ANSI)
100
AcDbLine
 10
43.07891442215965
 20
135.0280579417091
 30
0.0
 11
42.98516442215965
 21
135.0280579417091
 31
0.0
  0
LINE
  5
535
330
6C
100
AcDbEntity
  8
Visible (ANSI)
100
AcDbLine
 10
43.07891442215965
 20
135.793707941709
 30
0.0
 11
42.98516442215965
 21
135.793707941709
 31
0.0
  0
SPLINE
  5
536
330
6C
100
AcDbEntity
  8
Visible (ANSI)
100
AcDbSpline
210
0.0
220
0.0
230
1.0
 70
     8
 71
     3
 72
     8
 73
     4
 74
     0
 42
0.0000000001
 43
0.0000000001
 40
0.0
 40
0.0
 40
0.0
 40
0.0
 40
1.570796326795045
 40
1.570796326795045
 40
1.570796326795045
 40
1.570796326795045
 10
43.09451442215966
 20
135.0124579417091
 30
0.0
 10
43.08634628126032
 20
135.0124579417091
 30
0.0
 10
43.07891442215965
 20
135.0198898008097
 30
0.0
 10
43.07891442215965
 20
135.0280579417091
 30
0.0
  0
LINE
  5
537
330
6C
100
AcDbEntity
  8
Visible (ANSI)
100
AcDbLine
 10
74.87581442215966
 20
134.9187079417091
 30
0.0
 11
43.09451442215966
 21
134.9187079417091
 31
0.0
  0
LINE
  5
538
330
6C
100
AcDbEntity
  8
Hidden (ANSI)
 48
1.098254919052124
100
AcDbLine
 10
43.09451442215966
 20
135.0124579417091
 30
0.0
 11
74.87581442215966
 21
135.0124579417091
 31
0.0
  0
LINE
  5
539
330
6C
100
AcDbEntity
  8
Visible (ANSI)
100
AcDbLine
 10
43.1452056828959
 20
135.7937079417091
 30
0.0
 11
74.82512316142342
 21
135.7937079417091
 31
0.0
  0
LINE
  5
53A
330
6C
100
AcDbEntity
  8
Hidden (ANSI)
 48
0.0126546649262309
100
AcDbLine
 10
74.39166442215965
 20
135.0124579417088
 30
0.0
 11
74.39166442215965
 21
134.9187079417088
 31
0.0
  0
LINE
  5
53B
330
6C
100
AcDbEntity
  8
Hidden (ANSI)
 48
0.0126546649262309
100
AcDbLine
 10
73.82866442215965
 20
135.0124579417088
 30
0.0
 11
73.82866442215965
 21
134.9187079417088
 31
0.0
  0
LINE
  5
53C
330
6C
100
AcDbEntity
  8
Hidden (ANSI)
 48
0.0126546649262309
100
AcDbLine
 10
44.14166442215966
 20
135.0124579417088
 30
0.0
 11
44.14166442215966
 21
134.9187079417088
 31
0.0
  0
LINE
  5
53D
330
6C
100
AcDbEntity
  8
Hidden (ANSI)
 48
0.0126546649262309
100
AcDbLine
 10
43.57866442215965
 20
135.0124579417088
 30
0.0
 11
43.57866442215965
 21
134.9187079417088
 31
0.0
  0
MTEXT
  5
53E
330
6C
100
AcDbEntity
  8
Symbol (ANSI)
100
AcDbMText
 10
53.56125824802511
 20
128.8651203030888
 30
0.0
 40
1.680000020763066
 41
0.0
 46
0.0
 71
     7
 72
     1
  1
TOP VIEW
  7
Text Style153
 73
     1
 44
1.0
  0
LINE
  5
53F
330
6C
100
AcDbEntity
  8
Symbol (ANSI)
370
    30
100
AcDbLine
 10
53.56260225148236
 20
128.5225173798403
 30
0.0
 11
64.16266693463061
 21
128.5225173798403
 31
0.0
  0
LINE
  5
540
330
6C
100
AcDbEntity
  8
Center Mark (ANSI)
  6
CHAIN
 48
0.1611213833093643
100
AcDbLine
 10
43.86016442214084
 20
112.1361692923313
 30
0.0
 11
43.86016442214084
 21
108.0731692923313
 31
0.0
  0
LINE
  5
541
330
6C
100
AcDbEntity
  8
Center Mark (ANSI)
  6
CHAIN
 48
0.1611213833093643
100
AcDbLine
 10
74.11016442214084
 20
112.1361692923313
 30
0.0
 11
74.11016442214084
 21
108.0731692923313
 31
0.0
  0
LINE
  5
542
330
6C
100
AcDbEntity
  8
Centerline (ANSI)
  6
CHAIN
 48
0.9524481296539306
100
AcDbLine
 10
41.82866442214084
 20
110.1046692923313
 30
0.0
 11
76.14166442214084
 21
110.1046692923313
 31
0.0
  0
LINE
  5
543
330
6C
100
AcDbEntity
  8
Center Mark (ANSI)
  6
CHAIN
 48
0.1611213833093643
100
AcDbLine
 10
76.14166442214084
 20
110.1046692923313
 30
0.0
 11
72.07866442214083
 21
110.1046692923313
 31
0.0
  0
LINE
  5
544
330
6C
100
AcDbEntity
  8
Center Mark (ANSI)
  6
CHAIN
 48
0.1611213833093643
100
AcDbLine
 10
76.14166442214084
 20
33.85466929233128
 30
0.0
 11
72.07866442214083
 21
33.85466929233128
 31
0.0
  0
LINE
  5
545
330
6C
100
AcDbEntity
  8
Centerline (ANSI)
  6
CHAIN
 48
0.9524481296539306
100
AcDbLine
 10
74.11016442214084
 20
112.1361692923313
 30
0.0
 11
74.11016442214084
 21
31.82316929233128
 31
0.0
  0
LINE
  5
546
330
6C
100
AcDbEntity
  8
Center Mark (ANSI)
  6
CHAIN
 48
0.1611213833093643
100
AcDbLine
 10
74.11016442214084
 20
31.82316929233128
 30
0.0
 11
74.11016442214084
 21
35.88616929233128
 31
0.0
  0
LINE
  5
547
330
6C
100
AcDbEntity
  8
Center Mark (ANSI)
  6
CHAIN
 48
0.1611213833093643
100
AcDbLine
 10
43.86016442214084
 20
31.82316929233128
 30
0.0
 11
43.86016442214084
 21
35.88616929233128
 31
0.0
  0
LINE
  5
548
330
6C
100
AcDbEntity
  8
Centerline (ANSI)
  6
CHAIN
 48
0.9524481296539306
100
AcDbLine
 10
76.14166442214084
 20
33.85466929233128
 30
0.0
 11
41.82866442214084
 21
33.85466929233128
 31
0.0
  0
LINE
  5
549
330
6C
100
AcDbEntity
  8
Center Mark (ANSI)
  6
CHAIN
 48
0.1611213833093643
100
AcDbLine
 10
41.82866442214084
 20
33.85466929233128
 30
0.0
 11
45.89166442214085
 21
33.85466929233128
 31
0.0
  0
LINE
  5
54A
330
6C
100
AcDbEntity
  8
Center Mark (ANSI)
  6
CHAIN
 48
0.1611213833093643
100
AcDbLine
 10
41.82866442214084
 20
110.1046692923313
 30
0.0
 11
45.89166442214085
 21
110.1046692923313
 31
0.0
  0
LINE
  5
54B
330
6C
100
AcDbEntity
  8
Centerline (ANSI)
  6
CHAIN
 48
0.9524481296539306
100
AcDbLine
 10
43.86016442214084
 20
31.82316929233128
 30
0.0
 11
43.86016442214084
 21
112.1361692923313
 31
0.0
  0
LINE
  5
54C
330
6C
100
AcDbEntity
  8
Center Mark (ANSI)
  6
CHAIN
 48
0.1611213833093643
100
AcDbLine
 10
43.86016442214086
 20
74.01116929233129
 30
0.0
 11
43.86016442214086
 21
69.94816929233128
 31
0.0
  0
LINE
  5
54D
330
6C
100
AcDbEntity
  8
Center Mark (ANSI)
  6
CHAIN
 48
0.1611213833093643
100
AcDbLine
 10
74.11016442214087
 20
74.0111692923313
 30
0.0
 11
74.11016442214087
 21
69.94816929233128
 31
0.0
  0
LINE
  5
54E
330
6C
100
AcDbEntity
  8
Centerline (ANSI)
  6
CHAIN
 48
0.9524481296539306
100
AcDbLine
 10
41.82866442214086
 20
71.97966929233128
 30
0.0
 11
76.14166442214088
 21
71.97966929233129
 31
0.0
  0
DIMENSION
  5
54F
330
6C
100
AcDbEntity
  8
Dimension (ANSI)
100
AcDbDimension
280
     0
  2
*D4
 10
74.98516442214084
 20
122.9456122835635
 30
0.0
 11
58.98516442214085
 21
122.9456122835635
 31
0.0
 70
   160
  1
<>
 42
31.99999999999999
 73
     0
 74
     0
 75
     0
  3
Default (ANSI)
100
AcDbAlignedDimension
 13
42.98516442214085
 23
110.819628031595
 33
0.0
 14
74.98516442214084
 24
110.819628031595
 34
0.0
100
AcDbRotatedDimension
1001
ACAD
1000
DSTYLE
1002
{
1070
   289
1070
     1
1070
    73
1070
     0
1070
    74
1070
     0
1070
   271
1070
     2
1070
   272
1070
     2
1070
    48
1040
0.0
1070
    47
1040
0.0
1002
}
  0
DIMENSION
  5
63B
330
6C
100
AcDbEntity
  8
Dimension (ANSI)
100
AcDbDimension
280
     0
  2
*D5
 10
43.86016442214084
 20
117.6479803159533
 30
0.0
 11
36.92301571689866
 21
117.6479803159533
 31
0.0
 70
   160
  1
<>
 42
0.875
 73
     0
 74
     0
 75
     0
  3
Default (ANSI)
100
AcDbAlignedDimension
 13
42.98516442214085
 23
110.819628031595
 33
0.0
 14
43.86016442214084
 24
112.1361692923313
 34
0.0
100
AcDbRotatedDimension
1001
ACAD
1000
DSTYLE
1002
{
1070
   289
1070
     1
1070
    73
1070
     0
1070
    74
1070
     0
1070
   271
1070
     2
1070
   272
1070
     2
1070
    48
1040
0.0
1070
    47
1040
0.0
1002
}
  0
DIMENSION
  5
725
330
6C
100
AcDbEntity
  8
Dimension (ANSI)
100
AcDbDimension
280
     0
  2
*D6
 10
74.11016442214084
 20
117.6479803159533
 30
0.0
 11
58.98516442214084
 21
117.6479803159533
 31
0.0
 70
   160
  1
<>
 42
30.24999999999999
 73
     0
 74
     0
 75
     0
  3
Default (ANSI)
100
AcDbAlignedDimension
 13
43.86016442214084
 23
112.1361692923313
 33
0.0
 14
74.11016442214084
 24
112.1361692923313
 34
0.0
 50
180.0
100
AcDbRotatedDimension
1001
ACAD
1000
DSTYLE
1002
{
1070
   289
1070
     1
1070
    73
1070
     0
1070
    74
1070
     0
1070
   271
1070
     2
1070
   272
1070
     2
1070
    48
1040
0.0
1070
    47
1040
0.0
1002
}
  0
DIMENSION
  5
80F
330
6C
100
AcDbEntity
  8
Dimension (ANSI)
100
AcDbDimension
280
     0
  2
*D7
 10
40.28906202370026
 20
33.85466929233128
 30
0.0
 11
36.3168533985188
 21
28.96170196998133
 31
0.0
 70
   160
  1
<>
 42
0.875
 73
     0
 74
     0
 75
     0
  3
Default (ANSI)
100
AcDbAlignedDimension
 13
43.14520568287711
 23
32.97966929233128
 33
0.0
 14
41.82866442214084
 24
33.85466929233128
 34
0.0
 50
90.0
100
AcDbRotatedDimension
1001
ACAD
1000
DSTYLE
1002
{
1070
   289
1070
     1
1070
   271
1070
     2
1070
   272
1070
     2
1070
    48
1040
0.0
1070
    47
1040
0.0
1002
}
  0
DIMENSION
  5
90F
330
6C
100
AcDbEntity
  8
Dimension (ANSI)
100
AcDbDimension
280
     0
  2
*D8
 10
36.31685339851882
 20
71.97966929233128
 30
0.0
 11
36.3168533985188
 21
52.91716929233128
 31
0.0
 70
   160
  1
<>
 42
38.12500000000001
 73
     0
 74
     0
 75
     0
  3
Default (ANSI)
100
AcDbAlignedDimension
 13
41.82866442214084
 23
33.85466929233128
 33
0.0
 14
41.82866442214086
 24
71.97966929233128
 34
0.0
 50
90.0
100
AcDbRotatedDimension
1001
ACAD
1000
DSTYLE
1002
{
1070
   289
1070
     1
1070
   271
1070
     2
1070
   272
1070
     2
1070
    48
1040
0.0
1070
    47
1040
0.0
1002
}
  0
DIMENSION
  5
9F9
330
6C
100
AcDbEntity
  8
Dimension (ANSI)
100
AcDbDimension
280
     0
  2
*D9
 10
28.60031796544797
 20
110.1046692923313
 30
0.0
 11
28.60031796544795
 21
71.97966929233125
 31
0.0
 70
   160
  1
<>
 42
76.25000000000003
 73
     0
 74
     0
 75
     0
  3
Default (ANSI)
100
AcDbAlignedDimension
 13
41.82866442214084
 23
33.85466929233128
 33
0.0
 14
41.82866442214084
 24
110.1046692923313
 34
0.0
 50
90.0
100
AcDbRotatedDimension
1001
ACAD
1000
DSTYLE
1002
{
1070
   289
1070
     1
1070
   271
1070
     2
1070
   272
1070
     2
1070
    48
1040
0.0
1070
    47
1040
0.0
1002
}
  0
DIMENSION
  5
AE3
330
6C
100
AcDbEntity
  8
Dimension (ANSI)
100
AcDbDimension
280
     0
  2
*D10
 10
18.64840729813419
 20
110.9796692923313
 30
0.0
 11
18.64840729813417
 21
71.97966929233128
 31
0.0
 70
   160
  1
<>
 42
78.0
 73
     0
 74
     0
 75
     0
  3
Default (ANSI)
100
AcDbAlignedDimension
 13
43.14520568287711
 23
32.97966929233128
 33
0.0
 14
43.1452056828771
 24
110.9796692923312
 34
0.0
 50
90.0
100
AcDbRotatedDimension
1001
ACAD
1000
DSTYLE
1002
{
1070
   289
1070
     1
1070
   271
1070
     2
1070
   272
1070
     2
1070
    48
1040
0.0
1070
    47
1040
0.0
1002
}
  0
DIMENSION
  5
BCD
330
6C
100
AcDbEntity
  8
Dimension (ANSI)
100
AcDbDimension
280
     0
  2
*D11
 10
73.93815454532783
 20
34.07750297981765
 30
0.0
 11
82.32322558318674
 21
30.86734892218306
 31
0.0
 70
   163
  1
<>{\P(6 PL.)}
 71
     4
 42
0.5629999999999999
 73
     0
 74
     0
 75
     0
  3
Default (ANSI)
100
AcDbDiametricDimension
 15
74.28217429895386
 25
33.63183560484492
 35
0.0
 40
0.0
1001
ACAD
1000
DSTYLE
1002
{
1070
   144
1040
1.000000000000001
1070
   271
1070
     3
1070
   272
1070
     3
1070
    48
1040
0.0
1070
    47
1040
0.0
1002
}
1001
ACAD_DSTYLE_DIMRADIAL_EXTENSION
1070
   387
1070
     1
1070
   388
1040
0.0
1070
   390
1040
0.0
  0
DIMENSION
  5
C87
330
6C
100
AcDbEntity
  8
Dimension (ANSI)
100
AcDbDimension
280
     0
  2
*D12
 10
66.98715967125912
 20
134.9187079417091
 30
0.0
 11
71.02537232818692
 21
141.7016752874175
 31
0.0
 70
   160
  1
<>{\PTYP.}
 71
     5
 42
0.875
 73
     0
 74
     0
 75
     0
  3
Default (ANSI)
100
AcDbAlignedDimension
 13
71.02537232818692
 23
135.7937079417091
 33
0.0
 14
71.0210423827222
 24
134.9187079417091
 34
0.0
 50
270.0
100
AcDbRotatedDimension
1001
ACAD
1000
DSTYLE
1002
{
1070
   289
1070
     1
1070
   271
1070
     2
1070
    76
1070
     1
1070
    75
1070
     1
1070
   272
1070
     2
1070
    48
1040
0.0
1070
    47
1040
0.0
1002
}
  0
DIMENSION
  5
D90
330
6C
100
AcDbEntity
  8
Dimension (ANSI)
100
AcDbDimension
280
     0
  2
*D13
 10
117.8738891660903
 20
107.1560821797434
 30
0.0
 11
124.9407137365059
 21
107.1560821797434
 31
0.0
 70
   160
  1
<>{\PTYP.}
 71
     4
 42
0.8750000000000284
 73
     0
 74
     0
 75
     0
  3
Default (ANSI)
100
AcDbAlignedDimension
 13
118.7488891660904
 23
107.1560821797434
 33
0.0
 14
117.8738891660903
 24
107.1502963408794
 34
0.0
 50
180.0
100
AcDbRotatedDimension
1001
ACAD
1000
DSTYLE
1002
{
1070
   289
1070
     1
1070
    73
1070
     0
1070
    74
1070
     0
1070
   271
1070
     2
1070
    76
1070
     1
1070
    75
1070
     1
1070
   272
1070
     2
1070
    48
1040
0.0
1070
    47
1040
0.0
1002
}
  0
MTEXT
  5
E7F
102
{ACAD_XDICTIONARY
360
E86
102
}
330
6C
100
AcDbEntity
  8
Symbol (ANSI)
100
AcDbMText
 10
131.269833760097
 20
13.829514893925
 30
0.0
 40
1.400000044680016
 41
103.3674195056825
 46
0.0
 71
     4
 72
     1
  3
{\fRomanS|b0|i0|c0|p2;\H2x;PART#: WA90P36F1G\P(DATA SUBJECT TO CHANGE WITHOUT NOTICE)\H1.6157x; \H0.61894x;\P \H1.352x; \H0.73963x;\P\H0.6x;THIS DRAWING IS PROPERTY OF HUBBELL INC. WIEGMANN\H1.5633x; \H0.63966x;\PALL INFORMATION IS PROPRIETARY AND NO
  1
T TO BE DUPLICATED\H1.234x; \H0.81039x;\P\H1.2571x; }
  7
Note Text (ANSI)
 73
     1
 44
0.8026435375213623
  0
ENDSEC
  0
SECTION
  2
OBJECTS
  0
DICTIONARY
  5
C
330
0
100
AcDbDictionary
281
     1
  3
ACAD_CIP_PREVIOUS_PRODUCT_INFO
350
E81
  3
ACAD_COLOR
350
63
  3
ACAD_GROUP
350
D
  3
ACAD_LAYOUT
350
62
  3
ACAD_MATERIAL
350
10
  3
ACAD_MLEADERSTYLE
350
66
  3
ACAD_MLINESTYLE
350
5F
  3
ACAD_PLOTSETTINGS
350
61
  3
ACAD_PLOTSTYLENAME
350
E
  3
ACAD_SCALELIST
350
42
  3
ACAD_TABLESTYLE
350
64
  3
ACAD_VISUALSTYLE
350
29
  3
ACDB_RECOMPOSE_DATA
350
E88
  3
AcDbVariableDictionary
350
76
  0
DICTIONARY
  5
E86
330
E7F
100
AcDbDictionary
280
     1
281
     1
  3
ACAD_MTEXT_2008_RT
360
E87
  0
XRECORD
  5
E81
102
{ACAD_REACTORS
330
C
102
}
330
C
100
AcDbXrecord
280
     1
300
INVNTOR
300
2012
300
PDSP_F_S
  0
DICTIONARY
  5
63
102
{ACAD_REACTORS
330
C
102
}
330
C
100
AcDbDictionary
281
     1
  0
DICTIONARY
  5
D
102
{ACAD_REACTORS
330
C
102
}
330
C
100
AcDbDictionary
281
     1
  0
DICTIONARY
  5
62
102
{ACAD_REACTORS
330
C
102
}
330
C
100
AcDbDictionary
281
     1
  3
Layout1
350
6B
  3
Layout2
350
73
  3
Model
350
6F
  0
DICTIONARY
  5
10
102
{ACAD_REACTORS
330
C
102
}
330
C
100
AcDbDictionary
281
     1
  3
ByBlock
350
19
  3
ByLayer
350
11
  3
Global
350
21
  0
DICTIONARY
  5
66
102
{ACAD_REACTORS
330
C
102
}
330
C
100
AcDbDictionary
281
     1
  3
Standard
350
67
  0
DICTIONARY
  5
5F
102
{ACAD_REACTORS
330
C
102
}
330
C
100
AcDbDictionary
281
     1
  3
Standard
350
60
  0
DICTIONARY
  5
61
102
{ACAD_REACTORS
330
C
102
}
330
C
100
AcDbDictionary
281
     1
  0
ACDBDICTIONARYWDFLT
  5
E
102
{ACAD_REACTORS
330
C
102
}
330
C
100
AcDbDictionary
281
     1
  3
Normal
350
F
100
AcDbDictionaryWithDefault
340
F
  0
DICTIONARY
  5
42
102
{ACAD_REACTORS
330
C
102
}
330
C
100
AcDbDictionary
281
     1
  3
A0
350
43
  3
A1
350
44
  3
A2
350
45
  3
A3
350
46
  3
A4
350
47
  3
A5
350
48
  3
A6
350
49
  3
A7
350
4A
  3
A8
350
4B
  3
A9
350
4C
  3
B0
350
4D
  3
B1
350
4E
  3
B2
350
4F
  3
B3
350
50
  3
B4
350
51
  3
B5
350
52
  3
B6
350
53
  0
DICTIONARY
  5
64
102
{ACAD_REACTORS
330
C
102
}
330
C
100
AcDbDictionary
281
     1
  3
Standard
350
65
  0
DICTIONARY
  5
29
102
{ACAD_REACTORS
330
C
102
}
330
C
100
AcDbDictionary
281
     1
  3
2dWireframe
350
2F
  3
Basic
350
2E
  3
Brighten
350
35
  3
ColorChange
350
39
  3
Conceptual
350
32
  3
Dim
350
34
  3
EdgeColorOff
350
41
  3
Facepattern
350
38
  3
Flat
350
2A
  3
FlatWithEdges
350
2B
  3
Gouraud
350
2C
  3
GouraudWithEdges
350
2D
  3
Hidden
350
31
  3
JitterOff
350
3F
  3
Linepattern
350
37
  3
OverhangOff
350
40
  3
Realistic
350
33
  3
Shaded
350
3E
  3
Shaded with edges
350
3D
  3
Shades of Gray
350
3A
  3
Sketchy
350
3B
  3
Thicken
350
36
  3
Wireframe
350
30
  3
X-Ray
350
3C
  0
XRECORD
  5
E88
102
{ACAD_REACTORS
330
C
102
}
330
C
100
AcDbXrecord
280
     1
 90
        1
330
65
330
E7F
  0
DICTIONARY
  5
76
102
{ACAD_REACTORS
330
C
102
}
330
C
100
AcDbDictionary
281
     1
  3
CANNOSCALE
350
79
  3
CMLEADERSTYLE
350
78
  3
CTABLESTYLE
350
77
  0
XRECORD
  5
E87
102
{ACAD_REACTORS
330
E86
102
}
330
E86
100
AcDbXrecord
280
     1
 40
3109192.0
  1
\pxsm0.94;{\fRomanS|b0|i0;\H2.8000;PART#: WA90P36F1G\P(DATA SUBJECT TO CHANGE WITHOUT NOTICE)\P \P\fRomanS|b0|i0;\H1.6800;THIS DRAWING IS PROPERTY OF HUBBELL INC. WIEGMANN\PALL INFORMATION IS PROPRIETARY AND NOT TO BE DUPLICATED\P}
  0
LAYOUT
  5
6B
102
{ACAD_REACTORS
330
62
102
}
330
62
100
AcDbPlotSettings
  1

  2

  4

  6

 40
0.0
 41
0.0
 42
0.0
 43
0.0
 44
0.0
 45
0.0
 46
0.0
 47
0.0
 48
0.0
 49
0.0
140
0.0
141
0.0
142
1.0
143
1.0
 70
   688
 72
     0
 73
     0
 74
     5
  7

 75
    16
147
1.0
 76
     0
 77
     2
 78
   300
148
0.0
149
0.0
100
AcDbLayout
  1
Layout1
 70
     1
 71
     1
 10
0.0
 20
0.0
 11
12.0
 21
9.0
 12
0.0
 22
0.0
 32
0.0
 14
0.0
 24
0.0
 34
0.0
 15
0.0
 25
0.0
 35
0.0
146
0.0
 13
0.0
 23
0.0
 33
0.0
 16
1.0
 26
0.0
 36
0.0
 17
0.0
 27
1.0
 37
0.0
 76
     0
330
68
  0
LAYOUT
  5
73
102
{ACAD_REACTORS
330
62
102
}
330
62
100
AcDbPlotSettings
  1

  2

  4

  6

 40
0.0
 41
0.0
 42
0.0
 43
0.0
 44
0.0
 45
0.0
 46
0.0
 47
0.0
 48
0.0
 49
0.0
140
0.0
141
0.0
142
1.0
143
1.0
 70
   688
 72
     0
 73
     0
 74
     5
  7

 75
    16
147
1.0
 76
     0
 77
     2
 78
   300
148
0.0
149
0.0
100
AcDbLayout
  1
Layout2
 70
     1
 71
     2
 10
0.0
 20
0.0
 11
12.0
 21
9.0
 12
0.0
 22
0.0
 32
0.0
 14
0.0
 24
0.0
 34
0.0
 15
0.0
 25
0.0
 35
0.0
146
0.0
 13
0.0
 23
0.0
 33
0.0
 16
1.0
 26
0.0
 36
0.0
 17
0.0
 27
1.0
 37
0.0
 76
     0
330
70
  0
LAYOUT
  5
6F
102
{ACAD_REACTORS
330
62
102
}
330
62
100
AcDbPlotSettings
  1

  2

  4

  6

 40
0.0
 41
0.0
 42
0.0
 43
0.0
 44
0.0
 45
0.0
 46
0.0
 47
0.0
 48
0.0
 49
0.0
140
0.0
141
0.0
142
1.0
143
1.0
 70
  1712
 72
     0
 73
     0
 74
     0
  7

 75
     0
147
1.0
 76
     0
 77
     2
 78
   300
148
0.0
149
0.0
100
AcDbLayout
  1
Model
 70
     1
 71
     0
 10
0.0
 20
0.0
 11
12.0
 21
9.0
 12
0.0
 22
0.0
 32
0.0
 14
0.0
 24
0.0
 34
0.0
 15
0.0
 25
0.0
 35
0.0
146
0.0
 13
0.0
 23
0.0
 33
0.0
 16
1.0
 26
0.0
 36
0.0
 17
0.0
 27
1.0
 37
0.0
 76
     0
330
6C
  0
MATERIAL
  5
19
102
{ACAD_XDICTIONARY
360
1A
102
}
102
{ACAD_REACTORS
330
10
102
}
330
10
100
AcDbMaterial
  1
ByBlock
 72
     0
 43
0.0208333333333333
 43
0.0
 43
0.0
 43
0.0
 43
0.0
 43
0.0208333333333333
 43
0.0
 43
0.0
 43
0.0
 43
0.0
 43
1.0
 43
0.0
 43
0.0
 43
0.0
 43
0.0
 43
1.0
 77
     0
 47
0.0208333333333333
 47
0.0
 47
0.0
 47
0.0
 47
0.0
 47
0.0208333333333333
 47
0.0
 47
0.0
 47
0.0
 47
0.0
 47
1.0
 47
0.0
 47
0.0
 47
0.0
 47
0.0
 47
1.0
171
     0
 49
0.0208333333333333
 49
0.0
 49
0.0
 49
0.0
 49
0.0
 49
0.0208333333333333
 49
0.0
 49
0.0
 49
0.0
 49
0.0
 49
1.0
 49
0.0
 49
0.0
 49
0.0
 49
0.0
 49
1.0
175
     0
142
0.0208333333333333
142
0.0
142
0.0
142
0.0
142
0.0
142
0.0208333333333333
142
0.0
142
0.0
142
0.0
142
0.0
142
1.0
142
0.0
142
0.0
142
0.0
142
0.0
142
1.0
179
     0
144
0.0208333333333333
144
0.0
144
0.0
144
0.0
144
0.0
144
0.0208333333333333
144
0.0
144
0.0
144
0.0
144
0.0
144
1.0
144
0.0
144
0.0
144
0.0
144
0.0
144
1.0
147
0.0208333333333333
147
0.0
147
0.0
147
0.0
147
0.0
147
0.0208333333333333
147
0.0
147
0.0
147
0.0
147
0.0
147
1.0
147
0.0
147
0.0
147
0.0
147
0.0
147
1.0
  0
MATERIAL
  5
11
102
{ACAD_XDICTIONARY
360
12
102
}
102
{ACAD_REACTORS
330
10
102
}
330
10
100
AcDbMaterial
  1
ByLayer
 72
     0
 43
0.0208333333333333
 43
0.0
 43
0.0
 43
0.0
 43
0.0
 43
0.0208333333333333
 43
0.0
 43
0.0
 43
0.0
 43
0.0
 43
1.0
 43
0.0
 43
0.0
 43
0.0
 43
0.0
 43
1.0
 77
     0
 47
0.0208333333333333
 47
0.0
 47
0.0
 47
0.0
 47
0.0
 47
0.0208333333333333
 47
0.0
 47
0.0
 47
0.0
 47
0.0
 47
1.0
 47
0.0
 47
0.0
 47
0.0
 47
0.0
 47
1.0
171
     0
 49
0.0208333333333333
 49
0.0
 49
0.0
 49
0.0
 49
0.0
 49
0.0208333333333333
 49
0.0
 49
0.0
 49
0.0
 49
0.0
 49
1.0
 49
0.0
 49
0.0
 49
0.0
 49
0.0
 49
1.0
175
     0
142
0.0208333333333333
142
0.0
142
0.0
142
0.0
142
0.0
142
0.0208333333333333
142
0.0
142
0.0
142
0.0
142
0.0
142
1.0
142
0.0
142
0.0
142
0.0
142
0.0
142
1.0
179
     0
144
0.0208333333333333
144
0.0
144
0.0
144
0.0
144
0.0
144
0.0208333333333333
144
0.0
144
0.0
144
0.0
144
0.0
144
1.0
144
0.0
144
0.0
144
0.0
144
0.0
144
1.0
147
0.0208333333333333
147
0.0
147
0.0
147
0.0
147
0.0
147
0.0208333333333333
147
0.0
147
0.0
147
0.0
147
0.0
147
1.0
147
0.0
147
0.0
147
0.0
147
0.0
147
1.0
  0
MATERIAL
  5
21
102
{ACAD_XDICTIONARY
360
22
102
}
102
{ACAD_REACTORS
330
10
102
}
330
10
100
AcDbMaterial
  1
Global
 72
     0
 43
0.0208333333333333
 43
0.0
 43
0.0
 43
0.0
 43
0.0
 43
0.0208333333333333
 43
0.0
 43
0.0
 43
0.0
 43
0.0
 43
1.0
 43
0.0
 43
0.0
 43
0.0
 43
0.0
 43
1.0
 77
     0
 47
0.0208333333333333
 47
0.0
 47
0.0
 47
0.0
 47
0.0
 47
0.0208333333333333
 47
0.0
 47
0.0
 47
0.0
 47
0.0
 47
1.0
 47
0.0
 47
0.0
 47
0.0
 47
0.0
 47
1.0
171
     0
 49
0.0208333333333333
 49
0.0
 49
0.0
 49
0.0
 49
0.0
 49
0.0208333333333333
 49
0.0
 49
0.0
 49
0.0
 49
0.0
 49
1.0
 49
0.0
 49
0.0
 49
0.0
 49
0.0
 49
1.0
175
     0
142
0.0208333333333333
142
0.0
142
0.0
142
0.0
142
0.0
142
0.0208333333333333
142
0.0
142
0.0
142
0.0
142
0.0
142
1.0
142
0.0
142
0.0
142
0.0
142
0.0
142
1.0
179
     0
144
0.0208333333333333
144
0.0
144
0.0
144
0.0
144
0.0
144
0.0208333333333333
144
0.0
144
0.0
144
0.0
144
0.0
144
1.0
144
0.0
144
0.0
144
0.0
144
0.0
144
1.0
147
0.0208333333333333
147
0.0
147
0.0
147
0.0
147
0.0
147
0.0208333333333333
147
0.0
147
0.0
147
0.0
147
0.0
147
1.0
147
0.0
147
0.0
147
0.0
147
0.0
147
1.0
  0
MLEADERSTYLE
  5
67
102
{ACAD_XDICTIONARY
360
E84
102
}
102
{ACAD_REACTORS
330
66
102
}
330
66
100
AcDbMLeaderStyle
179
     2
170
     2
171
     1
172
     0
 90
        2
 40
0.0
 41
0.0
173
     1
 91
-1056964608
340
5B
 92
       -2
290
     1
 42
0.09
291
     1
 43
0.36
  3
Standard
 44
0.18
300

342
55
174
     1
178
     6
175
     1
176
     0
 93
-1056964608
 45
0.18
292
     0
297
     0
 46
0.18
 94
-1056964608
 47
1.0
 49
1.0
140
1.0
293
     1
141
0.0
294
     1
177
     0
142
1.0
295
     0
296
     0
143
0.125
271
     0
272
     9
273
     9
  0
MLINESTYLE
  5
60
102
{ACAD_REACTORS
330
5F
102
}
330
5F
100
AcDbMlineStyle
  2
STANDARD
 70
     0
  3

 62
   256
 51
90.0
 52
90.0
 71
     2
 49
0.5
 62
   256
  6
BYLAYER
 49
-0.5
 62
   256
  6
BYLAYER
  0
ACDBPLACEHOLDER
  5
F
102
{ACAD_REACTORS
330
E
102
}
330
E
  0
SCALE
  5
43
102
{ACAD_REACTORS
330
42
102
}
330
42
100
AcDbScale
 70
     0
300
1:1
140
1.0
141
1.0
290
     1
  0
SCALE
  5
44
102
{ACAD_REACTORS
330
42
102
}
330
42
100
AcDbScale
 70
     0
300
1/128" = 1'-0"
140
0.0078125
141
12.0
290
     0
  0
SCALE
  5
45
102
{ACAD_REACTORS
330
42
102
}
330
42
100
AcDbScale
 70
     0
300
1/64" = 1'-0"
140
0.015625
141
12.0
290
     0
  0
SCALE
  5
46
102
{ACAD_REACTORS
330
42
102
}
330
42
100
AcDbScale
 70
     0
300
1/32" = 1'-0"
140
0.03125
141
12.0
290
     0
  0
SCALE
  5
47
102
{ACAD_REACTORS
330
42
102
}
330
42
100
AcDbScale
 70
     0
300
1/16" = 1'-0"
140
0.0625
141
12.0
290
     0
  0
SCALE
  5
48
102
{ACAD_REACTORS
330
42
102
}
330
42
100
AcDbScale
 70
     0
300
3/32" = 1'-0"
140
0.09375
141
12.0
290
     0
  0
SCALE
  5
49
102
{ACAD_REACTORS
330
42
102
}
330
42
100
AcDbScale
 70
     0
300
1/8" = 1'-0"
140
0.125
141
12.0
290
     0
  0
SCALE
  5
4A
102
{ACAD_REACTORS
330
42
102
}
330
42
100
AcDbScale
 70
     0
300
3/16" = 1'-0"
140
0.1875
141
12.0
290
     0
  0
SCALE
  5
4B
102
{ACAD_REACTORS
330
42
102
}
330
42
100
AcDbScale
 70
     0
300
1/4" = 1'-0"
140
0.25
141
12.0
290
     0
  0
SCALE
  5
4C
102
{ACAD_REACTORS
330
42
102
}
330
42
100
AcDbScale
 70
     0
300
3/8" = 1'-0"
140
0.375
141
12.0
290
     0
  0
SCALE
  5
4D
102
{ACAD_REACTORS
330
42
102
}
330
42
100
AcDbScale
 70
     0
300
1/2" = 1'-0"
140
0.5
141
12.0
290
     0
  0
SCALE
  5
4E
102
{ACAD_REACTORS
330
42
102
}
330
42
100
AcDbScale
 70
     0
300
3/4" = 1'-0"
140
0.75
141
12.0
290
     0
  0
SCALE
  5
4F
102
{ACAD_REACTORS
330
42
102
}
330
42
100
AcDbScale
 70
     0
300
1" = 1'-0"
140
1.0
141
12.0
290
     0
  0
SCALE
  5
50
102
{ACAD_REACTORS
330
42
102
}
330
42
100
AcDbScale
 70
     0
300
1-1/2" = 1'-0"
140
1.5
141
12.0
290
     0
  0
SCALE
  5
51
102
{ACAD_REACTORS
330
42
102
}
330
42
100
AcDbScale
 70
     0
300
3" = 1'-0"
140
3.0
141
12.0
290
     0
  0
SCALE
  5
52
102
{ACAD_REACTORS
330
42
102
}
330
42
100
AcDbScale
 70
     0
300
6" = 1'-0"
140
6.0
141
12.0
290
     0
  0
SCALE
  5
53
102
{ACAD_REACTORS
330
42
102
}
330
42
100
AcDbScale
 70
     0
300
1'-0" = 1'-0"
140
12.0
141
12.0
290
     0
  0
TABLESTYLE
  5
65
102
{ACAD_XDICTIONARY
360
E82
102
}
102
{ACAD_REACTORS
330
64
102
}
330
64
100
AcDbTableStyle
280
     0
  3
Standard
 70
     0
 71
     0
 40
0.06
 41
0.06
280
     0
281
     0
  7
Standard
140
0.18
170
     2
 62
     0
 63
     7
283
     0
 90
      512
 91
        0
  1

274
    -2
284
     1
 64
     0
275
    -2
285
     1
 65
     0
276
    -2
286
     1
 66
     0
277
    -2
287
     1
 67
     0
278
    -2
288
     1
 68
     0
279
    -2
289
     1
 69
     0
  7
Standard
140
0.25
170
     5
 62
     0
 63
     7
283
     0
 90
      512
 91
        0
  1

274
    -2
284
     1
 64
     0
275
    -2
285
     1
 65
     0
276
    -2
286
     1
 66
     0
277
    -2
287
     1
 67
     0
278
    -2
288
     1
 68
     0
279
    -2
289
     1
 69
     0
  7
Standard
140
0.18
170
     5
 62
     0
 63
     7
283
     0
 90
      512
 91
        0
  1

274
    -2
284
     1
 64
     0
275
    -2
285
     1
 65
     0
276
    -2
286
     1
 66
     0
277
    -2
287
     1
 67
     0
278
    -2
288
     1
 68
     0
279
    -2
289
     1
 69
     0
  0
VISUALSTYLE
  5
2F
102
{ACAD_REACTORS
330
29
102
}
330
29
100
AcDbVisualStyle
  2
2dWireframe
 70
     4
177
     2
291
     0
 71
     0
176
     1
 72
     2
176
     1
 73
     0
176
     1
 90
        0
176
     1
 40
0.6
176
     1
 41
30.0
176
     1
 63
     7
421
 16777215
176
     1
 74
     1
176
     1
 91
        4
176
     1
 64
     7
176
     1
 65
   257
176
     1
 75
     1
176
     1
175
     1
176
     1
 42
1.0
176
     1
 92
        0
176
     1
 66
   257
176
     1
 43
1.0
176
     1
 76
     1
176
     1
 77
     6
176
     1
 78
     2
176
     1
 67
     7
176
     1
 79
     5
176
     1
170
     0
176
     1
171
     0
176
     1
290
     0
176
     1
 93
        1
176
     1
 44
0.0
176
     1
173
     0
176
     1
  0
VISUALSTYLE
  5
2E
102
{ACAD_REACTORS
330
29
102
}
330
29
100
AcDbVisualStyle
  2
Basic
 70
     7
177
     2
291
     1
 71
     1
176
     1
 72
     0
176
     1
 73
     1
176
     1
 90
        0
176
     1
 40
0.6
176
     1
 41
30.0
176
     1
 63
     7
421
 16777215
176
     1
 74
     0
176
     1
 91
        4
176
     1
 64
     7
176
     1
 65
   257
176
     1
 75
     1
176
     1
175
     1
176
     1
 42
1.0
176
     1
 92
        8
176
     1
 66
     7
176
     1
 43
1.0
176
     1
 76
     1
176
     1
 77
     6
176
     1
 78
     2
176
     1
 67
     7
176
     1
 79
     5
176
     1
170
     0
176
     1
171
     0
176
     1
290
     0
176
     1
 93
        1
176
     1
 44
0.0
176
     1
173
     0
176
     1
  0
VISUALSTYLE
  5
35
102
{ACAD_REACTORS
330
29
102
}
330
29
100
AcDbVisualStyle
  2
Brighten
 70
    12
177
     2
291
     1
 71
     2
176
     1
 72
     2
176
     1
 73
     0
176
     1
 90
        0
176
     1
 40
0.6
176
     1
 41
30.0
176
     1
 63
     7
421
 16777215
176
     1
 74
     1
176
     1
 91
        4
176
     1
 64
     7
176
     1
 65
   257
176
     1
 75
     1
176
     1
175
     1
176
     1
 42
1.0
176
     1
 92
        8
176
     1
 66
     7
176
     1
 43
1.0
176
     1
 76
     1
176
     1
 77
     6
176
     1
 78
     2
176
     1
 67
     7
176
     1
 79
     5
176
     1
170
     0
176
     1
171
     0
176
     1
290
     0
176
     1
 93
        1
176
     1
 44
50.0
176
     1
173
     0
176
     1
  0
VISUALSTYLE
  5
39
102
{ACAD_REACTORS
330
29
102
}
330
29
100
AcDbVisualStyle
  2
ColorChange
 70
    16
177
     2
291
     1
 71
     2
176
     1
 72
     2
176
     1
 73
     3
176
     1
 90
        0
176
     1
 40
0.6
176
     1
 41
30.0
176
     1
 63
     8
421
  8421504
176
     1
 74
     1
176
     1
 91
        4
176
     1
 64
     7
176
     1
 65
   257
176
     1
 75
     1
176
     1
175
     1
176
     1
 42
1.0
176
     1
 92
        8
176
     1
 66
     8
424
  8421504
176
     1
 43
1.0
176
     1
 76
     1
176
     1
 77
     6
176
     1
 78
     2
176
     1
 67
     7
176
     1
 79
     5
176
     1
170
     0
176
     1
171
     0
176
     1
290
     0
176
     1
 93
        1
176
     1
 44
0.0
176
     1
173
     0
176
     1
  0
VISUALSTYLE
  5
32
102
{ACAD_REACTORS
330
29
102
}
330
29
100
AcDbVisualStyle
  2
Conceptual
 70
     9
177
     2
291
     0
 71
     3
176
     1
 72
     2
176
     1
 73
     0
176
     1
 90
        0
176
     1
 40
0.6
176
     1
 41
30.0
176
     1
 63
     7
421
 16777215
176
     1
 74
     2
176
     1
 91
        2
176
     1
 64
     7
176
     1
 65
   257
176
     1
 75
     1
176
     1
175
     1
176
     1
 42
179.0
176
     1
 92
        8
176
     1
 66
     7
176
     1
 43
1.0
176
     1
 76
     1
176
     1
 77
     6
176
     1
 78
     2
176
     1
 67
     7
176
     1
 79
     3
176
     1
170
     0
176
     1
171
     0
176
     1
290
     0
176
     1
 93
        1
176
     1
 44
0.0
176
     1
173
     0
176
     1
  0
VISUALSTYLE
  5
34
102
{ACAD_REACTORS
330
29
102
}
330
29
100
AcDbVisualStyle
  2
Dim
 70
    11
177
     2
291
     1
 71
     2
176
     1
 72
     2
176
     1
 73
     0
176
     1
 90
        0
176
     1
 40
0.6
176
     1
 41
30.0
176
     1
 63
     7
421
 16777215
176
     1
 74
     1
176
     1
 91
        4
176
     1
 64
     7
176
     1
 65
   257
176
     1
 75
     1
176
     1
175
     1
176
     1
 42
1.0
176
     1
 92
        8
176
     1
 66
     7
176
     1
 43
1.0
176
     1
 76
     1
176
     1
 77
     6
176
     1
 78
     2
176
     1
 67
     7
176
     1
 79
     5
176
     1
170
     0
176
     1
171
     0
176
     1
290
     0
176
     1
 93
        1
176
     1
 44
-50.0
176
     1
173
     0
176
     1
  0
VISUALSTYLE
  5
41
102
{ACAD_REACTORS
330
29
102
}
330
29
100
AcDbVisualStyle
  2
EdgeColorOff
 70
    22
177
     2
291
     1
 71
     2
176
     0
 72
     2
176
     0
 73
     0
176
     0
 90
        0
176
     0
 40
0.6
176
     0
 41
30.0
176
     0
 63
     7
421
 16777215
176
     0
 74
     1
176
     0
 91
        4
176
     0
 64
     7
176
     0
 65
   257
176
     0
 75
     1
176
     0
175
     1
176
     0
 42
1.0
176
     0
 92
        8
176
     2
 66
     7
176
     0
 43
1.0
176
     0
 76
     1
176
     0
 77
     6
176
     0
 78
     2
176
     0
 67
     7
176
     0
 79
     5
176
     0
170
     0
176
     0
171
     0
176
     0
290
     0
176
     0
 93
        1
176
     0
 44
0.0
176
     0
173
     0
176
     0
  0
VISUALSTYLE
  5
38
102
{ACAD_REACTORS
330
29
102
}
330
29
100
AcDbVisualStyle
  2
Facepattern
 70
    15
177
     2
291
     1
 71
     2
176
     1
 72
     2
176
     1
 73
     0
176
     1
 90
        0
176
     1
 40
0.6
176
     1
 41
30.0
176
     1
 63
     7
421
 16777215
176
     1
 74
     1
176
     1
 91
        4
176
     1
 64
     7
176
     1
 65
   257
176
     1
 75
     1
176
     1
175
     1
176
     1
 42
1.0
176
     1
 92
        8
176
     1
 66
     7
176
     1
 43
1.0
176
     1
 76
     1
176
     1
 77
     6
176
     1
 78
     2
176
     1
 67
     7
176
     1
 79
     5
176
     1
170
     0
176
     1
171
     0
176
     1
290
     0
176
     1
 93
        1
176
     1
 44
0.0
176
     1
173
     0
176
     1
  0
VISUALSTYLE
  5
2A
102
{ACAD_REACTORS
330
29
102
}
330
29
100
AcDbVisualStyle
  2
Flat
 70
     0
177
     2
291
     1
 71
     2
176
     1
 72
     1
176
     1
 73
     1
176
     1
 90
        2
176
     1
 40
0.6
176
     1
 41
30.0
176
     1
 63
     7
421
 16777215
176
     1
 74
     0
176
     1
 91
        0
176
     1
 64
     7
176
     1
 65
   257
176
     1
 75
     1
176
     1
175
     1
176
     1
 42
1.0
176
     1
 92
        8
176
     1
 66
     7
176
     1
 43
1.0
176
     1
 76
     1
176
     1
 77
     6
176
     1
 78
     2
176
     1
 67
     7
176
     1
 79
     5
176
     1
170
     0
176
     1
171
     0
176
     1
290
     0
176
     1
 93
       13
176
     1
 44
0.0
176
     1
173
     0
176
     1
  0
VISUALSTYLE
  5
2B
102
{ACAD_REACTORS
330
29
102
}
330
29
100
AcDbVisualStyle
  2
FlatWithEdges
 70
     1
177
     2
291
     1
 71
     2
176
     1
 72
     1
176
     1
 73
     1
176
     1
 90
        2
176
     1
 40
0.6
176
     1
 41
30.0
176
     1
 63
     7
421
 16777215
176
     1
 74
     1
176
     1
 91
        0
176
     1
 64
     7
176
     1
 65
   257
176
     1
 75
     1
176
     1
175
     1
176
     1
 42
1.0
176
     1
 92
        0
176
     1
 66
   257
176
     1
 43
1.0
176
     1
 76
     1
176
     1
 77
     6
176
     1
 78
     2
176
     1
 67
     7
176
     1
 79
     5
176
     1
170
     0
176
     1
171
     0
176
     1
290
     0
176
     1
 93
       13
176
     1
 44
0.0
176
     1
173
     0
176
     1
  0
VISUALSTYLE
  5
2C
102
{ACAD_REACTORS
330
29
102
}
330
29
100
AcDbVisualStyle
  2
Gouraud
 70
     2
177
     2
291
     1
 71
     2
176
     1
 72
     2
176
     1
 73
     1
176
     1
 90
        2
176
     1
 40
0.6
176
     1
 41
30.0
176
     1
 63
     7
421
 16777215
176
     1
 74
     0
176
     1
 91
        0
176
     1
 64
     7
176
     1
 65
   257
176
     1
 75
     1
176
     1
175
     1
176
     1
 42
1.0
176
     1
 92
        0
176
     1
 66
     7
176
     1
 43
1.0
176
     1
 76
     1
176
     1
 77
     6
176
     1
 78
     2
176
     1
 67
     7
176
     1
 79
     5
176
     1
170
     0
176
     1
171
     0
176
     1
290
     0
176
     1
 93
       13
176
     1
 44
0.0
176
     1
173
     0
176
     1
  0
VISUALSTYLE
  5
2D
102
{ACAD_REACTORS
330
29
102
}
330
29
100
AcDbVisualStyle
  2
GouraudWithEdges
 70
     3
177
     2
291
     1
 71
     2
176
     1
 72
     2
176
     1
 73
     1
176
     1
 90
        2
176
     1
 40
0.6
176
     1
 41
30.0
176
     1
 63
     7
421
 16777215
176
     1
 74
     1
176
     1
 91
        0
176
     1
 64
     7
176
     1
 65
   257
176
     1
 75
     1
176
     1
175
     1
176
     1
 42
1.0
176
     1
 92
        0
176
     1
 66
   257
176
     1
 43
1.0
176
     1
 76
     1
176
     1
 77
     6
176
     1
 78
     2
176
     1
 67
     7
176
     1
 79
     5
176
     1
170
     0
176
     1
171
     0
176
     1
290
     0
176
     1
 93
       13
176
     1
 44
0.0
176
     1
173
     0
176
     1
  0
VISUALSTYLE
  5
31
102
{ACAD_REACTORS
330
29
102
}
330
29
100
AcDbVisualStyle
  2
Hidden
 70
     6
177
     2
291
     0
 71
     1
176
     1
 72
     2
176
     1
 73
     2
176
     1
 90
        0
176
     1
 40
0.6
176
     1
 41
30.0
176
     1
 63
     7
421
 16777215
176
     1
 74
     2
176
     1
 91
        2
176
     1
 64
     7
176
     1
 65
   257
176
     1
 75
     2
176
     1
175
     1
176
     1
 42
40.0
176
     1
 92
        0
176
     1
 66
   257
176
     1
 43
1.0
176
     1
 76
     1
176
     1
 77
     6
176
     1
 78
     2
176
     1
 67
     7
176
     1
 79
     3
176
     1
170
     0
176
     1
171
     0
176
     1
290
     0
176
     1
 93
        1
176
     1
 44
0.0
176
     1
173
     0
176
     1
  0
VISUALSTYLE
  5
3F
102
{ACAD_REACTORS
330
29
102
}
330
29
100
AcDbVisualStyle
  2
JitterOff
 70
    20
177
     2
291
     1
 71
     2
176
     0
 72
     2
176
     0
 73
     0
176
     0
 90
        0
176
     0
 40
0.6
176
     0
 41
30.0
176
     0
 63
     7
421
 16777215
176
     0
 74
     1
176
     0
 91
        4
176
     0
 64
     7
176
     0
 65
   257
176
     0
 75
     1
176
     0
175
     1
176
     0
 42
1.0
176
     0
 92
       10
176
     2
 66
     7
176
     0
 43
1.0
176
     0
 76
     1
176
     0
 77
     6
176
     0
 78
     2
176
     0
 67
     7
176
     0
 79
     5
176
     0
170
     0
176
     0
171
     0
176
     0
290
     0
176
     0
 93
        1
176
     0
 44
0.0
176
     0
173
     0
176
     0
  0
VISUALSTYLE
  5
37
102
{ACAD_REACTORS
330
29
102
}
330
29
100
AcDbVisualStyle
  2
Linepattern
 70
    14
177
     2
291
     1
 71
     2
176
     1
 72
     2
176
     1
 73
     0
176
     1
 90
        0
176
     1
 40
0.6
176
     1
 41
30.0
176
     1
 63
     7
421
 16777215
176
     1
 74
     1
176
     1
 91
        4
176
     1
 64
     7
176
     1
 65
   257
176
     1
 75
     7
176
     1
175
     7
176
     1
 42
1.0
176
     1
 92
        8
176
     1
 66
     7
176
     1
 43
1.0
176
     1
 76
     1
176
     1
 77
     6
176
     1
 78
     2
176
     1
 67
     7
176
     1
 79
     5
176
     1
170
     0
176
     1
171
     0
176
     1
290
     0
176
     1
 93
        1
176
     1
 44
0.0
176
     1
173
     0
176
     1
  0
VISUALSTYLE
  5
40
102
{ACAD_REACTORS
330
29
102
}
330
29
100
AcDbVisualStyle
  2
OverhangOff
 70
    21
177
     2
291
     1
 71
     2
176
     0
 72
     2
176
     0
 73
     0
176
     0
 90
        0
176
     0
 40
0.6
176
     0
 41
30.0
176
     0
 63
     7
421
 16777215
176
     0
 74
     1
176
     0
 91
        4
176
     0
 64
     7
176
     0
 65
   257
176
     0
 75
     1
176
     0
175
     1
176
     0
 42
1.0
176
     0
 92
        9
176
     2
 66
     7
176
     0
 43
1.0
176
     0
 76
     1
176
     0
 77
     6
176
     0
 78
     2
176
     0
 67
     7
176
     0
 79
     5
176
     0
170
     0
176
     0
171
     0
176
     0
290
     0
176
     0
 93
        1
176
     0
 44
0.0
176
     0
173
     0
176
     0
  0
VISUALSTYLE
  5
33
102
{ACAD_REACTORS
330
29
102
}
330
29
100
AcDbVisualStyle
  2
Realistic
 70
     8
177
     2
291
     0
 71
     2
176
     1
 72
     3
176
     1
 73
     0
176
     1
 90
        2
176
     1
 40
0.6
176
     1
 41
30.0
176
     1
 63
     7
421
 16777215
176
     1
 74
     0
176
     1
 91
        0
176
     1
 64
     7
176
     1
 65
   257
176
     1
 75
     1
176
     1
175
     1
176
     1
 42
1.0
176
     1
 92
        8
176
     1
 66
   257
176
     1
 43
1.0
176
     1
 76
     1
176
     1
 77
     6
176
     1
 78
     2
176
     1
 67
     7
176
     1
 79
     3
176
     1
170
     0
176
     1
171
     0
176
     1
290
     0
176
     1
 93
       13
176
     1
 44
0.0
176
     1
173
     0
176
     1
  0
VISUALSTYLE
  5
3E
102
{ACAD_REACTORS
330
29
102
}
330
29
100
AcDbVisualStyle
  2
Shaded
 70
    27
177
     2
291
     0
 71
     2
176
     1
 72
     2
176
     1
 73
     1
176
     1
 90
        2
176
     1
 40
0.6
176
     1
 41
30.0
176
     1
 63
     7
421
 16777215
176
     1
 74
     0
176
     1
 91
        4
176
     1
 64
     7
176
     1
 65
   257
176
     1
 75
     1
176
     1
175
     1
176
     1
 42
1.0
176
     1
 92
        8
176
     1
 66
   257
176
     1
 43
1.0
176
     1
 76
     1
176
     1
 77
     6
176
     1
 78
     2
176
     1
 67
     8
425
  7895160
176
     1
 79
     3
176
     1
170
     0
176
     1
171
     0
176
     1
290
     0
176
     1
 93
        5
176
     1
 44
0.0
176
     1
173
     0
176
     1
  0
VISUALSTYLE
  5
3D
102
{ACAD_REACTORS
330
29
102
}
330
29
100
AcDbVisualStyle
  2
Shaded with edges
 70
    26
177
     2
291
     0
 71
     2
176
     1
 72
     2
176
     1
 73
     1
176
     1
 90
        2
176
     1
 40
0.6
176
     1
 41
30.0
176
     1
 63
     7
421
 16777215
176
     1
 74
     1
176
     1
 91
       10
176
     1
 64
     7
176
     1
 65
   257
176
     1
 75
     2
176
     1
175
     1
176
     1
 42
1.0
176
     1
 92
        8
176
     1
 66
   257
176
     1
 43
1.0
176
     1
 76
     1
176
     1
 77
     6
176
     1
 78
     2
176
     1
 67
     7
176
     1
 79
     3
176
     1
170
     0
176
     1
171
     0
176
     1
290
     0
176
     1
 93
        5
176
     1
 44
0.0
176
     1
173
     0
176
     1
  0
VISUALSTYLE
  5
3A
102
{ACAD_REACTORS
330
29
102
}
330
29
100
AcDbVisualStyle
  2
Shades of Gray
 70
    23
177
     2
291
     0
 71
     2
176
     1
 72
     2
176
     1
 73
     3
176
     1
 90
        0
176
     1
 40
0.6
176
     1
 41
30.0
176
     1
 63
     7
421
 16777215
176
     1
 74
     2
176
     1
 91
        2
176
     1
 64
     7
176
     1
 65
     7
176
     1
 75
     1
176
     1
175
     1
176
     1
 42
40.0
176
     1
 92
        8
176
     1
 66
     7
176
     1
 43
1.0
176
     1
 76
     1
176
     1
 77
     6
176
     1
 78
     2
176
     1
 67
     7
176
     1
 79
     3
176
     1
170
     0
176
     1
171
     0
176
     1
290
     0
176
     1
 93
        1
176
     1
 44
0.0
176
     1
173
     0
176
     1
  0
VISUALSTYLE
  5
3B
102
{ACAD_REACTORS
330
29
102
}
330
29
100
AcDbVisualStyle
  2
Sketchy
 70
    24
177
     2
291
     0
 71
     1
176
     1
 72
     2
176
     1
 73
     2
176
     1
 90
        0
176
     1
 40
0.6
176
     1
 41
30.0
176
     1
 63
     7
421
 16777215
176
     1
 74
     2
176
     1
 91
        2
176
     1
 64
     7
176
     1
 65
     7
176
     1
 75
     1
176
     1
175
     1
176
     1
 42
40.0
176
     1
 92
       11
176
     1
 66
     7
176
     1
 43
1.0
176
     1
 76
     1
176
     1
 77
     6
176
     1
 78
     2
176
     1
 67
     7
176
     1
 79
     6
176
     1
170
     0
176
     1
171
     0
176
     1
290
     0
176
     1
 93
        1
176
     1
 44
0.0
176
     1
173
     0
176
     1
  0
VISUALSTYLE
  5
36
102
{ACAD_REACTORS
330
29
102
}
330
29
100
AcDbVisualStyle
  2
Thicken
 70
    13
177
     2
291
     1
 71
     2
176
     1
 72
     2
176
     1
 73
     0
176
     1
 90
        0
176
     1
 40
0.6
176
     1
 41
30.0
176
     1
 63
     7
421
 16777215
176
     1
 74
     1
176
     1
 91
        4
176
     1
 64
     7
176
     1
 65
   257
176
     1
 75
     1
176
     1
175
     1
176
     1
 42
1.0
176
     1
 92
       12
176
     1
 66
     7
176
     1
 43
1.0
176
     1
 76
     1
176
     1
 77
     6
176
     1
 78
     2
176
     1
 67
     7
176
     1
 79
     5
176
     1
170
     0
176
     1
171
     0
176
     1
290
     0
176
     1
 93
        1
176
     1
 44
0.0
176
     1
173
     0
176
     1
  0
VISUALSTYLE
  5
30
102
{ACAD_REACTORS
330
29
102
}
330
29
100
AcDbVisualStyle
  2
Wireframe
 70
     5
177
     2
291
     0
 71
     0
176
     1
 72
     2
176
     1
 73
     0
176
     1
 90
        0
176
     1
 40
0.6
176
     1
 41
30.0
176
     1
 63
     7
421
 16777215
176
     1
 74
     1
176
     1
 91
        4
176
     1
 64
     7
176
     1
 65
   257
176
     1
 75
     1
176
     1
175
     1
176
     1
 42
1.0
176
     1
 92
        0
176
     1
 66
   257
176
     1
 43
1.0
176
     1
 76
     1
176
     1
 77
     6
176
     1
 78
     2
176
     1
 67
     7
176
     1
 79
     3
176
     1
170
     0
176
     1
171
     0
176
     1
290
     0
176
     1
 93
        1
176
     1
 44
0.0
176
     1
173
     0
176
     1
  0
VISUALSTYLE
  5
3C
102
{ACAD_REACTORS
330
29
102
}
330
29
100
AcDbVisualStyle
  2
X-Ray
 70
    25
177
     2
291
     0
 71
     2
176
     1
 72
     2
176
     1
 73
     1
176
     1
 90
        1
176
     1
 40
0.5
176
     1
 41
30.0
176
     1
 63
     7
421
 16777215
176
     1
 74
     1
176
     1
 91
        0
176
     1
 64
     7
176
     1
 65
   257
176
     1
 75
     1
176
     1
175
     1
176
     1
 42
1.0
176
     1
 92
        8
176
     1
 66
     7
176
     1
 43
1.0
176
     1
 76
     1
176
     1
 77
     6
176
     1
 78
     2
176
     1
 67
     7
176
     1
 79
     3
176
     1
170
     0
176
     1
171
     0
176
     1
290
     0
176
     1
 93
       13
176
     1
 44
0.0
176
     1
173
     0
176
     1
  0
DICTIONARYVAR
  5
79
102
{ACAD_REACTORS
330
76
102
}
330
76
100
DictionaryVariables
280
     0
  1
1:1
  0
DICTIONARYVAR
  5
78
102
{ACAD_REACTORS
330
76
102
}
330
76
100
DictionaryVariables
280
     0
  1
STANDARD
  0
DICTIONARYVAR
  5
77
102
{ACAD_REACTORS
330
76
102
}
330
76
100
DictionaryVariables
280
     0
  1
STANDARD
  0
DICTIONARY
  5
1A
330
19
100
AcDbDictionary
280
     1
281
     1
  3
BUMPTILE
360
1C
  3
DIFFUSETILE
360
1B
  3
OPACITYTILE
360
1F
  3
REFLECTIONTILE
360
1E
  3
REFRACTIONTILE
360
20
  3
SPECULARTILE
360
1D
  0
DICTIONARY
  5
12
330
11
100
AcDbDictionary
280
     1
281
     1
  3
BUMPTILE
360
14
  3
DIFFUSETILE
360
13
  3
FBXASSET
360
109
  3
OPACITYTILE
360
17
  3
REFLECTIONTILE
360
16
  3
REFRACTIONTILE
360
18
  3
SPECULARTILE
360
15
  0
DICTIONARY
  5
22
330
21
100
AcDbDictionary
280
     1
281
     1
  3
BUMPTILE
360
24
  3
DIFFUSETILE
360
23
  3
FBXASSET
360
BA
  3
OPACITYTILE
360
27
  3
REFLECTIONTILE
360
26
  3
REFRACTIONTILE
360
28
  3
SPECULARTILE
360
25
  0
DICTIONARY
  5
E84
330
67
100
AcDbDictionary
280
     1
281
     1
  3
ACAD_XREC_ROUNDTRIP
360
E85
  0
DICTIONARY
  5
E82
330
65
100
AcDbDictionary
280
     1
281
     1
  3
ACAD_ROUNDTRIP_2008_TABLESTYLE_CELLSTYLEMAP
360
E83
  0
XRECORD
  5
1C
102
{ACAD_REACTORS
330
1A
102
}
330
1A
100
AcDbXrecord
280
     1
270
     1
271
     1
  0
XRECORD
  5
1B
102
{ACAD_REACTORS
330
1A
102
}
330
1A
100
AcDbXrecord
280
     1
270
     1
271
     1
  0
XRECORD
  5
1F
102
{ACAD_REACTORS
330
1A
102
}
330
1A
100
AcDbXrecord
280
     1
270
     1
271
     1
  0
XRECORD
  5
1E
102
{ACAD_REACTORS
330
1A
102
}
330
1A
100
AcDbXrecord
280
     1
270
     1
271
     1
  0
XRECORD
  5
20
102
{ACAD_REACTORS
330
1A
102
}
330
1A
100
AcDbXrecord
280
     1
270
     1
271
     1
  0
XRECORD
  5
1D
102
{ACAD_REACTORS
330
1A
102
}
330
1A
100
AcDbXrecord
280
     1
270
     1
271
     1
  0
XRECORD
  5
14
102
{ACAD_REACTORS
330
12
102
}
330
12
100
AcDbXrecord
280
     1
270
     1
271
     1
  0
XRECORD
  5
13
102
{ACAD_REACTORS
330
12
102
}
330
12
100
AcDbXrecord
280
     1
270
     1
271
     1
  0
XRECORD
  5
109
102
{ACAD_REACTORS
330
12
102
}
330
12
100
AcDbXrecord
280
     1
 70
     1
 90
1959938040
 71
     1
  1
F873F23F-A3E7-4931-8169-8EFF99152615
311
504B03040A0000080000D29AD5423DEE336E79000000790000001B0000006175746F6465736B2D64657369676E2D7061636B6167652E786D6C3C3F786D6C2076657273696F6E3D22312E302220656E636F64696E673D227574662D3822203F3E3C666F726D6174733E3C666F726D61743E687474703A2F2F736368656D612E
311
6175746F6465736B2E636F6D2F64657369676E2D7061636B6167652F323030393C2F666F726D61743E3C2F666F726D6174733E504B0304140006080800D29AD542D486FD9CA0000000F4000000130000005B436F6E74656E745F54797065735D2E786D6C7D8EC10E82300C865F65E91D8A1E8C310C0EEA1BF002731658846E
311
D98AC1B77784ABF1D8FE5FBFBF75BBCE937A534CCEB38643598122B6FEE978D0B0485F9C41B54DDD7D022595594E1A469170414C76A4D9A4D207E29CF43ECE46F218070CC6BECC4078ACAA135ACF422C856C0E68EA1BF5669944DDD7BCDE7B1F8E415D77AECB980613C2E4AC91FC167A2B244592486606FC29C8FD7F045B9A
311
EF7053A7E60B504B0304140006080800D29AD542286C9DF5ED0000007C01000008000000636F72652E786D6C8D90DD6E842010855F8570DBA020BA55836CFCA94FD01720C8BA645730024D1FBFB8EB26ED5DAF6672E67C3393C3CEDFCB1D7CA9CD696B1A48120C8132D24EDACC0D0CFE824A08CE9C6DD6FA5F36088C585403
311
771972366F36AC8724ADF1CAF8A81A3BA94314CE290F81BCC7A6814E5ED52212117C74B85BB20A7913B34AC8AB8B70087A02CF237A8AFBF445AB0D72DC76635BF5051AF2F284F2A11F50473F4654E484565D39F6B81D59BAC39C79BDBCEECB4D09AF26C8334C28C22794914F52D55956D3F7375CD414B374B7FF81C23AFD13
311
0ADA789A1DEF3E310739898F3C069CA57B16B13C828A75CF8DFF00504B0304140006080800D29AD54255019EA25F0000007C00000007000000636E782E786D6C4DCB3B0E80201045D1AD90E915ED2CF8AC45050C11660C8261F98AB1B07AC9C97D42D718D865D3E909258CFD00CCE24AC6E326A164D74DC0B4128928FF3260
311
38472BA13128B1252AC747C6BAB984FC68F0B87FE8960A5C09FE86CFB69FBA01504B0304140006080800D29AD542C21B6CE269010000020300000C0000006662782F636F72652E786D6C8D52D96E833010FC15CBAF15982B6912194739CA17F4071CE35014B0910F94CFEF724469AA288A908C35B3B33B3B40B7D7B641BD34
311
B6D62AC77118612495D065ADAA1C7B770E56186D19355ABB3F651829DECA1C0F3066B432DA773324B472523940952EE50C726BA5C3483470C9B1153FB2E521F70E2AEC25ECB8B8F04A86710834D4316A9D0103681A329C989D4F574A269C51EFEB7266EB12A6D5E75A1ACCA2DDBED8AD0F8BE098AD9641763C1C837DFA5504
311
8B2C4ED7FB55718876052583985157B73777C248EE64895912C569102D8324FE8ED79B24D9A49F1FD1629346940CE50F22DF956F8A7CAD5C9ACC762799C52C062323F16F5B88C821CB7BF04318254388F01A137E0C1A0281901D3F35B73D2E00F552386D32604AEDEF54CF1B2F616A84C687928985CE6303D8EC699FE4459F
311
D73DE00372558135EEE07AF26E984EA7A973149D3441EFAE4869D3F2E66E6EB2783FEF839ECA856EB479474DE655C91C2619FE5EF60B504B0304140006080800D29AD54255D2C8D97E0000009D0000000B0000006662782F636E782E786D6C4DCCD10A83201886E15B91FFDC35970D053534D77DC4B290990E976397BF1A1D
311
ECE883878F57B49F25A0B7CB2F9FA204723A0372F19E461F6709659D3003D42A91535AFF6E80E2B038093B8312734EE579D0E8A6A18475D3E0E3E340C638AFF5F5866B6A09A65DD361A329C3D636BDEDB5B97062A052A2FA95B6DDC3EA0B504B0304140006080800D29AD542C15992412D0100001402000031000000666278
311
2F38383939334136452D333444312D344335432D424134382D4444354644464142323931422F636F72652E786D6C8D515B6EC32010BC0AE22B55850D7E3BC24449DC9CA0177080A42831583CAA1CBFB876A4F62F3F2C9A9D991DEDD2DD63BC836F699D32BA8324C11048CD8D50FADAC1E02FA88160C7A835C6FFA141A08751
311
76708621A3576BC2B442DC682FB58FA83642AEE0E09CF410F07BFC74D0F12F390EC9107C64B85B320DFC365C654292D88E3C469DB731005886CC2F644DD3B6F9BEFA4079D113541CCB233AEC8B06F57D79EA4FFB43D692034D1721A32128B1CA958871D44549FBAAC92C66D4ABF1199F5B39782920CB30C911AE50463E49BB
311
CDB26D5EBFE3729B639ACEF47FA23089174541699F676BDC45E62023345D1A8C0A13CEF76718F9988CF5609EB77192BF4186134C485D174D45D3851A17103DAB62F574DED8B8E0CDED1CD9A45C8CAB82D174BE512CBF078C75BE27FB01504B0304140006080800D29AD54209EF98594E01000033030000300000006662782F
311
38383939334136452D333444312D344335432D424134382D4444354644464142323931422F636E782E786D6CD593BD6E032110845F05D146F76BC7492C0E4B29F20429D272B0B6893938F113C56F9FC5C68E1B1729D3A0D3EC30B3FAC4B1CDF764C817F8A09D1D6857B79480954E69BB1B688ADBEA99920D67DEB97863A3C4
311
8A09069A65CAD9CEBB341749C15624135135DA1E8AE821B8E4250494F34D629C140603C05609459846500A14B91AF16B0B1E5741713C92B807F2F6FA41DCF8093206D6E414CE9ADCC1593E4BD38D8912694408030D720F93A8458A4E4138D44A445177F5A5EBCE4EBF49245FB85426AF492E1F683E292F1BD5C8913538E42C
311
448FF48A291E67A05CCCB3D1524484DC9C8C670F6749DBB85A16AF46F01EDDDD6AB15C62D869C659D4131487F4202228CAFBB65B54EDAAEABBF7EE65DDF7EBC5D343FBB85EB4ACC976CE46E74CB98431E0DD4CA4B3116CA4BC634D1EDFC3577C44698FAC9D3FFE01240228AD673AD78CFFCCA739BD6FC4E5F12FE03F504B03
311
04140006080800D29AD5421994939DA605000081100000340000006662782F38383939334136452D333444312D344335432D424134382D4444354644464142323931422F6F626A656374732E786D6CAD57DB6EDB3810FD1541FBB2FB20D9B29DD45E282A123B2E8C366D51A3C53E1830688952B8A12E20A9D4D9AFDF438992
311
25D74EBD8BBEE8C2CB70E6CC990BFDB7FB945BCF5448966737B6E70E6D8B66611EB12CB9B14B153B53DB7A1BF822CF5567996D6524A537B61EB6033F11795998A188C6A4E4EA687479F79725439A51DB0A3991F2C696E1234D894B4A9547543EB91151C44DE2BDEBB9F5C2BED84490E2F148684104CD1434C578062956AD94
311
D7FF1DDA83C01FE8F9C0D74FB36A7C7ED5A0B2A77F3ECBA42259F8C3614762C6DE64713FBA9A395793C9D8995C8F3CE76E79B770BC37E3E1FC7A3E9FDDDECF70B05402928C2682C676F00ED80816FA837A2AF04B96A9F1C82C310E1A08FACCB4A7EC606479FEA05ED35A678C3CA57E9867190D2BAC8046659F111DD1826611
311
7CCEA884661D8486FD5F4FE3D8991EEB7F736477F83204BA3B3A821ADD9B7757D37CF7374C9097304848AA195863690CADB93A3C20BCCB736EE698B452A2A860845B9CED04112F7680A57A49E0F7C468260B1D0DDA023B8017EAE93E5D10463FE7F9292DE392734D633BA8A2608B58A14A569AB17FA83868DF45063AC1579A
311
0D5363907A29A81DCC6A8A4C8FD8540369C59C247039CCD43BC7A32343E73A4E570B3B78BFDCEDD73A764F1F5E88BCA04269FA805A8DE39AB746C9E8E45DE439BDC13E52E500CA1720FF11A17E50057E136C3FD94FCC294A904CC6B948E11B6B6839433C8696573DF577E7CB1FB49BFBDE3B87279CADA1FA0578F66DE8FAB2
311
0367E03F83F0B9181BD3D621E1481B0F2C03409A2416CF31843C1CEFF676B042964356C62EC2030F2643DD677CFA03230689A23AA9F3CE80E5515ABC204103B68A9150A326BF51F0E0A71FD25975B059760EDEAB5F42D7DBC5FAFDBA143109E98389E9058D59C6144ADC81375D857A98F72C7AA22FDF7311C1D01FF15E77F1
311
4ECD5112686BCC35F04993D3F5CFE1E4DE0121F625B94E37FE4F4E8011BAB076E43F301952CE4946F3B239F7D5FA81B25143AC835D33B92D3087C202D2D433473188221D0A566810DB6AD5264DF78C755F571FC1483BB87BF9405EBAD96B77C8BD61CE73B1DDBD6CEBB47412EA6F7D6E1B0C065A0AE85E054913FF06F46DC4
311
E2B89448822770FDB69A777DA7D302524423B58E9609EC4770116148DBC845B516049534CFB60C75137177F280AE7C406A1850093CA7B1A43CDE32CECB741B338E6AB44D4971068EFFAFFFAE4C8B2D49F332536764F7544775E8EBDE63AFFC4E54F86807EBEAEDDC21F746343A43065D4B4E60D573ED72FA66BC1C8D97CEED
311
F8FE8D33998D3D67EA5DCF9CE9FD72399B7957A36B0F59C26854355181DF949A6E44C34B286D7E299871DFD715E2C724013B78204A6EDED5E1D9BCBFAE5CF4C2FE007B502FDB8DB7D133FA3E1AFD5CC061E54941ABB4E034A599223A861EF407FF42D067F494A9C7572949E805523EBD5B1F1983910BF67DD6F14EBF1FED35
311
A3731D902785A8C732DD6584F1A38D498DA45B6489C1AFF149FBAE0B4DF3ABFF8C63D099CA9CB3087930B2129AA754211B5E5084444A25A8D7EDE92373F7B860F773DD212AB2E3B4D1E491A049E61261019297A1EA8F5BBFA1A9D37DD58D8D72EB3EE16132856D813337369A74C5422ADD1D0AB46E852AE1E052B793076749
311
9670F4DAF5A6F6BFDDA5B1E995E476C925FD93B1AB4EE1C600A491027D031A2278A75226F02BDDCC7CF89F0C6FD4B188C2E7AE54AD2D8781D698EA1884686D94B92DA089793247EF11A8AF9BE5B9D59A1E2217DDB25E25412DD5514424D54D41EB6754BA5D7C1EA043B1569FAC8297097C79B924475090B9D4010E16811546
311
664114A83AFF73F359E4B8C9A6D6928102D6EFFBE9F51F9B799EA679560F6D6ECD7DD85A3FE2761B6D901CA8BE96C8CD68E88D36D575C0DC50B63B22A94B22F984017856B016E89EFBC1CBFACE883A544FB4EB06DA15470C5D2D2C53D826106AE8D2CDAD1A1C341E19B51043FA4AA923A6BBA078F54630A8964205815E3EF8
311
17504B0304140006080000D29AD542000000000000000000000000350000006662782F38383939334136452D333444312D344335432D424134382D4444354644464142323931422F76657274696365732E62696E504B0304140006080800D29AD542F270F1330600000004000000360000006662782F38383939334136452D
311
333444312D344335432D424134382D4444354644464142323931422F747269616E676C65732E62696E636660600000504B0304140006080000D29AD542000000000000000000000000370000006662782F38383939334136452D333444312D344335432D424134382D4444354644464142323931422F617474726962757465
311
732E62696E504B0304140006080800D29AD542D5987DFC8F00000041010000360000006662782F38383939334136452D333444312D344335432D424134382D4444354644464142323931422F6469726563746F72792E786D6C858F410EC2201045AF4266AF15DDB800BA74E7C21B903225242D6328188F2FA5C41834713599
311
97F9FF81E89FF3C41E1816475E02DF1F80A11FC8386F25A438EECEC07A250251FC3803E6F58C12560C4AD840E95E91C151A72936F496F35732D860FE635F62C8F2DA16B505C545B74125BAA2FA9E05D7CC053D063734D5C7665FD55B6B8D15D5E9BFEAFD8490FFA45E504B0304140006080800D29AD5423BC7B36DFF000000
311
A00100003B0000006662782F38383939334136452D333444312D344335432D424134382D4444354644464142323931422F7265736F75726365732F636F72652E786D6C8D50596E833010BD0A9ADFCA60034901194759CA097A01CB4CA89560475EAA1EBF2650A9FDEBCFCCE82D9AA7C70F5FF33DFB44E7B5353DB09C428646
311
D9519BA98718AEA481EC20B8B336FC924166E48C3D2C30083E391B1F1BA4AC096842428D1D7103A5F7182053F774F4E0D507CE3297312485BFE50FA96E72C29CE5894E3AC17D702940B63E59260887DE46A7D0F36265058F518F9B468FE9A7BE6A7420E8F1341CDB734D2E75B327F5E57C21A7EA6D20BB9A55EDA919CEF438
311
F062310B1EF4FC93513994014710256515A17B52B277D67665D955AF2F74D75594178BFC8F293EC67F9AA236A12AB7B8ABCD836029C89310BC58FA4AEB5966DA4BB7E21B504B010214000A0000080000D29AD5423DEE336E79000000790000001B00000000000000000000000000000000006175746F6465736B2D64657369
311
676E2D7061636B6167652E786D6C504B01021400140006080800D29AD542D486FD9CA0000000F40000001300000000000000000000000000B20000005B436F6E74656E745F54797065735D2E786D6C504B01021400140006080800D29AD542286C9DF5ED0000007C010000080000000000000000000000000083010000636F
311
72652E786D6C504B01021400140006080800D29AD54255019EA25F0000007C000000070000000000000000000000000096020000636E782E786D6C504B01021400140006080800D29AD542C21B6CE269010000020300000C000000000000000000000000001A0300006662782F636F72652E786D6C504B0102140014000608
311
0800D29AD54255D2C8D97E0000009D0000000B00000000000000000000000000AD0400006662782F636E782E786D6C504B01021400140006080800D29AD542C15992412D010000140200003100000000000000000000000000540500006662782F38383939334136452D333444312D344335432D424134382D444435464446
311
4142323931422F636F72652E786D6C504B01021400140006080800D29AD54209EF98594E010000330300003000000000000000000000000000D00600006662782F38383939334136452D333444312D344335432D424134382D4444354644464142323931422F636E782E786D6C504B01021400140006080800D29AD5421994
311
939DA60500008110000034000000000000000000000000006C0800006662782F38383939334136452D333444312D344335432D424134382D4444354644464142323931422F6F626A656374732E786D6C504B01021400140006080000D29AD5420000000000000000000000003500000000000000000000000000640E000066
311
62782F38383939334136452D333444312D344335432D424134382D4444354644464142323931422F76657274696365732E62696E504B01021400140006080800D29AD542F270F13306000000040000003600000000000000000000000000B70E00006662782F38383939334136452D333444312D344335432D424134382D44
311
44354644464142323931422F747269616E676C65732E62696E504B01021400140006080000D29AD5420000000000000000000000003700000000000000000000000000110F00006662782F38383939334136452D333444312D344335432D424134382D4444354644464142323931422F617474726962757465732E62696E50
311
4B01021400140006080800D29AD542D5987DFC8F000000410100003600000000000000000000000000660F00006662782F38383939334136452D333444312D344335432D424134382D4444354644464142323931422F6469726563746F72792E786D6C504B01021400140006080800D29AD5423BC7B36DFF000000A0010000
311
3B00000000000000000000000000491000006662782F38383939334136452D333444312D344335432D424134382D4444354644464142323931422F7265736F75726365732F636F72652E786D6C504B0506000000000E000E0080040000A11100000000
310
504B03040A0000080000D29AD5423DEE336E79000000790000001B0000006175746F6465736B2D64657369676E2D7061636B6167652E786D6C3C3F786D6C2076657273696F6E3D22312E302220656E636F64696E673D227574662D3822203F3E3C666F726D6174733E3C666F726D61743E687474703A2F2F736368656D612E
310
6175746F6465736B2E636F6D2F64657369676E2D7061636B6167652F323030393C2F666F726D61743E3C2F666F726D6174733E504B0304140006080800D29AD542D486FD9CA0000000F4000000130000005B436F6E74656E745F54797065735D2E786D6C7D8EC10E82300C865F65E91D8A1E8C310C0EEA1BF002731658846E
310
D98AC1B77784ABF1D8FE5FBFBF75BBCE937A534CCEB38643598122B6FEE978D0B0485F9C41B54DDD7D022595594E1A469170414C76A4D9A4D207E29CF43ECE46F218070CC6BECC4078ACAA135ACF422C856C0E68EA1BF5669944DDD7BCDE7B1F8E415D77AECB980613C2E4AC91FC167A2B244592486606FC29C8FD7F045B9A
310
EF7053A7E60B504B0304140006080800D29AD542D977C6CBEB0000007C01000008000000636F72652E786D6C8D904D6EC3201085AF82665B611B6CFC274C94D6BD412F8030715162B00C543D7E71E248EDAEAB19BD79DFCCE8F1D3F772435F7AF3C6D901485600D256B9C9D87980182EB80574127C732EFCB201B272D103EC
310
32083E6F2EAE87A49C0DDA86A45A37E94394DEEB0048DD523380579F7A91998C2139FC355BA5BACA5967E4D925384633A1C71133A57DE662F406E26D64B46175851BD68EB86ACE1DEE4853E38E8D67FA5AB1B67D6F79BEC38207B33CEFAB4DCBA02710B420252E6A4CC907E97A4AFBB27929585F163CDFED7FA0B84EFF84A2
310
B1A1A4C7BB0FCC8320E991FB40F07CCF22957B50A9EEB9891F504B0304140006080800D29AD54255019EA25F0000007C00000007000000636E782E786D6C4DCB3B0E80201045D1AD90E915ED2CF8AC45050C11660C8261F98AB1B07AC9C97D42D718D865D3E909258CFD00CCE24AC6E326A164D74DC0B4128928FF32603847
310
2BA13128B1252AC747C6BAB984FC68F0B87FE8960A5C09FE86CFB69FBA01504B0304140006080800D29AD54288BC348767010000020300000C0000006662782F636F72652E786D6C8D525B6E833010BC8AE5DFCA986780C8384A9BDEA01770C0A128602363A31CBFCB23A2A9A2A84232D6CCCEEEEC003BDCBA168DD20C8D56
310
050E3C1F23A94A5D35AA2EB0B317926174E0CC686D7F9561A444270B3CC198B3DA68D7AF50A99595CA02AA742557500C83B418952D5C0A3C94DFB2139E70162A86ABD78BF22A6AE9051ED050C7D9600D1840CB90E9C4FC72BE31BAE09C39D7542BDB5430ADB934D260FE714AC234D9C5244DB21389D3634EF220DD913C391D
310
C3F738C9B2CF8CD149CC996DBABBBBD24861658579E80711F177240CBE827C1F86FB287DF3937DE4333A953F885C5FFD53E41A65A370B5BBC806CC033032137FB685882C1AC4087E2867740A115E73C28F41432010B215E7F6BEC715A05196569B18984ABB8D1A45EB244CF5D1FC30BAB0D0796E009B3DED13BEE8F3BA077C
310
40A16AB0262C5CCFCE4ED3D932758DA297868CF68694369D6837738BC5EDDC063D9597BAD5E63F6ABAAE4AD730E9F4F7F21F504B0304140006080800D29AD542FFB781837D0000009D0000000B0000006662782F636E782E786D6C4DCCD10AC2201805E05791FFDE966453411D2DD97B8CE686E4344CA3C7CF8D5D04070E7C
310
1C8EECBEAB471F9BDE2E0605E4740664C3234E2E2C0A4A9E3107D4699962CC7F3340615CAD828D41CB25C5F23A68B2F3587CAEEA5D781ED8F67CA0376630318261CA0CC5621002537EBFD490FECA19345A36FB53EDED58FF00504B0304140006080800D29AD542F1DF7E492B01000014020000310000006662782F36423846
310
344137442D314439372D343744342D394639392D3438433338433331423538372F636F72652E786D6C8D515B6EC32010BC0AE22B55850DB663EC0813358D72825EC00192A2C460F1A872FC42ED4AED5F24C4A2D999D911CBF68FE90EBE94F3DA9A01920243A08CB0529BEB0063B8A00E823D67CEDAF0870681192735C00C43
310
CEAECEC6798584354199905063A55AC1D17B152010F7F418A0179F6A1A8B3186C4F0B7621EC56DBCAA8214A99D789CF9E05200B00CC937E4EDA13B356FF488C8B1A7A8A1C706F5A7BE474DF75EA7430EDB8EB272117216A396AB5CCB14475FB472CF9A643167414FBFF18553635012F20A931AE11655E483F4BBAADAD5F415
310
6F77356665A6FF13C5593E298ADA84BA5AE32E320F3961E5D2E04CDA78BEFF86518FD9BA00F2BC8D57E205725C604228DD762D2B176AFA80E4D936ABA70FD6A50FDEDCCE895DAFC66DC359997794CACF0253CDFBE4DF504B0304140006080800D29AD5426F48574E5601000033030000300000006662782F36423846344137
310
442D314439372D343744342D394639392D3438433338433331423538372F636E782E786D6CBD93CD6EC32010845F0571ADFC9FA6698489D4439FA0875E316C121A0C16E0AA79FB2E094973C9A152D50BB2668799D527CC365FA3219FE08376B6A74D595302563AA5EDAEA773DC162B4A369C79E7E28D8D122B46E869922967
310
3BEFE6294B0AB662361155A3ED218B1E829BBD848072BA498C93C26000D8624611C601940245AE46FCDA82C755501C8E24EE81BCBEBC13377C808C81552985B32A757096CEDC7463A2441A11424F83DCC3284A3147A7201C4A25A2289BF2D27567A79F24922E5C2A67AF492AEF693A29CF1B95C8915538E42C448FF4B2291E
310
27A05C4C93D15244845C9D8C670F67B3B671B9C85E8DE03DBABB76B95A61D869C659D4236487F4202228CADBBAE98A7A59B4CD5BF3BC6EDB75F7F4503FAEBB9A55C9CED9E09CC9973006BC9B887436828D9437AC4AE37BF8B28F28ED91B5F3C75F804400B9F54CE79AF1977C9A65B758FC239FEAF4BE1197C7BF807F03504B
310
0304140006080800D29AD5420F8A2975630700009A1B0000340000006662782F36423846344137442D314439372D343744342D394639392D3438433338433331423538372F6F626A656374732E786D6CED595B73A33614FE2B0C7D691F8C8DED64E30EA193CB7AC7D3A6BBB3EEEEF4C1338C0C3251230423896CDC5FDFA30B
310
18884970377DEB830D08E9E89CEF5C75087E79CAA8F388B92039BB747D6FE23A98C57942587AE9967237BA709D5FC280E7B96C4C731D86327CE9AA61370C529E97851D4AF00E9554764697D77F3A22C60CBB4E4C911097AE88EF71863C54CA3CC1E2C14B90445EBA7BF27CCF4C6C934D392AEE3B440BC43193C0298C33A0E2
310
18A6FCF6E3C41D87C158BD0F03F56F67CD06CD9AF7CF1A6BA9DB5C12262462F133963A646683589AF9F3DBF7D3B3C5E86C3E9F8DE6E7537F74BDBCBE1DF9EF66939BF39B9BC5D5FB05B0B7CD736A654A70815902FADBBBA11F8CD59B5A748BC031AEE39C311C6B20012A2D569720C102B66AC037693FFA4AA2C66B2D61E379
310
AEDE5B161AC3B33695BE59C38068D10541EC7695C4D5B5295FBEFD0B0417438C920B2C815B213968D7C2C3C12BDC70128CCD68186C0FBA20C2C990C49C20EA50B2E588835260AA9A1206668125A39C8303294749A035675EB76D0B3CF375D739C6E5AEA45479861B6AC78AC0FDB0149A33F237E607EE9BC8004F206D4998BC
310
B05CCA7D81DD70118CF56018A8CB6C6A5F1A209D1D45A9D08898B71D416F94EBAF6EDDF0D7E5F669ADC2C1F1CD0B9E17984B65744A8F9A2F30647B5528D96DFD419A530B401803AA5D7900E53320FF3B448F032BA0374E9EE64F733B5772C4C42EE719E8C69938A309FC4D1C5FFFABFBC65D30AE17B7B5D78727B8A982EAE2
310
FBF16CCBA0B1B2FC37E00C834730F89CCFECAB758C28D8F31D610090321287E63004A17DB77D72C315044E08F4B00AD1D0079181DD47B80DC696CC412B957B59AF6380A8DD63364449009BB64860A3474F1F207B70121FD4D414B10FDEB33731D7ABDBF5AFEB92EF508CEFAC4FDFE21D614442D63CCE500BF396440F78FF2D
310
E70908FA1CEF7513EFCC6E25006D85B9023EAD40500F879D5B1BC4B02ECD55B8095ED9018450B9BA41FF8E8818538A18CECB6ADF3ABA2943AD3DDED60C6E383510CFA61D13E6F891A8AA029CE630A3C528E4FD98934281E8861F8C6475D0F47AA4FBB2FA1D2CB29EDF336BC520F43244FFD041EB080E2DCBAE90B640D4026F
310
0FE13CCE69CEA3ED3E3291CE855A02D8687BCBD7165188F546498A0A7890F6BB2AA4A446DA2821BB5D2920AE1E61F1EBEAA6690E136FE69F39CDFF8E33CE21DA82EF226EFDAEB347443294E2688792BEED9ABBD5B48526D9439AE31D05B9C82391FB08C96892E0F414684E22BE7853EA29CD85200C0BC85747C16FA231F120
310
90186D562C2BAD76802622CAB044F4140414991E7075DAD1356E0CA5C3EB3CD6D6FB92C69A44FF238BE0086AC99C45044A51C821AF32EE7B671043DAE81A943BF882B555B4B518B4841222DE47DF3049EFE529A81BF23DB8C77024296594172806B31E40F699AF28A57678DFA2F841E58F282EE95B1988C07417114ACB2C82
310
1F6170F218E2DA75607A1185067113FB24CEA02843B2E44336393F9B3CDBC7D40CDD10D8D868472884ED2843450FEAAD80A8EB11A706DF52EF51EAB6CC8A086579C906198A37EB7A9325DF55AB223B905F552A42D95811B604C380305967D52A6683A9EBC00A6EA403D53E12282BA83985BD9278FCDA9B34E5DE0DB8F5D3B7
310
DD2083C2AF477BCD883AAF60B03CB60A03F10DC9F8DE0DD7FA3ABA86FA3BC1C921D557B566B30204C454242F39B12AFAB282F2C6D6686E7887A4D87C3059B7BA7E5979D0FD08C6B0066A977AE14A019D612691AA4CEED40DFD8C2004B76898F195CAA9A750B94A125D3522BA247DEA6C9511AD4D33E215F798E519FCD886B0
310
989609DEA0443C447792466BA258B7527A19A9307E51C08F1FD61D78606480489F548187BF75D6DAD11B552E1D2522EFCB6CCB108120D8122D35BAF10A965A8D545AAEAFEA4C017517189855F1FCFF9345B31DF1FFC922B586F15D278BEBFD6F68DFEC8B34D279ACECFAA463409D9F1495B73806E8B6434DB5CE2226995BF9
310
AD33451014AB283FB81AAB828621D8C7F1BFCEDA7D59D06CD7E1FFB4ACED3FAB384ECA2AADC9AA4B75A4725D3573D8F2E2DD6C399D2D4757B3F7EF46F3C5CC1F5DF8E78BD1C5FBE572B1F0CFA6E7FEE1D8A01D350CEA60A673173C9BA0560DAB278B017465454E4902A7F9C44931C47C0967FA01ED739E6101C9B3D9EC4E6C
310
537EC0EA47D3E794684B71C5C93D8206311590D601A33296ED71E707684D4A38685FBAD034F21EE0CF5AA5EB40E6B974A15520498C85B78536936AE869E2907275EEB7C4001FC4529512CDA2FAB95EA5B06985FF7ACA903460E56AF530A0702BA0FBD5EA5068DE2C4FF1498257EC3848C2EDB69450AD19590E03B5307A9B83
310
FA8D6C94B007BBF513B8EECB62F99E9ED34264D02783178DC0501D49C453DDEF568C5996AE6E3F8DA1CFE6AC3E3A052D53D0E5704A238EC1984B555081158155589A059260AA373F6F3EF11C3EF1648EAE8A9C1F9F2ECE7FDADCE459963333B4B9825359021F8A9CF53D7CF64936503C60D55C179BE9C49F6E7453DBF6D9A3
310
2D12D85355110C54C58412A463726097CF1A54B67D3956AAE84C5FDD3A368882571B3B7AD6E3351FB91CF021F53945798CF6F34ADA17FBDA633D156C8243473AFC07504B0304140006080000D29AD542000000000000000000000000350000006662782F36423846344137442D314439372D343744342D394639392D343843
310
3338433331423538372F76657274696365732E62696E504B0304140006080800D29AD542F270F1330600000004000000360000006662782F36423846344137442D314439372D343744342D394639392D3438433338433331423538372F747269616E676C65732E62696E636660600000504B0304140006080000D29AD54200
310
0000000000000000000000370000006662782F36423846344137442D314439372D343744342D394639392D3438433338433331423538372F617474726962757465732E62696E504B0304140006080800D29AD542D5987DFC8F00000041010000360000006662782F36423846344137442D314439372D343744342D39463939
310
2D3438433338433331423538372F6469726563746F72792E786D6C858F410EC2201045AF4266AF15DDB800BA74E7C21B903225242D6328188F2FA5C4183471359997F9FF81E89FF3C41E1816475E02DF1F80A11FC8386F25A438EECEC07A250251FC3803E6F58C12560C4AD840E95E91C151A72936F496F35732D860FE635F
310
62C8F2DA16B505C545B74125BAA2FA9E05D7CC053D063734D5C7665FD55B6B8D15D5E9BFEAFD8490FFA45E504B0304140006080800D29AD54206190C73FE000000A00100003B0000006662782F36423846344137442D314439372D343744342D394639392D3438433338433331423538372F7265736F75726365732F636F72
310
652E786D6C8D504B6E833010BD8A35DBCA804D0810194769E90D7A01CB4C122BC18EFCA97AFC9A40A576D7CDCCE87D344F4F1CBFE63BF9441F8CB303B0A2028256BBC9D8CB00299E6907E42885772EFE9201B16AC6011618A4B878971E1BA49D8D686346AD9B700355081881E87B3E0608FA8AB32A548A59116EC543E99BBA
310
60C18A4C679D1421FA1C80AC4F9609D26370C96B0CA25C59295232D3A63153FE69CE063DC8B7B1E16DB3AF69DB7423DDB5A79EF6ACDDD3BE194FFC75D774DD7B27CAC52C4534F34F46ED51459C40F28AD5B4DA53CE3E587FE0FC50B72F5573A82B512EF23FA6F498FE694AC6C69A6F71575B00C97290272145B9F495D7B3CC
310
BC976EE537504B010214000A0000080000D29AD5423DEE336E79000000790000001B00000000000000000000000000000000006175746F6465736B2D64657369676E2D7061636B6167652E786D6C504B01021400140006080800D29AD542D486FD9CA0000000F40000001300000000000000000000000000B20000005B436F
310
6E74656E745F54797065735D2E786D6C504B01021400140006080800D29AD542D977C6CBEB0000007C010000080000000000000000000000000083010000636F72652E786D6C504B01021400140006080800D29AD54255019EA25F0000007C000000070000000000000000000000000094020000636E782E786D6C504B0102
310
1400140006080800D29AD54288BC348767010000020300000C00000000000000000000000000180300006662782F636F72652E786D6C504B01021400140006080800D29AD542FFB781837D0000009D0000000B00000000000000000000000000A90400006662782F636E782E786D6C504B01021400140006080800D29AD542
310
F1DF7E492B0100001402000031000000000000000000000000004F0500006662782F36423846344137442D314439372D343744342D394639392D3438433338433331423538372F636F72652E786D6C504B01021400140006080800D29AD5426F48574E56010000330300003000000000000000000000000000C90600006662
310
782F36423846344137442D314439372D343744342D394639392D3438433338433331423538372F636E782E786D6C504B01021400140006080800D29AD5420F8A2975630700009A1B000034000000000000000000000000006D0800006662782F36423846344137442D314439372D343744342D394639392D34384333384333
310
31423538372F6F626A656374732E786D6C504B01021400140006080000D29AD5420000000000000000000000003500000000000000000000000000221000006662782F36423846344137442D314439372D343744342D394639392D3438433338433331423538372F76657274696365732E62696E504B010214001400060808
310
00D29AD542F270F13306000000040000003600000000000000000000000000751000006662782F36423846344137442D314439372D343744342D394639392D3438433338433331423538372F747269616E676C65732E62696E504B01021400140006080000D29AD54200000000000000000000000037000000000000000000
310
00000000CF1000006662782F36423846344137442D314439372D343744342D394639392D3438433338433331423538372F617474726962757465732E62696E504B01021400140006080800D29AD542D5987DFC8F000000410100003600000000000000000000000000241100006662782F36423846344137442D314439372D
310
343744342D394639392D3438433338433331423538372F6469726563746F72792E786D6C504B01021400140006080800D29AD54206190C73FE000000A00100003B00000000000000000000000000071200006662782F36423846344137442D314439372D343744342D394639392D3438433338433331423538372F7265736F
310
75726365732F636F72652E786D6C504B0506000000000E000E00800400005E1300000000
  0
XRECORD
  5
17
102
{ACAD_REACTORS
330
12
102
}
330
12
100
AcDbXrecord
280
     1
270
     1
271
     1
  0
XRECORD
  5
16
102
{ACAD_REACTORS
330
12
102
}
330
12
100
AcDbXrecord
280
     1
270
     1
271
     1
  0
XRECORD
  5
18
102
{ACAD_REACTORS
330
12
102
}
330
12
100
AcDbXrecord
280
     1
270
     1
271
     1
  0
XRECORD
  5
15
102
{ACAD_REACTORS
330
12
102
}
330
12
100
AcDbXrecord
280
     1
270
     1
271
     1
  0
XRECORD
  5
24
102
{ACAD_REACTORS
330
22
102
}
330
22
100
AcDbXrecord
280
     1
270
     1
271
     1
  0
XRECORD
  5
23
102
{ACAD_REACTORS
330
22
102
}
330
22
100
AcDbXrecord
280
     1
270
     1
271
     1
  0
XRECORD
  5
BA
102
{ACAD_REACTORS
330
22
102
}
330
22
100
AcDbXrecord
280
     1
 70
     1
 90
1959938040
 71
     1
  1
D1CB9F4A-C257-4D0C-8F05-F964058FE669
311
504B03040A0000080000D19AD5423DEE336E79000000790000001B0000006175746F6465736B2D64657369676E2D7061636B6167652E786D6C3C3F786D6C2076657273696F6E3D22312E302220656E636F64696E673D227574662D3822203F3E3C666F726D6174733E3C666F726D61743E687474703A2F2F736368656D612E
311
6175746F6465736B2E636F6D2F64657369676E2D7061636B6167652F323030393C2F666F726D61743E3C2F666F726D6174733E504B0304140006080800D19AD542D486FD9CA0000000F4000000130000005B436F6E74656E745F54797065735D2E786D6C7D8EC10E82300C865F65E91D8A1E8C310C0EEA1BF002731658846E
311
D98AC1B77784ABF1D8FE5FBFBF75BBCE937A534CCEB38643598122B6FEE978D0B0485F9C41B54DDD7D022595594E1A469170414C76A4D9A4D207E29CF43ECE46F218070CC6BECC4078ACAA135ACF422C856C0E68EA1BF5669944DDD7BCDE7B1F8E415D77AECB980613C2E4AC91FC167A2B244592486606FC29C8FD7F045B9A
311
EF7053A7E60B504B0304140006080800D19AD542E899DBFFEB0000007C01000008000000636F72652E786D6C8D90416EC3201045AF82665BE1808D63C7C2444D9B9CA01740405C94182C03518E5F9C3852BBEB6A467FFE9B197DBEBF8F57743373B0DEF5400B02C838E5B575430F299E710B682FF8EC7DFC6503E4E4687A58
311
64107C987D9A564979178D8B59755E9B5594219808485D73D34350DF6694854C313BC2A598A4BAC8C114F4D5653825ABD1F388D5799F3D5B3383A8DF59D59E9A06B35DFD81D9F174C487B66178CBD8674B1B762035E19B05163CDAF1755FCD4646A341948456986C7149BFE8AE2BCBAE626FA4EEAA0C2DF63F509AF43FA164
311
5DACCAF5DD271640D0FCC86320F866C922974750B92EB9891F504B0304140006080800D19AD54255019EA25F0000007C00000007000000636E782E786D6C4DCB3B0E80201045D1AD90E915ED2CF8AC45050C11660C8261F98AB1B07AC9C97D42D718D865D3E909258CFD00CCE24AC6E326A164D74DC0B4128928FF32603847
311
2BA13128B1252AC747C6BAB984FC68F0B87FE8960A5C09FE86CFB69FBA01504B0304140006080800D19AD5423530BEF567010000020300000C0000006662782F636F72652E786D6C8D525B6E833010BC8AE5DF8AB70924328E9A3639412FE08043AD808D8C8D72FC2E8F88A68AA20AC958333BBBB303747F6B1B3408D34BAD
311
0A1CF921464295BA92AA2EB0B3172FC768CFA8D1DAFE2AC348F15614788431A3B5D1AE5BA0522B2B940554E94A2C20EF7B61312A1BB814B82FBF45CB7DEE2C54F457BFE3E595D7C28F7CA0A18ED1DE1A3080E621E389D9E57CA3C18C33EA9CAC165656304D5EA43098A5EF24C94F59E6916DFAE191E3E9E81DF28C781B423E
311
F3282387300D69308A19B5B2BDBB2B8DE0565498C5619478E1C68BA3AF68BB8BE35D42DEC2749780682C7F10B9AEFAA7C849659378B13BCB7ACC223032117FB685882CEAF9007E0246833144784D093F060D8140C8969F9BFB1E578006515A6D083095762B35F0C609981AA2E9A1C1CC42E7A9016CF6B44FFCA2CFEB1EF001
311
B9AAC11AB7703D3B3B4EA7F3D4258A4E186FB037A4B46979B39A9B2DAEE73AE8A9BCD48D36FF5107CBAAC1126630FEBDEC07504B0304140006080800D19AD5426C24118F7E0000009D0000000B0000006662782F636E782E786D6C4DCCD10A83201886E15B91FFDC35696A076A94D3FB8865212B0DA76397BF1A1DECE88387
311
8F57B49F75416F975E3E0609E47205E4C2238E3ECC124A9E7003A85522C598FF6E80C2B03A09078312738A653B6974D35096BCEBE2C3F344D2696A6BD3614A588D6FDCF6B8319663D6736DF4DDD48C51A894A87EA57D8FB0FA02504B0304140006080800D19AD542E9A47AA12E01000014020000310000006662782F314143
311
35463345412D353136332D343746422D384546372D3642374345434445333636352F636F72652E786D6C8D515B6EC23010BC8AE52FAA2A891DE701C831021A4ED00B84C4500B62477E541CBFEB2648ED1F3F5E6B766676B4CB778FF18EBEA575CAE806D3946024756F06A5AF0D0EFE92AC31DA096E8DF17F6818E96E940D8E
311
3016FC6A4D9816A837DA4BED01D566900BD839273D46FD1D3E0D76FD971CBBB40B1E18EE964E5D7FEBAE32A529B48127B8F31602A079487CB1A0FB637962ED3E2969C592A23E1D92757BAA93EA501FDBE347CBAAAAE4D92C143C04352C7235401C7551D2BE6A12C5827B353EE3F756765E0E58E484B28454494E3FE9669BE7
311
5B56BC9372CB08CF22FD9F284CC38BA2A0B467F912779639C8CAB3B921F860C2F9FE0C231F93B11EC5792B27FB372C484A282D6B46D73C9BA9B000F0AC8AC5D3796361C1ABDB19D814D6148DAB42F02CDE08CAEF01A1C67B8A1F504B0304140006080800D19AD5420AD014CB4E01000033030000300000006662782F314143
311
35463345412D353136332D343746422D384546372D3642374345434445333636352F636E782E786D6CD593BD6E032110845F05D146F77FB1128BC3528A3C418AB418D6313107277EA2F8EDB3D8D871E322651A749A1D66569F38B6F99E0DF9021FB4B313EDEA9612B0D2296D3F269AE2AE7AA264C399772EDED828B1628689
311
669972F6E15D5A8AA460279289A81A6D0F45F4105CF21202CAF926314E0A830160AB8422CC5B500A14B91AF16B071E5741717B24710FE4F5E59DB8ED27C818589353386B720767F92C4D37264AA411214C34C83DCCA216293A05E1502B1145DDD597AE3B3BFD26917CE15299BC26B97CA2F9A4BC6C542347D6E090B3103DD2
311
2BA6785C8072B12C464B11117273329E3D9C256DE36A2C5E8DE03DBABBD5308E18769A7116F50CC5213D88088AF2BEED86AA5D557DF7D63DAFFB7E3D8C0FEDE37A685993ED9C6D9D33E512C680770B91CE46B091F28E35797C0F5FF111A53DB276FEF8079008A0B49EE95C33FE339FE6F4BE1197C7BF80FF00504B03041400
311
06080800D19AD542D4E62074A505000080100000340000006662782F31414335463345412D353136332D343746422D384546372D3642374345434445333636352F6F626A656374732E786D6CAD575D8F9B3814FD2B887DD97DC80749663A59315433495345D5B455A356FB1029326018EF188C8C9966F6D7EF313604D2649A
311
5DF52504737D7DEFB9E77ED87FBBCFB8F34C65C9447EEB7AC3B1EBD03C1231CBD35BB752C9E0C675DE06BE144275C45C272719BD75F5B21BF8A914556197629A908AABA3D5D5FD5F4E19D19CBA4EC44959DEBA65F4483332249512312D9F863151649826FBA13734827DB5A924C5E391D282489A2B588AF51C5A1C6394D77F
311
1DBBA3C01FE9EF81AF7FADD4F4BCD4A8F6A77F3ECB4B45F2E887C38ED44CBDD9F2DDE46A3EB89ACDA683D9F5C41BDCAFEE9703EFCD74BCB85E2CE677EFE638B854129AAC2592266EF01ED84816F923F329F02B96ABE9C48AD8008D247D663A526E30713C7F64645AEFAC93A7CC8F449ED3A8C60A68D4FE59D5312D681E23E6
311
8C96B0AC83D0B8FFEA691C3B9FA7FADD1ED95DBE0C81EE8E8EA2C6F6E6D9B554847FC385F21206C9926A061A2CADA386ABE303C2A110DC7E63A59311452523DCE12C9444BEB80144B548E0F7D468264B9D0DDA03374014CCE73E5D90463FE7F9292B938A734D6337A8B360875CA1AAAC2D63FF5079B0BE8B0C6C42AC341B6E
311
AC43EAA5A06E303714B939629301D24938491172B8A9774E27478E2E749EAE976EF06115EE373A774F1F5E485150A9347D40AD2670CD53A3646DF22E8A9CDEE01E997200E50B90FF88543F9882B849B69FED67F61425495E264266888D33760663FC8C1DAFFED5FF3BFFFC51BBB91FBD737822D81AAA5F8067DF876E2C3B70
311
06FE33082FE4D4BAB6890847D978603900D22471B8C012EA7012EEDD608D2A87AA8C5D84071E5C86B9CFF8EB8FAC1A148AFAA4CE3307964765F182020DD86A46C20C437E6BE0214E3F94B3FA602B760EDEAB5F42D7BBE5E6C3A6920989E883CDE9254D58CE145ADC81375D837A98F73C7AA22FDF858CE1E88F786FBA7867F6
311
A812686BCC35F06953D3F5CBE1E4DE0111F6A542971BFF2727C009DD583BFA1F581951CE494E45D59CFB6AFF40DB3010EB64D74C6E1BCCA1B18034E6CB510EA2494792151AC4B65BB5457378C6BBAFEB8F6024E4B908093F088587D21B092EE42E7CD999AA7412E96F7D6A5B08465A0BD85EE74893FE16F35DCC92A42A5103
311
4FC0FA6DBDE8864E5705548846AB499619DC476E116939DBE845B396048D54E43B86B689B43B7940573F10B504A8159EB3B8A43CD931CEAB6C97308E66B4CB4871068EFF6F7F5865C58E64A2CAD519DD3DD3D11CFAB6F7C85B7E272A7A74834DFD1CDCA3F4C6343E84B927AC5BC909AC7AA15D7A8BFBF96A7637584CAEDE0C
311
66CBF16270B31A5F0D56F3EBD9F8EA66F5EEFA7ADEC4C9280FFCA6D374131A514267F32BC96CF8BEAE913EB606B8C10351E5F6BDC9CEE6F9753DC428EC8FB007EDB2DD78173F63ECA3F1CF151C244F2A5A6705A719CD15D129F4A0FFF02F046346CF18B3BECE484A2FD0F2E9FDE6C819AC5CB0EFB34E77FAFD68AF5D5DE884
311
3CA9443D56599813C68F36A606C96191A716BF2626EDD3F499E655BFD9C060302D056731CA60ECA4546454A1185ED08364464B50AF3BD2C7F6EA71C1EE6733202A1272DA58F2483023F31269016A5591EAAF3BBF61A6D363D5AD8B6E3B7CC28FAD14AE03CEDCBA98D1158B68390CD19FF524542B0797BA833CE67E92A71CA3
311
B6D9D4BEB7BB3436BD8EDC8A5C323E59BF4C05B70EA08C14181B300F213AB531815FDB66BF47FFC9F1C61C8728FC0D2BD5FA7258689DA98F418A1AA7EC650133CC933D7A8F447DDD2D6F58CBF410B9E892F52A098CD6812232AD2F0ADA3E6BD2DDF2F308038AB3FEE414BC4A11CBCB350D2405992B9DE06011586175164481
311
AA8B3FB79FA5C0453673560C14707EDFDF5CFFB15D882C13B959DADED9EBB0B379C4E536DEA238507D2B29B793B137D9D6B7017B41D985A4A44312974F584064256B81EE851FBC345746F421F3A1951BE9501C3174BD746C639B41A9A54BB7B66A703077E4D4410EE91BA5CE98AE40F1EA8560548BC20489513EF817504B03
311
04140006080000D19AD542000000000000000000000000350000006662782F31414335463345412D353136332D343746422D384546372D3642374345434445333636352F76657274696365732E62696E504B0304140006080800D19AD542F270F1330600000004000000360000006662782F31414335463345412D35313633
311
2D343746422D384546372D3642374345434445333636352F747269616E676C65732E62696E636660600000504B0304140006080000D19AD542000000000000000000000000370000006662782F31414335463345412D353136332D343746422D384546372D3642374345434445333636352F617474726962757465732E6269
311
6E504B0304140006080800D19AD542D5987DFC8F00000041010000360000006662782F31414335463345412D353136332D343746422D384546372D3642374345434445333636352F6469726563746F72792E786D6C858F410EC2201045AF4266AF15DDB800BA74E7C21B903225242D6328188F2FA5C4183471359997F9FF81
311
E89FF3C41E1816475E02DF1F80A11FC8386F25A438EECEC07A250251FC3803E6F58C12560C4AD840E95E91C151A72936F496F35732D860FE635F62C8F2DA16B505C545B74125BAA2FA9E05D7CC053D063734D5C7665FD55B6B8D15D5E9BFEAFD8490FFA45E504B0304140006080800D19AD542FB32F567FE000000A0010000
311
3B0000006662782F31414335463345412D353136332D343746422D384546372D3642374345434445333636352F7265736F75726365732F636F72652E786D6C8D504B6E833010BD8A35DBCA0483210419474D9B9CA017B0CC84580976E44FD5E3D724546A77DDCC8CDE47F3F4C4FE6BBE914FF4C1383B002B4A2068B51B8D9D
311
0648F14C3B207B29BC73F1970C8855330EB0C020C5E45DBAAF907636A28D19B56EC41554216004A26FF91820E80BCEAA50296645B81677A5AF6AC2821599CE3A2942F43900793E5926488FC125AF3188CD9395222533AE1A33E69FE66CD0836C5E79DD9DB62DE5BBE68DF2E3E9480FDD96D396F3F78E6DF9A16C4AB159CC52
311
4433FF64D41E55C4116455B29A962DADD807DBF555D5D7FCA56CFA3A9B16F91F53BA8FFF342563635DAD719FB60092E5200F428ACDD2575E8F32F35EBA95DF504B010214000A0000080000D19AD5423DEE336E79000000790000001B00000000000000000000000000000000006175746F6465736B2D64657369676E2D7061
311
636B6167652E786D6C504B01021400140006080800D19AD542D486FD9CA0000000F40000001300000000000000000000000000B20000005B436F6E74656E745F54797065735D2E786D6C504B01021400140006080800D19AD542E899DBFFEB0000007C010000080000000000000000000000000083010000636F72652E786D
311
6C504B01021400140006080800D19AD54255019EA25F0000007C000000070000000000000000000000000094020000636E782E786D6C504B01021400140006080800D19AD5423530BEF567010000020300000C00000000000000000000000000180300006662782F636F72652E786D6C504B01021400140006080800D19AD5
311
426C24118F7E0000009D0000000B00000000000000000000000000A90400006662782F636E782E786D6C504B01021400140006080800D19AD542E9A47AA12E010000140200003100000000000000000000000000500500006662782F31414335463345412D353136332D343746422D384546372D3642374345434445333636
311
352F636F72652E786D6C504B01021400140006080800D19AD5420AD014CB4E010000330300003000000000000000000000000000CD0600006662782F31414335463345412D353136332D343746422D384546372D3642374345434445333636352F636E782E786D6C504B01021400140006080800D19AD542D4E62074A50500
311
00801000003400000000000000000000000000690800006662782F31414335463345412D353136332D343746422D384546372D3642374345434445333636352F6F626A656374732E786D6C504B01021400140006080000D19AD5420000000000000000000000003500000000000000000000000000600E00006662782F3141
311
4335463345412D353136332D343746422D384546372D3642374345434445333636352F76657274696365732E62696E504B01021400140006080800D19AD542F270F13306000000040000003600000000000000000000000000B30E00006662782F31414335463345412D353136332D343746422D384546372D364237434543
311
4445333636352F747269616E676C65732E62696E504B01021400140006080000D19AD54200000000000000000000000037000000000000000000000000000D0F00006662782F31414335463345412D353136332D343746422D384546372D3642374345434445333636352F617474726962757465732E62696E504B01021400
311
140006080800D19AD542D5987DFC8F000000410100003600000000000000000000000000620F00006662782F31414335463345412D353136332D343746422D384546372D3642374345434445333636352F6469726563746F72792E786D6C504B01021400140006080800D19AD542FB32F567FE000000A00100003B00000000
311
000000000000000000451000006662782F31414335463345412D353136332D343746422D384546372D3642374345434445333636352F7265736F75726365732F636F72652E786D6C504B0506000000000E000E00800400009C1100000000
310
504B03040A0000080000D19AD5423DEE336E79000000790000001B0000006175746F6465736B2D64657369676E2D7061636B6167652E786D6C3C3F786D6C2076657273696F6E3D22312E302220656E636F64696E673D227574662D3822203F3E3C666F726D6174733E3C666F726D61743E687474703A2F2F736368656D612E
310
6175746F6465736B2E636F6D2F64657369676E2D7061636B6167652F323030393C2F666F726D61743E3C2F666F726D6174733E504B0304140006080800D19AD542D486FD9CA0000000F4000000130000005B436F6E74656E745F54797065735D2E786D6C7D8EC10E82300C865F65E91D8A1E8C310C0EEA1BF002731658846E
310
D98AC1B77784ABF1D8FE5FBFBF75BBCE937A534CCEB38643598122B6FEE978D0B0485F9C41B54DDD7D022595594E1A469170414C76A4D9A4D207E29CF43ECE46F218070CC6BECC4078ACAA135ACF422C856C0E68EA1BF5669944DDD7BCDE7B1F8E415D77AECB980613C2E4AC91FC167A2B244592486606FC29C8FD7F045B9A
310
EF7053A7E60B504B0304140006080800D19AD54269BCEFBBEA0000007C01000008000000636F72652E786D6C8D505B6EC32010BC0AE2B7C2E66137B68589E2B63E412F80803828315806AA1EBF3871A4F6AF5F3B9A9DD91D0D3F7ECF37F065D660BDEB21293004C629AFAD9B7A98E21935101C055FBD8FBF641038399B1E6E
310
34147C5A7D5A764A79178D8B99755E9B9D9421980881BA65D0C3A02E6696854C312BC2B558A4BACAC914E489B23925ABC1E389D5F99E3D5BB34241287D270D19D0890D35AADE4E75466D850EF5880F2DFB189B71E0E566163CDAF9F95FAD4646A3A1A09830845F11259FA4ED28ED58F582EB8E615E6EF23FA6B4E87F9A9275
310
91D13DEEC31672D61CE4BE10BCDCBAC8E35E549E5B6FE207504B0304140006080800D19AD54255019EA25F0000007C00000007000000636E782E786D6C4DCB3B0E80201045D1AD90E915ED2CF8AC45050C11660C8261F98AB1B07AC9C97D42D718D865D3E909258CFD00CCE24AC6E326A164D74DC0B4128928FF326038472B
310
A13128B1252AC747C6BAB984FC68F0B87FE8960A5C09FE86CFB69FBA01504B0304140006080800D19AD5422928F36367010000020300000C0000006662782F636F72652E786D6C8D525B6E833010BC8AE5DF0A0C069A878CA3A46D4ED00B38C6A128602363A31CBFCB23A2A9A2284232D6CCCEEEEC00DB5D9B1AF5CA7695D1
310
398EC30823A5A5292A5DE6D8BB73B0C668C79935C6FD29C3488B46E578803167A535BE9D2169B453DA01AA4DA16650749D7218C91A2E39EEE48F6A4428BC838AEE12B6425E44A9C238041AEA38EB9C0503681A329C989F4F5746269C33EFAB6266AB02A655E74A59CC634A3FE3757C08F6C9210BD28F7D06B74D1AACB263B4
310
DA245FC7F5F1C0C820E6CC55CDCD9DB44A3855604EA33809A2F780C6DFF1664BE93649DFA26C9B448C0CE57722DF162F8A7CA55D4267BB93AC03AF606424FE6D0B1139D4891EFC10CEC81022BCC684EF8386402064274EF56D8F0B40BD92CED81498C2F885EA45ED154C8DD0F83032B1D0796C009B3DEC439FF479DE033EA0
310
D02558130EAE27EF86E96C9A3A47D12A1BF4EE8AB4B18DA8177393C5E55C063D944B531BFB8A9ACCAB92394C32FCBDFC17504B0304140006080800D19AD542F1C732B97F0000009D0000000B0000006662782F636E782E786D6C4DCCDF0A83201C86E15B91DFB9EB8FB61AA85199F711CB42663A9C8E5DFE6A74B0A30F1E3E
310
5ED67E368BDE3ABC8C771C8A4B0E48BBBB9F8D5B39A4B8E006502B58F03EFEDD00B969D31C0E06C1D6E0D3F3A4592F53B271576BDCE3C49BCA4B3A488949457A4C2B2571A314C5434DEAAE1CAF5D31F6900996FD4AFB1E61F105504B0304140006080800D19AD542F9A1CA1B2D01000014020000310000006662782F394630
310
32344344442D333533422D343546442D384646342D4337333741324536413145422F636F72652E786D6C8D51D96E833010FC15E4A75415E003C821E328175FD01F20E02456828D7C54F9FCAE0B91DAB7BC78ADD999D9D12EDF3E8747F22DAD5346D7886418255277A657FA5AA3E02FE90A255BC1AD31FE0F0D25BA1D648D22
310
8C04BF5A13C619EA8CF6527B40B5E9E50CB6CE498F92EE019F1AB9EE2687366B830786BB6763DBDDDBABCC48066DE009EEBC8500C93424BE48AC1B4C8BC3F198B292EDD3A26C8EE9AA698AF4B064CB1D3D553B72DAF37C120A1E82EA67B9EA218EBA2869DF358962C1BD1A5EF13B2B5B2F7B2428262CC5554AC917596F28DD
310
B0E213971B86791EE9FF4461ECDF1405A53DA373DC49E690203C9F1A82F7269C1FAF30F2391AEB93386FE164F78104CE30A165B92C4132516101E05915B3A7F3C6C28217F733B019B0A27155089EC71B41F93D20D4784FF103504B0304140006080800D19AD5426C77DBDC5501000033030000300000006662782F39463032
310
344344442D333533422D343546442D384646342D4337333741324536413145422F636E782E786D6CBD93CD6EC32010845F0571ADFCEF46698489D4439FA0875E316C1A1A0C16E0AA79FB2E094973C9A152D50BB2668799D527CCB65F93219FE0837676A04D595302563AA5EDFB4097B82BD6946C39F3CEC51B1B25564C30D0
310
2453CEDEBD5BE62C29D889C544548DB6872C7A086EF11202CAE926314E0A8301608B05459846500A14B91AF16B071E5741713C92B807F2F2FC46DCF801320656A514CEAAD4C1593A73D38D8912694408030D720F9328C5129D8270289588A26CCA4BD79D9D7E9248BA70A95CBC26A97CA0E9A43C6F54224756E190B3103DD2
310
CBA6789C817231CF464B11117275329E3D9C2DDAC6559FBD1AC17B7477ED6ABDC6B0D38CB3A827C80EE941445094B775D315F5AA689BD7E669D3B69BAE7FA81F375DCDAA64E76C74CEE44B1803DECD443A1BC146CA1B56A5F13D7CD94794F6C8DAF9E32F402280DC7AA673CDF84B3ECDAAEBFB7FE4539DDE37E2F2F817F06F
310
504B0304140006080800D19AD5422298B8B462070000991B0000340000006662782F39463032344344442D333533422D343546442D384646342D4337333741324536413145422F6F626A656374732E786D6CED595B739B3814FE2B0CFBB2FB606C623B4D76083B89DD743C9DB49D7ADBD907CF3032C8441B211849E4B2BF7E
310
8F2E602026C1DBEC5B1F6C404847E77CE7AA43F0C763469D7BCC05C9D985EB7B13D7C12CCE13C2D20BB794BBD199EBFC11063CCF65639AEB3094E10B570DBB6190F2BC2CEC508277A8A4B2337A7DF5972362CCB0EBC4140971E18AF81667C843A5CC132CEEBC0449E4A5BB47CFF7CCC436D994A3E2B643B4401C33099CC238
310
032A8E61CA6F3F4EDC71188CD5FB3050FF76D674D0AC59FFACB196BACD25614222163F63A943663A88A5A93F5BBE3F999F8FE6B3D974343B3DF14757D757CB91FF6E3A599C2E16E797EFCF81BD6D9E532B53820BCC12D0DF931BFAC158BDA945B7081CE23ACE19C3B10612A0D2627509122C60AB067C93F6A3AF246ABCD612
310
369E67EABD65A1313C6D53E99B350C88165D10C46E57495C5D9BF2E5DBBF417031C428B9C012B8159283762D3C1CBCC20D27C1D88C86C176AF0B229C0C49CC09A20E255B8E382805A6AA296160165832CA3938907294045A73E675DBB6C0335F779D435CEE4A4A9567B8A176AC08DC0F4BA13923FF60BEE7BE890CF004D296
310
84C933CBA57C2AB01B9E07633D1806EA323DB12F0D90CE8EA2546844CCDB8EA00BE5FAABA51B7EBCDE3EAE553838BC79C1F30273A98C4EE951F305866CAF0A25BBAD3F48736A01086340B52BF7A07C05E43F41F4D8B3027AE3E471F638B37325474CEC729E816E9C89339AC0DFC4F1F5BFBA6FDC05E37A715B7B7D78829B2A
310
A8CE7E1CCFB60C1A2BCB7F03CE30B80783CFF9D4BE5AC788823DDF100600292371680E4310DA77DB47375C41E084400FAB100D7D1019D8BD87DB606CC9ECB552B997F53A0688DA3DA6439404B0698B04367AF4F401B20727F15E4D4D11FBE09DBF89B95E2ED71FD725DFA118DF589F5EE21D614442D63CCC500BF3964477F8
310
E921E70908FA1CEF7513EFCC6E25006D85B9023EAD40500FFB9D5B1BC4B02ECD55B8095ED9018450B9BA41FF868818538A18CECB6ADF3ABA2943AD3DDED60C6E7862209E9E744C98E37BA2AA0A709AFD8C16A390F7634E0A05A21B7E3092D541D3EB91EEDBEA1358643DBF67D68A41E86588FEA983D6011C5A965D216D81A8
310
05DEEEC3799CD39C47DBA7C8443A176A0960A3ED2DDF5B4421D61B25292AE041DAEFAA90921A69A384EC76A580B87A80C5EFAB45D31C26DED49F3BCDFF8E33CE20DA82EF226EFDAEB347443294E2688792BEED9ABBD5B48526D9439AE31D05B9C83D914F1192D124C1E931D01C45FCFC4DA9A7341782302C205F1D04BF89C6
310
C4834062B459B1ACB4DA019A8828C312D1631050647AC0D56947D7B831940EAFF3585BEF4B1A6B12FD9F2C8223A82573161128452187BCCAB8EFCD2186B4D1352877F0056BAB686B3168092544FC143D6092DECA635037E47B708FE14852CA282F500C663D80EC335F514AEDF0BE45F19DCA1F515CD2B7321081E92E229496
310
59043FC2E0E431C4B5EBC0F4220A0DE226F6499C41518664C9876C723A9F3CDBC7D40CDD10D8D868472884ED2843450FEAAD80A8EB11A706DF52EF51EAB6CC8A086579C906198A37ED7A9325DF55AB223B905F552A42D95811B604C380305967D52A6683A9EBC00A6EA403D55324505650730A7B25F1F8B53769CABD1B70EB
310
A76FBB4106855F8FF69A117556C160796C1506E201C9F8D60DD7FA3ABA82FA3BC1C93ED557B566B30204C454242F39B12AFAB682F2C6D6686E7883A4D87C3059B7BA7E5B79D0FD08C6B0066A977AE14A019D612691AA4C6ED40DFD8A2004B76898F195CAA9C750B94C125D35227A4DFAD4D92A235A9B66C42B6E31CB33F8B1
310
0D61312D13BC4189B88B6E248DD644B16EA5F4325261FCA2809F3FAC3BF0C0C80091BEA8020F3F74D6DAD1852A970E1291B765B6658840106C89961ADD78054BAD462A2DD75775A680BA0B0CCCAA78F6F364D16C47FC3C59A4D6307EEC6441F32DA2FB68D3C8E6B132EBA34E01757A5254DEE214A0BB0E35D53A89985C6EC5
310
B7BE14414CAC82FCE062AC8A1986601FC7FF3969F72541B35D87FFE392B6FFACE0382AA9B426AB26D581C275D54C614B7F71757E3DBB1C2D4EE6EF46B3E564313ABB9ECC47D7E7A7B3C9FCECFAFDE9E9798DA6F6D330A863994E5DF06C625A35AC9E2C06D094153925091CE61327C510F2251CE90774CF798605E4CE66AF3B
310
B13DF901ABEF4D9B53A22DC51527B708FAC3544056078CCA58B6C79D5FA03329E19C7DE142CFC8BB833F6B95AE0389E7C2854E81243116DE16BA4CAA9FA78943C6D5A9DF12037C104B5546348BEAE77A95C2A615FDEB2943B28095ABD5C280BAAD80E657AB41A179B33CC547095EB1E32009B7DB5242B16664D90FD4C2E86D
310
F6EA37B251C2EEECD68FE0BA2F8BE57B7A4E0B91415F0C5E3402437524114F75BB5B316659BA5C7E19439BCD597D760A5AA6A0CBE194461C833197AA9E022B02ABB0340B24C15417BF6FBEF01CBEF0648E2E8A9C5F1FCF4E7FDB2CF22CCB9919DA5CC2A12C81EF44CEFA16BEFA241BA81DB0EAAD8BCDC9C43FD9E89EB66DB3
310
475B24B0A78A2218A86A092548C7E4C02E9FF5A76CF772AC54D199BE5A3A3688422FC0D8D1B316AFF9C6E5800FA9AF29CA63B49F57D2BED8D61EEBA960131C1AD2E1BF504B0304140006080000D19AD542000000000000000000000000350000006662782F39463032344344442D333533422D343546442D384646342D4337
310
333741324536413145422F76657274696365732E62696E504B0304140006080800D19AD542F270F1330600000004000000360000006662782F39463032344344442D333533422D343546442D384646342D4337333741324536413145422F747269616E676C65732E62696E636660600000504B0304140006080000D19AD542
310
000000000000000000000000370000006662782F39463032344344442D333533422D343546442D384646342D4337333741324536413145422F617474726962757465732E62696E504B0304140006080800D19AD542D5987DFC8F00000041010000360000006662782F39463032344344442D333533422D343546442D384646
310
342D4337333741324536413145422F6469726563746F72792E786D6C858F410EC2201045AF4266AF15DDB800BA74E7C21B903225242D6328188F2FA5C4183471359997F9FF81E89FF3C41E1816475E02DF1F80A11FC8386F25A438EECEC07A250251FC3803E6F58C12560C4AD840E95E91C151A72936F496F35732D860FE63
310
5F62C8F2DA16B505C545B74125BAA2FA9E05D7CC053D063734D5C7665FD55B6B8D15D5E9BFEAFD8490FFA45E504B0304140006080800D19AD5420156B28AFD000000A00100003B0000006662782F39463032344344442D333533422D343546442D384646342D4337333741324536413145422F7265736F75726365732F636F
310
72652E786D6C8D504B6E833010BD8AE56D05D8061A40C61169CB097A01CB4CA89560237FAA1EBF2650A9DD7533337A1FCDD3E3E7AFE58E3EC1796D4D8F694E3002A3ECA4CDDCE318AE5983D15970676DF825C3C8C8057ABCC158F0D9D9B81E90B2268009093576820394DE43C048DDD3D163AF3E6091B98C2129FC2D5FA5BA
310
C919729A273AE904F7C1A500687FB24D2C1C781B9D02CF8B9D153C463D1D1A3DA59FFAAAC16141197BA50D1DB2A1BCD459F532D4E96AABEC548FE4D4966F63335E78B199050F7AF9C9A81CC80013168CD03223CF19A3EFB4ED18EBCAEA89D45D4978B1C9FF98E23AFDD314B509253BE2EE369FB2A6200F42F062EB2BAD4799
310
696FDD8A6F504B010214000A0000080000D19AD5423DEE336E79000000790000001B00000000000000000000000000000000006175746F6465736B2D64657369676E2D7061636B6167652E786D6C504B01021400140006080800D19AD542D486FD9CA0000000F40000001300000000000000000000000000B20000005B436F
310
6E74656E745F54797065735D2E786D6C504B01021400140006080800D19AD54269BCEFBBEA0000007C010000080000000000000000000000000083010000636F72652E786D6C504B01021400140006080800D19AD54255019EA25F0000007C000000070000000000000000000000000093020000636E782E786D6C504B0102
310
1400140006080800D19AD5422928F36367010000020300000C00000000000000000000000000170300006662782F636F72652E786D6C504B01021400140006080800D19AD542F1C732B97F0000009D0000000B00000000000000000000000000A80400006662782F636E782E786D6C504B01021400140006080800D19AD542
310
F9A1CA1B2D010000140200003100000000000000000000000000500500006662782F39463032344344442D333533422D343546442D384646342D4337333741324536413145422F636F72652E786D6C504B01021400140006080800D19AD5426C77DBDC55010000330300003000000000000000000000000000CC0600006662
310
782F39463032344344442D333533422D343546442D384646342D4337333741324536413145422F636E782E786D6C504B01021400140006080800D19AD5422298B8B462070000991B000034000000000000000000000000006F0800006662782F39463032344344442D333533422D343546442D384646342D43373337413245
310
36413145422F6F626A656374732E786D6C504B01021400140006080000D19AD5420000000000000000000000003500000000000000000000000000231000006662782F39463032344344442D333533422D343546442D384646342D4337333741324536413145422F76657274696365732E62696E504B010214001400060808
310
00D19AD542F270F13306000000040000003600000000000000000000000000761000006662782F39463032344344442D333533422D343546442D384646342D4337333741324536413145422F747269616E676C65732E62696E504B01021400140006080000D19AD54200000000000000000000000037000000000000000000
310
00000000D01000006662782F39463032344344442D333533422D343546442D384646342D4337333741324536413145422F617474726962757465732E62696E504B01021400140006080800D19AD542D5987DFC8F000000410100003600000000000000000000000000251100006662782F39463032344344442D333533422D
310
343546442D384646342D4337333741324536413145422F6469726563746F72792E786D6C504B01021400140006080800D19AD5420156B28AFD000000A00100003B00000000000000000000000000081200006662782F39463032344344442D333533422D343546442D384646342D4337333741324536413145422F7265736F
310
75726365732F636F72652E786D6C504B0506000000000E000E00800400005E1300000000
  0
XRECORD
  5
27
102
{ACAD_REACTORS
330
22
102
}
330
22
100
AcDbXrecord
280
     1
270
     1
271
     1
  0
XRECORD
  5
26
102
{ACAD_REACTORS
330
22
102
}
330
22
100
AcDbXrecord
280
     1
270
     1
271
     1
  0
XRECORD
  5
28
102
{ACAD_REACTORS
330
22
102
}
330
22
100
AcDbXrecord
280
     1
270
     1
271
     1
  0
XRECORD
  5
25
102
{ACAD_REACTORS
330
22
102
}
330
22
100
AcDbXrecord
280
     1
270
     1
271
     1
  0
XRECORD
  5
E85
102
{ACAD_REACTORS
330
E84
102
}
330
E84
100
AcDbXrecord
280
     1
102
ACAD_ROUNDTRIP_2012_MLEADER_STYLE
298
     1
  0
CELLSTYLEMAP
  5
E83
102
{ACAD_REACTORS
330
E82
102
}
330
E82
100
AcDbCellStyleMap
 90
        3
300
CELLSTYLE
  1
TABLEFORMAT_BEGIN
 90
        5
170
     1
 91
        0
 92
    32768
 62
   257
 93
        1
300
CONTENTFORMAT
  1
CONTENTFORMAT_BEGIN
 90
        0
 91
        0
 92
      512
 93
        0
300

 40
0.0
140
1.0
 94
        5
 62
     0
340
55
144
0.25
309
CONTENTFORMAT_END
171
     0
 94
        0
309
TABLEFORMAT_END
  1
CELLSTYLE_BEGIN
 90
        1
 91
        1
300
_TITLE
309
CELLSTYLE_END
300
CELLSTYLE
  1
TABLEFORMAT_BEGIN
 90
        5
170
     1
 91
        0
 92
        0
 62
   257
 93
        1
300
CONTENTFORMAT
  1
CONTENTFORMAT_BEGIN
 90
        0
 91
        0
 92
      512
 93
        0
300

 40
0.0
140
1.0
 94
        5
 62
     0
340
55
144
0.18
309
CONTENTFORMAT_END
171
     0
 94
        0
309
TABLEFORMAT_END
  1
CELLSTYLE_BEGIN
 90
        2
 91
        1
300
_HEADER
309
CELLSTYLE_END
300
CELLSTYLE
  1
TABLEFORMAT_BEGIN
 90
        5
170
     1
 91
        0
 92
        0
 62
   257
 93
        1
300
CONTENTFORMAT
  1
CONTENTFORMAT_BEGIN
 90
        0
 91
        0
 92
      512
 93
        0
300

 40
0.0
140
1.0
 94
        2
 62
     0
340
55
144
0.18
309
CONTENTFORMAT_END
171
     0
 94
        0
309
TABLEFORMAT_END
  1
CELLSTYLE_BEGIN
 90
        3
 91
        2
300
_DATA
309
CELLSTYLE_END
  0
ENDSEC
  0
EOF
