  0
SECTION
  2
HEADER
  9
$ACADVER
  1
AC1024
  9
$ACADMAINTVER
 70
    63
  9
$DWGCODEPAGE
  3
ANSI_1252
  9
$AUTHOR
  1
PR
  9
$REVISIONNUMBER
  1
-
  9
$CUSTOMPROPERTYTAG
  1
Manager
  9
$CUSTOMPROPERTY
  1

  9
$CUSTOMPROPERTYTAG
  1
Company
  9
$CUSTOMPROPERTY
  1

  9
$CUSTOMPROPERTYTAG
  1
Category
  9
$CUSTOMPROPERTY
  1

  9
$CUSTOMPROPERTYTAG
  1
Part Number
  9
$CUSTOMPROPERTY
  1
HWDWA90P36F2
  9
$CUSTOMPROPERTYTAG
  1
Description
  9
$CUSTOMPROPERTY
  1
N1P PANEL MASTER VIEW
  9
$CUSTOMPROPERTYTAG
  1
Project
  9
$CUSTOMPROPERTY
  1

  9
$CUSTOMPROPERTYTAG
  1
Designer
  9
$CUSTOMPROPERTY
  1
PR
  9
$CUSTOMPROPERTYTAG
  1
Engineer
  9
$CUSTOMPROPERTY
  1

  9
$CUSTOMPROPERTYTAG
  1
Authority
  9
$CUSTOMPROPERTY
  1

  9
$CUSTOMPROPERTYTAG
  1
Cost Center
  9
$CUSTOMPROPERTY
  1

  9
$CUSTOMPROPERTYTAG
  1
Vendor
  9
$CUSTOMPROPERTY
  1

  9
$CUSTOMPROPERTYTAG
  1
User Status
  9
$CUSTOMPROPERTY
  1

  9
$CUSTOMPROPERTYTAG
  1
Design Status
  9
$CUSTOMPROPERTY
  1
WorkInProgress
  9
$CUSTOMPROPERTYTAG
  1
Checked by
  9
$CUSTOMPROPERTY
  1
NJ
  9
$CUSTOMPROPERTYTAG
  1
Engr Approved by
  9
$CUSTOMPROPERTY
  1

  9
$CUSTOMPROPERTYTAG
  1
Date Eng Approved
  9
$CUSTOMPROPERTY
  1
06/19/2013
  9
$CUSTOMPROPERTYTAG
  1
Mfg Approved by
  9
$CUSTOMPROPERTY
  1

  9
$CUSTOMPROPERTYTAG
  1
DWG. NO
  9
$CUSTOMPROPERTY
  1

  9
$CUSTOMPROPERTYTAG
  1
NUMBER OF SHEETS
  9
$CUSTOMPROPERTY
  1
1
  9
$CUSTOMPROPERTYTAG
  1
DRAWING #
  9
$CUSTOMPROPERTY
  1
1
  9
$INSBASE
 10
0.0
 20
0.0
 30
0.0
  9
$EXTMIN
 10
0.0
 20
0.0
 30
0.0
  9
$EXTMAX
 10
170.0
 20
110.0
 30
0.0
  9
$LIMMIN
 10
0.0
 20
0.0
  9
$LIMMAX
 10
170.0
 20
110.0
  9
$ORTHOMODE
 70
     0
  9
$REGENMODE
 70
     1
  9
$FILLMODE
 70
     1
  9
$QTEXTMODE
 70
     0
  9
$MIRRTEXT
 70
     0
  9
$LTSCALE
 40
10.0
  9
$ATTMODE
 70
     1
  9
$TEXTSIZE
 40
0.2
  9
$TRACEWID
 40
0.05
  9
$TEXTSTYLE
  7
Standard
  9
$CLAYER
  8
0
  9
$CELTYPE
  6
ByLayer
  9
$CECOLOR
 62
   256
  9
$CELTSCALE
 40
1.0
  9
$DISPSILH
 70
     0
  9
$DIMSCALE
 40
1.0
  9
$DIMASZ
 40
0.0708661417322835
  9
$DIMEXO
 40
0.0625
  9
$DIMDLI
 40
0.38
  9
$DIMRND
 40
0.0
  9
$DIMDLE
 40
0.0
  9
$DIMEXE
 40
0.18
  9
$DIMTP
 40
0.0
  9
$DIMTM
 40
0.0
  9
$DIMTXT
 40
0.0708661417322835
  9
$DIMCEN
 40
0.09
  9
$DIMTSZ
 40
0.0
  9
$DIMTOL
 70
     0
  9
$DIMLIM
 70
     0
  9
$DIMTIH
 70
     1
  9
$DIMTOH
 70
     1
  9
$DIMSE1
 70
     0
  9
$DIMSE2
 70
     0
  9
$DIMTAD
 70
     0
  9
$DIMZIN
 70
     0
  9
$DIMBLK
  1

  9
$DIMASO
 70
     1
  9
$DIMSHO
 70
     1
  9
$DIMPOST
  1

  9
$DIMAPOST
  1

  9
$DIMALT
 70
     0
  9
$DIMALTD
 70
     2
  9
$DIMALTF
 40
25.4
  9
$DIMLFAC
 40
1.0
  9
$DIMTOFL
 70
     0
  9
$DIMTVP
 40
0.0
  9
$DIMTIX
 70
     0
  9
$DIMSOXD
 70
     0
  9
$DIMSAH
 70
     0
  9
$DIMBLK1
  1

  9
$DIMBLK2
  1

  9
$DIMSTYLE
  2
STANDARD
  9
$DIMCLRD
 70
     0
  9
$DIMCLRE
 70
     0
  9
$DIMCLRT
 70
     0
  9
$DIMTFAC
 40
1.0
  9
$DIMGAP
 40
0.09
  9
$DIMJUST
 70
     0
  9
$DIMSD1
 70
     0
  9
$DIMSD2
 70
     0
  9
$DIMTOLJ
 70
     1
  9
$DIMTZIN
 70
     0
  9
$DIMALTZ
 70
     0
  9
$DIMALTTZ
 70
     0
  9
$DIMUPT
 70
     0
  9
$DIMDEC
 70
     4
  9
$DIMTDEC
 70
     4
  9
$DIMALTU
 70
     2
  9
$DIMALTTD
 70
     2
  9
$DIMTXSTY
  7
Standard
  9
$DIMAUNIT
 70
     0
  9
$DIMADEC
 70
     0
  9
$DIMALTRND
 40
0.0
  9
$DIMAZIN
 70
     0
  9
$DIMDSEP
 70
    46
  9
$DIMATFIT
 70
     3
  9
$DIMFRAC
 70
     0
  9
$DIMLDRBLK
  1

  9
$DIMLUNIT
 70
     2
  9
$DIMLWD
 70
    -2
  9
$DIMLWE
 70
    -2
  9
$DIMTMOVE
 70
     0
  9
$DIMFXL
 40
1.0
  9
$DIMFXLON
 70
     0
  9
$DIMJOGANG
 40
0.7853981633974483
  9
$DIMTFILL
 70
     0
  9
$DIMTFILLCLR
 70
     0
  9
$DIMARCSYM
 70
     0
  9
$DIMLTYPE
  6

  9
$DIMLTEX1
  6

  9
$DIMLTEX2
  6

  9
$DIMTXTDIRECTION
 70
     0
  9
$LUNITS
 70
     2
  9
$LUPREC
 70
     4
  9
$SKETCHINC
 40
0.1
  9
$FILLETRAD
 40
0.0
  9
$AUNITS
 70
     0
  9
$AUPREC
 70
     0
  9
$MENU
  1
.
  9
$ELEVATION
 40
0.0
  9
$PELEVATION
 40
0.0
  9
$THICKNESS
 40
0.0
  9
$LIMCHECK
 70
     0
  9
$CHAMFERA
 40
0.0
  9
$CHAMFERB
 40
0.0
  9
$CHAMFERC
 40
0.0
  9
$CHAMFERD
 40
0.0
  9
$SKPOLY
 70
     0
  9
$TDCREATE
 40
2456465.807801308
  9
$TDUCREATE
 40
2456465.578634641
  9
$TDUPDATE
 40
2456465.807801319
  9
$TDUUPDATE
 40
2456465.578634653
  9
$TDINDWG
 40
0.0000456713
  9
$TDUSRTIMER
 40
0.0000456713
  9
$USRTIMER
 70
     1
  9
$ANGBASE
 50
0.0
  9
$ANGDIR
 70
     0
  9
$PDMODE
 70
     0
  9
$PDSIZE
 40
0.0
  9
$PLINEWID
 40
0.0
  9
$SPLFRAME
 70
     0
  9
$SPLINETYPE
 70
     6
  9
$SPLINESEGS
 70
     8
  9
$HANDSEED
  5
D9D
  9
$SURFTAB1
 70
     6
  9
$SURFTAB2
 70
     6
  9
$SURFTYPE
 70
     6
  9
$SURFU
 70
     6
  9
$SURFV
 70
     6
  9
$UCSBASE
  2

  9
$UCSNAME
  2

  9
$UCSORG
 10
0.0
 20
0.0
 30
0.0
  9
$UCSXDIR
 10
1.0
 20
0.0
 30
0.0
  9
$UCSYDIR
 10
0.0
 20
1.0
 30
0.0
  9
$UCSORTHOREF
  2

  9
$UCSORTHOVIEW
 70
     0
  9
$UCSORGTOP
 10
0.0
 20
0.0
 30
0.0
  9
$UCSORGBOTTOM
 10
0.0
 20
0.0
 30
0.0
  9
$UCSORGLEFT
 10
0.0
 20
0.0
 30
0.0
  9
$UCSORGRIGHT
 10
0.0
 20
0.0
 30
0.0
  9
$UCSORGFRONT
 10
0.0
 20
0.0
 30
0.0
  9
$UCSORGBACK
 10
0.0
 20
0.0
 30
0.0
  9
$PUCSBASE
  2

  9
$PUCSNAME
  2

  9
$PUCSORG
 10
0.0
 20
0.0
 30
0.0
  9
$PUCSXDIR
 10
1.0
 20
0.0
 30
0.0
  9
$PUCSYDIR
 10
0.0
 20
1.0
 30
0.0
  9
$PUCSORTHOREF
  2

  9
$PUCSORTHOVIEW
 70
     0
  9
$PUCSORGTOP
 10
0.0
 20
0.0
 30
0.0
  9
$PUCSORGBOTTOM
 10
0.0
 20
0.0
 30
0.0
  9
$PUCSORGLEFT
 10
0.0
 20
0.0
 30
0.0
  9
$PUCSORGRIGHT
 10
0.0
 20
0.0
 30
0.0
  9
$PUCSORGFRONT
 10
0.0
 20
0.0
 30
0.0
  9
$PUCSORGBACK
 10
0.0
 20
0.0
 30
0.0
  9
$USERI1
 70
     0
  9
$USERI2
 70
     0
  9
$USERI3
 70
     0
  9
$USERI4
 70
     0
  9
$USERI5
 70
     0
  9
$USERR1
 40
0.0
  9
$USERR2
 40
0.0
  9
$USERR3
 40
0.0
  9
$USERR4
 40
0.0
  9
$USERR5
 40
0.0
  9
$WORLDVIEW
 70
     1
  9
$SHADEDGE
 70
     3
  9
$SHADEDIF
 70
    70
  9
$TILEMODE
 70
     1
  9
$MAXACTVP
 70
    64
  9
$PINSBASE
 10
0.0
 20
0.0
 30
0.0
  9
$PLIMCHECK
 70
     0
  9
$PEXTMIN
 10
0.0
 20
0.0
 30
0.0
  9
$PEXTMAX
 10
170.0
 20
110.0
 30
0.0
  9
$PLIMMIN
 10
0.0
 20
0.0
  9
$PLIMMAX
 10
170.0
 20
110.0
  9
$UNITMODE
 70
     0
  9
$VISRETAIN
 70
     1
  9
$PLINEGEN
 70
     0
  9
$PSLTSCALE
 70
     1
  9
$TREEDEPTH
 70
  3020
  9
$CMLSTYLE
  2
Standard
  9
$CMLJUST
 70
     0
  9
$CMLSCALE
 40
1.0
  9
$PROXYGRAPHICS
 70
     1
  9
$MEASUREMENT
 70
     0
  9
$CELWEIGHT
370
    -1
  9
$ENDCAPS
280
     0
  9
$JOINSTYLE
280
     0
  9
$LWDISPLAY
290
     0
  9
$INSUNITS
 70
     1
  9
$HYPERLINKBASE
  1

  9
$STYLESHEET
  1

  9
$XEDIT
290
     1
  9
$CEPSNTYPE
380
     0
  9
$PSTYLEMODE
290
     1
  9
$FINGERPRINTGUID
  2
{7FD4AB09-6FBF-4BA6-9522-B4C6F271C414}
  9
$VERSIONGUID
  2
{E41129DD-D735-43A2-BDDA-DA470DD41746}
  9
$EXTNAMES
290
     1
  9
$PSVPSCALE
 40
0.0
  9
$OLESTARTUP
290
     0
  9
$SORTENTS
280
   127
  9
$INDEXCTL
280
     0
  9
$HIDETEXT
280
     1
  9
$XCLIPFRAME
280
     2
  9
$HALOGAP
280
     0
  9
$OBSCOLOR
 70
   257
  9
$OBSLTYPE
280
     0
  9
$INTERSECTIONDISPLAY
280
     0
  9
$INTERSECTIONCOLOR
 70
   257
  9
$DIMASSOC
280
     1
  9
$PROJECTNAME
  1

  9
$CAMERADISPLAY
290
     0
  9
$LENSLENGTH
 40
50.0
  9
$CAMERAHEIGHT
 40
0.0
  9
$STEPSPERSEC
 40
2.0
  9
$STEPSIZE
 40
6.0
  9
$3DDWFPREC
 40
2.0
  9
$PSOLWIDTH
 40
0.25
  9
$PSOLHEIGHT
 40
4.0
  9
$LOFTANG1
 40
1.570796326794896
  9
$LOFTANG2
 40
1.570796326794896
  9
$LOFTMAG1
 40
0.0
  9
$LOFTMAG2
 40
0.0
  9
$LOFTPARAM
 70
     7
  9
$LOFTNORMALS
280
     1
  9
$LATITUDE
 40
37.795
  9
$LONGITUDE
 40
-122.394
  9
$NORTHDIRECTION
 40
0.0
  9
$TIMEZONE
 70
 -8000
  9
$LIGHTGLYPHDISPLAY
280
     1
  9
$TILEMODELIGHTSYNCH
280
     1
  9
$CMATERIAL
347
11
  9
$SOLIDHIST
280
     0
  9
$SHOWHIST
280
     1
  9
$DWFFRAME
280
     2
  9
$DGNFRAME
280
     0
  9
$REALWORLDSCALE
290
     1
  9
$INTERFERECOLOR
 62
     1
  9
$INTERFEREOBJVS
345
33
  9
$INTERFEREVPVS
346
30
  9
$CSHADOW
280
     0
  9
$SHADOWPLANELOCATION
 40
0.0
  0
ENDSEC
  0
SECTION
  2
CLASSES
  0
CLASS
  1
ACDBDICTIONARYWDFLT
  2
AcDbDictionaryWithDefault
  3
ObjectDBX Classes
 90
        0
 91
        1
280
     0
281
     0
  0
CLASS
  1
MATERIAL
  2
AcDbMaterial
  3
ObjectDBX Classes
 90
     1153
 91
        3
280
     0
281
     0
  0
CLASS
  1
VISUALSTYLE
  2
AcDbVisualStyle
  3
ObjectDBX Classes
 90
     4095
 91
       24
280
     0
281
     0
  0
CLASS
  1
SCALE
  2
AcDbScale
  3
ObjectDBX Classes
 90
     1153
 91
       17
280
     0
281
     0
  0
CLASS
  1
TABLESTYLE
  2
AcDbTableStyle
  3
ObjectDBX Classes
 90
     4095
 91
        1
280
     0
281
     0
  0
CLASS
  1
MLEADERSTYLE
  2
AcDbMLeaderStyle
  3
ACDB_MLEADERSTYLE_CLASS
 90
     4095
 91
        1
280
     0
281
     0
  0
CLASS
  1
DICTIONARYVAR
  2
AcDbDictionaryVar
  3
ObjectDBX Classes
 90
        0
 91
        3
280
     0
281
     0
  0
CLASS
  1
CELLSTYLEMAP
  2
AcDbCellStyleMap
  3
ObjectDBX Classes
 90
     1152
 91
        1
280
     0
281
     0
  0
ENDSEC
  0
SECTION
  2
TABLES
  0
TABLE
  2
VPORT
  5
8
330
0
100
AcDbSymbolTable
 70
     1
  0
VPORT
  5
57
330
8
100
AcDbSymbolTableRecord
100
AcDbViewportTableRecord
  2
*Active
 70
     0
 10
0.0
 20
0.0
 11
1.0
 21
1.0
 12
85.0
 22
55.0
 13
0.0
 23
0.0
 14
1.0
 24
1.0
 15
0.0
 25
0.0
 16
0.0
 26
0.0
 36
1.0
 17
0.0
 27
0.0
 37
0.0
 40
110.0
 41
1.545454545454545
 42
50.0
 43
0.0
 44
0.0
 50
0.0
 51
0.0
 71
     0
 72
   100
 73
     1
 74
     1
 75
     0
 76
     0
 77
     0
 78
     0
281
     0
 65
     1
110
0.0
120
0.0
130
0.0
111
1.0
121
0.0
131
0.0
112
0.0
122
1.0
132
0.0
 79
     0
146
0.0
 60
     3
 61
     5
292
     1
282
     1
141
0.0
142
0.0
 63
   250
421
  3355443
  0
ENDTAB
  0
TABLE
  2
LTYPE
  5
5
330
0
100
AcDbSymbolTable
 70
    59
  0
LTYPE
  5
5B
330
5
100
AcDbSymbolTableRecord
100
AcDbLinetypeTableRecord
  2
ByBlock
 70
     0
  3

 72
    65
 73
     0
 40
0.0
  0
LTYPE
  5
5C
330
5
100
AcDbSymbolTableRecord
100
AcDbLinetypeTableRecord
  2
ByLayer
 70
     0
  3

 72
    65
 73
     0
 40
0.0
  0
LTYPE
  5
5D
330
5
100
AcDbSymbolTableRecord
100
AcDbLinetypeTableRecord
  2
Continuous
 70
     0
  3
Solid line
 72
    65
 73
     0
 40
0.0
  0
LTYPE
  5
7C
330
5
100
AcDbSymbolTableRecord
100
AcDbLinetypeTableRecord
  2
BY_STANDARD
 70
     0
  3
By Standard ____________    ____    ____   _
 72
    65
 73
     6
 40
1.240299999999999
 49
0.6614
 74
     0
 49
-0.0827
 74
     0
 49
0.1654
 74
     0
 49
-0.0827
 74
     0
 49
0.1654
 74
     0
 49
-0.0827
 74
     0
  0
LTYPE
  5
7D
330
5
100
AcDbSymbolTableRecord
100
AcDbLinetypeTableRecord
  2
CHAIN
 70
     0
  3
Chain ____ _ ____ _ ____ _ ____ _ ____ _ ____
 72
    65
 73
     4
 40
0.7087
 49
0.4724000000000001
 74
     0
 49
-0.0591
 74
     0
 49
0.1181
 74
     0
 49
-0.0591
 74
     0
  0
LTYPE
  5
7E
330
5
100
AcDbSymbolTableRecord
100
AcDbLinetypeTableRecord
  2
DASH_DOT
 70
     0
  3
Dash dot __ . __ . __ . __ . __ . __ . __ . __
 72
    65
 73
     4
 40
0.37
 49
0.24
 74
     0
 49
-0.06
 74
     0
 49
0.01
 74
     0
 49
-0.06
 74
     0
  0
LTYPE
  5
7F
330
5
100
AcDbSymbolTableRecord
100
AcDbLinetypeTableRecord
  2
DOUBLE_DASH_DOT
 70
     0
  3
Double-Dash Dot __ __ . __ __ . __ __ . __ _
 72
    65
 73
     6
 40
0.4398
 49
0.24
 74
     0
 49
-0.06
 74
     0
 49
0.0098
 74
     0
 49
-0.06
 74
     0
 49
0.01
 74
     0
 49
-0.06
 74
     0
  0
LTYPE
  5
80
330
5
100
AcDbSymbolTableRecord
100
AcDbLinetypeTableRecord
  2
DASH_TRIPLE_DOT
 70
     0
  3
Dash Triple-Dot _ . . . _ . . . _ . . . _
 72
    65
 73
     8
 40
0.51
 49
0.24
 74
     0
 49
-0.06
 74
     0
 49
0.01
 74
     0
 49
-0.06
 74
     0
 49
0.01
 74
     0
 49
-0.06
 74
     0
 49
0.01
 74
     0
 49
-0.06
 74
     0
  0
LTYPE
  5
81
330
5
100
AcDbSymbolTableRecord
100
AcDbLinetypeTableRecord
  2
DASHED
 70
     0
  3
Dashed __ __ __ __ __ __ __ __ __ __ __ __ __ _
 72
    65
 73
     2
 40
0.2067
 49
0.1654
 74
     0
 49
-0.0413
 74
     0
  0
LTYPE
  5
82
330
5
100
AcDbSymbolTableRecord
100
AcDbLinetypeTableRecord
  2
DASH_DOUBLE_DOT
 70
     0
  3
Dash Double-Dot __ . . __ . . __ . . __ . .
 72
    65
 73
     6
 40
0.4398
 49
0.24
 74
     0
 49
-0.06
 74
     0
 49
0.0098
 74
     0
 49
-0.06
 74
     0
 49
0.01
 74
     0
 49
-0.06
 74
     0
  0
LTYPE
  5
83
330
5
100
AcDbSymbolTableRecord
100
AcDbLinetypeTableRecord
  2
DASHED_SPACE
 70
     0
  3
Dashed Space __ __ __ __ __ __ __ __ __ __ __ _
 72
    65
 73
     2
 40
0.2067
 49
0.1654
 74
     0
 49
-0.0413
 74
     0
  0
LTYPE
  5
84
330
5
100
AcDbSymbolTableRecord
100
AcDbLinetypeTableRecord
  2
DOTTED
 70
     0
  3
Dotted . . . . . . . . . . . . . . . . . . . . 
 72
    65
 73
     2
 40
0.0482
 49
0.0069
 74
     0
 49
-0.0413
 74
     0
  0
LTYPE
  5
85
330
5
100
AcDbSymbolTableRecord
100
AcDbLinetypeTableRecord
  2
DOUBLE_DASH_CHAIN
 70
     0
  3
Double-Dash Chain ______  __  __  ______  __  _
 72
    65
 73
     6
 40
1.240299999999999
 49
0.6614
 74
     0
 49
-0.0827
 74
     0
 49
0.1654
 74
     0
 49
-0.0827
 74
     0
 49
0.1654
 74
     0
 49
-0.0827
 74
     0
  0
LTYPE
  5
87
330
5
100
AcDbSymbolTableRecord
100
AcDbLinetypeTableRecord
  2
DOUBLE_DASH_DOUBLE_DOT
 70
     0
  3
Double-Dash Double-dot _ _ . . _ _ . . _
 72
    65
 73
     8
 40
0.7400000000000001
 49
0.24
 74
     0
 49
-0.06
 74
     0
 49
0.24
 74
     0
 49
-0.06
 74
     0
 49
0.01
 74
     0
 49
-0.06
 74
     0
 49
0.01
 74
     0
 49
-0.06
 74
     0
  0
LTYPE
  5
88
330
5
100
AcDbSymbolTableRecord
100
AcDbLinetypeTableRecord
  2
DOUBLE_DASH_TRIPLE_DOT
 70
     0
  3
Double Dash Triple Dot __ __ . . . __ __ . .
 72
    65
 73
    10
 40
0.8100000000000001
 49
0.24
 74
     0
 49
-0.06
 74
     0
 49
0.24
 74
     0
 49
-0.06
 74
     0
 49
0.01
 74
     0
 49
-0.06
 74
     0
 49
0.01
 74
     0
 49
-0.06
 74
     0
 49
0.01
 74
     0
 49
-0.06
 74
     0
  0
LTYPE
  5
89
330
5
100
AcDbSymbolTableRecord
100
AcDbLinetypeTableRecord
  2
LONG_DASH_DOTTED
 70
     0
  3
Long Dash Dotted ____ . ____ . ____ . ____ . _
 72
    65
 73
     4
 40
0.3543
 49
0.2362
 74
     0
 49
-0.0295
 74
     0
 49
0.0591
 74
     0
 49
-0.0295
 74
     0
  0
LTYPE
  5
8A
330
5
100
AcDbSymbolTableRecord
100
AcDbLinetypeTableRecord
  2
LONG_DASH_DOUBLE_DOT
 70
     0
  3
Long Dash Double Dot ________  .  .  ________  
 72
    65
 73
     6
 40
0.6799999999999999
 49
0.48
 74
     0
 49
-0.06
 74
     0
 49
0.01
 74
     0
 49
-0.06
 74
     0
 49
0.01
 74
     0
 49
-0.06
 74
     0
  0
LTYPE
  5
8B
330
5
100
AcDbSymbolTableRecord
100
AcDbLinetypeTableRecord
  2
LONG_DASH_TRIPLE_DOT
 70
     0
  3
Long Dash Triple Dot ____ ... ____ ... ____
 72
    65
 73
     8
 40
0.3689
 49
0.2362
 74
     0
 49
-0.0295
 74
     0
 49
0.0049
 74
     0
 49
-0.0295
 74
     0
 49
0.0049
 74
     0
 49
-0.0295
 74
     0
 49
0.0049
 74
     0
 49
-0.0295
 74
     0
  0
LTYPE
  5
8C
330
5
100
AcDbSymbolTableRecord
100
AcDbLinetypeTableRecord
  2
BORDER
 70
     0
  3
Border __ __ . __ __ . __ __ . __ __ . __ __ .
 72
    65
 73
     6
 40
1.75
 49
0.5
 74
     0
 49
-0.25
 74
     0
 49
0.5
 74
     0
 49
-0.25
 74
     0
 49
0.0
 74
     0
 49
-0.25
 74
     0
  0
LTYPE
  5
8D
330
5
100
AcDbSymbolTableRecord
100
AcDbLinetypeTableRecord
  2
BORDER2
 70
     0
  3
Border (.5x) __.__.__.__.__.__.__.__.__.__.__.
 72
    65
 73
     6
 40
0.875
 49
0.25
 74
     0
 49
-0.125
 74
     0
 49
0.25
 74
     0
 49
-0.125
 74
     0
 49
0.0
 74
     0
 49
-0.125
 74
     0
  0
LTYPE
  5
8E
330
5
100
AcDbSymbolTableRecord
100
AcDbLinetypeTableRecord
  2
BORDERX2
 70
     0
  3
Border (2x) ____  ____  .  ____  ____  .  ___
 72
    65
 73
     6
 40
3.5
 49
1.0
 74
     0
 49
-0.5
 74
     0
 49
1.0
 74
     0
 49
-0.5
 74
     0
 49
0.0
 74
     0
 49
-0.5
 74
     0
  0
LTYPE
  5
8F
330
5
100
AcDbSymbolTableRecord
100
AcDbLinetypeTableRecord
  2
CENTER
 70
     0
  3
Center ____ _ ____ _ ____ _ ____ _ ____ _ ____
 72
    65
 73
     4
 40
2.0
 49
1.25
 74
     0
 49
-0.25
 74
     0
 49
0.25
 74
     0
 49
-0.25
 74
     0
  0
LTYPE
  5
90
330
5
100
AcDbSymbolTableRecord
100
AcDbLinetypeTableRecord
  2
CENTER2
 70
     0
  3
Center (.5x) ___ _ ___ _ ___ _ ___ _ ___ _ ___
 72
    65
 73
     4
 40
1.125
 49
0.75
 74
     0
 49
-0.125
 74
     0
 49
0.125
 74
     0
 49
-0.125
 74
     0
  0
LTYPE
  5
91
330
5
100
AcDbSymbolTableRecord
100
AcDbLinetypeTableRecord
  2
CENTERX2
 70
     0
  3
Center (2x) ________  __  ________  __  _____
 72
    65
 73
     4
 40
4.0
 49
2.5
 74
     0
 49
-0.5
 74
     0
 49
0.5
 74
     0
 49
-0.5
 74
     0
  0
LTYPE
  5
92
330
5
100
AcDbSymbolTableRecord
100
AcDbLinetypeTableRecord
  2
DASHDOT2
 70
     0
  3
Dash dot (.5x) _._._._._._._._._._._._._._._.
 72
    65
 73
     4
 40
0.5
 49
0.25
 74
     0
 49
-0.125
 74
     0
 49
0.0
 74
     0
 49
-0.125
 74
     0
  0
LTYPE
  5
93
330
5
100
AcDbSymbolTableRecord
100
AcDbLinetypeTableRecord
  2
DASHDOTX2
 70
     0
  3
Dash dot (2x) ____  .  ____  .  ____  .  ___
 72
    65
 73
     4
 40
2.0
 49
1.0
 74
     0
 49
-0.5
 74
     0
 49
0.0
 74
     0
 49
-0.5
 74
     0
  0
LTYPE
  5
95
330
5
100
AcDbSymbolTableRecord
100
AcDbLinetypeTableRecord
  2
DASHED2
 70
     0
  3
Dashed (.5x) _ _ _ _ _ _ _ _ _ _ _ _ _ _ _ _ _
 72
    65
 73
     2
 40
0.375
 49
0.25
 74
     0
 49
-0.125
 74
     0
  0
LTYPE
  5
96
330
5
100
AcDbSymbolTableRecord
100
AcDbLinetypeTableRecord
  2
DASHEDX2
 70
     0
  3
Dashed (2x) ____  ____  ____  ____  ____  ___
 72
    65
 73
     2
 40
1.5
 49
1.0
 74
     0
 49
-0.5
 74
     0
  0
LTYPE
  5
97
330
5
100
AcDbSymbolTableRecord
100
AcDbLinetypeTableRecord
  2
DIVIDE
 70
     0
  3
Divide ____ . . ____ . . ____ . . ____ . . ____
 72
    65
 73
     6
 40
1.25
 49
0.5
 74
     0
 49
-0.25
 74
     0
 49
0.0
 74
     0
 49
-0.25
 74
     0
 49
0.0
 74
     0
 49
-0.25
 74
     0
  0
LTYPE
  5
98
330
5
100
AcDbSymbolTableRecord
100
AcDbLinetypeTableRecord
  2
DIVIDE2
 70
     0
  3
Divide (.5x) __..__..__..__..__..__..__..__.._
 72
    65
 73
     6
 40
0.625
 49
0.25
 74
     0
 49
-0.125
 74
     0
 49
0.0
 74
     0
 49
-0.125
 74
     0
 49
0.0
 74
     0
 49
-0.125
 74
     0
  0
LTYPE
  5
99
330
5
100
AcDbSymbolTableRecord
100
AcDbLinetypeTableRecord
  2
DIVIDEX2
 70
     0
  3
Divide (2x) ________  .  .  ________  .  .  _
 72
    65
 73
     6
 40
2.5
 49
1.0
 74
     0
 49
-0.5
 74
     0
 49
0.0
 74
     0
 49
-0.5
 74
     0
 49
0.0
 74
     0
 49
-0.5
 74
     0
  0
LTYPE
  5
9A
330
5
100
AcDbSymbolTableRecord
100
AcDbLinetypeTableRecord
  2
DOT
 70
     0
  3
Dot . . . . . . . . . . . . . . . . . . . . . .
 72
    65
 73
     2
 40
0.25
 49
0.0
 74
     0
 49
-0.25
 74
     0
  0
LTYPE
  5
9B
330
5
100
AcDbSymbolTableRecord
100
AcDbLinetypeTableRecord
  2
DOT2
 70
     0
  3
Dot (.5x) .....................................
 72
    65
 73
     2
 40
0.125
 49
0.0
 74
     0
 49
-0.125
 74
     0
  0
LTYPE
  5
9C
330
5
100
AcDbSymbolTableRecord
100
AcDbLinetypeTableRecord
  2
DOTX2
 70
     0
  3
Dot (2x) .  .  .  .  .  .  .  .  .  .  .  .  . 
 72
    65
 73
     2
 40
0.5
 49
0.0
 74
     0
 49
-0.5
 74
     0
  0
LTYPE
  5
9D
330
5
100
AcDbSymbolTableRecord
100
AcDbLinetypeTableRecord
  2
HIDDEN
 70
     0
  3
Hidden __ __ __ __ __ __ __ __ __ __ __ __ __ _
 72
    65
 73
     2
 40
0.375
 49
0.25
 74
     0
 49
-0.125
 74
     0
  0
LTYPE
  5
9E
330
5
100
AcDbSymbolTableRecord
100
AcDbLinetypeTableRecord
  2
HIDDEN2
 70
     0
  3
Hidden (.5x) _ _ _ _ _ _ _ _ _ _ _ _ _ _ _ _ _
 72
    65
 73
     2
 40
0.1875
 49
0.125
 74
     0
 49
-0.0625
 74
     0
  0
LTYPE
  5
9F
330
5
100
AcDbSymbolTableRecord
100
AcDbLinetypeTableRecord
  2
HIDDENX2
 70
     0
  3
Hidden (2x) ____ ____ ____ ____ ____ ____ ____
 72
    65
 73
     2
 40
0.75
 49
0.5
 74
     0
 49
-0.25
 74
     0
  0
LTYPE
  5
A0
330
5
100
AcDbSymbolTableRecord
100
AcDbLinetypeTableRecord
  2
PHANTOM
 70
     0
  3
Phantom ______  __  __  ______  __  __  ______
 72
    65
 73
     6
 40
2.5
 49
1.25
 74
     0
 49
-0.25
 74
     0
 49
0.25
 74
     0
 49
-0.25
 74
     0
 49
0.25
 74
     0
 49
-0.25
 74
     0
  0
LTYPE
  5
A1
330
5
100
AcDbSymbolTableRecord
100
AcDbLinetypeTableRecord
  2
PHANTOM2
 70
     0
  3
Phantom (.5x) ___ _ _ ___ _ _ ___ _ _ ___ _ _
 72
    65
 73
     6
 40
1.25
 49
0.625
 74
     0
 49
-0.125
 74
     0
 49
0.125
 74
     0
 49
-0.125
 74
     0
 49
0.125
 74
     0
 49
-0.125
 74
     0
  0
LTYPE
  5
A2
330
5
100
AcDbSymbolTableRecord
100
AcDbLinetypeTableRecord
  2
PHANTOMX2
 70
     0
  3
Phantom (2x) ____________    ____    ____   _
 72
    65
 73
     6
 40
5.0
 49
2.5
 74
     0
 49
-0.5
 74
     0
 49
0.5
 74
     0
 49
-0.5
 74
     0
 49
0.5
 74
     0
 49
-0.5
 74
     0
  0
LTYPE
  5
A3
330
5
100
AcDbSymbolTableRecord
100
AcDbLinetypeTableRecord
  2
ACAD_ISO02W100
 70
     0
  3
ISO dash __ __ __ __ __ __ __ __ __ __ __ __ __
 72
    65
 73
     2
 40
0.59
 49
0.47
 74
     0
 49
-0.12
 74
     0
  0
LTYPE
  5
A4
330
5
100
AcDbSymbolTableRecord
100
AcDbLinetypeTableRecord
  2
ACAD_ISO03W100
 70
     0
  3
ISO dash space __    __    __    __    __    __
 72
    65
 73
     2
 40
1.179999999999999
 49
0.47
 74
     0
 49
-0.71
 74
     0
  0
LTYPE
  5
A5
330
5
100
AcDbSymbolTableRecord
100
AcDbLinetypeTableRecord
  2
ACAD_ISO04W100
 70
     0
  3
ISO long-dash dot ____ . ____ . ____ . ____ . _
 72
    65
 73
     4
 40
1.179999999999999
 49
0.9399999999999998
 74
     0
 49
-0.12
 74
     0
 49
0.0
 74
     0
 49
-0.12
 74
     0
  0
LTYPE
  5
A6
330
5
100
AcDbSymbolTableRecord
100
AcDbLinetypeTableRecord
  2
ACAD_ISO05W100
 70
     0
  3
ISO long-dash double-dot ____ .. ____ .. ____ .
 72
    65
 73
     6
 40
1.299999999999999
 49
0.9399999999999998
 74
     0
 49
-0.12
 74
     0
 49
0.0
 74
     0
 49
-0.12
 74
     0
 49
0.0
 74
     0
 49
-0.12
 74
     0
  0
LTYPE
  5
A7
330
5
100
AcDbSymbolTableRecord
100
AcDbLinetypeTableRecord
  2
ACAD_ISO06W100
 70
     0
  3
ISO long-dash triple-dot ____ ... ____ ... ____
 72
    65
 73
     8
 40
1.419999999999999
 49
0.9399999999999998
 74
     0
 49
-0.12
 74
     0
 49
0.0
 74
     0
 49
-0.12
 74
     0
 49
0.0
 74
     0
 49
-0.12
 74
     0
 49
0.0
 74
     0
 49
-0.12
 74
     0
  0
LTYPE
  5
A8
330
5
100
AcDbSymbolTableRecord
100
AcDbLinetypeTableRecord
  2
ACAD_ISO07W100
 70
     0
  3
ISO dot . . . . . . . . . . . . . . . . . . . .
 72
    65
 73
     2
 40
0.12
 49
0.0
 74
     0
 49
-0.12
 74
     0
  0
LTYPE
  5
A9
330
5
100
AcDbSymbolTableRecord
100
AcDbLinetypeTableRecord
  2
ACAD_ISO08W100
 70
     0
  3
ISO long-dash short-dash ____ __ ____ __ ____ _
 72
    65
 73
     4
 40
0.95
 49
0.47
 74
     0
 49
-0.12
 74
     0
 49
0.24
 74
     0
 49
-0.12
 74
     0
  0
LTYPE
  5
AA
330
5
100
AcDbSymbolTableRecord
100
AcDbLinetypeTableRecord
  2
ACAD_ISO09W100
 70
     0
  3
ISO long-dash double-short-dash ____ __ __ ____
 72
    65
 73
     6
 40
1.31
 49
0.47
 74
     0
 49
-0.12
 74
     0
 49
0.24
 74
     0
 49
-0.12
 74
     0
 49
0.24
 74
     0
 49
-0.12
 74
     0
  0
LTYPE
  5
AB
330
5
100
AcDbSymbolTableRecord
100
AcDbLinetypeTableRecord
  2
ACAD_ISO10W100
 70
     0
  3
ISO dash dot __ . __ . __ . __ . __ . __ . __ .
 72
    65
 73
     4
 40
0.71
 49
0.47
 74
     0
 49
-0.12
 74
     0
 49
0.0
 74
     0
 49
-0.12
 74
     0
  0
LTYPE
  5
AC
330
5
100
AcDbSymbolTableRecord
100
AcDbLinetypeTableRecord
  2
ACAD_ISO11W100
 70
     0
  3
ISO double-dash dot __ __ . __ __ . __ __ . __ 
 72
    65
 73
     6
 40
1.299999999999999
 49
0.47
 74
     0
 49
-0.12
 74
     0
 49
0.47
 74
     0
 49
-0.12
 74
     0
 49
0.0
 74
     0
 49
-0.12
 74
     0
  0
LTYPE
  5
AD
330
5
100
AcDbSymbolTableRecord
100
AcDbLinetypeTableRecord
  2
ACAD_ISO12W100
 70
     0
  3
ISO dash double-dot __ . . __ . . __ . . __ . .
 72
    65
 73
     6
 40
0.8299999999999998
 49
0.47
 74
     0
 49
-0.12
 74
     0
 49
0.0
 74
     0
 49
-0.12
 74
     0
 49
0.0
 74
     0
 49
-0.12
 74
     0
  0
LTYPE
  5
AE
330
5
100
AcDbSymbolTableRecord
100
AcDbLinetypeTableRecord
  2
ACAD_ISO13W100
 70
     0
  3
ISO double-dash double-dot __ __ . . __ __ . . 
 72
    65
 73
     8
 40
1.419999999999999
 49
0.47
 74
     0
 49
-0.12
 74
     0
 49
0.47
 74
     0
 49
-0.12
 74
     0
 49
0.0
 74
     0
 49
-0.12
 74
     0
 49
0.0
 74
     0
 49
-0.12
 74
     0
  0
LTYPE
  5
AF
330
5
100
AcDbSymbolTableRecord
100
AcDbLinetypeTableRecord
  2
ACAD_ISO14W100
 70
     0
  3
ISO dash triple-dot __ . . . __ . . . __ . . . 
 72
    65
 73
     8
 40
0.95
 49
0.47
 74
     0
 49
-0.12
 74
     0
 49
0.0
 74
     0
 49
-0.12
 74
     0
 49
0.0
 74
     0
 49
-0.12
 74
     0
 49
0.0
 74
     0
 49
-0.12
 74
     0
  0
LTYPE
  5
B0
330
5
100
AcDbSymbolTableRecord
100
AcDbLinetypeTableRecord
  2
ACAD_ISO15W100
 70
     0
  3
ISO double-dash triple-dot __ __ . . . __ __ . 
 72
    65
 73
    10
 40
1.539999999999999
 49
0.47
 74
     0
 49
-0.12
 74
     0
 49
0.47
 74
     0
 49
-0.12
 74
     0
 49
0.0
 74
     0
 49
-0.12
 74
     0
 49
0.0
 74
     0
 49
-0.12
 74
     0
 49
0.0
 74
     0
 49
-0.12
 74
     0
  0
LTYPE
  5
B3
330
5
100
AcDbSymbolTableRecord
100
AcDbLinetypeTableRecord
  2
FENCELINE1
 70
     0
  3
Fenceline circle ----0-----0----0-----0----0---
 72
    65
 73
     4
 40
1.45
 49
0.25
 74
     0
 49
-0.1
 74
     4
 75
   133
340
B2
 46
0.1
 50
0.0
 44
-0.1
 45
0.0
 49
-0.1
 74
     0
 49
1.0
 74
     0
  0
LTYPE
  5
B4
330
5
100
AcDbSymbolTableRecord
100
AcDbLinetypeTableRecord
  2
FENCELINE2
 70
     0
  3
Fenceline square ----[]-----[]----[]-----[]----
 72
    65
 73
     4
 40
1.45
 49
0.25
 74
     0
 49
-0.1
 74
     4
 75
   132
340
B2
 46
0.1
 50
0.0
 44
-0.1
 45
0.0
 49
-0.1
 74
     0
 49
1.0
 74
     0
  0
LTYPE
  5
B5
330
5
100
AcDbSymbolTableRecord
100
AcDbLinetypeTableRecord
  2
TRACKS
 70
     0
  3
Tracks -|-|-|-|-|-|-|-|-|-|-|-|-|-|-|-|-|-|-|-|
 72
    65
 73
     2
 40
0.3
 49
0.15
 74
     4
 75
   130
340
B2
 46
0.25
 50
0.0
 44
0.0
 45
0.0
 49
0.15
 74
     0
  0
LTYPE
  5
B6
330
5
100
AcDbSymbolTableRecord
100
AcDbLinetypeTableRecord
  2
BATTING
 70
     0
  3
Batting SSSSSSSSSSSSSSSSSSSSSSSSSSSSSSSSSSSSSSS
 72
    65
 73
     4
 40
0.4001000000000001
 49
0.0001
 74
     0
 49
-0.1
 74
     4
 75
   134
340
B2
 46
0.1
 50
0.0
 44
-0.1
 45
0.0
 49
-0.2
 74
     4
 75
   134
340
B2
 46
0.1
 50
180.0
 44
0.1
 45
0.0
 49
-0.1
 74
     0
  0
LTYPE
  5
B7
330
5
100
AcDbSymbolTableRecord
100
AcDbLinetypeTableRecord
  2
HOT_WATER_SUPPLY
 70
     0
  3
Hot water supply ---- HW ---- HW ---- HW ----
 72
    65
 73
     3
 40
0.9
 49
0.5
 74
     0
 49
-0.2
 74
     2
 75
     0
340
55
 46
0.1
 50
0.0
 44
-0.1
 45
-0.05
  9
HW
 49
-0.2
 74
     0
  0
LTYPE
  5
B8
330
5
100
AcDbSymbolTableRecord
100
AcDbLinetypeTableRecord
  2
GAS_LINE
 70
     0
  3
Gas line ----GAS----GAS----GAS----GAS----GAS---
 72
    65
 73
     3
 40
0.95
 49
0.5
 74
     0
 49
-0.2
 74
     2
 75
     0
340
55
 46
0.1
 50
0.0
 44
-0.1
 45
-0.05
  9
GAS
 49
-0.25
 74
     0
  0
LTYPE
  5
B9
330
5
100
AcDbSymbolTableRecord
100
AcDbLinetypeTableRecord
  2
ZIGZAG
 70
     0
  3
Zig zag /\/\/\/\/\/\/\/\/\/\/\/\/\/\/\/\/\/\/\/
 72
    65
 73
     4
 40
0.8001000000000001
 49
0.0001
 74
     0
 49
-0.2
 74
     4
 75
   131
340
B2
 46
0.2
 50
0.0
 44
-0.2
 45
0.0
 49
-0.4
 74
     4
 75
   131
340
B2
 46
0.2
 50
180.0
 44
0.2
 45
0.0
 49
-0.2
 74
     0
  0
ENDTAB
  0
TABLE
  2
LAYER
  5
2
330
0
100
AcDbSymbolTable
 70
    27
  0
LAYER
  5
54
330
2
100
AcDbSymbolTableRecord
100
AcDbLayerTableRecord
  2
0
 70
     0
 62
     7
  6
Continuous
370
    18
390
F
347
21
  0
LAYER
  5
C0
330
2
100
AcDbSymbolTableRecord
100
AcDbLayerTableRecord
  2
Center Mark (ANSI)
 70
     0
 62
     7
  6
Continuous
370
    15
390
F
347
21
  0
LAYER
  5
C1
330
2
100
AcDbSymbolTableRecord
100
AcDbLayerTableRecord
  2
Centerline (ANSI)
 70
     0
 62
     7
  6
Continuous
370
    15
390
F
347
21
  0
LAYER
  5
C3
330
2
100
AcDbSymbolTableRecord
100
AcDbLayerTableRecord
  2
Dimension (ANSI)
 70
     0
 62
     7
  6
Continuous
370
    13
390
F
347
21
  0
LAYER
  5
C5
330
2
100
AcDbSymbolTableRecord
100
AcDbLayerTableRecord
  2
Hidden (ANSI)
 70
     0
 62
     7
  6
DASHED
370
    15
390
F
347
21
  0
LAYER
  5
CC
330
2
100
AcDbSymbolTableRecord
100
AcDbLayerTableRecord
  2
Symbol (ANSI)
 70
     0
 62
     7
  6
Continuous
370
    18
390
F
347
21
  0
LAYER
  5
CF
330
2
100
AcDbSymbolTableRecord
100
AcDbLayerTableRecord
  2
Visible (ANSI)
 70
     0
 62
     7
  6
Continuous
370
    13
390
F
347
21
  0
LAYER
  5
D0
330
2
100
AcDbSymbolTableRecord
100
AcDbLayerTableRecord
  2
Visible Narrow (ANSI)
 70
     0
 62
     7
  6
Continuous
370
    18
390
F
347
21
  0
LAYER
  5
545
330
2
100
AcDbSymbolTableRecord
100
AcDbLayerTableRecord
  2
Defpoints
 70
     0
 62
     7
  6
Continuous
290
     0
370
    -3
390
F
347
21
  0
ENDTAB
  0
TABLE
  2
STYLE
  5
3
330
0
100
AcDbSymbolTable
 70
    18
  0
STYLE
  5
55
330
3
100
AcDbSymbolTableRecord
100
AcDbTextStyleTableRecord
  2
Standard
 70
     0
 40
0.0
 41
1.0
 50
0.0
 71
     0
 42
0.2
  3
txt
  4

  0
STYLE
  5
5A
330
3
100
AcDbSymbolTableRecord
100
AcDbTextStyleTableRecord
  2
Annotative
 70
     0
 40
0.0
 41
1.0
 50
0.0
 71
     0
 42
0.2
  3
txt
  4

1001
AcadAnnotative
1000
AnnotativeData
1002
{
1070
     1
1070
     1
1002
}
  0
STYLE
  5
B2
330
3
100
AcDbSymbolTableRecord
100
AcDbTextStyleTableRecord
  2

 70
     1
 40
0.0
 41
1.0
 50
0.0
 71
     0
 42
0.2
  3
ltypeshp.shx
  4

  0
STYLE
  5
D4
330
3
100
AcDbSymbolTableRecord
100
AcDbTextStyleTableRecord
  2
ITALICC_120
 70
     0
 40
0.0
 41
1.0
 50
0.0
 71
     0
 42
0.2
  3
italicc.shx
  4

  0
STYLE
  5
D5
330
3
100
AcDbSymbolTableRecord
100
AcDbTextStyleTableRecord
  2
Label Text (ANSI)
 70
     0
 40
0.0
 41
1.0
 50
0.0
 71
     0
 42
0.2
  3
tahoma.ttf
  4

1001
ACAD
1000
Tahoma
1071
      256
  0
STYLE
  5
D6
330
3
100
AcDbSymbolTableRecord
100
AcDbTextStyleTableRecord
  2
Note Text (ANSI)
 70
     0
 40
0.0
 41
1.0
 50
0.0
 71
     0
 42
0.2
  3
tahoma.ttf
  4

1001
ACAD
1000
Tahoma
1071
      256
  0
STYLE
  5
D7
330
3
100
AcDbSymbolTableRecord
100
AcDbTextStyleTableRecord
  2
ROMANS
 70
     0
 40
0.0
 41
1.0
 50
0.0
 71
     0
 42
0.2
  3
romans.shx
  4

  0
STYLE
  5
D8
330
3
100
AcDbSymbolTableRecord
100
AcDbTextStyleTableRecord
  2
SANSSERIF_114
 70
     0
 40
0.0
 41
1.0
 50
0.0
 71
     0
 42
0.2
  3
tahoma.ttf
  4

1001
ACAD
1000
Tahoma
1071
      256
  0
STYLE
  5
D9
330
3
100
AcDbSymbolTableRecord
100
AcDbTextStyleTableRecord
  2
SANSSERIF_117
 70
     0
 40
0.0
 41
1.0
 50
0.0
 71
     0
 42
0.2
  3
tahoma.ttf
  4

1001
ACAD
1000
Tahoma
1071
      256
  0
STYLE
  5
DA
330
3
100
AcDbSymbolTableRecord
100
AcDbTextStyleTableRecord
  2
STANDARDAM_ANSI
 70
     0
 40
0.0
 41
1.0
 50
0.0
 71
     0
 42
0.2
  3
txt.shx
  4

  0
STYLE
  5
DB
330
3
100
AcDbSymbolTableRecord
100
AcDbTextStyleTableRecord
  2
StandardAM_ANSI$0
 70
     0
 40
0.0
 41
1.0
 50
0.0
 71
     0
 42
0.2
  3
txt.shx
  4

  0
STYLE
  5
DC
330
3
100
AcDbSymbolTableRecord
100
AcDbTextStyleTableRecord
  2
STANDARDAM_ANSI$3
 70
     0
 40
0.0
 41
1.0
 50
0.0
 71
     0
 42
0.2
  3
txt.shx
  4

  0
STYLE
  5
DD
330
3
100
AcDbSymbolTableRecord
100
AcDbTextStyleTableRecord
  2
STANDARDAM_ANSI$4
 70
     0
 40
0.0
 41
1.0
 50
0.0
 71
     0
 42
0.2
  3
txt.shx
  4

  0
STYLE
  5
DE
330
3
100
AcDbSymbolTableRecord
100
AcDbTextStyleTableRecord
  2
STANDARDAM_ANSI$7
 70
     0
 40
0.0
 41
1.0
 50
0.0
 71
     0
 42
0.2
  3
txt.shx
  4

  0
STYLE
  5
DF
330
3
100
AcDbSymbolTableRecord
100
AcDbTextStyleTableRecord
  2
STANDARDAM_ANSI$SF
 70
     0
 40
0.0
 41
1.0
 50
0.0
 71
     0
 42
0.2
  3
txt.shx
  4

  0
STYLE
  5
E0
330
3
100
AcDbSymbolTableRecord
100
AcDbTextStyleTableRecord
  2
STANDARDAM_ANSI$SH
 70
     0
 40
0.0
 41
1.0
 50
0.0
 71
     0
 42
0.2
  3
txt.shx
  4

  0
STYLE
  5
E1
330
3
100
AcDbSymbolTableRecord
100
AcDbTextStyleTableRecord
  2
STANDARDSTANDARD
 70
     0
 40
0.0
 41
1.0
 50
0.0
 71
     0
 42
0.2
  3
txt.shx
  4

  0
STYLE
  5
2DF
330
3
100
AcDbSymbolTableRecord
100
AcDbTextStyleTableRecord
  2
Text Style153
 70
     0
 40
0.0
 41
1.0
 50
0.0
 71
     0
 42
0.2
  3
tahoma.ttf
  4

1001
ACAD
1000
Tahoma
1071
      256
  0
ENDTAB
  0
TABLE
  2
VIEW
  5
6
330
0
100
AcDbSymbolTable
 70
     0
  0
ENDTAB
  0
TABLE
  2
UCS
  5
7
330
0
100
AcDbSymbolTable
 70
     0
  0
ENDTAB
  0
TABLE
  2
APPID
  5
9
330
0
100
AcDbSymbolTable
 70
     3
  0
APPID
  5
56
330
9
100
AcDbSymbolTableRecord
100
AcDbRegAppTableRecord
  2
ACAD
 70
     0
  0
APPID
  5
5E
330
9
100
AcDbSymbolTableRecord
100
AcDbRegAppTableRecord
  2
AcadAnnotative
 70
     0
  0
APPID
  5
B7A
330
9
100
AcDbSymbolTableRecord
100
AcDbRegAppTableRecord
  2
ACAD_DSTYLE_DIMRADIAL_EXTENSION
 70
     0
  0
ENDTAB
  0
TABLE
  2
DIMSTYLE
  5
A
330
0
100
AcDbSymbolTable
 70
    27
100
AcDbDimStyleTable
 71
     2
340
F6
340
58
  0
DIMSTYLE
105
58
330
A
100
AcDbSymbolTableRecord
100
AcDbDimStyleTableRecord
  2
STANDARD
 70
     0
 41
0.1800000071525573
 42
0.0625
140
0.1800000071525574
144
1.0
147
0.0900000035762787
176
   256
177
   256
178
   256
274
     3
340
55
371
    -1
372
    -1
  0
DIMSTYLE
105
59
330
A
100
AcDbSymbolTableRecord
100
AcDbDimStyleTableRecord
  2
Annotative
 70
     0
340
55
1001
AcadAnnotative
1000
AnnotativeData
1002
{
1070
     1
1070
     1
1002
}
  0
DIMSTYLE
105
E2
330
A
100
AcDbSymbolTableRecord
100
AcDbDimStyleTableRecord
  2
AM_ANSI
 70
     0
  4
 mm
 40
10.0
 41
0.119999997317791
 42
0.05
 43
0.5
 44
0.1
 45
0.00000001
 78
     4
 79
     2
140
0.1200000047683716
146
0.7099999189376831
147
0.0599999986588955
176
   256
177
   256
178
     2
284
     4
340
DA
371
    -1
372
    -1
  0
DIMSTYLE
105
E3
330
A
100
AcDbSymbolTableRecord
100
AcDbDimStyleTableRecord
  2
AM_ANSI$7
 70
     0
  4
 mm
 40
10.0
 41
0.119999997317791
 42
0.05
 43
0.5
 44
0.1
 45
0.00000001
 78
     4
 79
     2
140
0.1200000047683716
146
0.7099999189376831
147
0.0599999986588955
176
   256
177
   256
178
     2
284
     4
340
DA
371
    -1
372
    -1
  0
DIMSTYLE
105
E4
330
A
100
AcDbSymbolTableRecord
100
AcDbDimStyleTableRecord
  2
AM_ANSI$0
 70
     0
  4
 mm
 40
10.0
 41
0.119999997317791
 42
0.05
 43
0.5
 44
0.1
 45
0.00000001
 78
     4
 79
     2
140
0.1200000047683716
146
0.7099999189376831
147
0.0599999986588955
176
   256
177
   256
178
     2
284
     4
340
DB
371
    -1
372
    -1
  0
DIMSTYLE
105
E5
330
A
100
AcDbSymbolTableRecord
100
AcDbDimStyleTableRecord
  2
AM_ANSI$0$7
 70
     0
  4
 mm
 40
10.0
 41
0.119999997317791
 42
0.05
 43
0.5
 44
0.1
 45
0.00000001
 78
     4
 79
     2
140
0.1200000047683716
146
0.7099999189376831
147
0.0599999986588955
176
   256
177
   256
178
     2
284
     4
340
DB
371
    -1
372
    -1
  0
DIMSTYLE
105
E6
330
A
100
AcDbSymbolTableRecord
100
AcDbDimStyleTableRecord
  2
AM_ANSI$3
 70
     0
  4
 mm
 40
10.0
 41
0.119999997317791
 42
0.05
 43
0.5
 44
0.1
 45
0.00000001
 78
     4
 79
     2
140
0.1200000047683716
146
0.7099999189376831
147
0.0599999986588955
176
   256
177
   256
178
     2
284
     4
340
DC
371
    -1
372
    -1
  0
DIMSTYLE
105
E7
330
A
100
AcDbSymbolTableRecord
100
AcDbDimStyleTableRecord
  2
AM_ANSI$3$7
 70
     0
  4
 mm
 40
10.0
 41
0.119999997317791
 42
0.05
 43
0.5
 44
0.1
 45
0.00000001
 78
     4
 79
     2
140
0.1200000047683716
146
0.7099999189376831
147
0.0599999986588955
176
   256
177
   256
178
     2
284
     4
340
DC
371
    -1
372
    -1
  0
DIMSTYLE
105
E8
330
A
100
AcDbSymbolTableRecord
100
AcDbDimStyleTableRecord
  2
AM_ANSI$4
 70
     0
  4
 mm
 40
10.0
 41
0.119999997317791
 42
0.05
 43
0.5
 44
0.1
 45
0.00000001
 78
     4
 79
     2
140
0.1200000047683716
146
0.7099999189376831
147
0.0599999986588955
176
   256
177
   256
178
     2
284
     4
340
DD
371
    -1
372
    -1
  0
DIMSTYLE
105
E9
330
A
100
AcDbSymbolTableRecord
100
AcDbDimStyleTableRecord
  2
AM_ANSI$4$7
 70
     0
  4
 mm
 40
10.0
 41
0.119999997317791
 42
0.05
 43
0.5
 44
0.1
 45
0.00000001
 78
     4
 79
     2
140
0.1200000047683716
146
0.7099999189376831
147
0.0599999986588955
176
   256
177
   256
178
     2
284
     4
340
DD
371
    -1
372
    -1
  0
DIMSTYLE
105
EA
330
A
100
AcDbSymbolTableRecord
100
AcDbDimStyleTableRecord
  2
AM_ANSI$SF
 70
     0
  4
 mm
 40
10.0
 41
0.119999997317791
 42
0.05
 43
0.5
 44
0.1
 45
0.00000001
 75
     1
 76
     1
 78
     4
 79
     2
140
0.1200000047683716
146
0.7099999189376831
147
0.0599999986588955
176
   256
177
   256
178
     2
284
     4
340
DF
371
    -1
372
    -1
  0
DIMSTYLE
105
EB
330
A
100
AcDbSymbolTableRecord
100
AcDbDimStyleTableRecord
  2
AM_ANSI$SF$7
 70
     0
  4
 mm
 40
10.0
 41
0.119999997317791
 42
0.05
 43
0.5
 44
0.1
 45
0.00000001
 75
     1
 76
     1
 78
     4
 79
     2
140
0.1200000047683716
146
0.7099999189376831
147
0.0599999986588955
176
   256
177
   256
178
     2
284
     4
340
DF
371
    -1
372
    -1
  0
DIMSTYLE
105
EC
330
A
100
AcDbSymbolTableRecord
100
AcDbDimStyleTableRecord
  2
AM_ANSI$SH
 70
     0
  4
 mm
 40
10.0
 41
0.119999997317791
 42
0.05
 43
0.5
 44
0.1
 45
0.00000001
 75
     1
 76
     1
 78
     4
 79
     2
140
0.1200000047683716
146
0.7099999189376831
147
0.0599999986588955
176
   256
177
   256
178
     2
284
     4
340
E0
371
    -1
372
    -1
  0
DIMSTYLE
105
ED
330
A
100
AcDbSymbolTableRecord
100
AcDbDimStyleTableRecord
  2
AM_ANSI$SH$7
 70
     0
  4
 mm
 40
10.0
 41
0.119999997317791
 42
0.05
 43
0.5
 44
0.1
 45
0.00000001
 75
     1
 76
     1
 78
     4
 79
     2
140
0.1200000047683716
146
0.7099999189376831
147
0.0599999986588955
176
   256
177
   256
178
     2
284
     4
340
E0
371
    -1
372
    -1
  0
DIMSTYLE
105
EE
330
A
100
AcDbSymbolTableRecord
100
AcDbDimStyleTableRecord
  2
Architectural (ANSI)
 70
     0
 40
10.0
 41
0.0984251946210861
 43
0.2362204724409449
 44
0.125
 45
0.00000001
 46
0.3937007874015748
 78
     3
 79
     3
140
0.1200000047683716
147
0.031496062992126
171
     1
176
   256
177
   256
178
   256
272
     2
274
     1
276
     2
277
     4
284
    12
285
     4
286
    12
340
D6
371
    -1
372
    -1
  0
DIMSTYLE
105
EF
330
A
100
AcDbSymbolTableRecord
100
AcDbDimStyleTableRecord
  2
Architectural (ANSI)$7
 70
     0
 40
10.0
 41
0.0984251946210861
 43
0.2362204724409449
 44
0.125
 45
0.00000001
 46
0.3937007874015748
 78
     3
 79
     3
140
0.1200000047683716
147
0.031496062992126
171
     1
176
   256
177
   256
178
   256
272
     2
274
     1
276
     2
277
     4
284
    12
285
     4
286
    12
340
D6
371
    -1
372
    -1
  0
DIMSTYLE
105
F0
330
A
100
AcDbSymbolTableRecord
100
AcDbDimStyleTableRecord
  2
Default - Fraction (ANSI)
 70
     0
 40
10.0
 41
0.0984251946210861
 43
0.2362204724409449
 44
0.125
 45
0.00000001
 46
0.3937007874015748
 79
     3
140
0.1200000047683716
147
0.031496062992126
171
     1
176
   256
177
   256
178
   256
272
     2
274
     1
276
     2
277
     5
284
    12
285
     4
286
    12
340
D6
371
    -1
372
    -1
  0
DIMSTYLE
105
F1
330
A
100
AcDbSymbolTableRecord
100
AcDbDimStyleTableRecord
  2
Default - Fraction (ANSI)$7
 70
     0
 40
10.0
 41
0.0984251946210861
 43
0.2362204724409449
 44
0.125
 45
0.00000001
 46
0.3937007874015748
 79
     3
140
0.1200000047683716
147
0.031496062992126
171
     1
176
   256
177
   256
178
   256
272
     2
274
     1
276
     2
277
     5
284
    12
285
     4
286
    12
340
D6
371
    -1
372
    -1
  0
DIMSTYLE
105
F2
330
A
100
AcDbSymbolTableRecord
100
AcDbDimStyleTableRecord
  2
Default - mm (ANSI)
 70
     0
 40
10.0
 41
0.0984251946210861
 42
0.063
 43
0.2362204724409449
 44
0.125
 45
0.00000001
 46
0.3937007874015748
 73
     0
 78
     4
 79
     1
140
0.1200000047683716
143
1.0
144
25.4
147
0.031496062992126
171
     1
176
   256
177
   256
178
   256
179
     1
271
     2
272
     2
274
     1
284
     4
285
     4
340
D6
371
    -1
372
    -1
  0
DIMSTYLE
105
F3
330
A
100
AcDbSymbolTableRecord
100
AcDbDimStyleTableRecord
  2
Default - mm (ANSI)$7
 70
     0
 40
10.0
 41
0.0984251946210861
 42
0.063
 43
0.2362204724409449
 44
0.125
 45
0.00000001
 46
0.3937007874015748
 73
     0
 78
     4
 79
     1
140
0.1200000047683716
143
1.0
144
25.4
147
0.031496062992126
171
     1
176
   256
177
   256
178
   256
179
     1
271
     2
272
     2
274
     1
284
     4
285
     4
340
D6
371
    -1
372
    -1
  0
DIMSTYLE
105
F4
330
A
100
AcDbSymbolTableRecord
100
AcDbDimStyleTableRecord
  2
Default - mm [in] (ANSI)
 70
     0
  4
 in
 40
10.0
 41
0.0984251946210861
 42
0.063
 43
0.25
 44
0.125
 45
0.00000001
 46
0.3937007874015748
 73
     0
 78
     4
 79
     1
140
0.1200000047683716
143
0.03937
144
25.4
147
0.031496062992126
170
     1
171
     3
176
   256
177
   256
178
   256
179
     1
271
     2
272
     2
274
     3
284
     4
285
     4
286
     4
340
D6
371
    -1
372
    -1
  0
DIMSTYLE
105
F5
330
A
100
AcDbSymbolTableRecord
100
AcDbDimStyleTableRecord
  2
Default - mm [in] (ANSI)$7
 70
     0
  4
 in
 40
10.0
 41
0.0984251946210861
 42
0.063
 43
0.25
 44
0.125
 45
0.00000001
 46
0.3937007874015748
 73
     0
 78
     4
 79
     1
140
0.1200000047683716
143
0.03937
144
25.4
147
0.031496062992126
170
     1
171
     3
176
   256
177
   256
178
   256
179
     1
271
     2
272
     2
274
     3
284
     4
285
     4
286
     4
340
D6
371
    -1
372
    -1
  0
DIMSTYLE
105
F6
102
{ACAD_REACTORS
330
543
330
62F
330
719
330
803
330
903
330
9ED
330
AE1
330
B9B
330
CA4
102
}
330
A
100
AcDbSymbolTableRecord
100
AcDbDimStyleTableRecord
  2
Default (ANSI)
 70
     0
 40
10.0
 41
0.0984251946210861
 43
0.2362204724409449
 44
0.125
 45
0.00000001
 46
0.3937007874015748
 79
     1
140
0.1200000047683716
147
0.031496062992126
171
     1
176
   256
177
   256
178
   256
271
     2
272
     2
274
     1
284
     4
285
     4
340
D6
371
    -1
372
    -1
  0
DIMSTYLE
105
F7
330
A
100
AcDbSymbolTableRecord
100
AcDbDimStyleTableRecord
  2
Default (ANSI)$7
 70
     0
 40
10.0
 41
0.0984251946210861
 43
0.2362204724409449
 44
0.125
 45
0.00000001
 46
0.3937007874015748
 79
     1
140
0.1200000047683716
147
0.031496062992126
171
     1
176
   256
177
   256
178
   256
271
     2
272
     2
274
     1
284
     4
285
     4
340
D6
371
    -1
372
    -1
  0
DIMSTYLE
105
F8
330
A
100
AcDbSymbolTableRecord
100
AcDbDimStyleTableRecord
  2
Alternate (ANSI)
 70
     0
 40
10.0
 41
0.0979999974370003
340
55
342
F9
  0
DIMSTYLE
105
10B
330
A
100
AcDbSymbolTableRecord
100
AcDbDimStyleTableRecord
  2
Datum (ANSI)
 70
     0
 40
10.0
 41
0.0979999974370003
340
55
342
F9
  0
DIMSTYLE
105
11A
330
A
100
AcDbSymbolTableRecord
100
AcDbDimStyleTableRecord
  2
Large (ANSI)
 70
     0
 40
10.0
 41
0.1959999948740005
340
55
342
F9
  0
ENDTAB
  0
TABLE
  2
BLOCK_RECORD
  5
1
330
0
100
AcDbSymbolTable
 70
    13
  0
BLOCK_RECORD
  5
6C
330
1
100
AcDbSymbolTableRecord
100
AcDbBlockTableRecord
  2
*Model_Space
340
6F
 70
     0
280
     1
281
     0
  0
BLOCK_RECORD
  5
68
330
1
100
AcDbSymbolTableRecord
100
AcDbBlockTableRecord
  2
*Paper_Space
340
6B
 70
     0
280
     1
281
     0
  0
BLOCK_RECORD
  5
70
330
1
100
AcDbSymbolTableRecord
100
AcDbBlockTableRecord
  2
*Paper_Space0
340
73
 70
     0
280
     1
281
     0
  0
BLOCK_RECORD
  5
F9
330
1
100
AcDbSymbolTableRecord
100
AcDbBlockTableRecord
  2
_Closed
340
0
 70
     0
280
     1
281
     0
  0
BLOCK_RECORD
  5
100
330
1
100
AcDbSymbolTableRecord
100
AcDbBlockTableRecord
  2
DatumFilled45
340
0
 70
     0
280
     1
281
     0
  0
BLOCK_RECORD
  5
10C
330
1
100
AcDbSymbolTableRecord
100
AcDbBlockTableRecord
  2
Filled-1
340
0
 70
     0
280
     1
281
     0
  0
BLOCK_RECORD
  5
546
330
1
100
AcDbSymbolTableRecord
100
AcDbBlockTableRecord
  2
*D4
340
0
 70
     0
280
     1
281
     0
  0
BLOCK_RECORD
  5
630
330
1
100
AcDbSymbolTableRecord
100
AcDbBlockTableRecord
  2
*D5
340
0
 70
     0
280
     1
281
     0
  0
BLOCK_RECORD
  5
71A
330
1
100
AcDbSymbolTableRecord
100
AcDbBlockTableRecord
  2
*D6
340
0
 70
     0
280
     1
281
     0
  0
BLOCK_RECORD
  5
804
330
1
100
AcDbSymbolTableRecord
100
AcDbBlockTableRecord
  2
*D7
340
0
 70
     0
280
     1
281
     0
  0
BLOCK_RECORD
  5
904
330
1
100
AcDbSymbolTableRecord
100
AcDbBlockTableRecord
  2
*D8
340
0
 70
     0
280
     1
281
     0
  0
BLOCK_RECORD
  5
9EE
330
1
100
AcDbSymbolTableRecord
100
AcDbBlockTableRecord
  2
*D9
340
0
 70
     0
280
     1
281
     0
  0
BLOCK_RECORD
  5
AE2
330
1
100
AcDbSymbolTableRecord
100
AcDbBlockTableRecord
  2
*D10
340
0
 70
     0
280
     1
281
     0
  0
BLOCK_RECORD
  5
B9C
330
1
100
AcDbSymbolTableRecord
100
AcDbBlockTableRecord
  2
*D11
340
0
 70
     0
280
     1
281
     0
  0
BLOCK_RECORD
  5
CA5
330
1
100
AcDbSymbolTableRecord
100
AcDbBlockTableRecord
  2
*D12
340
0
 70
     0
280
     1
281
     0
  0
ENDTAB
  0
ENDSEC
  0
SECTION
  2
BLOCKS
  0
BLOCK
  5
6D
330
6C
100
AcDbEntity
  8
0
100
AcDbBlockBegin
  2
*Model_Space
 70
     0
 10
0.0
 20
0.0
 30
0.0
  3
*Model_Space
  1

  0
ENDBLK
  5
6E
330
6C
100
AcDbEntity
  8
0
100
AcDbBlockEnd
  0
BLOCK
  5
69
330
68
100
AcDbEntity
 67
     1
  8
0
100
AcDbBlockBegin
  2
*Paper_Space
 70
     0
 10
0.0
 20
0.0
 30
0.0
  3
*Paper_Space
  1

  0
ENDBLK
  5
6A
330
68
100
AcDbEntity
 67
     1
  8
0
100
AcDbBlockEnd
  0
BLOCK
  5
71
330
70
100
AcDbEntity
 67
     1
  8
0
100
AcDbBlockBegin
  2
*Paper_Space0
 70
     0
 10
0.0
 20
0.0
 30
0.0
  3
*Paper_Space0
  1

  0
ENDBLK
  5
72
330
70
100
AcDbEntity
 67
     1
  8
0
100
AcDbBlockEnd
  0
BLOCK
  5
FE
330
F9
100
AcDbEntity
  8
0
100
AcDbBlockBegin
  2
_Closed
 70
     0
 10
0.0
 20
0.0
 30
0.0
  3
_Closed
  1

  0
LINE
  5
FA
330
F9
100
AcDbEntity
  8
0
  6
ByBlock
 62
     0
370
    -2
100
AcDbLine
 10
-1.0
 20
0.1666666666666666
 30
0.0
 11
0.0
 21
0.0
 31
0.0
  0
LINE
  5
FB
330
F9
100
AcDbEntity
  8
0
  6
ByBlock
 62
     0
370
    -2
100
AcDbLine
 10
0.0
 20
0.0
 30
0.0
 11
-1.0
 21
-0.1666666666666666
 31
0.0
  0
LINE
  5
FC
330
F9
100
AcDbEntity
  8
0
  6
ByBlock
 62
     0
370
    -2
100
AcDbLine
 10
-1.0
 20
0.1666666666666666
 30
0.0
 11
-1.0
 21
-0.1666666666666666
 31
0.0
  0
LINE
  5
FD
330
F9
100
AcDbEntity
  8
0
  6
ByBlock
 62
     0
370
    -2
100
AcDbLine
 10
0.0
 20
0.0
 30
0.0
 11
-1.0
 21
0.0
 31
0.0
  0
ENDBLK
  5
FF
330
F9
100
AcDbEntity
  8
0
100
AcDbBlockEnd
  0
BLOCK
  5
101
330
100
100
AcDbEntity
  8
0
100
AcDbBlockBegin
  2
DatumFilled45
 70
     0
 10
0.0
 20
0.0
 30
0.0
  3
DatumFilled45
  1

  0
POLYLINE
  5
103
330
100
100
AcDbEntity
  8
0
 62
     0
100
AcDb2dPolyline
 66
     1
 10
0.0
 20
0.0
 30
0.0
 70
   128
  0
VERTEX
  5
104
330
103
100
AcDbEntity
  8
0
 62
     0
100
AcDbVertex
100
AcDb2dVertex
 10
0.0
 20
0.9999999999999998
 30
0.0
  0
VERTEX
  5
105
330
103
100
AcDbEntity
  8
0
 62
     0
100
AcDbVertex
100
AcDb2dVertex
 10
0.0
 20
-0.9999999999999998
 30
0.0
  0
VERTEX
  5
107
330
103
100
AcDbEntity
  8
0
 62
     0
100
AcDbVertex
100
AcDb2dVertex
 10
-0.9999999999999998
 20
0.0
 30
0.0
  0
VERTEX
  5
108
330
103
100
AcDbEntity
  8
0
 62
     0
100
AcDbVertex
100
AcDb2dVertex
 10
0.0
 20
0.9999999999999998
 30
0.0
  0
SEQEND
  5
106
330
103
100
AcDbEntity
  8
0
 62
     0
  0
SOLID
  5
10A
330
100
100
AcDbEntity
  8
0
 62
     0
100
AcDbTrace
 10
0.0
 20
0.9999999999999998
 30
0.0
 11
0.0
 21
-0.9999999999999998
 31
0.0
 12
-0.9999999999999998
 22
0.0
 32
0.0
 13
0.0
 23
0.9999999999999998
 33
0.0
  0
ENDBLK
  5
102
330
100
100
AcDbEntity
  8
0
100
AcDbBlockEnd
  0
BLOCK
  5
10D
330
10C
100
AcDbEntity
  8
0
100
AcDbBlockBegin
  2
Filled-1
 70
     0
 10
0.0
 20
0.0
 30
0.0
  3
Filled-1
  1

  0
LINE
  5
10F
330
10C
100
AcDbEntity
  8
0
 62
     0
100
AcDbLine
 10
-0.9999999999999998
 20
0.0
 30
0.0
 11
0.0
 21
0.0
 31
0.0
  0
POLYLINE
  5
110
330
10C
100
AcDbEntity
  8
0
 62
     0
100
AcDb2dPolyline
 66
     1
 10
0.0
 20
0.0
 30
0.0
 70
   128
  0
VERTEX
  5
111
330
110
100
AcDbEntity
  8
0
 62
     0
100
AcDbVertex
100
AcDb2dVertex
 10
-0.9999999999999998
 20
-0.0994897959183674
 30
0.0
  0
VERTEX
  5
112
330
110
100
AcDbEntity
  8
0
 62
     0
100
AcDbVertex
100
AcDb2dVertex
 10
0.0
 20
0.0
 30
0.0
  0
VERTEX
  5
114
330
110
100
AcDbEntity
  8
0
 62
     0
100
AcDbVertex
100
AcDb2dVertex
 10
-0.9999999999999998
 20
0.0994897959183674
 30
0.0
  0
VERTEX
  5
115
330
110
100
AcDbEntity
  8
0
 62
     0
100
AcDbVertex
100
AcDb2dVertex
 10
-0.9999999999999998
 20
-0.0994897959183674
 30
0.0
  0
SEQEND
  5
113
330
110
100
AcDbEntity
  8
0
 62
     0
  0
SOLID
  5
116
330
10C
100
AcDbEntity
  8
0
 62
     0
100
AcDbTrace
 10
-0.9999999999999998
 20
-0.0994897959183674
 30
0.0
 11
0.0
 21
0.0
 31
0.0
 12
-0.9999999999999998
 22
0.0994897959183674
 32
0.0
 13
-0.9999999999999998
 23
-0.0994897959183674
 33
0.0
  0
LINE
  5
117
330
10C
100
AcDbEntity
  8
0
 62
     0
100
AcDbLine
 10
-0.9999999999999998
 20
-0.0994897959183674
 30
0.0
 11
0.0
 21
0.0
 31
0.0
  0
LINE
  5
118
330
10C
100
AcDbEntity
  8
0
 62
     0
100
AcDbLine
 10
0.0
 20
0.0
 30
0.0
 11
-0.9999999999999998
 21
0.0994897959183674
 31
0.0
  0
LINE
  5
119
330
10C
100
AcDbEntity
  8
0
 62
     0
100
AcDbLine
 10
-0.9999999999999998
 20
0.0994897959183674
 30
0.0
 11
-0.9999999999999998
 21
-0.0994897959183674
 31
0.0
  0
ENDBLK
  5
10E
330
10C
100
AcDbEntity
  8
0
100
AcDbBlockEnd
  0
BLOCK
  5
547
330
546
100
AcDbEntity
  8
0
100
AcDbBlockBegin
  2
*D4
 70
     1
 10
0.0
 20
0.0
 30
0.0
  3
*D4
  1

  0
LINE
  5
625
330
546
100
AcDbEntity
  8
Dimension (ANSI)
440
 16777216
100
AcDbLine
 10
26.13226030152919
 20
70.38295742960276
 30
0.0
 11
26.13226030152919
 21
79.66937475243738
 31
0.0
  0
LINE
  5
626
330
546
100
AcDbEntity
  8
Dimension (ANSI)
440
 16777216
100
AcDbLine
 10
58.13226030152918
 20
70.38295742960277
 30
0.0
 11
58.13226030152918
 21
79.66937475243738
 31
0.0
  0
LINE
  5
627
330
546
100
AcDbEntity
  8
Dimension (ANSI)
440
 16777216
100
AcDbLine
 10
27.11651224774005
 20
78.41937475243738
 30
0.0
 11
39.83798462925117
 21
78.41937475243738
 31
0.0
  0
LINE
  5
628
330
546
100
AcDbEntity
  8
Dimension (ANSI)
440
 16777216
100
AcDbLine
 10
57.14800835531832
 20
78.41937475243738
 30
0.0
 11
44.42653597380718
 21
78.41937475243738
 31
0.0
  0
SOLID
  5
629
330
546
100
AcDbEntity
  8
Dimension (ANSI)
440
 16777216
100
AcDbTrace
 10
27.11651224774005
 20
78.58341674347252
 30
0.0
 11
27.11651224774005
 21
78.25533276140223
 31
0.0
 12
26.13226030152919
 22
78.41937475243738
 32
0.0
 13
26.13226030152919
 23
78.41937475243738
 33
0.0
  0
SOLID
  5
62A
330
546
100
AcDbEntity
  8
Dimension (ANSI)
440
 16777216
100
AcDbTrace
 10
57.14800835531832
 20
78.58341674347252
 30
0.0
 11
57.14800835531832
 21
78.25533276140223
 31
0.0
 12
58.13226030152918
 22
78.41937475243738
 32
0.0
 13
58.13226030152918
 23
78.41937475243738
 33
0.0
  0
MTEXT
  5
62B
330
546
100
AcDbEntity
  8
Dimension (ANSI)
440
 16777216
100
AcDbMText
 10
40.15294525917243
 20
79.04435798344213
 30
0.0
 40
1.200000047683715
 41
0.0
 46
0.0
 71
     1
 72
     1
  1
\A1;32.00
  7
Note Text (ANSI)
 73
     1
 44
1.0
  0
POINT
  5
62C
330
546
100
AcDbEntity
  8
Defpoints
 62
     0
440
 16777216
100
AcDbPoint
 10
26.13226030152919
 20
69.75795742960276
 30
0.0
  0
POINT
  5
62D
330
546
100
AcDbEntity
  8
Defpoints
 62
     0
440
 16777216
100
AcDbPoint
 10
58.13226030152918
 20
69.75795742960277
 30
0.0
  0
POINT
  5
62E
330
546
100
AcDbEntity
  8
Defpoints
 62
     0
440
 16777216
100
AcDbPoint
 10
58.13226030152918
 20
78.41937475243738
 30
0.0
  0
ENDBLK
  5
548
330
546
100
AcDbEntity
  8
0
100
AcDbBlockEnd
  0
BLOCK
  5
631
330
630
100
AcDbEntity
  8
0
100
AcDbBlockBegin
  2
*D5
 70
     1
 10
0.0
 20
0.0
 30
0.0
  3
*D5
  1

  0
LINE
  5
70F
330
630
100
AcDbEntity
  8
Dimension (ANSI)
440
 16777216
100
AcDbLine
 10
26.13226030152919
 20
70.38295742960276
 30
0.0
 11
26.13226030152919
 21
75.76150656435476
 31
0.0
  0
LINE
  5
710
330
630
100
AcDbEntity
  8
Dimension (ANSI)
440
 16777216
100
AcDbLine
 10
27.00726030152919
 20
71.199498690339
 30
0.0
 11
27.00726030152919
 21
75.76150656435476
 31
0.0
  0
LINE
  5
711
330
630
100
AcDbEntity
  8
Dimension (ANSI)
440
 16777216
100
AcDbLine
 10
27.99151224774005
 20
74.51150656435476
 30
0.0
 11
28.97576419395091
 21
74.51150656435476
 31
0.0
  0
LINE
  5
712
330
630
100
AcDbEntity
  8
Dimension (ANSI)
440
 16777216
100
AcDbLine
 10
25.14800835531833
 20
74.51150656435476
 30
0.0
 11
23.65519401241781
 21
74.51150656435476
 31
0.0
  0
SOLID
  5
713
330
630
100
AcDbEntity
  8
Dimension (ANSI)
440
 16777216
100
AcDbTrace
 10
27.99151224774005
 20
74.67554855538991
 30
0.0
 11
27.99151224774005
 21
74.34746457331961
 31
0.0
 12
27.00726030152919
 22
74.51150656435476
 32
0.0
 13
27.00726030152919
 23
74.51150656435476
 33
0.0
  0
SOLID
  5
714
330
630
100
AcDbEntity
  8
Dimension (ANSI)
440
 16777216
100
AcDbTrace
 10
25.14800835531833
 20
74.67554855538991
 30
0.0
 11
25.14800835531833
 21
74.34746457331961
 31
0.0
 12
26.13226030152919
 22
74.51150656435476
 32
0.0
 13
26.13226030152919
 23
74.51150656435476
 33
0.0
  0
MTEXT
  5
715
330
630
100
AcDbEntity
  8
Dimension (ANSI)
440
 16777216
100
AcDbMText
 10
20.26407478450155
 20
75.13890752546011
 30
0.0
 40
1.200000047683715
 41
0.0
 46
0.0
 71
     1
 72
     1
  1
\A1;0.88
  7
Note Text (ANSI)
 73
     1
 44
1.0
  0
POINT
  5
716
330
630
100
AcDbEntity
  8
Defpoints
 62
     0
440
 16777216
100
AcDbPoint
 10
26.13226030152919
 20
69.75795742960276
 30
0.0
  0
POINT
  5
717
330
630
100
AcDbEntity
  8
Defpoints
 62
     0
440
 16777216
100
AcDbPoint
 10
27.00726030152919
 20
70.574498690339
 30
0.0
  0
POINT
  5
718
330
630
100
AcDbEntity
  8
Defpoints
 62
     0
440
 16777216
100
AcDbPoint
 10
27.00726030152919
 20
74.51150656435476
 30
0.0
  0
ENDBLK
  5
632
330
630
100
AcDbEntity
  8
0
100
AcDbBlockEnd
  0
BLOCK
  5
71B
330
71A
100
AcDbEntity
  8
0
100
AcDbBlockBegin
  2
*D6
 70
     1
 10
0.0
 20
0.0
 30
0.0
  3
*D6
  1

  0
LINE
  5
7F9
330
71A
100
AcDbEntity
  8
Dimension (ANSI)
440
 16777216
100
AcDbLine
 10
27.00726030152919
 20
71.199498690339
 30
0.0
 11
27.00726030152919
 21
75.76150656435475
 31
0.0
  0
LINE
  5
7FA
330
71A
100
AcDbEntity
  8
Dimension (ANSI)
440
 16777216
100
AcDbLine
 10
57.25726030152919
 20
71.199498690339
 30
0.0
 11
57.25726030152919
 21
75.76150656435475
 31
0.0
  0
LINE
  5
7FB
330
71A
100
AcDbEntity
  8
Dimension (ANSI)
440
 16777216
100
AcDbLine
 10
27.99151224774005
 20
74.51150656435475
 30
0.0
 11
39.84765554965358
 21
74.51150656435475
 31
0.0
  0
LINE
  5
7FC
330
71A
100
AcDbEntity
  8
Dimension (ANSI)
440
 16777216
100
AcDbLine
 10
56.27300835531833
 20
74.51150656435475
 30
0.0
 11
44.4168650534048
 21
74.51150656435475
 31
0.0
  0
SOLID
  5
7FD
330
71A
100
AcDbEntity
  8
Dimension (ANSI)
440
 16777216
100
AcDbTrace
 10
27.99151224774005
 20
74.67554855538989
 30
0.0
 11
27.99151224774005
 21
74.3474645733196
 31
0.0
 12
27.00726030152919
 22
74.51150656435475
 32
0.0
 13
27.00726030152919
 23
74.51150656435475
 33
0.0
  0
SOLID
  5
7FE
330
71A
100
AcDbEntity
  8
Dimension (ANSI)
440
 16777216
100
AcDbTrace
 10
56.27300835531833
 20
74.67554855538989
 30
0.0
 11
56.27300835531833
 21
74.3474645733196
 31
0.0
 12
57.25726030152919
 22
74.51150656435475
 32
0.0
 13
57.25726030152919
 23
74.51150656435475
 33
0.0
  0
MTEXT
  5
7FF
330
71A
100
AcDbEntity
  8
Dimension (ANSI)
440
 16777216
100
AcDbMText
 10
40.16261617957483
 20
75.1364897953595
 30
0.0
 40
1.200000047683715
 41
0.0
 46
0.0
 71
     1
 72
     1
  1
\A1;30.25
  7
Note Text (ANSI)
 73
     1
 44
1.0
  0
POINT
  5
800
330
71A
100
AcDbEntity
  8
Defpoints
 62
     0
440
 16777216
100
AcDbPoint
 10
27.00726030152919
 20
70.574498690339
 30
0.0
  0
POINT
  5
801
330
71A
100
AcDbEntity
  8
Defpoints
 62
     0
440
 16777216
100
AcDbPoint
 10
57.25726030152919
 20
70.574498690339
 30
0.0
  0
POINT
  5
802
330
71A
100
AcDbEntity
  8
Defpoints
 62
     0
440
 16777216
100
AcDbPoint
 10
57.25726030152919
 20
74.51150656435475
 30
0.0
  0
ENDBLK
  5
71C
330
71A
100
AcDbEntity
  8
0
100
AcDbBlockEnd
  0
BLOCK
  5
805
330
804
100
AcDbEntity
  8
0
100
AcDbBlockBegin
  2
*D7
 70
     1
 10
0.0
 20
0.0
 30
0.0
  3
*D7
  1

  0
LINE
  5
8F8
330
804
100
AcDbEntity
  8
Dimension (ANSI)
440
 16777216
100
AcDbLine
 10
25.66730156226544
 20
30.02999869033899
 30
0.0
 11
23.12604430264305
 21
30.029998690339
 31
0.0
  0
LINE
  5
8F9
330
804
100
AcDbEntity
  8
Dimension (ANSI)
440
 16777216
100
AcDbLine
 10
24.85076030152918
 20
30.90499869033899
 30
0.0
 11
23.12604430264305
 21
30.904998690339
 31
0.0
  0
LINE
  5
8FA
330
804
100
AcDbEntity
  8
Dimension (ANSI)
440
 16777216
100
AcDbLine
 10
24.37604430264305
 20
31.88925063654985
 30
0.0
 11
24.37604430264305
 21
32.87350258276072
 31
0.0
  0
LINE
  5
8FB
330
804
100
AcDbEntity
  8
Dimension (ANSI)
440
 16777216
100
AcDbLine
 10
24.37604430264305
 20
29.04574674412813
 30
0.0
 11
24.37604430264305
 21
27.16002203151758
 31
0.0
  0
LINE
  5
8FC
330
804
100
AcDbEntity
  8
Dimension (ANSI)
440
 16777216
100
AcDbLine
 10
24.37604430264305
 20
27.16002203151758
 30
0.0
 11
23.39179235643219
 21
27.16002203151759
 31
0.0
  0
SOLID
  5
8FD
330
804
100
AcDbEntity
  8
Dimension (ANSI)
440
 16777216
100
AcDbTrace
 10
24.21200231160791
 20
31.88925063654985
 30
0.0
 11
24.5400862936782
 21
31.88925063654985
 31
0.0
 12
24.37604430264305
 22
30.90499869033899
 32
0.0
 13
24.37604430264305
 23
30.90499869033899
 33
0.0
  0
SOLID
  5
8FE
330
804
100
AcDbEntity
  8
Dimension (ANSI)
440
 16777216
100
AcDbTrace
 10
24.21200231160791
 20
29.04574674412813
 30
0.0
 11
24.5400862936782
 21
29.04574674412813
 31
0.0
 12
24.37604430264305
 22
30.02999869033899
 32
0.0
 13
24.37604430264305
 23
30.02999869033899
 33
0.0
  0
MTEXT
  5
8FF
330
804
100
AcDbEntity
  8
Dimension (ANSI)
440
 16777216
100
AcDbMText
 10
20.00067312851593
 20
27.78742299262294
 30
0.0
 40
1.200000047683715
 41
0.0
 46
0.0
 71
     1
 72
     1
  1
\A1;0.88
  7
Note Text (ANSI)
 73
     1
 44
1.0
  0
POINT
  5
900
330
804
100
AcDbEntity
  8
Defpoints
 62
     0
440
 16777216
100
AcDbPoint
 10
26.29230156226544
 20
30.02999869033899
 30
0.0
  0
POINT
  5
901
330
804
100
AcDbEntity
  8
Defpoints
 62
     0
440
 16777216
100
AcDbPoint
 10
25.47576030152918
 20
30.90499869033899
 30
0.0
  0
POINT
  5
902
330
804
100
AcDbEntity
  8
Defpoints
 62
     0
440
 16777216
100
AcDbPoint
 10
24.37604430264305
 20
30.90499869033899
 30
0.0
  0
ENDBLK
  5
806
330
804
100
AcDbEntity
  8
0
100
AcDbBlockEnd
  0
BLOCK
  5
905
330
904
100
AcDbEntity
  8
0
100
AcDbBlockBegin
  2
*D8
 70
     1
 10
0.0
 20
0.0
 30
0.0
  3
*D8
  1

  0
LINE
  5
9E3
330
904
100
AcDbEntity
  8
Dimension (ANSI)
440
 16777216
100
AcDbLine
 10
24.85076030152918
 20
30.90499869033899
 30
0.0
 11
20.28875242751345
 21
30.904998690339
 31
0.0
  0
LINE
  5
9E4
330
904
100
AcDbEntity
  8
Dimension (ANSI)
440
 16777216
100
AcDbLine
 10
24.85076030152918
 20
69.04299869033899
 30
0.0
 11
20.28875242751345
 21
69.04299869033899
 31
0.0
  0
LINE
  5
9E5
330
904
100
AcDbEntity
  8
Dimension (ANSI)
440
 16777216
100
AcDbLine
 10
21.53875242751345
 20
31.88925063654986
 30
0.0
 11
21.53875242751345
 21
49.02763709931239
 31
0.0
  0
LINE
  5
9E6
330
904
100
AcDbEntity
  8
Dimension (ANSI)
440
 16777216
100
AcDbLine
 10
21.53875242751345
 20
68.05874674412812
 30
0.0
 11
21.53875242751345
 21
50.9123602813656
 31
0.0
  0
SOLID
  5
9E7
330
904
100
AcDbEntity
  8
Dimension (ANSI)
440
 16777216
100
AcDbTrace
 10
21.3747104364783
 20
31.88925063654986
 30
0.0
 11
21.70279441854859
 21
31.88925063654986
 31
0.0
 12
21.53875242751345
 22
30.904998690339
 32
0.0
 13
21.53875242751345
 23
30.904998690339
 33
0.0
  0
SOLID
  5
9E8
330
904
100
AcDbEntity
  8
Dimension (ANSI)
440
 16777216
100
AcDbTrace
 10
21.37471043647831
 20
68.05874674412812
 30
0.0
 11
21.7027944185486
 21
68.05874674412812
 31
0.0
 12
21.53875242751345
 22
69.04299869033899
 32
0.0
 13
21.53875242751345
 23
69.04299869033899
 33
0.0
  0
MTEXT
  5
9E9
330
904
100
AcDbEntity
  8
Dimension (ANSI)
440
 16777216
100
AcDbMText
 10
19.54654282462017
 20
50.59739965144434
 30
0.0
 40
1.200000047683715
 41
0.0
 46
0.0
 71
     1
 72
     1
  1
\A1;38.14
  7
Note Text (ANSI)
 73
     1
 44
1.0
  0
POINT
  5
9EA
330
904
100
AcDbEntity
  8
Defpoints
 62
     0
440
 16777216
100
AcDbPoint
 10
25.47576030152918
 20
30.90499869033899
 30
0.0
  0
POINT
  5
9EB
330
904
100
AcDbEntity
  8
Defpoints
 62
     0
440
 16777216
100
AcDbPoint
 10
25.47576030152918
 20
69.04299869033899
 30
0.0
  0
POINT
  5
9EC
330
904
100
AcDbEntity
  8
Defpoints
 62
     0
440
 16777216
100
AcDbPoint
 10
21.53875242751345
 20
69.04299869033899
 30
0.0
  0
ENDBLK
  5
906
330
904
100
AcDbEntity
  8
0
100
AcDbBlockEnd
  0
BLOCK
  5
9EF
330
9EE
100
AcDbEntity
  8
0
100
AcDbBlockBegin
  2
*D9
 70
     1
 10
0.0
 20
0.0
 30
0.0
  3
*D9
  1

  0
LINE
  5
AD7
330
9EE
100
AcDbEntity
  8
Dimension (ANSI)
440
 16777216
100
AcDbLine
 10
25.66730156226544
 20
30.02999869033899
 30
0.0
 11
14.01867951502135
 21
30.029998690339
 31
0.0
  0
LINE
  5
AD8
330
9EE
100
AcDbEntity
  8
Dimension (ANSI)
440
 16777216
100
AcDbLine
 10
25.66730156226542
 20
69.91799869033899
 30
0.0
 11
14.01867951502135
 21
69.91799869033899
 31
0.0
  0
LINE
  5
AD9
330
9EE
100
AcDbEntity
  8
Dimension (ANSI)
440
 16777216
100
AcDbLine
 10
15.26867951502135
 20
31.01425063654986
 30
0.0
 11
15.26867951502135
 21
49.03163709931239
 31
0.0
  0
LINE
  5
ADA
330
9EE
100
AcDbEntity
  8
Dimension (ANSI)
440
 16777216
100
AcDbLine
 10
15.26867951502135
 20
68.93374674412813
 30
0.0
 11
15.26867951502135
 21
50.9163602813656
 31
0.0
  0
SOLID
  5
ADB
330
9EE
100
AcDbEntity
  8
Dimension (ANSI)
440
 16777216
100
AcDbTrace
 10
15.1046375239862
 20
31.01425063654986
 30
0.0
 11
15.43272150605649
 21
31.01425063654986
 31
0.0
 12
15.26867951502135
 22
30.029998690339
 32
0.0
 13
15.26867951502135
 23
30.029998690339
 33
0.0
  0
SOLID
  5
ADC
330
9EE
100
AcDbEntity
  8
Dimension (ANSI)
440
 16777216
100
AcDbTrace
 10
15.10463752398621
 20
68.93374674412813
 30
0.0
 11
15.4327215060565
 21
68.93374674412813
 31
0.0
 12
15.26867951502135
 22
69.91799869033899
 32
0.0
 13
15.26867951502135
 23
69.91799869033899
 33
0.0
  0
MTEXT
  5
ADD
330
9EE
100
AcDbEntity
  8
Dimension (ANSI)
440
 16777216
100
AcDbMText
 10
13.2857378775137
 20
50.60139965144434
 30
0.0
 40
1.200000047683715
 41
0.0
 46
0.0
 71
     1
 72
     1
  1
\A1;39.88
  7
Note Text (ANSI)
 73
     1
 44
1.0
  0
POINT
  5
ADE
330
9EE
100
AcDbEntity
  8
Defpoints
 62
     0
440
 16777216
100
AcDbPoint
 10
26.29230156226544
 20
30.02999869033899
 30
0.0
  0
POINT
  5
ADF
330
9EE
100
AcDbEntity
  8
Defpoints
 62
     0
440
 16777216
100
AcDbPoint
 10
26.29230156226542
 20
69.91799869033899
 30
0.0
  0
POINT
  5
AE0
330
9EE
100
AcDbEntity
  8
Defpoints
 62
     0
440
 16777216
100
AcDbPoint
 10
15.26867951502135
 20
69.91799869033899
 30
0.0
  0
ENDBLK
  5
9F0
330
9EE
100
AcDbEntity
  8
0
100
AcDbBlockEnd
  0
BLOCK
  5
AE3
330
AE2
100
AcDbEntity
  8
0
100
AcDbBlockBegin
  2
*D10
 70
     1
 10
0.0
 20
0.0
 30
0.0
  3
*D10
  1

  0
LINE
  5
B93
330
AE2
100
AcDbEntity
  8
Dimension (ANSI)
440
 16777216
100
AcDbLine
 10
60.90523058856835
 20
27.91767832019076
 30
0.0
 11
59.56323393893811
 21
27.91767832019077
 31
0.0
  0
LINE
  5
B94
330
AE2
100
AcDbEntity
  8
Dimension (ANSI)
440
 16777216
100
AcDbLine
 10
59.56323393893811
 20
27.91767832019077
 30
0.0
 11
58.03069488889528
 21
29.90303714995812
 31
0.0
  0
MTEXT
  5
B95
330
AE2
100
AcDbEntity
  8
Dimension (ANSI)
440
 16777216
100
AcDbMText
 10
61.22019121848961
 20
27.91767832019076
 30
0.0
 40
1.200000047683715
 41
0.0
 46
0.0
 71
     4
 72
     1
  1
\A1;∅0.563{\P(4 PL.)}
  7
Note Text (ANSI)
 73
     1
 44
1.0
  0
SOLID
  5
B96
330
AE2
100
AcDbEntity
  8
Dimension (ANSI)
440
 16777216
100
AcDbTrace
 10
58.16054953104437
 20
30.00327460171697
 30
0.0
 11
57.90084024674619
 21
29.80279969819927
 31
0.0
 12
57.42927017834219
 22
30.68216500285262
 32
0.0
 13
57.42927017834219
 23
30.68216500285262
 33
0.0
  0
LINE
  5
B97
330
AE2
100
AcDbEntity
  8
Dimension (ANSI)
440
 16777216
100
AcDbLine
 10
56.3572603015292
 20
30.90499869033899
 30
0.0
 11
58.15726030152919
 21
30.90499869033899
 31
0.0
  0
LINE
  5
B98
330
AE2
100
AcDbEntity
  8
Dimension (ANSI)
440
 16777216
100
AcDbLine
 10
57.25726030152918
 20
30.00499869033899
 30
0.0
 11
57.2572603015292
 21
31.80499869033899
 31
0.0
  0
POINT
  5
B99
330
AE2
100
AcDbEntity
  8
Defpoints
 62
     0
440
 16777216
100
AcDbPoint
 10
57.42927017834219
 20
30.68216500285262
 30
0.0
  0
POINT
  5
B9A
330
AE2
100
AcDbEntity
  8
Defpoints
 62
     0
440
 16777216
100
AcDbPoint
 10
57.08525042471618
 20
31.12783237782536
 30
0.0
  0
ENDBLK
  5
AE4
330
AE2
100
AcDbEntity
  8
0
100
AcDbBlockEnd
  0
BLOCK
  5
B9D
330
B9C
100
AcDbEntity
  8
0
100
AcDbBlockBegin
  2
*D11
 70
     1
 10
0.0
 20
0.0
 30
0.0
  3
*D11
  1

  0
LINE
  5
C9B
330
B9C
100
AcDbEntity
  8
Dimension (ANSI)
440
 16777216
100
AcDbLine
 10
51.2880305954771
 20
89.62278516860413
 30
0.0
 11
51.2880305954771
 21
88.63853322239327
 31
0.0
  0
LINE
  5
C9C
330
B9C
100
AcDbEntity
  8
Dimension (ANSI)
440
 16777216
100
AcDbLine
 10
51.2880305954771
 20
92.46628906102587
 30
0.0
 11
51.2880305954771
 21
95.70201379032097
 31
0.0
  0
LINE
  5
C9D
330
B9C
100
AcDbEntity
  8
Dimension (ANSI)
440
 16777216
100
AcDbLine
 10
51.2880305954771
 20
95.70201379032097
 30
0.0
 11
52.27228254168796
 21
95.70201379032097
 31
0.0
  0
SOLID
  5
C9E
330
B9C
100
AcDbEntity
  8
Dimension (ANSI)
440
 16777216
100
AcDbTrace
 10
51.12398860444196
 20
89.62278516860413
 30
0.0
 11
51.45207258651224
 21
89.62278516860413
 31
0.0
 12
51.2880305954771
 22
90.60703711481499
 32
0.0
 13
51.2880305954771
 23
90.60703711481499
 33
0.0
  0
SOLID
  5
C9F
330
B9C
100
AcDbEntity
  8
Dimension (ANSI)
440
 16777216
100
AcDbTrace
 10
51.12398860444196
 20
92.46628906102587
 30
0.0
 11
51.45207258651224
 21
92.46628906102587
 31
0.0
 12
51.2880305954771
 22
91.48203711481501
 32
0.0
 13
51.2880305954771
 23
91.48203711481501
 33
0.0
  0
MTEXT
  5
CA0
330
B9C
100
AcDbEntity
  8
Dimension (ANSI)
440
 16777216
100
AcDbMText
 10
54.17246820756838
 20
95.70201379032098
 30
0.0
 40
1.200000047683715
 41
0.0
 46
0.0
 71
     5
 72
     1
  1
\A1;0.88{\PTYP.}
  7
Note Text (ANSI)
 73
     1
 44
1.0
  0
POINT
  5
CA1
330
B9C
100
AcDbEntity
  8
Defpoints
 62
     0
440
 16777216
100
AcDbPoint
 10
54.17246820756838
 20
91.48203711481501
 30
0.0
  0
POINT
  5
CA2
330
B9C
100
AcDbEntity
  8
Defpoints
 62
     0
440
 16777216
100
AcDbPoint
 10
54.16813826210366
 20
90.60703711481499
 30
0.0
  0
POINT
  5
CA3
330
B9C
100
AcDbEntity
  8
Defpoints
 62
     0
440
 16777216
100
AcDbPoint
 10
51.2880305954771
 20
90.60703711481499
 30
0.0
  0
ENDBLK
  5
B9E
330
B9C
100
AcDbEntity
  8
0
100
AcDbBlockEnd
  0
BLOCK
  5
CA6
330
CA5
100
AcDbEntity
  8
0
100
AcDbBlockBegin
  2
*D12
 70
     1
 10
0.0
 20
0.0
 30
0.0
  3
*D12
  1

  0
LINE
  5
D8B
330
CA5
100
AcDbEntity
  8
Dimension (ANSI)
440
 16777216
100
AcDbLine
 10
83.08639925145019
 20
67.89185246128923
 30
0.0
 11
82.10214730523933
 21
67.89185246128923
 31
0.0
  0
LINE
  5
D8C
330
CA5
100
AcDbEntity
  8
Dimension (ANSI)
440
 16777216
100
AcDbLine
 10
85.92990314387193
 20
67.89185246128923
 30
0.0
 11
87.46819736779171
 21
67.89185246128923
 31
0.0
  0
SOLID
  5
D8D
330
CA5
100
AcDbEntity
  8
Dimension (ANSI)
440
 16777216
100
AcDbTrace
 10
83.08639925145019
 20
68.05589445232438
 30
0.0
 11
83.08639925145019
 21
67.72781047025408
 31
0.0
 12
84.07065119766105
 22
67.89185246128923
 32
0.0
 13
84.07065119766105
 23
67.89185246128923
 33
0.0
  0
SOLID
  5
D8E
330
CA5
100
AcDbEntity
  8
Dimension (ANSI)
440
 16777216
100
AcDbTrace
 10
85.92990314387193
 20
68.05589445232438
 30
0.0
 11
85.92990314387193
 21
67.72781047025408
 31
0.0
 12
84.94565119766107
 22
67.89185246128923
 32
0.0
 13
84.94565119766107
 23
67.89185246128923
 33
0.0
  0
MTEXT
  5
D8F
330
CA5
100
AcDbEntity
  8
Dimension (ANSI)
440
 16777216
100
AcDbMText
 10
87.78315799771297
 20
67.89185246128923
 30
0.0
 40
1.200000047683715
 41
0.0
 46
0.0
 71
     4
 72
     1
  1
\A1;0.88{\PTYP.}
  7
Note Text (ANSI)
 73
     1
 44
1.0
  0
POINT
  5
D90
330
CA5
100
AcDbEntity
  8
Defpoints
 62
     0
440
 16777216
100
AcDbPoint
 10
84.94565119766107
 20
67.89185246128923
 30
0.0
  0
POINT
  5
D91
330
CA5
100
AcDbEntity
  8
Defpoints
 62
     0
440
 16777216
100
AcDbPoint
 10
84.07065119766105
 20
67.91139695415011
 30
0.0
  0
POINT
  5
D92
330
CA5
100
AcDbEntity
  8
Defpoints
 62
     0
440
 16777216
100
AcDbPoint
 10
84.07065119766105
 20
67.89185246128923
 30
0.0
  0
ENDBLK
  5
CA7
330
CA5
100
AcDbEntity
  8
0
100
AcDbBlockEnd
  0
ENDSEC
  0
SECTION
  2
ENTITIES
  0
CIRCLE
  5
11B
330
6C
100
AcDbEntity
  8
Visible (ANSI)
100
AcDbCircle
 10
57.25726030152919
 20
69.04299869033899
 30
0.0
 40
0.2814999999999999
  0
CIRCLE
  5
11C
330
6C
100
AcDbEntity
  8
Visible (ANSI)
100
AcDbCircle
 10
27.00726030152919
 20
69.04299869033899
 30
0.0
 40
0.2814999999999999
  0
CIRCLE
  5
11D
330
6C
100
AcDbEntity
  8
Visible (ANSI)
100
AcDbCircle
 10
27.00726030152917
 20
30.90499869033899
 30
0.0
 40
0.2814999999999999
  0
CIRCLE
  5
11E
330
6C
100
AcDbEntity
  8
Visible (ANSI)
100
AcDbCircle
 10
57.25726030152919
 20
30.90499869033899
 30
0.0
 40
0.2814999999999999
  0
LINE
  5
11F
330
6C
100
AcDbEntity
  8
Visible (ANSI)
100
AcDbLine
 10
58.13226030152918
 20
69.75795742960276
 30
0.0
 11
58.1322603015292
 21
30.19003995107523
 31
0.0
  0
LINE
  5
120
330
6C
100
AcDbEntity
  8
Visible (ANSI)
100
AcDbLine
 10
26.29230156226542
 20
69.91799869033899
 30
0.0
 11
57.97221904079294
 21
69.91799869033901
 31
0.0
  0
LINE
  5
121
330
6C
100
AcDbEntity
  8
Visible (ANSI)
100
AcDbLine
 10
26.1322603015292
 20
30.19003995107523
 30
0.0
 11
26.13226030152919
 21
69.75795742960276
 31
0.0
  0
LINE
  5
122
330
6C
100
AcDbEntity
  8
Visible (ANSI)
100
AcDbLine
 10
57.97221904079296
 20
30.02999869033899
 30
0.0
 11
26.29230156226543
 21
30.02999869033899
 31
0.0
  0
LINE
  5
123
330
6C
100
AcDbEntity
  8
Hidden (ANSI)
 48
1.063482165336608
100
AcDbLine
 10
58.0385103015292
 20
30.19003995107523
 30
0.0
 11
58.0385103015292
 21
69.75795742960276
 31
0.0
  0
LINE
  5
124
330
6C
100
AcDbEntity
  8
Hidden (ANSI)
 48
1.094751477241516
100
AcDbLine
 10
57.97221904079294
 20
69.824248690339
 30
0.0
 11
26.29230156226542
 21
69.82424869033899
 31
0.0
  0
LINE
  5
125
330
6C
100
AcDbEntity
  8
Hidden (ANSI)
 48
1.063482165336608
100
AcDbLine
 10
26.22601030152919
 20
69.75795742960276
 30
0.0
 11
26.2260103015292
 21
30.19003995107524
 31
0.0
  0
LINE
  5
126
330
6C
100
AcDbEntity
  8
Hidden (ANSI)
 48
1.094751477241516
100
AcDbLine
 10
26.29230156226543
 20
30.12374869033899
 30
0.0
 11
57.97221904079296
 21
30.12374869033899
 31
0.0
  0
POLYLINE
  5
127
330
6C
100
AcDbEntity
  8
Visible (ANSI)
100
AcDb2dPolyline
 66
     1
 10
0.0
 20
0.0
 30
0.0
 70
   128
  0
VERTEX
  5
128
330
127
100
AcDbEntity
  8
Visible (ANSI)
100
AcDbVertex
100
AcDb2dVertex
 10
58.02291017215388
 20
69.80864952983671
 30
0.0
  0
VERTEX
  5
129
330
127
100
AcDbEntity
  8
Visible (ANSI)
100
AcDbVertex
100
AcDb2dVertex
 10
58.03006197860227
 20
69.80653792969675
 30
0.0
  0
VERTEX
  5
12B
330
127
100
AcDbEntity
  8
Visible (ANSI)
100
AcDbVertex
100
AcDb2dVertex
 10
58.03718374806432
 20
69.8044233258582
 30
0.0
  0
VERTEX
  5
12C
330
127
100
AcDbEntity
  8
Visible (ANSI)
100
AcDbVertex
100
AcDb2dVertex
 10
58.04424243985504
 20
69.80231172571824
 30
0.0
  0
VERTEX
  5
12D
330
127
100
AcDbEntity
  8
Visible (ANSI)
100
AcDbVertex
100
AcDb2dVertex
 10
58.05121102068674
 20
69.80020012557827
 30
0.0
  0
VERTEX
  5
12E
330
127
100
AcDbEntity
  8
Visible (ANSI)
100
AcDbVertex
100
AcDb2dVertex
 10
58.05805945357305
 20
69.79808852543833
 30
0.0
  0
VERTEX
  5
12F
330
127
100
AcDbEntity
  8
Visible (ANSI)
100
AcDbVertex
100
AcDb2dVertex
 10
58.06475770152765
 20
69.79597692529839
 30
0.0
  0
VERTEX
  5
130
330
127
100
AcDbEntity
  8
Visible (ANSI)
100
AcDbVertex
100
AcDb2dVertex
 10
58.0712757275642
 20
69.7938623214598
 30
0.0
  0
VERTEX
  5
131
330
127
100
AcDbEntity
  8
Visible (ANSI)
100
AcDbVertex
100
AcDb2dVertex
 10
58.07758649839497
 20
69.79175072131986
 30
0.0
  0
VERTEX
  5
132
330
127
100
AcDbEntity
  8
Visible (ANSI)
100
AcDbVertex
100
AcDb2dVertex
 10
58.08366298073226
 20
69.78963912117992
 30
0.0
  0
VERTEX
  5
133
330
127
100
AcDbEntity
  8
Visible (ANSI)
100
AcDbVertex
100
AcDb2dVertex
 10
58.08947814128836
 20
69.78752752103997
 30
0.0
  0
VERTEX
  5
134
330
127
100
AcDbEntity
  8
Visible (ANSI)
100
AcDbVertex
100
AcDb2dVertex
 10
58.09501095417283
 20
69.7854159209
 30
0.0
  0
VERTEX
  5
135
330
127
100
AcDbEntity
  8
Visible (ANSI)
100
AcDbVertex
100
AcDb2dVertex
 10
58.10023138239934
 20
69.78330432076005
 30
0.0
  0
VERTEX
  5
136
330
127
100
AcDbEntity
  8
Visible (ANSI)
100
AcDbVertex
100
AcDb2dVertex
 10
58.10512440747469
 20
69.78118971692149
 30
0.0
  0
VERTEX
  5
137
330
127
100
AcDbEntity
  8
Visible (ANSI)
100
AcDbVertex
100
AcDb2dVertex
 10
58.1096629961112
 20
69.77907811678154
 30
0.0
  0
VERTEX
  5
138
330
127
100
AcDbEntity
  8
Visible (ANSI)
100
AcDbVertex
100
AcDb2dVertex
 10
58.11383212981567
 20
69.77696651664158
 30
0.0
  0
VERTEX
  5
139
330
127
100
AcDbEntity
  8
Visible (ANSI)
100
AcDbVertex
100
AcDb2dVertex
 10
58.11761078269769
 20
69.77485491650163
 30
0.0
  0
VERTEX
  5
13A
330
127
100
AcDbEntity
  8
Visible (ANSI)
100
AcDbVertex
100
AcDb2dVertex
 10
58.12098393626406
 20
69.7727433163617
 30
0.0
  0
VERTEX
  5
13B
330
127
100
AcDbEntity
  8
Visible (ANSI)
100
AcDbVertex
100
AcDb2dVertex
 10
58.12393657202163
 20
69.77063171622174
 30
0.0
  0
VERTEX
  5
13C
330
127
100
AcDbEntity
  8
Visible (ANSI)
100
AcDbVertex
100
AcDb2dVertex
 10
58.12645667517585
 20
69.76851711238315
 30
0.0
  0
VERTEX
  5
13D
330
127
100
AcDbEntity
  8
Visible (ANSI)
100
AcDbVertex
100
AcDb2dVertex
 10
58.12853523463081
 20
69.76640551224321
 30
0.0
  0
VERTEX
  5
13E
330
127
100
AcDbEntity
  8
Visible (ANSI)
100
AcDbVertex
100
AcDb2dVertex
 10
58.130160235592
 20
69.76429391210327
 30
0.0
  0
VERTEX
  5
13F
330
127
100
AcDbEntity
  8
Visible (ANSI)
100
AcDbVertex
100
AcDb2dVertex
 10
58.13132567066213
 20
69.76218231196331
 30
0.0
  0
VERTEX
  5
140
330
127
100
AcDbEntity
  8
Visible (ANSI)
100
AcDbVertex
100
AcDb2dVertex
 10
58.13202553244393
 20
69.76007071182336
 30
0.0
  0
VERTEX
  5
141
330
127
100
AcDbEntity
  8
Visible (ANSI)
100
AcDbVertex
100
AcDb2dVertex
 10
58.1322598209374
 20
69.75795610798479
 30
0.0
  0
SEQEND
  5
12A
330
127
100
AcDbEntity
  8
Visible (ANSI)
  0
POLYLINE
  5
142
330
6C
100
AcDbEntity
  8
Visible (ANSI)
100
AcDb2dPolyline
 66
     1
 10
0.0
 20
0.0
 30
0.0
 70
   128
  0
VERTEX
  5
143
330
142
100
AcDbEntity
  8
Visible (ANSI)
100
AcDbVertex
100
AcDb2dVertex
 10
58.1322598209374
 20
30.19003995406199
 30
0.0
  0
VERTEX
  5
144
330
142
100
AcDbEntity
  8
Visible (ANSI)
100
AcDbVertex
100
AcDb2dVertex
 10
58.13202553244393
 20
30.18792781419494
 30
0.0
  0
VERTEX
  5
146
330
142
100
AcDbEntity
  8
Visible (ANSI)
100
AcDbVertex
100
AcDb2dVertex
 10
58.13132567066213
 20
30.1858156743279
 30
0.0
  0
VERTEX
  5
147
330
142
100
AcDbEntity
  8
Visible (ANSI)
100
AcDbVertex
100
AcDb2dVertex
 10
58.130160235592
 20
30.18370354619405
 30
0.0
  0
VERTEX
  5
148
330
142
100
AcDbEntity
  8
Visible (ANSI)
100
AcDbVertex
100
AcDb2dVertex
 10
58.12853523463081
 20
30.181591406327
 30
0.0
  0
VERTEX
  5
149
330
142
100
AcDbEntity
  8
Visible (ANSI)
100
AcDbVertex
100
AcDb2dVertex
 10
58.12645667517585
 20
30.17947926645996
 30
0.0
  0
VERTEX
  5
14A
330
142
100
AcDbEntity
  8
Visible (ANSI)
100
AcDbVertex
100
AcDb2dVertex
 10
58.12393657202163
 20
30.1773671383261
 30
0.0
  0
VERTEX
  5
14B
330
142
100
AcDbEntity
  8
Visible (ANSI)
100
AcDbVertex
100
AcDb2dVertex
 10
58.12098393626406
 20
30.17525499845906
 30
0.0
  0
VERTEX
  5
14C
330
142
100
AcDbEntity
  8
Visible (ANSI)
100
AcDbVertex
100
AcDb2dVertex
 10
58.11761078269769
 20
30.17314285859202
 30
0.0
  0
VERTEX
  5
14D
330
142
100
AcDbEntity
  8
Visible (ANSI)
100
AcDbVertex
100
AcDb2dVertex
 10
58.11383212981567
 20
30.17103073045817
 30
0.0
  0
VERTEX
  5
14E
330
142
100
AcDbEntity
  8
Visible (ANSI)
100
AcDbVertex
100
AcDb2dVertex
 10
58.1096629961112
 20
30.16891859059112
 30
0.0
  0
VERTEX
  5
14F
330
142
100
AcDbEntity
  8
Visible (ANSI)
100
AcDbVertex
100
AcDb2dVertex
 10
58.10512440747469
 20
30.16680645072407
 30
0.0
  0
VERTEX
  5
150
330
142
100
AcDbEntity
  8
Visible (ANSI)
100
AcDbVertex
100
AcDb2dVertex
 10
58.10023138239934
 20
30.16469432259022
 30
0.0
  0
VERTEX
  5
151
330
142
100
AcDbEntity
  8
Visible (ANSI)
100
AcDbVertex
100
AcDb2dVertex
 10
58.09501095417283
 20
30.16258218272318
 30
0.0
  0
VERTEX
  5
152
330
142
100
AcDbEntity
  8
Visible (ANSI)
100
AcDbVertex
100
AcDb2dVertex
 10
58.08947814128836
 20
30.16047005458933
 30
0.0
  0
VERTEX
  5
153
330
142
100
AcDbEntity
  8
Visible (ANSI)
100
AcDbVertex
100
AcDb2dVertex
 10
58.08366298073226
 20
30.15835791472228
 30
0.0
  0
VERTEX
  5
154
330
142
100
AcDbEntity
  8
Visible (ANSI)
100
AcDbVertex
100
AcDb2dVertex
 10
58.07758649839497
 20
30.15624577485523
 30
0.0
  0
VERTEX
  5
155
330
142
100
AcDbEntity
  8
Visible (ANSI)
100
AcDbVertex
100
AcDb2dVertex
 10
58.0712757275642
 20
30.15413364672138
 30
0.0
  0
VERTEX
  5
156
330
142
100
AcDbEntity
  8
Visible (ANSI)
100
AcDbVertex
100
AcDb2dVertex
 10
58.06475770152765
 20
30.15202150685434
 30
0.0
  0
VERTEX
  5
157
330
142
100
AcDbEntity
  8
Visible (ANSI)
100
AcDbVertex
100
AcDb2dVertex
 10
58.05805945357305
 20
30.14990936698729
 30
0.0
  0
VERTEX
  5
158
330
142
100
AcDbEntity
  8
Visible (ANSI)
100
AcDbVertex
100
AcDb2dVertex
 10
58.05121102068674
 20
30.14779723885344
 30
0.0
  0
VERTEX
  5
159
330
142
100
AcDbEntity
  8
Visible (ANSI)
100
AcDbVertex
100
AcDb2dVertex
 10
58.04424243985504
 20
30.14568509898639
 30
0.0
  0
VERTEX
  5
15A
330
142
100
AcDbEntity
  8
Visible (ANSI)
100
AcDbVertex
100
AcDb2dVertex
 10
58.03718374806432
 20
30.14357295911935
 30
0.0
  0
VERTEX
  5
15B
330
142
100
AcDbEntity
  8
Visible (ANSI)
100
AcDbVertex
100
AcDb2dVertex
 10
58.03006197860227
 20
30.1414608309855
 30
0.0
  0
VERTEX
  5
15C
330
142
100
AcDbEntity
  8
Visible (ANSI)
100
AcDbVertex
100
AcDb2dVertex
 10
58.02291017215388
 20
30.13934869111845
 30
0.0
  0
SEQEND
  5
145
330
142
100
AcDbEntity
  8
Visible (ANSI)
  0
POLYLINE
  5
15D
330
6C
100
AcDbEntity
  8
Visible (ANSI)
100
AcDb2dPolyline
 66
     1
 10
0.0
 20
0.0
 30
0.0
 70
   128
  0
VERTEX
  5
15E
330
15D
100
AcDbEntity
  8
Visible (ANSI)
100
AcDbVertex
100
AcDb2dVertex
 10
26.24161030230866
 20
69.80864952983671
 30
0.0
  0
VERTEX
  5
15F
330
15D
100
AcDbEntity
  8
Visible (ANSI)
100
AcDbVertex
100
AcDb2dVertex
 10
26.2437224421757
 20
69.81580133628511
 30
0.0
  0
VERTEX
  5
161
330
15D
100
AcDbEntity
  8
Visible (ANSI)
100
AcDbVertex
100
AcDb2dVertex
 10
26.24583457030955
 20
69.82292310574713
 30
0.0
  0
VERTEX
  5
162
330
15D
100
AcDbEntity
  8
Visible (ANSI)
100
AcDbVertex
100
AcDb2dVertex
 10
26.2479467101766
 20
69.82998179753787
 30
0.0
  0
VERTEX
  5
163
330
15D
100
AcDbEntity
  8
Visible (ANSI)
100
AcDbVertex
100
AcDb2dVertex
 10
26.25005885004365
 20
69.83695037836955
 30
0.0
  0
VERTEX
  5
164
330
15D
100
AcDbEntity
  8
Visible (ANSI)
100
AcDbVertex
100
AcDb2dVertex
 10
26.2521709781775
 20
69.84379881125588
 30
0.0
  0
VERTEX
  5
165
330
15D
100
AcDbEntity
  8
Visible (ANSI)
100
AcDbVertex
100
AcDb2dVertex
 10
26.25428311804454
 20
69.85049405551186
 30
0.0
  0
VERTEX
  5
166
330
15D
100
AcDbEntity
  8
Visible (ANSI)
100
AcDbVertex
100
AcDb2dVertex
 10
26.25639525791159
 20
69.85701208154839
 30
0.0
  0
VERTEX
  5
167
330
15D
100
AcDbEntity
  8
Visible (ANSI)
100
AcDbVertex
100
AcDb2dVertex
 10
26.25850738604544
 20
69.86332285237915
 30
0.0
  0
VERTEX
  5
168
330
15D
100
AcDbEntity
  8
Visible (ANSI)
100
AcDbVertex
100
AcDb2dVertex
 10
26.26061952591248
 20
69.86939933471645
 30
0.0
  0
VERTEX
  5
169
330
15D
100
AcDbEntity
  8
Visible (ANSI)
100
AcDbVertex
100
AcDb2dVertex
 10
26.26273166577953
 20
69.87521749897118
 30
0.0
  0
VERTEX
  5
16A
330
15D
100
AcDbEntity
  8
Visible (ANSI)
100
AcDbVertex
100
AcDb2dVertex
 10
26.26484379391338
 20
69.88074730815704
 30
0.0
  0
VERTEX
  5
16B
330
15D
100
AcDbEntity
  8
Visible (ANSI)
100
AcDbVertex
100
AcDb2dVertex
 10
26.26695593378043
 20
69.88597074008215
 30
0.0
  0
VERTEX
  5
16C
330
15D
100
AcDbEntity
  8
Visible (ANSI)
100
AcDbVertex
100
AcDb2dVertex
 10
26.26906806191427
 20
69.89086376515752
 30
0.0
  0
VERTEX
  5
16D
330
15D
100
AcDbEntity
  8
Visible (ANSI)
100
AcDbVertex
100
AcDb2dVertex
 10
26.27118020178132
 20
69.89540235379401
 30
0.0
  0
VERTEX
  5
16E
330
15D
100
AcDbEntity
  8
Visible (ANSI)
100
AcDbVertex
100
AcDb2dVertex
 10
26.27329234164837
 20
69.89956848379986
 30
0.0
  0
VERTEX
  5
16F
330
15D
100
AcDbEntity
  8
Visible (ANSI)
100
AcDbVertex
100
AcDb2dVertex
 10
26.27540446978222
 20
69.90334713668187
 30
0.0
  0
VERTEX
  5
170
330
15D
100
AcDbEntity
  8
Visible (ANSI)
100
AcDbVertex
100
AcDb2dVertex
 10
26.27751660964926
 20
69.90672029024826
 30
0.0
  0
VERTEX
  5
171
330
15D
100
AcDbEntity
  8
Visible (ANSI)
100
AcDbVertex
100
AcDb2dVertex
 10
26.27962874951631
 20
69.90967592970445
 30
0.0
  0
VERTEX
  5
172
330
15D
100
AcDbEntity
  8
Visible (ANSI)
100
AcDbVertex
100
AcDb2dVertex
 10
26.28174087765016
 20
69.91219603285869
 30
0.0
  0
VERTEX
  5
173
330
15D
100
AcDbEntity
  8
Visible (ANSI)
100
AcDbVertex
100
AcDb2dVertex
 10
26.28385301751721
 20
69.91427158861501
 30
0.0
  0
VERTEX
  5
174
330
15D
100
AcDbEntity
  8
Visible (ANSI)
100
AcDbVertex
100
AcDb2dVertex
 10
26.28596515738425
 20
69.91589658957619
 30
0.0
  0
VERTEX
  5
175
330
15D
100
AcDbEntity
  8
Visible (ANSI)
100
AcDbVertex
100
AcDb2dVertex
 10
26.2880772855181
 20
69.91706202464633
 30
0.0
  0
VERTEX
  5
176
330
15D
100
AcDbEntity
  8
Visible (ANSI)
100
AcDbVertex
100
AcDb2dVertex
 10
26.29018942538515
 20
69.91776489012675
 30
0.0
  0
VERTEX
  5
177
330
15D
100
AcDbEntity
  8
Visible (ANSI)
100
AcDbVertex
100
AcDb2dVertex
 10
26.2923015652522
 20
69.91799917862024
 30
0.0
  0
SEQEND
  5
160
330
15D
100
AcDbEntity
  8
Visible (ANSI)
  0
POLYLINE
  5
178
330
6C
100
AcDbEntity
  8
Visible (ANSI)
100
AcDb2dPolyline
 66
     1
 10
0.0
 20
0.0
 30
0.0
 70
   128
  0
VERTEX
  5
179
330
178
100
AcDbEntity
  8
Visible (ANSI)
100
AcDbVertex
100
AcDb2dVertex
 10
57.97221975400059
 20
69.91799917862024
 30
0.0
  0
VERTEX
  5
17A
330
178
100
AcDbEntity
  8
Visible (ANSI)
100
AcDbVertex
100
AcDb2dVertex
 10
57.97433135414054
 20
69.91776489012675
 30
0.0
  0
VERTEX
  5
17C
330
178
100
AcDbEntity
  8
Visible (ANSI)
100
AcDbVertex
100
AcDb2dVertex
 10
57.97644295428048
 20
69.91706202464633
 30
0.0
  0
VERTEX
  5
17D
330
178
100
AcDbEntity
  8
Visible (ANSI)
100
AcDbVertex
100
AcDb2dVertex
 10
57.97855455442043
 20
69.91589658957619
 30
0.0
  0
VERTEX
  5
17E
330
178
100
AcDbEntity
  8
Visible (ANSI)
100
AcDbVertex
100
AcDb2dVertex
 10
57.98066615456038
 20
69.91427158861501
 30
0.0
  0
VERTEX
  5
17F
330
178
100
AcDbEntity
  8
Visible (ANSI)
100
AcDbVertex
100
AcDb2dVertex
 10
57.98278075839895
 20
69.91219603285869
 30
0.0
  0
VERTEX
  5
180
330
178
100
AcDbEntity
  8
Visible (ANSI)
100
AcDbVertex
100
AcDb2dVertex
 10
57.98489235853891
 20
69.90967592970445
 30
0.0
  0
VERTEX
  5
181
330
178
100
AcDbEntity
  8
Visible (ANSI)
100
AcDbVertex
100
AcDb2dVertex
 10
57.98700395867886
 20
69.90672029024826
 30
0.0
  0
VERTEX
  5
182
330
178
100
AcDbEntity
  8
Visible (ANSI)
100
AcDbVertex
100
AcDb2dVertex
 10
57.98911555881882
 20
69.90334713668187
 30
0.0
  0
VERTEX
  5
183
330
178
100
AcDbEntity
  8
Visible (ANSI)
100
AcDbVertex
100
AcDb2dVertex
 10
57.99122715895876
 20
69.89956848379986
 30
0.0
  0
VERTEX
  5
184
330
178
100
AcDbEntity
  8
Visible (ANSI)
100
AcDbVertex
100
AcDb2dVertex
 10
57.99334176279733
 20
69.89540235379401
 30
0.0
  0
VERTEX
  5
185
330
178
100
AcDbEntity
  8
Visible (ANSI)
100
AcDbVertex
100
AcDb2dVertex
 10
57.99545336293729
 20
69.89086376515752
 30
0.0
  0
VERTEX
  5
186
330
178
100
AcDbEntity
  8
Visible (ANSI)
100
AcDbVertex
100
AcDb2dVertex
 10
57.99756496307724
 20
69.88597074008215
 30
0.0
  0
VERTEX
  5
187
330
178
100
AcDbEntity
  8
Visible (ANSI)
100
AcDbVertex
100
AcDb2dVertex
 10
57.99967656321718
 20
69.88074730815704
 30
0.0
  0
VERTEX
  5
188
330
178
100
AcDbEntity
  8
Visible (ANSI)
100
AcDbVertex
100
AcDb2dVertex
 10
58.00178816335713
 20
69.87521749897118
 30
0.0
  0
VERTEX
  5
189
330
178
100
AcDbEntity
  8
Visible (ANSI)
100
AcDbVertex
100
AcDb2dVertex
 10
58.00389976349708
 20
69.86939933471645
 30
0.0
  0
VERTEX
  5
18A
330
178
100
AcDbEntity
  8
Visible (ANSI)
100
AcDbVertex
100
AcDb2dVertex
 10
58.00601436733566
 20
69.86332285237915
 30
0.0
  0
VERTEX
  5
18B
330
178
100
AcDbEntity
  8
Visible (ANSI)
100
AcDbVertex
100
AcDb2dVertex
 10
58.00812596747562
 20
69.85701208154839
 30
0.0
  0
VERTEX
  5
18C
330
178
100
AcDbEntity
  8
Visible (ANSI)
100
AcDbVertex
100
AcDb2dVertex
 10
58.01023756761556
 20
69.85049405551186
 30
0.0
  0
VERTEX
  5
18D
330
178
100
AcDbEntity
  8
Visible (ANSI)
100
AcDbVertex
100
AcDb2dVertex
 10
58.01234916775552
 20
69.84379881125588
 30
0.0
  0
VERTEX
  5
18E
330
178
100
AcDbEntity
  8
Visible (ANSI)
100
AcDbVertex
100
AcDb2dVertex
 10
58.01446076789545
 20
69.83695037836955
 30
0.0
  0
VERTEX
  5
18F
330
178
100
AcDbEntity
  8
Visible (ANSI)
100
AcDbVertex
100
AcDb2dVertex
 10
58.01657537173404
 20
69.82998179753787
 30
0.0
  0
VERTEX
  5
190
330
178
100
AcDbEntity
  8
Visible (ANSI)
100
AcDbVertex
100
AcDb2dVertex
 10
58.018686971874
 20
69.82292310574713
 30
0.0
  0
VERTEX
  5
191
330
178
100
AcDbEntity
  8
Visible (ANSI)
100
AcDbVertex
100
AcDb2dVertex
 10
58.02079857201394
 20
69.81580133628511
 30
0.0
  0
VERTEX
  5
192
330
178
100
AcDbEntity
  8
Visible (ANSI)
100
AcDbVertex
100
AcDb2dVertex
 10
58.02291017215388
 20
69.80864952983671
 30
0.0
  0
SEQEND
  5
17B
330
178
100
AcDbEntity
  8
Visible (ANSI)
  0
POLYLINE
  5
193
330
6C
100
AcDbEntity
  8
Visible (ANSI)
100
AcDb2dPolyline
 66
     1
 10
0.0
 20
0.0
 30
0.0
 70
   128
  0
VERTEX
  5
194
330
193
100
AcDbEntity
  8
Visible (ANSI)
100
AcDbVertex
100
AcDb2dVertex
 10
26.24161030230866
 20
30.13934869111845
 30
0.0
  0
VERTEX
  5
195
330
193
100
AcDbEntity
  8
Visible (ANSI)
100
AcDbVertex
100
AcDb2dVertex
 10
26.23445847239387
 20
30.1414608309855
 30
0.0
  0
VERTEX
  5
197
330
193
100
AcDbEntity
  8
Visible (ANSI)
100
AcDbVertex
100
AcDb2dVertex
 10
26.22733726025872
 20
30.14357295911935
 30
0.0
  0
VERTEX
  5
198
330
193
100
AcDbEntity
  8
Visible (ANSI)
100
AcDbVertex
100
AcDb2dVertex
 10
26.22027717221746
 20
30.14568509898639
 30
0.0
  0
VERTEX
  5
199
330
193
100
AcDbEntity
  8
Visible (ANSI)
100
AcDbVertex
100
AcDb2dVertex
 10
26.2133084388542
 20
30.14779723885344
 30
0.0
  0
VERTEX
  5
19A
330
193
100
AcDbEntity
  8
Visible (ANSI)
100
AcDbVertex
100
AcDb2dVertex
 10
26.20646089769091
 20
30.14990936698729
 30
0.0
  0
VERTEX
  5
19B
330
193
100
AcDbEntity
  8
Visible (ANSI)
100
AcDbVertex
100
AcDb2dVertex
 10
26.19976386998888
 20
30.15202150685434
 30
0.0
  0
VERTEX
  5
19C
330
193
100
AcDbEntity
  8
Visible (ANSI)
100
AcDbVertex
100
AcDb2dVertex
 10
26.19324603168351
 20
30.15413364672138
 30
0.0
  0
VERTEX
  5
19D
330
193
100
AcDbEntity
  8
Visible (ANSI)
100
AcDbVertex
100
AcDb2dVertex
 10
26.18693530191892
 20
30.15624577485523
 30
0.0
  0
VERTEX
  5
19E
330
193
100
AcDbEntity
  8
Visible (ANSI)
100
AcDbVertex
100
AcDb2dVertex
 10
26.18085869638306
 20
30.15835791472228
 30
0.0
  0
VERTEX
  5
19F
330
193
100
AcDbEntity
  8
Visible (ANSI)
100
AcDbVertex
100
AcDb2dVertex
 10
26.1750422393086
 20
30.16047005458933
 30
0.0
  0
VERTEX
  5
1A0
330
193
100
AcDbEntity
  8
Visible (ANSI)
100
AcDbVertex
100
AcDb2dVertex
 10
26.16951083734116
 20
30.16258218272318
 30
0.0
  0
VERTEX
  5
1A1
330
193
100
AcDbEntity
  8
Visible (ANSI)
100
AcDbVertex
100
AcDb2dVertex
 10
26.16428817394048
 20
30.16469432259022
 30
0.0
  0
VERTEX
  5
1A2
330
193
100
AcDbEntity
  8
Visible (ANSI)
100
AcDbVertex
100
AcDb2dVertex
 10
26.15939661844814
 20
30.16680645072407
 30
0.0
  0
VERTEX
  5
1A3
330
193
100
AcDbEntity
  8
Visible (ANSI)
100
AcDbVertex
100
AcDb2dVertex
 10
26.15485711315557
 20
30.16891859059112
 30
0.0
  0
VERTEX
  5
1A4
330
193
100
AcDbEntity
  8
Visible (ANSI)
100
AcDbVertex
100
AcDb2dVertex
 10
26.15068909997148
 20
30.17103073045817
 30
0.0
  0
VERTEX
  5
1A5
330
193
100
AcDbEntity
  8
Visible (ANSI)
100
AcDbVertex
100
AcDb2dVertex
 10
26.14691042362307
 20
30.17314285859202
 30
0.0
  0
VERTEX
  5
1A6
330
193
100
AcDbEntity
  8
Visible (ANSI)
100
AcDbVertex
100
AcDb2dVertex
 10
26.1435372671234
 20
30.17525499845906
 30
0.0
  0
VERTEX
  5
1A7
330
193
100
AcDbEntity
  8
Visible (ANSI)
100
AcDbVertex
100
AcDb2dVertex
 10
26.14058407477226
 20
30.1773671383261
 30
0.0
  0
VERTEX
  5
1A8
330
193
100
AcDbEntity
  8
Visible (ANSI)
100
AcDbVertex
100
AcDb2dVertex
 10
26.13806349202358
 20
30.17947926645996
 30
0.0
  0
VERTEX
  5
1A9
330
193
100
AcDbEntity
  8
Visible (ANSI)
100
AcDbVertex
100
AcDb2dVertex
 10
26.13598631231934
 20
30.181591406327
 30
0.0
  0
VERTEX
  5
1AA
330
193
100
AcDbEntity
  8
Visible (ANSI)
100
AcDbVertex
100
AcDb2dVertex
 10
26.13436143107343
 20
30.18370354619405
 30
0.0
  0
VERTEX
  5
1AB
330
193
100
AcDbEntity
  8
Visible (ANSI)
100
AcDbVertex
100
AcDb2dVertex
 10
26.1331958059805
 20
30.1858156743279
 30
0.0
  0
VERTEX
  5
1AC
330
193
100
AcDbEntity
  8
Visible (ANSI)
100
AcDbVertex
100
AcDb2dVertex
 10
26.13249442827871
 20
30.18792781419494
 30
0.0
  0
VERTEX
  5
1AD
330
193
100
AcDbEntity
  8
Visible (ANSI)
100
AcDbVertex
100
AcDb2dVertex
 10
26.1322603015292
 20
30.19003995406199
 30
0.0
  0
SEQEND
  5
196
330
193
100
AcDbEntity
  8
Visible (ANSI)
  0
POLYLINE
  5
1AE
330
6C
100
AcDbEntity
  8
Visible (ANSI)
100
AcDb2dPolyline
 66
     1
 10
0.0
 20
0.0
 30
0.0
 70
   128
  0
VERTEX
  5
1AF
330
1AE
100
AcDbEntity
  8
Visible (ANSI)
100
AcDbVertex
100
AcDb2dVertex
 10
26.13226030152919
 20
69.75795610798479
 30
0.0
  0
VERTEX
  5
1B0
330
1AE
100
AcDbEntity
  8
Visible (ANSI)
100
AcDbVertex
100
AcDb2dVertex
 10
26.13249442827871
 20
69.76007071182336
 30
0.0
  0
VERTEX
  5
1B2
330
1AE
100
AcDbEntity
  8
Visible (ANSI)
100
AcDbVertex
100
AcDb2dVertex
 10
26.1331958059805
 20
69.76218231196331
 30
0.0
  0
VERTEX
  5
1B3
330
1AE
100
AcDbEntity
  8
Visible (ANSI)
100
AcDbVertex
100
AcDb2dVertex
 10
26.13436143107343
 20
69.76429391210327
 30
0.0
  0
VERTEX
  5
1B4
330
1AE
100
AcDbEntity
  8
Visible (ANSI)
100
AcDbVertex
100
AcDb2dVertex
 10
26.13598631231934
 20
69.76640551224321
 30
0.0
  0
VERTEX
  5
1B5
330
1AE
100
AcDbEntity
  8
Visible (ANSI)
100
AcDbVertex
100
AcDb2dVertex
 10
26.13806349202358
 20
69.76851711238315
 30
0.0
  0
VERTEX
  5
1B6
330
1AE
100
AcDbEntity
  8
Visible (ANSI)
100
AcDbVertex
100
AcDb2dVertex
 10
26.14058407477226
 20
69.77063171622174
 30
0.0
  0
VERTEX
  5
1B7
330
1AE
100
AcDbEntity
  8
Visible (ANSI)
100
AcDbVertex
100
AcDb2dVertex
 10
26.1435372671234
 20
69.7727433163617
 30
0.0
  0
VERTEX
  5
1B8
330
1AE
100
AcDbEntity
  8
Visible (ANSI)
100
AcDbVertex
100
AcDb2dVertex
 10
26.14691042362307
 20
69.77485491650163
 30
0.0
  0
VERTEX
  5
1B9
330
1AE
100
AcDbEntity
  8
Visible (ANSI)
100
AcDbVertex
100
AcDb2dVertex
 10
26.15068909997148
 20
69.77696651664158
 30
0.0
  0
VERTEX
  5
1BA
330
1AE
100
AcDbEntity
  8
Visible (ANSI)
100
AcDbVertex
100
AcDb2dVertex
 10
26.15485711315557
 20
69.77907811678154
 30
0.0
  0
VERTEX
  5
1BB
330
1AE
100
AcDbEntity
  8
Visible (ANSI)
100
AcDbVertex
100
AcDb2dVertex
 10
26.15939661844814
 20
69.78118971692149
 30
0.0
  0
VERTEX
  5
1BC
330
1AE
100
AcDbEntity
  8
Visible (ANSI)
100
AcDbVertex
100
AcDb2dVertex
 10
26.16428817394048
 20
69.78330432076005
 30
0.0
  0
VERTEX
  5
1BD
330
1AE
100
AcDbEntity
  8
Visible (ANSI)
100
AcDbVertex
100
AcDb2dVertex
 10
26.16951083734116
 20
69.7854159209
 30
0.0
  0
VERTEX
  5
1BE
330
1AE
100
AcDbEntity
  8
Visible (ANSI)
100
AcDbVertex
100
AcDb2dVertex
 10
26.1750422393086
 20
69.78752752103997
 30
0.0
  0
VERTEX
  5
1BF
330
1AE
100
AcDbEntity
  8
Visible (ANSI)
100
AcDbVertex
100
AcDb2dVertex
 10
26.18085869638306
 20
69.78963912117992
 30
0.0
  0
VERTEX
  5
1C0
330
1AE
100
AcDbEntity
  8
Visible (ANSI)
100
AcDbVertex
100
AcDb2dVertex
 10
26.18693530191892
 20
69.79175072131986
 30
0.0
  0
VERTEX
  5
1C1
330
1AE
100
AcDbEntity
  8
Visible (ANSI)
100
AcDbVertex
100
AcDb2dVertex
 10
26.19324603168351
 20
69.7938623214598
 30
0.0
  0
VERTEX
  5
1C2
330
1AE
100
AcDbEntity
  8
Visible (ANSI)
100
AcDbVertex
100
AcDb2dVertex
 10
26.19976386998888
 20
69.79597692529839
 30
0.0
  0
VERTEX
  5
1C3
330
1AE
100
AcDbEntity
  8
Visible (ANSI)
100
AcDbVertex
100
AcDb2dVertex
 10
26.20646089769091
 20
69.79808852543833
 30
0.0
  0
VERTEX
  5
1C4
330
1AE
100
AcDbEntity
  8
Visible (ANSI)
100
AcDbVertex
100
AcDb2dVertex
 10
26.2133084388542
 20
69.80020012557827
 30
0.0
  0
VERTEX
  5
1C5
330
1AE
100
AcDbEntity
  8
Visible (ANSI)
100
AcDbVertex
100
AcDb2dVertex
 10
26.22027717221746
 20
69.80231172571824
 30
0.0
  0
VERTEX
  5
1C6
330
1AE
100
AcDbEntity
  8
Visible (ANSI)
100
AcDbVertex
100
AcDb2dVertex
 10
26.22733726025872
 20
69.8044233258582
 30
0.0
  0
VERTEX
  5
1C7
330
1AE
100
AcDbEntity
  8
Visible (ANSI)
100
AcDbVertex
100
AcDb2dVertex
 10
26.23445847239387
 20
69.80653792969675
 30
0.0
  0
VERTEX
  5
1C8
330
1AE
100
AcDbEntity
  8
Visible (ANSI)
100
AcDbVertex
100
AcDb2dVertex
 10
26.24161030230866
 20
69.80864952983671
 30
0.0
  0
SEQEND
  5
1B1
330
1AE
100
AcDbEntity
  8
Visible (ANSI)
  0
POLYLINE
  5
1C9
330
6C
100
AcDbEntity
  8
Visible (ANSI)
100
AcDb2dPolyline
 66
     1
 10
0.0
 20
0.0
 30
0.0
 70
   128
  0
VERTEX
  5
1CA
330
1C9
100
AcDbEntity
  8
Visible (ANSI)
100
AcDbVertex
100
AcDb2dVertex
 10
58.02291017215388
 20
30.13934869111845
 30
0.0
  0
VERTEX
  5
1CB
330
1C9
100
AcDbEntity
  8
Visible (ANSI)
100
AcDbVertex
100
AcDb2dVertex
 10
58.02079857201394
 20
30.13219686120367
 30
0.0
  0
VERTEX
  5
1CD
330
1C9
100
AcDbEntity
  8
Visible (ANSI)
100
AcDbVertex
100
AcDb2dVertex
 10
58.018686971874
 20
30.12507564906852
 30
0.0
  0
VERTEX
  5
1CE
330
1C9
100
AcDbEntity
  8
Visible (ANSI)
100
AcDbVertex
100
AcDb2dVertex
 10
58.01657537173404
 20
30.11801556102726
 30
0.0
  0
VERTEX
  5
1CF
330
1C9
100
AcDbEntity
  8
Visible (ANSI)
100
AcDbVertex
100
AcDb2dVertex
 10
58.01446076789545
 20
30.11104682766399
 30
0.0
  0
VERTEX
  5
1D0
330
1C9
100
AcDbEntity
  8
Visible (ANSI)
100
AcDbVertex
100
AcDb2dVertex
 10
58.01234916775552
 20
30.10419928650071
 30
0.0
  0
VERTEX
  5
1D1
330
1C9
100
AcDbEntity
  8
Visible (ANSI)
100
AcDbVertex
100
AcDb2dVertex
 10
58.01023756761556
 20
30.09750225879868
 30
0.0
  0
VERTEX
  5
1D2
330
1C9
100
AcDbEntity
  8
Visible (ANSI)
100
AcDbVertex
100
AcDb2dVertex
 10
58.00812596747562
 20
30.0909844204933
 30
0.0
  0
VERTEX
  5
1D3
330
1C9
100
AcDbEntity
  8
Visible (ANSI)
100
AcDbVertex
100
AcDb2dVertex
 10
58.00601436733566
 20
30.08467369072872
 30
0.0
  0
VERTEX
  5
1D4
330
1C9
100
AcDbEntity
  8
Visible (ANSI)
100
AcDbVertex
100
AcDb2dVertex
 10
58.00389976349708
 20
30.07859708519286
 30
0.0
  0
VERTEX
  5
1D5
330
1C9
100
AcDbEntity
  8
Visible (ANSI)
100
AcDbVertex
100
AcDb2dVertex
 10
58.00178816335713
 20
30.0727806281184
 30
0.0
  0
VERTEX
  5
1D6
330
1C9
100
AcDbEntity
  8
Visible (ANSI)
100
AcDbVertex
100
AcDb2dVertex
 10
57.99967656321718
 20
30.06724922615096
 30
0.0
  0
VERTEX
  5
1D7
330
1C9
100
AcDbEntity
  8
Visible (ANSI)
100
AcDbVertex
100
AcDb2dVertex
 10
57.99756496307724
 20
30.06202656275028
 30
0.0
  0
VERTEX
  5
1D8
330
1C9
100
AcDbEntity
  8
Visible (ANSI)
100
AcDbVertex
100
AcDb2dVertex
 10
57.99545336293729
 20
30.05713500725795
 30
0.0
  0
VERTEX
  5
1D9
330
1C9
100
AcDbEntity
  8
Visible (ANSI)
100
AcDbVertex
100
AcDb2dVertex
 10
57.99334176279733
 20
30.05259550196536
 30
0.0
  0
VERTEX
  5
1DA
330
1C9
100
AcDbEntity
  8
Visible (ANSI)
100
AcDbVertex
100
AcDb2dVertex
 10
57.99122715895876
 20
30.04842748878127
 30
0.0
  0
VERTEX
  5
1DB
330
1C9
100
AcDbEntity
  8
Visible (ANSI)
100
AcDbVertex
100
AcDb2dVertex
 10
57.98911555881882
 20
30.04464881243287
 30
0.0
  0
VERTEX
  5
1DC
330
1C9
100
AcDbEntity
  8
Visible (ANSI)
100
AcDbVertex
100
AcDb2dVertex
 10
57.98700395867886
 20
30.04127565593319
 30
0.0
  0
VERTEX
  5
1DD
330
1C9
100
AcDbEntity
  8
Visible (ANSI)
100
AcDbVertex
100
AcDb2dVertex
 10
57.98489235853891
 20
30.03832246358205
 30
0.0
  0
VERTEX
  5
1DE
330
1C9
100
AcDbEntity
  8
Visible (ANSI)
100
AcDbVertex
100
AcDb2dVertex
 10
57.98278075839895
 20
30.03580188083338
 30
0.0
  0
VERTEX
  5
1DF
330
1C9
100
AcDbEntity
  8
Visible (ANSI)
100
AcDbVertex
100
AcDb2dVertex
 10
57.98066615456038
 20
30.03372470112913
 30
0.0
  0
VERTEX
  5
1E0
330
1C9
100
AcDbEntity
  8
Visible (ANSI)
100
AcDbVertex
100
AcDb2dVertex
 10
57.97855455442043
 20
30.03209981988324
 30
0.0
  0
VERTEX
  5
1E1
330
1C9
100
AcDbEntity
  8
Visible (ANSI)
100
AcDbVertex
100
AcDb2dVertex
 10
57.97644295428048
 20
30.0309341947903
 30
0.0
  0
VERTEX
  5
1E2
330
1C9
100
AcDbEntity
  8
Visible (ANSI)
100
AcDbVertex
100
AcDb2dVertex
 10
57.97433135414054
 20
30.03023281708851
 30
0.0
  0
VERTEX
  5
1E3
330
1C9
100
AcDbEntity
  8
Visible (ANSI)
100
AcDbVertex
100
AcDb2dVertex
 10
57.97221975400059
 20
30.02999869033899
 30
0.0
  0
SEQEND
  5
1CC
330
1C9
100
AcDbEntity
  8
Visible (ANSI)
  0
POLYLINE
  5
1E4
330
6C
100
AcDbEntity
  8
Visible (ANSI)
100
AcDb2dPolyline
 66
     1
 10
0.0
 20
0.0
 30
0.0
 70
   128
  0
VERTEX
  5
1E5
330
1E4
100
AcDbEntity
  8
Visible (ANSI)
100
AcDbVertex
100
AcDb2dVertex
 10
26.2923015652522
 20
30.02999869033899
 30
0.0
  0
VERTEX
  5
1E6
330
1E4
100
AcDbEntity
  8
Visible (ANSI)
100
AcDbVertex
100
AcDb2dVertex
 10
26.29018942538515
 20
30.03023281708851
 30
0.0
  0
VERTEX
  5
1E8
330
1E4
100
AcDbEntity
  8
Visible (ANSI)
100
AcDbVertex
100
AcDb2dVertex
 10
26.2880772855181
 20
30.0309341947903
 30
0.0
  0
VERTEX
  5
1E9
330
1E4
100
AcDbEntity
  8
Visible (ANSI)
100
AcDbVertex
100
AcDb2dVertex
 10
26.28596515738425
 20
30.03209981988324
 30
0.0
  0
VERTEX
  5
1EA
330
1E4
100
AcDbEntity
  8
Visible (ANSI)
100
AcDbVertex
100
AcDb2dVertex
 10
26.28385301751721
 20
30.03372470112913
 30
0.0
  0
VERTEX
  5
1EB
330
1E4
100
AcDbEntity
  8
Visible (ANSI)
100
AcDbVertex
100
AcDb2dVertex
 10
26.28174087765016
 20
30.03580188083338
 30
0.0
  0
VERTEX
  5
1EC
330
1E4
100
AcDbEntity
  8
Visible (ANSI)
100
AcDbVertex
100
AcDb2dVertex
 10
26.27962874951631
 20
30.03832246358205
 30
0.0
  0
VERTEX
  5
1ED
330
1E4
100
AcDbEntity
  8
Visible (ANSI)
100
AcDbVertex
100
AcDb2dVertex
 10
26.27751660964926
 20
30.04127565593319
 30
0.0
  0
VERTEX
  5
1EE
330
1E4
100
AcDbEntity
  8
Visible (ANSI)
100
AcDbVertex
100
AcDb2dVertex
 10
26.27540446978222
 20
30.04464881243287
 30
0.0
  0
VERTEX
  5
1EF
330
1E4
100
AcDbEntity
  8
Visible (ANSI)
100
AcDbVertex
100
AcDb2dVertex
 10
26.27329234164837
 20
30.04842748878127
 30
0.0
  0
VERTEX
  5
1F0
330
1E4
100
AcDbEntity
  8
Visible (ANSI)
100
AcDbVertex
100
AcDb2dVertex
 10
26.27118020178132
 20
30.05259550196536
 30
0.0
  0
VERTEX
  5
1F1
330
1E4
100
AcDbEntity
  8
Visible (ANSI)
100
AcDbVertex
100
AcDb2dVertex
 10
26.26906806191427
 20
30.05713500725795
 30
0.0
  0
VERTEX
  5
1F2
330
1E4
100
AcDbEntity
  8
Visible (ANSI)
100
AcDbVertex
100
AcDb2dVertex
 10
26.26695593378043
 20
30.06202656275028
 30
0.0
  0
VERTEX
  5
1F3
330
1E4
100
AcDbEntity
  8
Visible (ANSI)
100
AcDbVertex
100
AcDb2dVertex
 10
26.26484379391338
 20
30.06724922615096
 30
0.0
  0
VERTEX
  5
1F4
330
1E4
100
AcDbEntity
  8
Visible (ANSI)
100
AcDbVertex
100
AcDb2dVertex
 10
26.26273166577953
 20
30.0727806281184
 30
0.0
  0
VERTEX
  5
1F5
330
1E4
100
AcDbEntity
  8
Visible (ANSI)
100
AcDbVertex
100
AcDb2dVertex
 10
26.26061952591248
 20
30.07859708519286
 30
0.0
  0
VERTEX
  5
1F6
330
1E4
100
AcDbEntity
  8
Visible (ANSI)
100
AcDbVertex
100
AcDb2dVertex
 10
26.25850738604544
 20
30.08467369072872
 30
0.0
  0
VERTEX
  5
1F7
330
1E4
100
AcDbEntity
  8
Visible (ANSI)
100
AcDbVertex
100
AcDb2dVertex
 10
26.25639525791159
 20
30.0909844204933
 30
0.0
  0
VERTEX
  5
1F8
330
1E4
100
AcDbEntity
  8
Visible (ANSI)
100
AcDbVertex
100
AcDb2dVertex
 10
26.25428311804454
 20
30.09750225879868
 30
0.0
  0
VERTEX
  5
1F9
330
1E4
100
AcDbEntity
  8
Visible (ANSI)
100
AcDbVertex
100
AcDb2dVertex
 10
26.2521709781775
 20
30.10419928650071
 30
0.0
  0
VERTEX
  5
1FA
330
1E4
100
AcDbEntity
  8
Visible (ANSI)
100
AcDbVertex
100
AcDb2dVertex
 10
26.25005885004365
 20
30.11104682766399
 30
0.0
  0
VERTEX
  5
1FB
330
1E4
100
AcDbEntity
  8
Visible (ANSI)
100
AcDbVertex
100
AcDb2dVertex
 10
26.2479467101766
 20
30.11801556102726
 30
0.0
  0
VERTEX
  5
1FC
330
1E4
100
AcDbEntity
  8
Visible (ANSI)
100
AcDbVertex
100
AcDb2dVertex
 10
26.24583457030955
 20
30.12507564906852
 30
0.0
  0
VERTEX
  5
1FD
330
1E4
100
AcDbEntity
  8
Visible (ANSI)
100
AcDbVertex
100
AcDb2dVertex
 10
26.2437224421757
 20
30.13219686120367
 30
0.0
  0
VERTEX
  5
1FE
330
1E4
100
AcDbEntity
  8
Visible (ANSI)
100
AcDbVertex
100
AcDb2dVertex
 10
26.24161030230866
 20
30.13934869111845
 30
0.0
  0
SEQEND
  5
1E7
330
1E4
100
AcDbEntity
  8
Visible (ANSI)
  0
LINE
  5
1FF
330
6C
100
AcDbEntity
  8
Hidden (ANSI)
 48
0.0177565310150385
100
AcDbLine
 10
58.0385103015292
 20
30.19003995107523
 30
0.0
 11
58.1322603015292
 21
30.19003995107523
 31
0.0
  0
POLYLINE
  5
200
330
6C
100
AcDbEntity
  8
Hidden (ANSI)
 48
0.0106237288564444
100
AcDb2dPolyline
 66
     1
 10
0.0
 20
0.0
 30
0.0
 70
   128
  0
VERTEX
  5
201
330
200
100
AcDbEntity
  8
Hidden (ANSI)
 48
0.0106237288564444
100
AcDbVertex
100
AcDb2dVertex
 10
58.02291017215388
 20
30.13934869111845
 30
0.0
  0
VERTEX
  5
202
330
200
100
AcDbEntity
  8
Hidden (ANSI)
 48
0.0106237288564444
100
AcDbVertex
100
AcDb2dVertex
 10
58.02393142968956
 20
30.1414608309855
 30
0.0
  0
VERTEX
  5
204
330
200
100
AcDbEntity
  8
Hidden (ANSI)
 48
0.0106237288564444
100
AcDbVertex
100
AcDb2dVertex
 10
58.02494667982798
 20
30.14357295911935
 30
0.0
  0
VERTEX
  5
205
330
200
100
AcDbEntity
  8
Hidden (ANSI)
 48
0.0106237288564444
100
AcDbVertex
100
AcDb2dVertex
 10
58.02595291887048
 20
30.14568509898639
 30
0.0
  0
VERTEX
  5
206
330
200
100
AcDbEntity
  8
Hidden (ANSI)
 48
0.0106237288564444
100
AcDbVertex
100
AcDb2dVertex
 10
58.02694714311845
 20
30.14779723885344
 30
0.0
  0
VERTEX
  5
207
330
200
100
AcDbEntity
  8
Hidden (ANSI)
 48
0.0106237288564444
100
AcDbVertex
100
AcDb2dVertex
 10
58.02792334517462
 20
30.14990936698729
 30
0.0
  0
VERTEX
  5
208
330
200
100
AcDbEntity
  8
Hidden (ANSI)
 48
0.0106237288564444
100
AcDbVertex
100
AcDb2dVertex
 10
58.02888152503897
 20
30.15202150685434
 30
0.0
  0
VERTEX
  5
209
330
200
100
AcDbEntity
  8
Hidden (ANSI)
 48
0.0106237288564444
100
AcDbVertex
100
AcDb2dVertex
 10
58.02980966791698
 20
30.15413364672138
 30
0.0
  0
VERTEX
  5
20A
330
200
100
AcDbEntity
  8
Hidden (ANSI)
 48
0.0106237288564444
100
AcDbVertex
100
AcDb2dVertex
 10
58.03071077750729
 20
30.15624577485523
 30
0.0
  0
VERTEX
  5
20B
330
200
100
AcDbEntity
  8
Hidden (ANSI)
 48
0.0106237288564444
100
AcDbVertex
100
AcDb2dVertex
 10
58.03157584271398
 20
30.15835791472228
 30
0.0
  0
VERTEX
  5
20C
330
200
100
AcDbEntity
  8
Hidden (ANSI)
 48
0.0106237288564444
100
AcDbVertex
100
AcDb2dVertex
 10
58.0324078672357
 20
30.16047005458933
 30
0.0
  0
VERTEX
  5
20D
330
200
100
AcDbEntity
  8
Hidden (ANSI)
 48
0.0106237288564444
100
AcDbVertex
100
AcDb2dVertex
 10
58.03319483627791
 20
30.16258218272318
 30
0.0
  0
VERTEX
  5
20E
330
200
100
AcDbEntity
  8
Hidden (ANSI)
 48
0.0106237288564444
100
AcDbVertex
100
AcDb2dVertex
 10
58.03393975353922
 20
30.16469432259022
 30
0.0
  0
VERTEX
  5
20F
330
200
100
AcDbEntity
  8
Hidden (ANSI)
 48
0.0106237288564444
100
AcDbVertex
100
AcDb2dVertex
 10
58.03463961532102
 20
30.16680645072407
 30
0.0
  0
VERTEX
  5
210
330
200
100
AcDbEntity
  8
Hidden (ANSI)
 48
0.0106237288564444
100
AcDbVertex
100
AcDb2dVertex
 10
58.0352854105274
 20
30.16891859059112
 30
0.0
  0
VERTEX
  5
211
330
200
100
AcDbEntity
  8
Hidden (ANSI)
 48
0.0106237288564444
100
AcDbVertex
100
AcDb2dVertex
 10
58.03588014285701
 20
30.17103073045817
 30
0.0
  0
VERTEX
  5
212
330
200
100
AcDbEntity
  8
Hidden (ANSI)
 48
0.0106237288564444
100
AcDbVertex
100
AcDb2dVertex
 10
58.0364208086112
 20
30.17314285859202
 30
0.0
  0
VERTEX
  5
213
330
200
100
AcDbEntity
  8
Hidden (ANSI)
 48
0.0106237288564444
100
AcDbVertex
100
AcDb2dVertex
 10
58.03690140039269
 20
30.17525499845906
 30
0.0
  0
VERTEX
  5
214
330
200
100
AcDbEntity
  8
Hidden (ANSI)
 48
0.0106237288564444
100
AcDbVertex
100
AcDb2dVertex
 10
58.0373219182015
 20
30.1773671383261
 30
0.0
  0
VERTEX
  5
215
330
200
100
AcDbEntity
  8
Hidden (ANSI)
 48
0.0106237288564444
100
AcDbVertex
100
AcDb2dVertex
 10
58.03768236203762
 20
30.17947926645996
 30
0.0
  0
VERTEX
  5
216
330
200
100
AcDbEntity
  8
Hidden (ANSI)
 48
0.0106237288564444
100
AcDbVertex
100
AcDb2dVertex
 10
58.03797972820242
 20
30.181591406327
 30
0.0
  0
VERTEX
  5
217
330
200
100
AcDbEntity
  8
Hidden (ANSI)
 48
0.0106237288564444
100
AcDbVertex
100
AcDb2dVertex
 10
58.03821101299727
 20
30.18370354619405
 30
0.0
  0
VERTEX
  5
218
330
200
100
AcDbEntity
  8
Hidden (ANSI)
 48
0.0106237288564444
100
AcDbVertex
100
AcDb2dVertex
 10
58.03837621642216
 20
30.1858156743279
 30
0.0
  0
VERTEX
  5
219
330
200
100
AcDbEntity
  8
Hidden (ANSI)
 48
0.0106237288564444
100
AcDbVertex
100
AcDb2dVertex
 10
58.03847834217573
 20
30.18792781419494
 30
0.0
  0
VERTEX
  5
21A
330
200
100
AcDbEntity
  8
Hidden (ANSI)
 48
0.0106237288564444
100
AcDbVertex
100
AcDb2dVertex
 10
58.0385113828607
 20
30.19003995406199
 30
0.0
  0
SEQEND
  5
203
330
200
100
AcDbEntity
  8
Hidden (ANSI)
 48
0.0106237288564444
  0
LINE
  5
21B
330
6C
100
AcDbEntity
  8
Hidden (ANSI)
 48
0.0177565310150385
100
AcDbLine
 10
58.0385103015292
 20
69.75795742960276
 30
0.0
 11
58.13226030152918
 21
69.75795742960276
 31
0.0
  0
POLYLINE
  5
21C
330
6C
100
AcDbEntity
  8
Hidden (ANSI)
 48
0.0106240995228291
100
AcDb2dPolyline
 66
     1
 10
0.0
 20
0.0
 30
0.0
 70
   128
  0
VERTEX
  5
21D
330
21C
100
AcDbEntity
  8
Hidden (ANSI)
 48
0.0106240995228291
100
AcDbVertex
100
AcDb2dVertex
 10
58.02291017215388
 20
69.80864952983671
 30
0.0
  0
VERTEX
  5
21E
330
21C
100
AcDbEntity
  8
Hidden (ANSI)
 48
0.0106240995228291
100
AcDbVertex
100
AcDb2dVertex
 10
58.02393142968956
 20
69.80653792969675
 30
0.0
  0
VERTEX
  5
220
330
21C
100
AcDbEntity
  8
Hidden (ANSI)
 48
0.0106240995228291
100
AcDbVertex
100
AcDb2dVertex
 10
58.02494667982798
 20
69.8044233258582
 30
0.0
  0
VERTEX
  5
221
330
21C
100
AcDbEntity
  8
Hidden (ANSI)
 48
0.0106240995228291
100
AcDbVertex
100
AcDb2dVertex
 10
58.02595291887048
 20
69.80231172571824
 30
0.0
  0
VERTEX
  5
222
330
21C
100
AcDbEntity
  8
Hidden (ANSI)
 48
0.0106240995228291
100
AcDbVertex
100
AcDb2dVertex
 10
58.02694714311845
 20
69.80020012557827
 30
0.0
  0
VERTEX
  5
223
330
21C
100
AcDbEntity
  8
Hidden (ANSI)
 48
0.0106240995228291
100
AcDbVertex
100
AcDb2dVertex
 10
58.02792334517462
 20
69.79808852543833
 30
0.0
  0
VERTEX
  5
224
330
21C
100
AcDbEntity
  8
Hidden (ANSI)
 48
0.0106240995228291
100
AcDbVertex
100
AcDb2dVertex
 10
58.02888152503897
 20
69.79597692529839
 30
0.0
  0
VERTEX
  5
225
330
21C
100
AcDbEntity
  8
Hidden (ANSI)
 48
0.0106240995228291
100
AcDbVertex
100
AcDb2dVertex
 10
58.02980966791698
 20
69.7938623214598
 30
0.0
  0
VERTEX
  5
226
330
21C
100
AcDbEntity
  8
Hidden (ANSI)
 48
0.0106240995228291
100
AcDbVertex
100
AcDb2dVertex
 10
58.03071077750729
 20
69.79175072131986
 30
0.0
  0
VERTEX
  5
227
330
21C
100
AcDbEntity
  8
Hidden (ANSI)
 48
0.0106240995228291
100
AcDbVertex
100
AcDb2dVertex
 10
58.03157584271398
 20
69.78963912117992
 30
0.0
  0
VERTEX
  5
228
330
21C
100
AcDbEntity
  8
Hidden (ANSI)
 48
0.0106240995228291
100
AcDbVertex
100
AcDb2dVertex
 10
58.0324078672357
 20
69.78752752103997
 30
0.0
  0
VERTEX
  5
229
330
21C
100
AcDbEntity
  8
Hidden (ANSI)
 48
0.0106240995228291
100
AcDbVertex
100
AcDb2dVertex
 10
58.03319483627791
 20
69.7854159209
 30
0.0
  0
VERTEX
  5
22A
330
21C
100
AcDbEntity
  8
Hidden (ANSI)
 48
0.0106240995228291
100
AcDbVertex
100
AcDb2dVertex
 10
58.03393975353922
 20
69.78330432076005
 30
0.0
  0
VERTEX
  5
22B
330
21C
100
AcDbEntity
  8
Hidden (ANSI)
 48
0.0106240995228291
100
AcDbVertex
100
AcDb2dVertex
 10
58.03463961532102
 20
69.78118971692149
 30
0.0
  0
VERTEX
  5
22C
330
21C
100
AcDbEntity
  8
Hidden (ANSI)
 48
0.0106240995228291
100
AcDbVertex
100
AcDb2dVertex
 10
58.0352854105274
 20
69.77907811678154
 30
0.0
  0
VERTEX
  5
22D
330
21C
100
AcDbEntity
  8
Hidden (ANSI)
 48
0.0106240995228291
100
AcDbVertex
100
AcDb2dVertex
 10
58.03588014285701
 20
69.77696651664158
 30
0.0
  0
VERTEX
  5
22E
330
21C
100
AcDbEntity
  8
Hidden (ANSI)
 48
0.0106240995228291
100
AcDbVertex
100
AcDb2dVertex
 10
58.0364208086112
 20
69.77485491650163
 30
0.0
  0
VERTEX
  5
22F
330
21C
100
AcDbEntity
  8
Hidden (ANSI)
 48
0.0106240995228291
100
AcDbVertex
100
AcDb2dVertex
 10
58.03690140039269
 20
69.7727433163617
 30
0.0
  0
VERTEX
  5
230
330
21C
100
AcDbEntity
  8
Hidden (ANSI)
 48
0.0106240995228291
100
AcDbVertex
100
AcDb2dVertex
 10
58.0373219182015
 20
69.77063171622174
 30
0.0
  0
VERTEX
  5
231
330
21C
100
AcDbEntity
  8
Hidden (ANSI)
 48
0.0106240995228291
100
AcDbVertex
100
AcDb2dVertex
 10
58.03768236203762
 20
69.76851711238315
 30
0.0
  0
VERTEX
  5
232
330
21C
100
AcDbEntity
  8
Hidden (ANSI)
 48
0.0106240995228291
100
AcDbVertex
100
AcDb2dVertex
 10
58.03797972820242
 20
69.76640551224321
 30
0.0
  0
VERTEX
  5
233
330
21C
100
AcDbEntity
  8
Hidden (ANSI)
 48
0.0106240995228291
100
AcDbVertex
100
AcDb2dVertex
 10
58.03821101299727
 20
69.76429391210327
 30
0.0
  0
VERTEX
  5
234
330
21C
100
AcDbEntity
  8
Hidden (ANSI)
 48
0.0106240995228291
100
AcDbVertex
100
AcDb2dVertex
 10
58.03837621642216
 20
69.76218231196331
 30
0.0
  0
VERTEX
  5
235
330
21C
100
AcDbEntity
  8
Hidden (ANSI)
 48
0.0106240995228291
100
AcDbVertex
100
AcDb2dVertex
 10
58.03847834217573
 20
69.76007071182336
 30
0.0
  0
VERTEX
  5
236
330
21C
100
AcDbEntity
  8
Hidden (ANSI)
 48
0.0106240995228291
100
AcDbVertex
100
AcDb2dVertex
 10
58.0385113828607
 20
69.75795610798479
 30
0.0
  0
SEQEND
  5
21F
330
21C
100
AcDbEntity
  8
Hidden (ANSI)
 48
0.0106240995228291
  0
LINE
  5
237
330
6C
100
AcDbEntity
  8
Hidden (ANSI)
 48
0.0177565310150385
100
AcDbLine
 10
57.97221904079294
 20
69.824248690339
 30
0.0
 11
57.97221904079294
 21
69.91799869033901
 31
0.0
  0
POLYLINE
  5
238
330
6C
100
AcDbEntity
  8
Hidden (ANSI)
 48
0.0106235146522522
100
AcDb2dPolyline
 66
     1
 10
0.0
 20
0.0
 30
0.0
 70
   128
  0
VERTEX
  5
239
330
238
100
AcDbEntity
  8
Hidden (ANSI)
 48
0.0106235146522522
100
AcDbVertex
100
AcDb2dVertex
 10
58.02291017215388
 20
69.80864952983671
 30
0.0
  0
VERTEX
  5
23A
330
238
100
AcDbEntity
  8
Hidden (ANSI)
 48
0.0106235146522522
100
AcDbVertex
100
AcDb2dVertex
 10
58.02079857201394
 20
69.80966778367376
 30
0.0
  0
VERTEX
  5
23C
330
238
100
AcDbEntity
  8
Hidden (ANSI)
 48
0.0106235146522522
100
AcDbVertex
100
AcDb2dVertex
 10
58.018686971874
 20
69.8106860375108
 30
0.0
  0
VERTEX
  5
23D
330
238
100
AcDbEntity
  8
Hidden (ANSI)
 48
0.0106235146522522
100
AcDbVertex
100
AcDb2dVertex
 10
58.01657537173404
 20
69.81169227655332
 30
0.0
  0
VERTEX
  5
23E
330
238
100
AcDbEntity
  8
Hidden (ANSI)
 48
0.0106235146522522
100
AcDbVertex
100
AcDb2dVertex
 10
58.01446076789545
 20
69.81268650080128
 30
0.0
  0
VERTEX
  5
23F
330
238
100
AcDbEntity
  8
Hidden (ANSI)
 48
0.0106235146522522
100
AcDbVertex
100
AcDb2dVertex
 10
58.01234916775552
 20
69.81366270285744
 30
0.0
  0
VERTEX
  5
240
330
238
100
AcDbEntity
  8
Hidden (ANSI)
 48
0.0106235146522522
100
AcDbVertex
100
AcDb2dVertex
 10
58.01023756761556
 20
69.81461787902316
 30
0.0
  0
VERTEX
  5
241
330
238
100
AcDbEntity
  8
Hidden (ANSI)
 48
0.0106235146522522
100
AcDbVertex
100
AcDb2dVertex
 10
58.00812596747562
 20
69.81554902559981
 30
0.0
  0
VERTEX
  5
242
330
238
100
AcDbEntity
  8
Hidden (ANSI)
 48
0.0106235146522522
100
AcDbVertex
100
AcDb2dVertex
 10
58.00601436733566
 20
69.81645013519011
 30
0.0
  0
VERTEX
  5
243
330
238
100
AcDbEntity
  8
Hidden (ANSI)
 48
0.0106235146522522
100
AcDbVertex
100
AcDb2dVertex
 10
58.00389976349708
 20
69.81731520039682
 30
0.0
  0
VERTEX
  5
244
330
238
100
AcDbEntity
  8
Hidden (ANSI)
 48
0.0106235146522522
100
AcDbVertex
100
AcDb2dVertex
 10
58.00178816335713
 20
69.81814422121989
 30
0.0
  0
VERTEX
  5
245
330
238
100
AcDbEntity
  8
Hidden (ANSI)
 48
0.0106235146522522
100
AcDbVertex
100
AcDb2dVertex
 10
57.99967656321718
 20
69.81893419396072
 30
0.0
  0
VERTEX
  5
246
330
238
100
AcDbEntity
  8
Hidden (ANSI)
 48
0.0106235146522522
100
AcDbVertex
100
AcDb2dVertex
 10
57.99756496307724
 20
69.81967911122204
 30
0.0
  0
VERTEX
  5
247
330
238
100
AcDbEntity
  8
Hidden (ANSI)
 48
0.0106235146522522
100
AcDbVertex
100
AcDb2dVertex
 10
57.99545336293729
 20
69.82037596930521
 30
0.0
  0
VERTEX
  5
248
330
238
100
AcDbEntity
  8
Hidden (ANSI)
 48
0.0106235146522522
100
AcDbVertex
100
AcDb2dVertex
 10
57.99334176279733
 20
69.82102476821023
 30
0.0
  0
VERTEX
  5
249
330
238
100
AcDbEntity
  8
Hidden (ANSI)
 48
0.0106235146522522
100
AcDbVertex
100
AcDb2dVertex
 10
57.99122715895876
 20
69.82161950053985
 30
0.0
  0
VERTEX
  5
24A
330
238
100
AcDbEntity
  8
Hidden (ANSI)
 48
0.0106235146522522
100
AcDbVertex
100
AcDb2dVertex
 10
57.98911555881882
 20
69.82216016629402
 30
0.0
  0
VERTEX
  5
24B
330
238
100
AcDbEntity
  8
Hidden (ANSI)
 48
0.0106235146522522
100
AcDbVertex
100
AcDb2dVertex
 10
57.98700395867886
 20
69.82264075807552
 30
0.0
  0
VERTEX
  5
24C
330
238
100
AcDbEntity
  8
Hidden (ANSI)
 48
0.0106235146522522
100
AcDbVertex
100
AcDb2dVertex
 10
57.98489235853891
 20
69.82306127588434
 30
0.0
  0
VERTEX
  5
24D
330
238
100
AcDbEntity
  8
Hidden (ANSI)
 48
0.0106235146522522
100
AcDbVertex
100
AcDb2dVertex
 10
57.98278075839895
 20
69.82342171972046
 30
0.0
  0
VERTEX
  5
24E
330
238
100
AcDbEntity
  8
Hidden (ANSI)
 48
0.0106235146522522
100
AcDbVertex
100
AcDb2dVertex
 10
57.98066615456038
 20
69.82371608218662
 30
0.0
  0
VERTEX
  5
24F
330
238
100
AcDbEntity
  8
Hidden (ANSI)
 48
0.0106235146522522
100
AcDbVertex
100
AcDb2dVertex
 10
57.97855455442043
 20
69.82395037068009
 30
0.0
  0
VERTEX
  5
250
330
238
100
AcDbEntity
  8
Hidden (ANSI)
 48
0.0106235146522522
100
AcDbVertex
100
AcDb2dVertex
 10
57.97644295428048
 20
69.82411557410498
 30
0.0
  0
VERTEX
  5
251
330
238
100
AcDbEntity
  8
Hidden (ANSI)
 48
0.0106235146522522
100
AcDbVertex
100
AcDb2dVertex
 10
57.97433135414054
 20
69.82421469615991
 30
0.0
  0
VERTEX
  5
252
330
238
100
AcDbEntity
  8
Hidden (ANSI)
 48
0.0106235146522522
100
AcDbVertex
100
AcDb2dVertex
 10
57.97221975400059
 20
69.82424773684491
 30
0.0
  0
SEQEND
  5
23B
330
238
100
AcDbEntity
  8
Hidden (ANSI)
 48
0.0106235146522522
  0
LINE
  5
253
330
6C
100
AcDbEntity
  8
Hidden (ANSI)
 48
0.0177565310150385
100
AcDbLine
 10
26.29230156226542
 20
69.82424869033899
 30
0.0
 11
26.29230156226542
 21
69.91799869033899
 31
0.0
  0
POLYLINE
  5
254
330
6C
100
AcDbEntity
  8
Hidden (ANSI)
 48
0.0106236590072513
100
AcDb2dPolyline
 66
     1
 10
0.0
 20
0.0
 30
0.0
 70
   128
  0
VERTEX
  5
255
330
254
100
AcDbEntity
  8
Hidden (ANSI)
 48
0.0106236590072513
100
AcDbVertex
100
AcDb2dVertex
 10
26.24161030230866
 20
69.80864952983671
 30
0.0
  0
VERTEX
  5
256
330
254
100
AcDbEntity
  8
Hidden (ANSI)
 48
0.0106236590072513
100
AcDbVertex
100
AcDb2dVertex
 10
26.2437224421757
 20
69.80966778367376
 30
0.0
  0
VERTEX
  5
258
330
254
100
AcDbEntity
  8
Hidden (ANSI)
 48
0.0106236590072513
100
AcDbVertex
100
AcDb2dVertex
 10
26.24583457030955
 20
69.8106860375108
 30
0.0
  0
VERTEX
  5
259
330
254
100
AcDbEntity
  8
Hidden (ANSI)
 48
0.0106236590072513
100
AcDbVertex
100
AcDb2dVertex
 10
26.2479467101766
 20
69.81169227655332
 30
0.0
  0
VERTEX
  5
25A
330
254
100
AcDbEntity
  8
Hidden (ANSI)
 48
0.0106236590072513
100
AcDbVertex
100
AcDb2dVertex
 10
26.25005885004365
 20
69.81268650080128
 30
0.0
  0
VERTEX
  5
25B
330
254
100
AcDbEntity
  8
Hidden (ANSI)
 48
0.0106236590072513
100
AcDbVertex
100
AcDb2dVertex
 10
26.2521709781775
 20
69.81366270285744
 30
0.0
  0
VERTEX
  5
25C
330
254
100
AcDbEntity
  8
Hidden (ANSI)
 48
0.0106236590072513
100
AcDbVertex
100
AcDb2dVertex
 10
26.25428311804454
 20
69.81461787902316
 30
0.0
  0
VERTEX
  5
25D
330
254
100
AcDbEntity
  8
Hidden (ANSI)
 48
0.0106236590072513
100
AcDbVertex
100
AcDb2dVertex
 10
26.25639525791159
 20
69.81554902559981
 30
0.0
  0
VERTEX
  5
25E
330
254
100
AcDbEntity
  8
Hidden (ANSI)
 48
0.0106236590072513
100
AcDbVertex
100
AcDb2dVertex
 10
26.25850738604544
 20
69.81645013519011
 30
0.0
  0
VERTEX
  5
25F
330
254
100
AcDbEntity
  8
Hidden (ANSI)
 48
0.0106236590072513
100
AcDbVertex
100
AcDb2dVertex
 10
26.26061952591248
 20
69.81731520039682
 30
0.0
  0
VERTEX
  5
260
330
254
100
AcDbEntity
  8
Hidden (ANSI)
 48
0.0106236590072513
100
AcDbVertex
100
AcDb2dVertex
 10
26.26273166577953
 20
69.81814422121989
 30
0.0
  0
VERTEX
  5
261
330
254
100
AcDbEntity
  8
Hidden (ANSI)
 48
0.0106236590072513
100
AcDbVertex
100
AcDb2dVertex
 10
26.26484379391338
 20
69.81893419396072
 30
0.0
  0
VERTEX
  5
262
330
254
100
AcDbEntity
  8
Hidden (ANSI)
 48
0.0106236590072513
100
AcDbVertex
100
AcDb2dVertex
 10
26.26695593378043
 20
69.81967911122204
 30
0.0
  0
VERTEX
  5
263
330
254
100
AcDbEntity
  8
Hidden (ANSI)
 48
0.0106236590072513
100
AcDbVertex
100
AcDb2dVertex
 10
26.26906806191427
 20
69.82037596930521
 30
0.0
  0
VERTEX
  5
264
330
254
100
AcDbEntity
  8
Hidden (ANSI)
 48
0.0106236590072513
100
AcDbVertex
100
AcDb2dVertex
 10
26.27118020178132
 20
69.82102476821023
 30
0.0
  0
VERTEX
  5
265
330
254
100
AcDbEntity
  8
Hidden (ANSI)
 48
0.0106236590072513
100
AcDbVertex
100
AcDb2dVertex
 10
26.27329234164837
 20
69.82161950053985
 30
0.0
  0
VERTEX
  5
266
330
254
100
AcDbEntity
  8
Hidden (ANSI)
 48
0.0106236590072513
100
AcDbVertex
100
AcDb2dVertex
 10
26.27540446978222
 20
69.82216016629402
 30
0.0
  0
VERTEX
  5
267
330
254
100
AcDbEntity
  8
Hidden (ANSI)
 48
0.0106236590072513
100
AcDbVertex
100
AcDb2dVertex
 10
26.27751660964926
 20
69.82264075807552
 30
0.0
  0
VERTEX
  5
268
330
254
100
AcDbEntity
  8
Hidden (ANSI)
 48
0.0106236590072513
100
AcDbVertex
100
AcDb2dVertex
 10
26.27962874951631
 20
69.82306127588434
 30
0.0
  0
VERTEX
  5
269
330
254
100
AcDbEntity
  8
Hidden (ANSI)
 48
0.0106236590072513
100
AcDbVertex
100
AcDb2dVertex
 10
26.28174087765016
 20
69.82342171972046
 30
0.0
  0
VERTEX
  5
26A
330
254
100
AcDbEntity
  8
Hidden (ANSI)
 48
0.0106236590072513
100
AcDbVertex
100
AcDb2dVertex
 10
26.28385301751721
 20
69.82371608218662
 30
0.0
  0
VERTEX
  5
26B
330
254
100
AcDbEntity
  8
Hidden (ANSI)
 48
0.0106236590072513
100
AcDbVertex
100
AcDb2dVertex
 10
26.28596515738425
 20
69.82395037068009
 30
0.0
  0
VERTEX
  5
26C
330
254
100
AcDbEntity
  8
Hidden (ANSI)
 48
0.0106236590072513
100
AcDbVertex
100
AcDb2dVertex
 10
26.2880772855181
 20
69.82411557410498
 30
0.0
  0
VERTEX
  5
26D
330
254
100
AcDbEntity
  8
Hidden (ANSI)
 48
0.0106236590072513
100
AcDbVertex
100
AcDb2dVertex
 10
26.29018942538515
 20
69.82421469615991
 30
0.0
  0
VERTEX
  5
26E
330
254
100
AcDbEntity
  8
Hidden (ANSI)
 48
0.0106236590072513
100
AcDbVertex
100
AcDb2dVertex
 10
26.2923015652522
 20
69.82424773684491
 30
0.0
  0
SEQEND
  5
257
330
254
100
AcDbEntity
  8
Hidden (ANSI)
 48
0.0106236590072513
  0
LINE
  5
26F
330
6C
100
AcDbEntity
  8
Hidden (ANSI)
 48
0.0177565310150385
100
AcDbLine
 10
26.22601030152919
 20
69.75795742960276
 30
0.0
 11
26.13226030152919
 21
69.75795742960276
 31
0.0
  0
POLYLINE
  5
270
330
6C
100
AcDbEntity
  8
Hidden (ANSI)
 48
0.0106240939348936
100
AcDb2dPolyline
 66
     1
 10
0.0
 20
0.0
 30
0.0
 70
   128
  0
VERTEX
  5
271
330
270
100
AcDbEntity
  8
Hidden (ANSI)
 48
0.0106240939348936
100
AcDbVertex
100
AcDb2dVertex
 10
26.24161030230866
 20
69.80864952983671
 30
0.0
  0
VERTEX
  5
272
330
270
100
AcDbEntity
  8
Hidden (ANSI)
 48
0.0106240939348936
100
AcDbVertex
100
AcDb2dVertex
 10
26.24059000689519
 20
69.80653792969675
 30
0.0
  0
VERTEX
  5
274
330
270
100
AcDbEntity
  8
Hidden (ANSI)
 48
0.0106240939348936
100
AcDbVertex
100
AcDb2dVertex
 10
26.23957408796451
 20
69.8044233258582
 30
0.0
  0
VERTEX
  5
275
330
270
100
AcDbEntity
  8
Hidden (ANSI)
 48
0.0106240939348936
100
AcDbVertex
100
AcDb2dVertex
 10
26.23856688679979
 20
69.80231172571824
 30
0.0
  0
VERTEX
  5
276
330
270
100
AcDbEntity
  8
Hidden (ANSI)
 48
0.0106240939348936
100
AcDbVertex
100
AcDb2dVertex
 10
26.23757272121781
 20
69.80020012557827
 30
0.0
  0
VERTEX
  5
277
330
270
100
AcDbEntity
  8
Hidden (ANSI)
 48
0.0106240939348936
100
AcDbVertex
100
AcDb2dVertex
 10
26.23659585036937
 20
69.79808852543833
 30
0.0
  0
VERTEX
  5
278
330
270
100
AcDbEntity
  8
Hidden (ANSI)
 48
0.0106240939348936
100
AcDbVertex
100
AcDb2dVertex
 10
26.23564043953969
 20
69.79597692529839
 30
0.0
  0
VERTEX
  5
279
330
270
100
AcDbEntity
  8
Hidden (ANSI)
 48
0.0106240939348936
100
AcDbVertex
100
AcDb2dVertex
 10
26.23471059534799
 20
69.7938623214598
 30
0.0
  0
VERTEX
  5
27A
330
270
100
AcDbEntity
  8
Hidden (ANSI)
 48
0.0106240939348936
100
AcDbVertex
100
AcDb2dVertex
 10
26.23381030708153
 20
69.79175072131986
 30
0.0
  0
VERTEX
  5
27B
330
270
100
AcDbEntity
  8
Hidden (ANSI)
 48
0.0106240939348936
100
AcDbVertex
100
AcDb2dVertex
 10
26.23294341149599
 20
69.78963912117992
 30
0.0
  0
VERTEX
  5
27C
330
270
100
AcDbEntity
  8
Hidden (ANSI)
 48
0.0106240939348936
100
AcDbVertex
100
AcDb2dVertex
 10
26.23211362801505
 20
69.78752752103997
 30
0.0
  0
VERTEX
  5
27D
330
270
100
AcDbEntity
  8
Hidden (ANSI)
 48
0.0106240939348936
100
AcDbVertex
100
AcDb2dVertex
 10
26.23132451179766
 20
69.7854159209
 30
0.0
  0
VERTEX
  5
27E
330
270
100
AcDbEntity
  8
Hidden (ANSI)
 48
0.0106240939348936
100
AcDbVertex
100
AcDb2dVertex
 10
26.23057943613816
 20
69.78330432076005
 30
0.0
  0
VERTEX
  5
27F
330
270
100
AcDbEntity
  8
Hidden (ANSI)
 48
0.0106240939348936
100
AcDbVertex
100
AcDb2dVertex
 10
26.22988159833298
 20
69.78118971692149
 30
0.0
  0
VERTEX
  5
280
330
270
100
AcDbEntity
  8
Hidden (ANSI)
 48
0.0106240939348936
100
AcDbVertex
100
AcDb2dVertex
 10
26.22923399034754
 20
69.77907811678154
 30
0.0
  0
VERTEX
  5
281
330
270
100
AcDbEntity
  8
Hidden (ANSI)
 48
0.0106240939348936
100
AcDbVertex
100
AcDb2dVertex
 10
26.22863937534991
 20
69.77696651664158
 30
0.0
  0
VERTEX
  5
282
330
270
100
AcDbEntity
  8
Hidden (ANSI)
 48
0.0106240939348936
100
AcDbVertex
100
AcDb2dVertex
 10
26.22810030531063
 20
69.77485491650163
 30
0.0
  0
VERTEX
  5
283
330
270
100
AcDbEntity
  8
Hidden (ANSI)
 48
0.0106240939348936
100
AcDbVertex
100
AcDb2dVertex
 10
26.22761908580305
 20
69.7727433163617
 30
0.0
  0
VERTEX
  5
284
330
270
100
AcDbEntity
  8
Hidden (ANSI)
 48
0.0106240939348936
100
AcDbVertex
100
AcDb2dVertex
 10
26.22719778186999
 20
69.77063171622174
 30
0.0
  0
VERTEX
  5
285
330
270
100
AcDbEntity
  8
Hidden (ANSI)
 48
0.0106240939348936
100
AcDbVertex
100
AcDb2dVertex
 10
26.22683818869071
 20
69.76851711238315
 30
0.0
  0
VERTEX
  5
286
330
270
100
AcDbEntity
  8
Hidden (ANSI)
 48
0.0106240939348936
100
AcDbVertex
100
AcDb2dVertex
 10
26.22654186091391
 20
69.76640551224321
 30
0.0
  0
VERTEX
  5
287
330
270
100
AcDbEntity
  8
Hidden (ANSI)
 48
0.0106240939348936
100
AcDbVertex
100
AcDb2dVertex
 10
26.22631005399176
 20
69.76429391210327
 30
0.0
  0
VERTEX
  5
288
330
270
100
AcDbEntity
  8
Hidden (ANSI)
 48
0.0106240939348936
100
AcDbVertex
100
AcDb2dVertex
 10
26.22614375937948
 20
69.76218231196331
 30
0.0
  0
VERTEX
  5
289
330
270
100
AcDbEntity
  8
Hidden (ANSI)
 48
0.0106240939348936
100
AcDbVertex
100
AcDb2dVertex
 10
26.22604370453532
 20
69.76007071182336
 30
0.0
  0
VERTEX
  5
28A
330
270
100
AcDbEntity
  8
Hidden (ANSI)
 48
0.0106240939348936
100
AcDbVertex
100
AcDb2dVertex
 10
26.22601030012122
 20
69.75795610798479
 30
0.0
  0
SEQEND
  5
273
330
270
100
AcDbEntity
  8
Hidden (ANSI)
 48
0.0106240939348936
  0
LINE
  5
28B
330
6C
100
AcDbEntity
  8
Hidden (ANSI)
 48
0.0177565310150385
100
AcDbLine
 10
26.2260103015292
 20
30.19003995107523
 30
0.0
 11
26.1322603015292
 21
30.19003995107523
 31
0.0
  0
POLYLINE
  5
28C
330
6C
100
AcDbEntity
  8
Hidden (ANSI)
 48
0.0106237232685089
100
AcDb2dPolyline
 66
     1
 10
0.0
 20
0.0
 30
0.0
 70
   128
  0
VERTEX
  5
28D
330
28C
100
AcDbEntity
  8
Hidden (ANSI)
 48
0.0106237232685089
100
AcDbVertex
100
AcDb2dVertex
 10
26.24161030230866
 20
30.13934869111845
 30
0.0
  0
VERTEX
  5
28E
330
28C
100
AcDbEntity
  8
Hidden (ANSI)
 48
0.0106237232685089
100
AcDbVertex
100
AcDb2dVertex
 10
26.24059000689519
 20
30.1414608309855
 30
0.0
  0
VERTEX
  5
290
330
28C
100
AcDbEntity
  8
Hidden (ANSI)
 48
0.0106237232685089
100
AcDbVertex
100
AcDb2dVertex
 10
26.23957408796451
 20
30.14357295911935
 30
0.0
  0
VERTEX
  5
291
330
28C
100
AcDbEntity
  8
Hidden (ANSI)
 48
0.0106237232685089
100
AcDbVertex
100
AcDb2dVertex
 10
26.23856688679979
 20
30.14568509898639
 30
0.0
  0
VERTEX
  5
292
330
28C
100
AcDbEntity
  8
Hidden (ANSI)
 48
0.0106237232685089
100
AcDbVertex
100
AcDb2dVertex
 10
26.23757272121781
 20
30.14779723885344
 30
0.0
  0
VERTEX
  5
293
330
28C
100
AcDbEntity
  8
Hidden (ANSI)
 48
0.0106237232685089
100
AcDbVertex
100
AcDb2dVertex
 10
26.23659585036937
 20
30.14990936698729
 30
0.0
  0
VERTEX
  5
294
330
28C
100
AcDbEntity
  8
Hidden (ANSI)
 48
0.0106237232685089
100
AcDbVertex
100
AcDb2dVertex
 10
26.23564043953969
 20
30.15202150685434
 30
0.0
  0
VERTEX
  5
295
330
28C
100
AcDbEntity
  8
Hidden (ANSI)
 48
0.0106237232685089
100
AcDbVertex
100
AcDb2dVertex
 10
26.23471059534799
 20
30.15413364672138
 30
0.0
  0
VERTEX
  5
296
330
28C
100
AcDbEntity
  8
Hidden (ANSI)
 48
0.0106237232685089
100
AcDbVertex
100
AcDb2dVertex
 10
26.23381030708153
 20
30.15624577485523
 30
0.0
  0
VERTEX
  5
297
330
28C
100
AcDbEntity
  8
Hidden (ANSI)
 48
0.0106237232685089
100
AcDbVertex
100
AcDb2dVertex
 10
26.23294341149599
 20
30.15835791472228
 30
0.0
  0
VERTEX
  5
298
330
28C
100
AcDbEntity
  8
Hidden (ANSI)
 48
0.0106237232685089
100
AcDbVertex
100
AcDb2dVertex
 10
26.23211362801505
 20
30.16047005458933
 30
0.0
  0
VERTEX
  5
299
330
28C
100
AcDbEntity
  8
Hidden (ANSI)
 48
0.0106237232685089
100
AcDbVertex
100
AcDb2dVertex
 10
26.23132451179766
 20
30.16258218272318
 30
0.0
  0
VERTEX
  5
29A
330
28C
100
AcDbEntity
  8
Hidden (ANSI)
 48
0.0106237232685089
100
AcDbVertex
100
AcDb2dVertex
 10
26.23057943613816
 20
30.16469432259022
 30
0.0
  0
VERTEX
  5
29B
330
28C
100
AcDbEntity
  8
Hidden (ANSI)
 48
0.0106237232685089
100
AcDbVertex
100
AcDb2dVertex
 10
26.22988159833298
 20
30.16680645072407
 30
0.0
  0
VERTEX
  5
29C
330
28C
100
AcDbEntity
  8
Hidden (ANSI)
 48
0.0106237232685089
100
AcDbVertex
100
AcDb2dVertex
 10
26.22923399034754
 20
30.16891859059112
 30
0.0
  0
VERTEX
  5
29D
330
28C
100
AcDbEntity
  8
Hidden (ANSI)
 48
0.0106237232685089
100
AcDbVertex
100
AcDb2dVertex
 10
26.22863937534991
 20
30.17103073045817
 30
0.0
  0
VERTEX
  5
29E
330
28C
100
AcDbEntity
  8
Hidden (ANSI)
 48
0.0106237232685089
100
AcDbVertex
100
AcDb2dVertex
 10
26.22810030531063
 20
30.17314285859202
 30
0.0
  0
VERTEX
  5
29F
330
28C
100
AcDbEntity
  8
Hidden (ANSI)
 48
0.0106237232685089
100
AcDbVertex
100
AcDb2dVertex
 10
26.22761908580305
 20
30.17525499845906
 30
0.0
  0
VERTEX
  5
2A0
330
28C
100
AcDbEntity
  8
Hidden (ANSI)
 48
0.0106237232685089
100
AcDbVertex
100
AcDb2dVertex
 10
26.22719778186999
 20
30.1773671383261
 30
0.0
  0
VERTEX
  5
2A1
330
28C
100
AcDbEntity
  8
Hidden (ANSI)
 48
0.0106237232685089
100
AcDbVertex
100
AcDb2dVertex
 10
26.22683818869071
 20
30.17947926645996
 30
0.0
  0
VERTEX
  5
2A2
330
28C
100
AcDbEntity
  8
Hidden (ANSI)
 48
0.0106237232685089
100
AcDbVertex
100
AcDb2dVertex
 10
26.22654186091391
 20
30.181591406327
 30
0.0
  0
VERTEX
  5
2A3
330
28C
100
AcDbEntity
  8
Hidden (ANSI)
 48
0.0106237232685089
100
AcDbVertex
100
AcDb2dVertex
 10
26.22631005399176
 20
30.18370354619405
 30
0.0
  0
VERTEX
  5
2A4
330
28C
100
AcDbEntity
  8
Hidden (ANSI)
 48
0.0106237232685089
100
AcDbVertex
100
AcDb2dVertex
 10
26.22614375937948
 20
30.1858156743279
 30
0.0
  0
VERTEX
  5
2A5
330
28C
100
AcDbEntity
  8
Hidden (ANSI)
 48
0.0106237232685089
100
AcDbVertex
100
AcDb2dVertex
 10
26.22604370453532
 20
30.18792781419494
 30
0.0
  0
VERTEX
  5
2A6
330
28C
100
AcDbEntity
  8
Hidden (ANSI)
 48
0.0106237232685089
100
AcDbVertex
100
AcDb2dVertex
 10
26.22601030012122
 20
30.19003995406199
 30
0.0
  0
SEQEND
  5
28F
330
28C
100
AcDbEntity
  8
Hidden (ANSI)
 48
0.0106237232685089
  0
LINE
  5
2A7
330
6C
100
AcDbEntity
  8
Hidden (ANSI)
 48
0.0177565310150385
100
AcDbLine
 10
26.29230156226543
 20
30.12374869033899
 30
0.0
 11
26.29230156226543
 21
30.02999869033899
 31
0.0
  0
POLYLINE
  5
2A8
330
6C
100
AcDbEntity
  8
Hidden (ANSI)
 48
0.0106237232685089
100
AcDb2dPolyline
 66
     1
 10
0.0
 20
0.0
 30
0.0
 70
   128
  0
VERTEX
  5
2A9
330
2A8
100
AcDbEntity
  8
Hidden (ANSI)
 48
0.0106237232685089
100
AcDbVertex
100
AcDb2dVertex
 10
26.24161030230866
 20
30.13934869111845
 30
0.0
  0
VERTEX
  5
2AA
330
2A8
100
AcDbEntity
  8
Hidden (ANSI)
 48
0.0106237232685089
100
AcDbVertex
100
AcDb2dVertex
 10
26.2437224421757
 20
30.13832839570499
 30
0.0
  0
VERTEX
  5
2AC
330
2A8
100
AcDbEntity
  8
Hidden (ANSI)
 48
0.0106237232685089
100
AcDbVertex
100
AcDb2dVertex
 10
26.24583457030955
 20
30.1373124767743
 30
0.0
  0
VERTEX
  5
2AD
330
2A8
100
AcDbEntity
  8
Hidden (ANSI)
 48
0.0106237232685089
100
AcDbVertex
100
AcDb2dVertex
 10
26.2479467101766
 20
30.13630527560958
 30
0.0
  0
VERTEX
  5
2AE
330
2A8
100
AcDbEntity
  8
Hidden (ANSI)
 48
0.0106237232685089
100
AcDbVertex
100
AcDb2dVertex
 10
26.25005885004365
 20
30.1353111100276
 30
0.0
  0
VERTEX
  5
2AF
330
2A8
100
AcDbEntity
  8
Hidden (ANSI)
 48
0.0106237232685089
100
AcDbVertex
100
AcDb2dVertex
 10
26.2521709781775
 20
30.13433423917916
 30
0.0
  0
VERTEX
  5
2B0
330
2A8
100
AcDbEntity
  8
Hidden (ANSI)
 48
0.0106237232685089
100
AcDbVertex
100
AcDb2dVertex
 10
26.25428311804454
 20
30.13337882834949
 30
0.0
  0
VERTEX
  5
2B1
330
2A8
100
AcDbEntity
  8
Hidden (ANSI)
 48
0.0106237232685089
100
AcDbVertex
100
AcDb2dVertex
 10
26.25639525791159
 20
30.13244898415779
 30
0.0
  0
VERTEX
  5
2B2
330
2A8
100
AcDbEntity
  8
Hidden (ANSI)
 48
0.0106237232685089
100
AcDbVertex
100
AcDb2dVertex
 10
26.25850738604544
 20
30.13154869589133
 30
0.0
  0
VERTEX
  5
2B3
330
2A8
100
AcDbEntity
  8
Hidden (ANSI)
 48
0.0106237232685089
100
AcDbVertex
100
AcDb2dVertex
 10
26.26061952591248
 20
30.13068180030578
 30
0.0
  0
VERTEX
  5
2B4
330
2A8
100
AcDbEntity
  8
Hidden (ANSI)
 48
0.0106237232685089
100
AcDbVertex
100
AcDb2dVertex
 10
26.26273166577953
 20
30.12985201682484
 30
0.0
  0
VERTEX
  5
2B5
330
2A8
100
AcDbEntity
  8
Hidden (ANSI)
 48
0.0106237232685089
100
AcDbVertex
100
AcDb2dVertex
 10
26.26484379391338
 20
30.12906290060745
 30
0.0
  0
VERTEX
  5
2B6
330
2A8
100
AcDbEntity
  8
Hidden (ANSI)
 48
0.0106237232685089
100
AcDbVertex
100
AcDb2dVertex
 10
26.26695593378043
 20
30.12831782494796
 30
0.0
  0
VERTEX
  5
2B7
330
2A8
100
AcDbEntity
  8
Hidden (ANSI)
 48
0.0106237232685089
100
AcDbVertex
100
AcDb2dVertex
 10
26.26906806191427
 20
30.12761998714278
 30
0.0
  0
VERTEX
  5
2B8
330
2A8
100
AcDbEntity
  8
Hidden (ANSI)
 48
0.0106237232685089
100
AcDbVertex
100
AcDb2dVertex
 10
26.27118020178132
 20
30.12697237915733
 30
0.0
  0
VERTEX
  5
2B9
330
2A8
100
AcDbEntity
  8
Hidden (ANSI)
 48
0.0106237232685089
100
AcDbVertex
100
AcDb2dVertex
 10
26.27329234164837
 20
30.12637776415971
 30
0.0
  0
VERTEX
  5
2BA
330
2A8
100
AcDbEntity
  8
Hidden (ANSI)
 48
0.0106237232685089
100
AcDbVertex
100
AcDb2dVertex
 10
26.27540446978222
 20
30.12583869412043
 30
0.0
  0
VERTEX
  5
2BB
330
2A8
100
AcDbEntity
  8
Hidden (ANSI)
 48
0.0106237232685089
100
AcDbVertex
100
AcDb2dVertex
 10
26.27751660964926
 20
30.12535747461285
 30
0.0
  0
VERTEX
  5
2BC
330
2A8
100
AcDbEntity
  8
Hidden (ANSI)
 48
0.0106237232685089
100
AcDbVertex
100
AcDb2dVertex
 10
26.27962874951631
 20
30.12493617067979
 30
0.0
  0
VERTEX
  5
2BD
330
2A8
100
AcDbEntity
  8
Hidden (ANSI)
 48
0.0106237232685089
100
AcDbVertex
100
AcDb2dVertex
 10
26.28174087765016
 20
30.1245765775005
 30
0.0
  0
VERTEX
  5
2BE
330
2A8
100
AcDbEntity
  8
Hidden (ANSI)
 48
0.0106237232685089
100
AcDbVertex
100
AcDb2dVertex
 10
26.28385301751721
 20
30.12428024972371
 30
0.0
  0
VERTEX
  5
2BF
330
2A8
100
AcDbEntity
  8
Hidden (ANSI)
 48
0.0106237232685089
100
AcDbVertex
100
AcDb2dVertex
 10
26.28596515738425
 20
30.12404844280156
 30
0.0
  0
VERTEX
  5
2C0
330
2A8
100
AcDbEntity
  8
Hidden (ANSI)
 48
0.0106237232685089
100
AcDbVertex
100
AcDb2dVertex
 10
26.2880772855181
 20
30.12388214818928
 30
0.0
  0
VERTEX
  5
2C1
330
2A8
100
AcDbEntity
  8
Hidden (ANSI)
 48
0.0106237232685089
100
AcDbVertex
100
AcDb2dVertex
 10
26.29018942538515
 20
30.12378209334512
 30
0.0
  0
VERTEX
  5
2C2
330
2A8
100
AcDbEntity
  8
Hidden (ANSI)
 48
0.0106237232685089
100
AcDbVertex
100
AcDb2dVertex
 10
26.2923015652522
 20
30.12374868893101
 30
0.0
  0
SEQEND
  5
2AB
330
2A8
100
AcDbEntity
  8
Hidden (ANSI)
 48
0.0106237232685089
  0
LINE
  5
2C3
330
6C
100
AcDbEntity
  8
Hidden (ANSI)
 48
0.0177565310150385
100
AcDbLine
 10
57.97221904079296
 20
30.12374869033899
 30
0.0
 11
57.97221904079296
 21
30.02999869033899
 31
0.0
  0
POLYLINE
  5
2C4
330
6C
100
AcDbEntity
  8
Hidden (ANSI)
 48
0.0106235789135099
100
AcDb2dPolyline
 66
     1
 10
0.0
 20
0.0
 30
0.0
 70
   128
  0
VERTEX
  5
2C5
330
2C4
100
AcDbEntity
  8
Hidden (ANSI)
 48
0.0106235789135099
100
AcDbVertex
100
AcDb2dVertex
 10
58.02291017215388
 20
30.13934869111845
 30
0.0
  0
VERTEX
  5
2C6
330
2C4
100
AcDbEntity
  8
Hidden (ANSI)
 48
0.0106235789135099
100
AcDbVertex
100
AcDb2dVertex
 10
58.02079857201394
 20
30.13832839570499
 30
0.0
  0
VERTEX
  5
2C8
330
2C4
100
AcDbEntity
  8
Hidden (ANSI)
 48
0.0106235789135099
100
AcDbVertex
100
AcDb2dVertex
 10
58.018686971874
 20
30.1373124767743
 30
0.0
  0
VERTEX
  5
2C9
330
2C4
100
AcDbEntity
  8
Hidden (ANSI)
 48
0.0106235789135099
100
AcDbVertex
100
AcDb2dVertex
 10
58.01657537173404
 20
30.13630527560958
 30
0.0
  0
VERTEX
  5
2CA
330
2C4
100
AcDbEntity
  8
Hidden (ANSI)
 48
0.0106235789135099
100
AcDbVertex
100
AcDb2dVertex
 10
58.01446076789545
 20
30.1353111100276
 30
0.0
  0
VERTEX
  5
2CB
330
2C4
100
AcDbEntity
  8
Hidden (ANSI)
 48
0.0106235789135099
100
AcDbVertex
100
AcDb2dVertex
 10
58.01234916775552
 20
30.13433423917916
 30
0.0
  0
VERTEX
  5
2CC
330
2C4
100
AcDbEntity
  8
Hidden (ANSI)
 48
0.0106235789135099
100
AcDbVertex
100
AcDb2dVertex
 10
58.01023756761556
 20
30.13337882834949
 30
0.0
  0
VERTEX
  5
2CD
330
2C4
100
AcDbEntity
  8
Hidden (ANSI)
 48
0.0106235789135099
100
AcDbVertex
100
AcDb2dVertex
 10
58.00812596747562
 20
30.13244898415779
 30
0.0
  0
VERTEX
  5
2CE
330
2C4
100
AcDbEntity
  8
Hidden (ANSI)
 48
0.0106235789135099
100
AcDbVertex
100
AcDb2dVertex
 10
58.00601436733566
 20
30.13154869589133
 30
0.0
  0
VERTEX
  5
2CF
330
2C4
100
AcDbEntity
  8
Hidden (ANSI)
 48
0.0106235789135099
100
AcDbVertex
100
AcDb2dVertex
 10
58.00389976349708
 20
30.13068180030578
 30
0.0
  0
VERTEX
  5
2D0
330
2C4
100
AcDbEntity
  8
Hidden (ANSI)
 48
0.0106235789135099
100
AcDbVertex
100
AcDb2dVertex
 10
58.00178816335713
 20
30.12985201682484
 30
0.0
  0
VERTEX
  5
2D1
330
2C4
100
AcDbEntity
  8
Hidden (ANSI)
 48
0.0106235789135099
100
AcDbVertex
100
AcDb2dVertex
 10
57.99967656321718
 20
30.12906290060745
 30
0.0
  0
VERTEX
  5
2D2
330
2C4
100
AcDbEntity
  8
Hidden (ANSI)
 48
0.0106235789135099
100
AcDbVertex
100
AcDb2dVertex
 10
57.99756496307724
 20
30.12831782494796
 30
0.0
  0
VERTEX
  5
2D3
330
2C4
100
AcDbEntity
  8
Hidden (ANSI)
 48
0.0106235789135099
100
AcDbVertex
100
AcDb2dVertex
 10
57.99545336293729
 20
30.12761998714278
 30
0.0
  0
VERTEX
  5
2D4
330
2C4
100
AcDbEntity
  8
Hidden (ANSI)
 48
0.0106235789135099
100
AcDbVertex
100
AcDb2dVertex
 10
57.99334176279733
 20
30.12697237915733
 30
0.0
  0
VERTEX
  5
2D5
330
2C4
100
AcDbEntity
  8
Hidden (ANSI)
 48
0.0106235789135099
100
AcDbVertex
100
AcDb2dVertex
 10
57.99122715895876
 20
30.12637776415971
 30
0.0
  0
VERTEX
  5
2D6
330
2C4
100
AcDbEntity
  8
Hidden (ANSI)
 48
0.0106235789135099
100
AcDbVertex
100
AcDb2dVertex
 10
57.98911555881882
 20
30.12583869412043
 30
0.0
  0
VERTEX
  5
2D7
330
2C4
100
AcDbEntity
  8
Hidden (ANSI)
 48
0.0106235789135099
100
AcDbVertex
100
AcDb2dVertex
 10
57.98700395867886
 20
30.12535747461285
 30
0.0
  0
VERTEX
  5
2D8
330
2C4
100
AcDbEntity
  8
Hidden (ANSI)
 48
0.0106235789135099
100
AcDbVertex
100
AcDb2dVertex
 10
57.98489235853891
 20
30.12493617067979
 30
0.0
  0
VERTEX
  5
2D9
330
2C4
100
AcDbEntity
  8
Hidden (ANSI)
 48
0.0106235789135099
100
AcDbVertex
100
AcDb2dVertex
 10
57.98278075839895
 20
30.1245765775005
 30
0.0
  0
VERTEX
  5
2DA
330
2C4
100
AcDbEntity
  8
Hidden (ANSI)
 48
0.0106235789135099
100
AcDbVertex
100
AcDb2dVertex
 10
57.98066615456038
 20
30.12428024972371
 30
0.0
  0
VERTEX
  5
2DB
330
2C4
100
AcDbEntity
  8
Hidden (ANSI)
 48
0.0106235789135099
100
AcDbVertex
100
AcDb2dVertex
 10
57.97855455442043
 20
30.12404844280156
 30
0.0
  0
VERTEX
  5
2DC
330
2C4
100
AcDbEntity
  8
Hidden (ANSI)
 48
0.0106235789135099
100
AcDbVertex
100
AcDb2dVertex
 10
57.97644295428048
 20
30.12388214818928
 30
0.0
  0
VERTEX
  5
2DD
330
2C4
100
AcDbEntity
  8
Hidden (ANSI)
 48
0.0106235789135099
100
AcDbVertex
100
AcDb2dVertex
 10
57.97433135414054
 20
30.12378209334512
 30
0.0
  0
VERTEX
  5
2DE
330
2C4
100
AcDbEntity
  8
Hidden (ANSI)
 48
0.0106235789135099
100
AcDbVertex
100
AcDb2dVertex
 10
57.97221975400059
 20
30.12374868893101
 30
0.0
  0
SEQEND
  5
2C7
330
2C4
100
AcDbEntity
  8
Hidden (ANSI)
 48
0.0106235789135099
  0
MTEXT
  5
2E0
330
6C
100
AcDbEntity
  8
Symbol (ANSI)
100
AcDbMText
 10
37.67358708141376
 20
24.83875635946727
 30
0.0
 40
1.200000014830761
 41
0.0
 46
0.0
 71
     7
 72
     1
  1
FRONT VIEW
  7
Text Style153
 73
     1
 44
1.0
  0
LINE
  5
2E2
330
6C
100
AcDbEntity
  8
Symbol (ANSI)
370
    30
100
AcDbLine
 10
37.55358677272989
 20
24.59403998571837
 30
0.0
 11
47.20123681558666
 21
24.59403998571837
 31
0.0
  0
POLYLINE
  5
2E3
330
6C
100
AcDbEntity
  8
Visible (ANSI)
100
AcDb2dPolyline
 66
     1
 10
0.0
 20
0.0
 30
0.0
 70
   128
  0
VERTEX
  5
2E4
330
2E3
100
AcDbEntity
  8
Visible (ANSI)
100
AcDbVertex
100
AcDb2dVertex
 10
84.07065119906903
 20
69.8086495298367
 30
0.0
  0
VERTEX
  5
2E5
330
2E3
100
AcDbEntity
  8
Visible (ANSI)
100
AcDbVertex
100
AcDb2dVertex
 10
84.07088532329776
 20
69.80653792969675
 30
0.0
  0
VERTEX
  5
2E7
330
2E3
100
AcDbEntity
  8
Visible (ANSI)
100
AcDbVertex
100
AcDb2dVertex
 10
84.07158670452867
 20
69.80442332585818
 30
0.0
  0
VERTEX
  5
2E8
330
2E3
100
AcDbEntity
  8
Visible (ANSI)
100
AcDbVertex
100
AcDb2dVertex
 10
84.07275232732997
 20
69.80231172571823
 30
0.0
  0
VERTEX
  5
2E9
330
2E3
100
AcDbEntity
  8
Visible (ANSI)
100
AcDbVertex
100
AcDb2dVertex
 10
84.07437721095917
 20
69.80020012557827
 30
0.0
  0
VERTEX
  5
2EA
330
2E3
100
AcDbEntity
  8
Visible (ANSI)
100
AcDbVertex
100
AcDb2dVertex
 10
84.0764543858968
 20
69.79808852543833
 30
0.0
  0
VERTEX
  5
2EB
330
2E3
100
AcDbEntity
  8
Visible (ANSI)
100
AcDbVertex
100
AcDb2dVertex
 10
84.07897497011214
 20
69.79597692529839
 30
0.0
  0
VERTEX
  5
2EC
330
2E3
100
AcDbEntity
  8
Visible (ANSI)
100
AcDbVertex
100
AcDb2dVertex
 10
84.0819281631966
 20
69.7938623214598
 30
0.0
  0
VERTEX
  5
2ED
330
2E3
100
AcDbEntity
  8
Visible (ANSI)
100
AcDbVertex
100
AcDb2dVertex
 10
84.08530132262958
 20
69.79175072131986
 30
0.0
  0
VERTEX
  5
2EE
330
2E3
100
AcDbEntity
  8
Visible (ANSI)
100
AcDbVertex
100
AcDb2dVertex
 10
84.08907999311137
 20
69.78963912117992
 30
0.0
  0
VERTEX
  5
2EF
330
2E3
100
AcDbEntity
  8
Visible (ANSI)
100
AcDbVertex
100
AcDb2dVertex
 10
84.09324801216207
 20
69.78752752103996
 30
0.0
  0
VERTEX
  5
2F0
330
2E3
100
AcDbEntity
  8
Visible (ANSI)
100
AcDbVertex
100
AcDb2dVertex
 10
84.09778751598802
 20
69.7854159209
 30
0.0
  0
VERTEX
  5
2F1
330
2E3
100
AcDbEntity
  8
Visible (ANSI)
100
AcDbVertex
100
AcDb2dVertex
 10
84.10267906854704
 20
69.78330432076005
 30
0.0
  0
VERTEX
  5
2F2
330
2E3
100
AcDbEntity
  8
Visible (ANSI)
100
AcDbVertex
100
AcDb2dVertex
 10
84.10790173194772
 20
69.78118971692147
 30
0.0
  0
VERTEX
  5
2F3
330
2E3
100
AcDbEntity
  8
Visible (ANSI)
100
AcDbVertex
100
AcDb2dVertex
 10
84.11343313684847
 20
69.77907811678152
 30
0.0
  0
VERTEX
  5
2F4
330
2E3
100
AcDbEntity
  8
Visible (ANSI)
100
AcDbVertex
100
AcDb2dVertex
 10
84.11924959392292
 20
69.77696651664158
 30
0.0
  0
VERTEX
  5
2F5
330
2E3
100
AcDbEntity
  8
Visible (ANSI)
100
AcDbVertex
100
AcDb2dVertex
 10
84.1253261965255
 20
69.77485491650163
 30
0.0
  0
VERTEX
  5
2F6
330
2E3
100
AcDbEntity
  8
Visible (ANSI)
100
AcDbVertex
100
AcDb2dVertex
 10
84.13163692922337
 20
69.7727433163617
 30
0.0
  0
VERTEX
  5
2F7
330
2E3
100
AcDbEntity
  8
Visible (ANSI)
100
AcDbVertex
100
AcDb2dVertex
 10
84.13815476459545
 20
69.77063171622173
 30
0.0
  0
VERTEX
  5
2F8
330
2E3
100
AcDbEntity
  8
Visible (ANSI)
100
AcDbVertex
100
AcDb2dVertex
 10
84.14485179229748
 20
69.76851711238315
 30
0.0
  0
VERTEX
  5
2F9
330
2E3
100
AcDbEntity
  8
Visible (ANSI)
100
AcDbVertex
100
AcDb2dVertex
 10
84.15169933492741
 20
69.76640551224321
 30
0.0
  0
VERTEX
  5
2FA
330
2E3
100
AcDbEntity
  8
Visible (ANSI)
100
AcDbVertex
100
AcDb2dVertex
 10
84.15866807085732
 20
69.76429391210325
 30
0.0
  0
VERTEX
  5
2FB
330
2E3
100
AcDbEntity
  8
Visible (ANSI)
100
AcDbVertex
100
AcDb2dVertex
 10
84.16572815853191
 20
69.7621823119633
 30
0.0
  0
VERTEX
  5
2FC
330
2E3
100
AcDbEntity
  8
Visible (ANSI)
100
AcDbVertex
100
AcDb2dVertex
 10
84.17284936553379
 20
69.76007071182336
 30
0.0
  0
VERTEX
  5
2FD
330
2E3
100
AcDbEntity
  8
Visible (ANSI)
100
AcDbVertex
100
AcDb2dVertex
 10
84.18000119838188
 20
69.75795610798478
 30
0.0
  0
SEQEND
  5
2E6
330
2E3
100
AcDbEntity
  8
Visible (ANSI)
  0
POLYLINE
  5
2FE
330
6C
100
AcDbEntity
  8
Visible (ANSI)
100
AcDb2dPolyline
 66
     1
 10
0.0
 20
0.0
 30
0.0
 70
   128
  0
VERTEX
  5
2FF
330
2FE
100
AcDbEntity
  8
Visible (ANSI)
100
AcDbVertex
100
AcDb2dVertex
 10
84.18000119838188
 20
30.19003995406198
 30
0.0
  0
VERTEX
  5
300
330
2FE
100
AcDbEntity
  8
Visible (ANSI)
100
AcDbVertex
100
AcDb2dVertex
 10
84.17284936553379
 20
30.18792781419494
 30
0.0
  0
VERTEX
  5
302
330
2FE
100
AcDbEntity
  8
Visible (ANSI)
100
AcDbVertex
100
AcDb2dVertex
 10
84.16572815853191
 20
30.18581567432789
 30
0.0
  0
VERTEX
  5
303
330
2FE
100
AcDbEntity
  8
Visible (ANSI)
100
AcDbVertex
100
AcDb2dVertex
 10
84.15866807085732
 20
30.18370354619404
 30
0.0
  0
VERTEX
  5
304
330
2FE
100
AcDbEntity
  8
Visible (ANSI)
100
AcDbVertex
100
AcDb2dVertex
 10
84.15169933492741
 20
30.18159140632699
 30
0.0
  0
VERTEX
  5
305
330
2FE
100
AcDbEntity
  8
Visible (ANSI)
100
AcDbVertex
100
AcDb2dVertex
 10
84.14485179229748
 20
30.17947926645995
 30
0.0
  0
VERTEX
  5
306
330
2FE
100
AcDbEntity
  8
Visible (ANSI)
100
AcDbVertex
100
AcDb2dVertex
 10
84.13815476459545
 20
30.1773671383261
 30
0.0
  0
VERTEX
  5
307
330
2FE
100
AcDbEntity
  8
Visible (ANSI)
100
AcDbVertex
100
AcDb2dVertex
 10
84.13163692922337
 20
30.17525499845905
 30
0.0
  0
VERTEX
  5
308
330
2FE
100
AcDbEntity
  8
Visible (ANSI)
100
AcDbVertex
100
AcDb2dVertex
 10
84.1253261965255
 20
30.17314285859201
 30
0.0
  0
VERTEX
  5
309
330
2FE
100
AcDbEntity
  8
Visible (ANSI)
100
AcDbVertex
100
AcDb2dVertex
 10
84.11924959392292
 20
30.17103073045816
 30
0.0
  0
VERTEX
  5
30A
330
2FE
100
AcDbEntity
  8
Visible (ANSI)
100
AcDbVertex
100
AcDb2dVertex
 10
84.11343313684847
 20
30.16891859059111
 30
0.0
  0
VERTEX
  5
30B
330
2FE
100
AcDbEntity
  8
Visible (ANSI)
100
AcDbVertex
100
AcDb2dVertex
 10
84.10790173194772
 20
30.16680645072407
 30
0.0
  0
VERTEX
  5
30C
330
2FE
100
AcDbEntity
  8
Visible (ANSI)
100
AcDbVertex
100
AcDb2dVertex
 10
84.10267906854704
 20
30.16469432259022
 30
0.0
  0
VERTEX
  5
30D
330
2FE
100
AcDbEntity
  8
Visible (ANSI)
100
AcDbVertex
100
AcDb2dVertex
 10
84.09778751598802
 20
30.16258218272317
 30
0.0
  0
VERTEX
  5
30E
330
2FE
100
AcDbEntity
  8
Visible (ANSI)
100
AcDbVertex
100
AcDb2dVertex
 10
84.09324801216207
 20
30.16047005458932
 30
0.0
  0
VERTEX
  5
30F
330
2FE
100
AcDbEntity
  8
Visible (ANSI)
100
AcDbVertex
100
AcDb2dVertex
 10
84.08907999311137
 20
30.15835791472227
 30
0.0
  0
VERTEX
  5
310
330
2FE
100
AcDbEntity
  8
Visible (ANSI)
100
AcDbVertex
100
AcDb2dVertex
 10
84.08530132262958
 20
30.15624577485523
 30
0.0
  0
VERTEX
  5
311
330
2FE
100
AcDbEntity
  8
Visible (ANSI)
100
AcDbVertex
100
AcDb2dVertex
 10
84.0819281631966
 20
30.15413364672138
 30
0.0
  0
VERTEX
  5
312
330
2FE
100
AcDbEntity
  8
Visible (ANSI)
100
AcDbVertex
100
AcDb2dVertex
 10
84.07897497011214
 20
30.15202150685433
 30
0.0
  0
VERTEX
  5
313
330
2FE
100
AcDbEntity
  8
Visible (ANSI)
100
AcDbVertex
100
AcDb2dVertex
 10
84.0764543858968
 20
30.14990936698728
 30
0.0
  0
VERTEX
  5
314
330
2FE
100
AcDbEntity
  8
Visible (ANSI)
100
AcDbVertex
100
AcDb2dVertex
 10
84.07437721095917
 20
30.14779723885343
 30
0.0
  0
VERTEX
  5
315
330
2FE
100
AcDbEntity
  8
Visible (ANSI)
100
AcDbVertex
100
AcDb2dVertex
 10
84.07275232732997
 20
30.14568509898639
 30
0.0
  0
VERTEX
  5
316
330
2FE
100
AcDbEntity
  8
Visible (ANSI)
100
AcDbVertex
100
AcDb2dVertex
 10
84.07158670452867
 20
30.14357295911934
 30
0.0
  0
VERTEX
  5
317
330
2FE
100
AcDbEntity
  8
Visible (ANSI)
100
AcDbVertex
100
AcDb2dVertex
 10
84.07088532329776
 20
30.1414608309855
 30
0.0
  0
VERTEX
  5
318
330
2FE
100
AcDbEntity
  8
Visible (ANSI)
100
AcDbVertex
100
AcDb2dVertex
 10
84.07065119906903
 20
30.13934869111845
 30
0.0
  0
SEQEND
  5
301
330
2FE
100
AcDbEntity
  8
Visible (ANSI)
  0
LINE
  5
319
330
6C
100
AcDbEntity
  8
Visible (ANSI)
100
AcDbLine
 10
84.94565119766107
 20
30.19003995107523
 30
0.0
 11
84.18000119766107
 21
30.19003995107523
 31
0.0
  0
LINE
  5
31A
330
6C
100
AcDbEntity
  8
Visible (ANSI)
100
AcDbLine
 10
84.14773013879011
 20
30.13934869033898
 30
0.0
 11
84.07065119766105
 21
30.13934869033898
 31
0.0
  0
LINE
  5
31B
330
6C
100
AcDbEntity
  8
Visible (ANSI)
100
AcDbLine
 10
84.16440119766106
 20
30.13934869033898
 30
0.0
 11
84.14773013879011
 21
30.13934869033898
 31
0.0
  0
POLYLINE
  5
31C
330
6C
100
AcDbEntity
  8
Visible (ANSI)
100
AcDb2dPolyline
 66
     1
 10
0.0
 20
0.0
 30
0.0
 70
   128
  0
VERTEX
  5
31D
330
31C
100
AcDbEntity
  8
Visible (ANSI)
100
AcDbVertex
100
AcDb2dVertex
 10
84.16440119766106
 20
30.13934869111845
 30
0.0
  0
VERTEX
  5
31E
330
31C
100
AcDbEntity
  8
Visible (ANSI)
100
AcDbVertex
100
AcDb2dVertex
 10
84.16443459845723
 20
30.1414608309855
 30
0.0
  0
VERTEX
  5
320
330
31C
100
AcDbEntity
  8
Visible (ANSI)
100
AcDbVertex
100
AcDb2dVertex
 10
84.16453465782451
 20
30.14357295911934
 30
0.0
  0
VERTEX
  5
321
330
31C
100
AcDbEntity
  8
Visible (ANSI)
100
AcDbVertex
100
AcDb2dVertex
 10
84.16470094729207
 20
30.14568509898639
 30
0.0
  0
VERTEX
  5
322
330
31C
100
AcDbEntity
  8
Visible (ANSI)
100
AcDbVertex
100
AcDb2dVertex
 10
84.16493275478712
 20
30.14779723885343
 30
0.0
  0
VERTEX
  5
323
330
31C
100
AcDbEntity
  8
Visible (ANSI)
100
AcDbVertex
100
AcDb2dVertex
 10
84.16522908760553
 20
30.14990936698728
 30
0.0
  0
VERTEX
  5
324
330
31C
100
AcDbEntity
  8
Visible (ANSI)
100
AcDbVertex
100
AcDb2dVertex
 10
84.16558867693487
 20
30.15202150685433
 30
0.0
  0
VERTEX
  5
325
330
31C
100
AcDbEntity
  8
Visible (ANSI)
100
AcDbVertex
100
AcDb2dVertex
 10
84.16600998297623
 20
30.15413364672138
 30
0.0
  0
VERTEX
  5
326
330
31C
100
AcDbEntity
  8
Visible (ANSI)
100
AcDbVertex
100
AcDb2dVertex
 10
84.16649120138382
 20
30.15624577485523
 30
0.0
  0
VERTEX
  5
327
330
31C
100
AcDbEntity
  8
Visible (ANSI)
100
AcDbVertex
100
AcDb2dVertex
 10
84.16703027178977
 20
30.15835791472227
 30
0.0
  0
VERTEX
  5
328
330
31C
100
AcDbEntity
  8
Visible (ANSI)
100
AcDbVertex
100
AcDb2dVertex
 10
84.16762488568741
 20
30.16047005458932
 30
0.0
  0
VERTEX
  5
329
330
31C
100
AcDbEntity
  8
Visible (ANSI)
100
AcDbVertex
100
AcDb2dVertex
 10
84.16827249660615
 20
30.16258218272317
 30
0.0
  0
VERTEX
  5
32A
330
31C
100
AcDbEntity
  8
Visible (ANSI)
100
AcDbVertex
100
AcDb2dVertex
 10
84.16897033184469
 20
30.16469432259022
 30
0.0
  0
VERTEX
  5
32B
330
31C
100
AcDbEntity
  8
Visible (ANSI)
100
AcDbVertex
100
AcDb2dVertex
 10
84.16971540310424
 20
30.16680645072407
 30
0.0
  0
VERTEX
  5
32C
330
31C
100
AcDbEntity
  8
Visible (ANSI)
100
AcDbVertex
100
AcDb2dVertex
 10
84.17050451932164
 20
30.16891859059111
 30
0.0
  0
VERTEX
  5
32D
330
31C
100
AcDbEntity
  8
Visible (ANSI)
100
AcDbVertex
100
AcDb2dVertex
 10
84.17133430170258
 20
30.17103073045816
 30
0.0
  0
VERTEX
  5
32E
330
31C
100
AcDbEntity
  8
Visible (ANSI)
100
AcDbVertex
100
AcDb2dVertex
 10
84.17220119802145
 20
30.17314285859201
 30
0.0
  0
VERTEX
  5
32F
330
31C
100
AcDbEntity
  8
Visible (ANSI)
100
AcDbVertex
100
AcDb2dVertex
 10
84.17310149435449
 20
30.17525499845905
 30
0.0
  0
VERTEX
  5
330
330
31C
100
AcDbEntity
  8
Visible (ANSI)
100
AcDbVertex
100
AcDb2dVertex
 10
84.1740313363462
 20
30.1773671383261
 30
0.0
  0
VERTEX
  5
331
330
31C
100
AcDbEntity
  8
Visible (ANSI)
100
AcDbVertex
100
AcDb2dVertex
 10
84.17498674204262
 20
30.17947926645995
 30
0.0
  0
VERTEX
  5
332
330
31C
100
AcDbEntity
  8
Visible (ANSI)
100
AcDbVertex
100
AcDb2dVertex
 10
84.17596362022429
 20
30.18159140632699
 30
0.0
  0
VERTEX
  5
333
330
31C
100
AcDbEntity
  8
Visible (ANSI)
100
AcDbVertex
100
AcDb2dVertex
 10
84.17695778873957
 20
30.18370354619404
 30
0.0
  0
VERTEX
  5
334
330
31C
100
AcDbEntity
  8
Visible (ANSI)
100
AcDbVertex
100
AcDb2dVertex
 10
84.17796498843765
 20
30.18581567432789
 30
0.0
  0
VERTEX
  5
335
330
31C
100
AcDbEntity
  8
Visible (ANSI)
100
AcDbVertex
100
AcDb2dVertex
 10
84.17898090883499
 20
30.18792781419494
 30
0.0
  0
VERTEX
  5
336
330
31C
100
AcDbEntity
  8
Visible (ANSI)
100
AcDbVertex
100
AcDb2dVertex
 10
84.18000119838184
 20
30.19003995406198
 30
0.0
  0
SEQEND
  5
31F
330
31C
100
AcDbEntity
  8
Visible (ANSI)
  0
POLYLINE
  5
337
330
6C
100
AcDbEntity
  8
Visible (ANSI)
100
AcDb2dPolyline
 66
     1
 10
0.0
 20
0.0
 30
0.0
 70
   128
  0
VERTEX
  5
338
330
337
100
AcDbEntity
  8
Visible (ANSI)
100
AcDbVertex
100
AcDb2dVertex
 10
84.16440119766106
 20
69.8086495298367
 30
0.0
  0
VERTEX
  5
339
330
337
100
AcDbEntity
  8
Visible (ANSI)
100
AcDbVertex
100
AcDb2dVertex
 10
84.16443459845723
 20
69.80653792969675
 30
0.0
  0
VERTEX
  5
33B
330
337
100
AcDbEntity
  8
Visible (ANSI)
100
AcDbVertex
100
AcDb2dVertex
 10
84.16453465782451
 20
69.80442332585818
 30
0.0
  0
VERTEX
  5
33C
330
337
100
AcDbEntity
  8
Visible (ANSI)
100
AcDbVertex
100
AcDb2dVertex
 10
84.16470094729207
 20
69.80231172571823
 30
0.0
  0
VERTEX
  5
33D
330
337
100
AcDbEntity
  8
Visible (ANSI)
100
AcDbVertex
100
AcDb2dVertex
 10
84.16493275478712
 20
69.80020012557827
 30
0.0
  0
VERTEX
  5
33E
330
337
100
AcDbEntity
  8
Visible (ANSI)
100
AcDbVertex
100
AcDb2dVertex
 10
84.16522908760553
 20
69.79808852543833
 30
0.0
  0
VERTEX
  5
33F
330
337
100
AcDbEntity
  8
Visible (ANSI)
100
AcDbVertex
100
AcDb2dVertex
 10
84.16558867693487
 20
69.79597692529839
 30
0.0
  0
VERTEX
  5
340
330
337
100
AcDbEntity
  8
Visible (ANSI)
100
AcDbVertex
100
AcDb2dVertex
 10
84.16600998297623
 20
69.7938623214598
 30
0.0
  0
VERTEX
  5
341
330
337
100
AcDbEntity
  8
Visible (ANSI)
100
AcDbVertex
100
AcDb2dVertex
 10
84.16649120138382
 20
69.79175072131986
 30
0.0
  0
VERTEX
  5
342
330
337
100
AcDbEntity
  8
Visible (ANSI)
100
AcDbVertex
100
AcDb2dVertex
 10
84.16703027178977
 20
69.78963912117992
 30
0.0
  0
VERTEX
  5
343
330
337
100
AcDbEntity
  8
Visible (ANSI)
100
AcDbVertex
100
AcDb2dVertex
 10
84.16762488568741
 20
69.78752752103996
 30
0.0
  0
VERTEX
  5
344
330
337
100
AcDbEntity
  8
Visible (ANSI)
100
AcDbVertex
100
AcDb2dVertex
 10
84.16827249660615
 20
69.7854159209
 30
0.0
  0
VERTEX
  5
345
330
337
100
AcDbEntity
  8
Visible (ANSI)
100
AcDbVertex
100
AcDb2dVertex
 10
84.16897033184469
 20
69.78330432076005
 30
0.0
  0
VERTEX
  5
346
330
337
100
AcDbEntity
  8
Visible (ANSI)
100
AcDbVertex
100
AcDb2dVertex
 10
84.16971540310424
 20
69.78118971692147
 30
0.0
  0
VERTEX
  5
347
330
337
100
AcDbEntity
  8
Visible (ANSI)
100
AcDbVertex
100
AcDb2dVertex
 10
84.17050451932164
 20
69.77907811678152
 30
0.0
  0
VERTEX
  5
348
330
337
100
AcDbEntity
  8
Visible (ANSI)
100
AcDbVertex
100
AcDb2dVertex
 10
84.17133430170258
 20
69.77696651664158
 30
0.0
  0
VERTEX
  5
349
330
337
100
AcDbEntity
  8
Visible (ANSI)
100
AcDbVertex
100
AcDb2dVertex
 10
84.17220119802145
 20
69.77485491650163
 30
0.0
  0
VERTEX
  5
34A
330
337
100
AcDbEntity
  8
Visible (ANSI)
100
AcDbVertex
100
AcDb2dVertex
 10
84.17310149435449
 20
69.7727433163617
 30
0.0
  0
VERTEX
  5
34B
330
337
100
AcDbEntity
  8
Visible (ANSI)
100
AcDbVertex
100
AcDb2dVertex
 10
84.1740313363462
 20
69.77063171622173
 30
0.0
  0
VERTEX
  5
34C
330
337
100
AcDbEntity
  8
Visible (ANSI)
100
AcDbVertex
100
AcDb2dVertex
 10
84.17498674204262
 20
69.76851711238315
 30
0.0
  0
VERTEX
  5
34D
330
337
100
AcDbEntity
  8
Visible (ANSI)
100
AcDbVertex
100
AcDb2dVertex
 10
84.17596362022429
 20
69.76640551224321
 30
0.0
  0
VERTEX
  5
34E
330
337
100
AcDbEntity
  8
Visible (ANSI)
100
AcDbVertex
100
AcDb2dVertex
 10
84.17695778873957
 20
69.76429391210325
 30
0.0
  0
VERTEX
  5
34F
330
337
100
AcDbEntity
  8
Visible (ANSI)
100
AcDbVertex
100
AcDb2dVertex
 10
84.17796498843765
 20
69.7621823119633
 30
0.0
  0
VERTEX
  5
350
330
337
100
AcDbEntity
  8
Visible (ANSI)
100
AcDbVertex
100
AcDb2dVertex
 10
84.17898090883499
 20
69.76007071182336
 30
0.0
  0
VERTEX
  5
351
330
337
100
AcDbEntity
  8
Visible (ANSI)
100
AcDbVertex
100
AcDb2dVertex
 10
84.18000119838184
 20
69.75795610798478
 30
0.0
  0
SEQEND
  5
33A
330
337
100
AcDbEntity
  8
Visible (ANSI)
  0
LINE
  5
352
330
6C
100
AcDbEntity
  8
Visible (ANSI)
100
AcDbLine
 10
84.16440119766106
 20
69.80864869033898
 30
0.0
 11
84.14773013879011
 21
69.80864869033898
 31
0.0
  0
LINE
  5
353
330
6C
100
AcDbEntity
  8
Visible (ANSI)
100
AcDbLine
 10
84.14773013879011
 20
69.80864869033898
 30
0.0
 11
84.07065119766105
 21
69.80864869033898
 31
0.0
  0
LINE
  5
354
330
6C
100
AcDbEntity
  8
Visible (ANSI)
100
AcDbLine
 10
84.18000119766107
 20
69.75795742960276
 30
0.0
 11
84.94565119766107
 21
69.75795742960276
 31
0.0
  0
POLYLINE
  5
355
330
6C
100
AcDbEntity
  8
Visible (ANSI)
100
AcDb2dPolyline
 66
     1
 10
0.0
 20
0.0
 30
0.0
 70
   128
  0
VERTEX
  5
356
330
355
100
AcDbEntity
  8
Visible (ANSI)
100
AcDbVertex
100
AcDb2dVertex
 10
84.18000119838183
 20
69.91799917862022
 30
0.0
  0
VERTEX
  5
357
330
355
100
AcDbEntity
  8
Visible (ANSI)
100
AcDbVertex
100
AcDb2dVertex
 10
84.17284936553375
 20
69.91776489012675
 30
0.0
  0
VERTEX
  5
359
330
355
100
AcDbEntity
  8
Visible (ANSI)
100
AcDbVertex
100
AcDb2dVertex
 10
84.16572815853188
 20
69.91706202464631
 30
0.0
  0
VERTEX
  5
35A
330
355
100
AcDbEntity
  8
Visible (ANSI)
100
AcDbVertex
100
AcDb2dVertex
 10
84.15866807085727
 20
69.91589658957618
 30
0.0
  0
VERTEX
  5
35B
330
355
100
AcDbEntity
  8
Visible (ANSI)
100
AcDbVertex
100
AcDb2dVertex
 10
84.15169933492737
 20
69.91427158861501
 30
0.0
  0
VERTEX
  5
35C
330
355
100
AcDbEntity
  8
Visible (ANSI)
100
AcDbVertex
100
AcDb2dVertex
 10
84.14485179229743
 20
69.91219603285867
 30
0.0
  0
VERTEX
  5
35D
330
355
100
AcDbEntity
  8
Visible (ANSI)
100
AcDbVertex
100
AcDb2dVertex
 10
84.13815476459541
 20
69.90967592970445
 30
0.0
  0
VERTEX
  5
35E
330
355
100
AcDbEntity
  8
Visible (ANSI)
100
AcDbVertex
100
AcDb2dVertex
 10
84.13163692922333
 20
69.90672029024825
 30
0.0
  0
VERTEX
  5
35F
330
355
100
AcDbEntity
  8
Visible (ANSI)
100
AcDbVertex
100
AcDb2dVertex
 10
84.12532619652544
 20
69.90334713668187
 30
0.0
  0
VERTEX
  5
360
330
355
100
AcDbEntity
  8
Visible (ANSI)
100
AcDbVertex
100
AcDb2dVertex
 10
84.11924959392289
 20
69.89956848379986
 30
0.0
  0
VERTEX
  5
361
330
355
100
AcDbEntity
  8
Visible (ANSI)
100
AcDbVertex
100
AcDb2dVertex
 10
84.11343313684843
 20
69.89540235379401
 30
0.0
  0
VERTEX
  5
362
330
355
100
AcDbEntity
  8
Visible (ANSI)
100
AcDbVertex
100
AcDb2dVertex
 10
84.10790173194769
 20
69.89086376515752
 30
0.0
  0
VERTEX
  5
363
330
355
100
AcDbEntity
  8
Visible (ANSI)
100
AcDbVertex
100
AcDb2dVertex
 10
84.102679068547
 20
69.88597074008215
 30
0.0
  0
VERTEX
  5
364
330
355
100
AcDbEntity
  8
Visible (ANSI)
100
AcDbVertex
100
AcDb2dVertex
 10
84.09778751598798
 20
69.88074730815703
 30
0.0
  0
VERTEX
  5
365
330
355
100
AcDbEntity
  8
Visible (ANSI)
100
AcDbVertex
100
AcDb2dVertex
 10
84.09324801216206
 20
69.87521749897118
 30
0.0
  0
VERTEX
  5
366
330
355
100
AcDbEntity
  8
Visible (ANSI)
100
AcDbVertex
100
AcDb2dVertex
 10
84.08907999311136
 20
69.86939933471643
 30
0.0
  0
VERTEX
  5
367
330
355
100
AcDbEntity
  8
Visible (ANSI)
100
AcDbVertex
100
AcDb2dVertex
 10
84.08530132262956
 20
69.86332285237915
 30
0.0
  0
VERTEX
  5
368
330
355
100
AcDbEntity
  8
Visible (ANSI)
100
AcDbVertex
100
AcDb2dVertex
 10
84.08192816319658
 20
69.85701208154839
 30
0.0
  0
VERTEX
  5
369
330
355
100
AcDbEntity
  8
Visible (ANSI)
100
AcDbVertex
100
AcDb2dVertex
 10
84.07897497011211
 20
69.85049405551186
 30
0.0
  0
VERTEX
  5
36A
330
355
100
AcDbEntity
  8
Visible (ANSI)
100
AcDbVertex
100
AcDb2dVertex
 10
84.0764543858968
 20
69.84379881125588
 30
0.0
  0
VERTEX
  5
36B
330
355
100
AcDbEntity
  8
Visible (ANSI)
100
AcDbVertex
100
AcDb2dVertex
 10
84.07437721095915
 20
69.83695037836955
 30
0.0
  0
VERTEX
  5
36C
330
355
100
AcDbEntity
  8
Visible (ANSI)
100
AcDbVertex
100
AcDb2dVertex
 10
84.07275232732997
 20
69.82998179753787
 30
0.0
  0
VERTEX
  5
36D
330
355
100
AcDbEntity
  8
Visible (ANSI)
100
AcDbVertex
100
AcDb2dVertex
 10
84.07158670452865
 20
69.82292310574713
 30
0.0
  0
VERTEX
  5
36E
330
355
100
AcDbEntity
  8
Visible (ANSI)
100
AcDbVertex
100
AcDb2dVertex
 10
84.07088532329774
 20
69.81580133628511
 30
0.0
  0
VERTEX
  5
36F
330
355
100
AcDbEntity
  8
Visible (ANSI)
100
AcDbVertex
100
AcDb2dVertex
 10
84.07065119906903
 20
69.8086495298367
 30
0.0
  0
SEQEND
  5
358
330
355
100
AcDbEntity
  8
Visible (ANSI)
  0
LINE
  5
370
330
6C
100
AcDbEntity
  8
Visible (ANSI)
100
AcDbLine
 10
84.18000119766103
 20
69.82424869033899
 30
0.0
 11
84.94565119766104
 21
69.82424869033905
 31
0.0
  0
LINE
  5
371
330
6C
100
AcDbEntity
  8
Visible (ANSI)
100
AcDbLine
 10
84.94565119766104
 20
69.91799869033903
 30
0.0
 11
84.18000119766103
 21
69.91799869033901
 31
0.0
  0
LINE
  5
372
330
6C
100
AcDbEntity
  8
Visible (ANSI)
100
AcDbLine
 10
84.18000119766103
 20
69.82424869033899
 30
0.0
 11
84.18000119766103
 21
69.91799869033901
 31
0.0
  0
LINE
  5
373
330
6C
100
AcDbEntity
  8
Visible (ANSI)
100
AcDbLine
 10
84.94565119766104
 20
69.82424869033905
 30
0.0
 11
84.94565119766104
 21
69.91799869033903
 31
0.0
  0
POLYLINE
  5
374
330
6C
100
AcDbEntity
  8
Visible (ANSI)
100
AcDb2dPolyline
 66
     1
 10
0.0
 20
0.0
 30
0.0
 70
   128
  0
VERTEX
  5
375
330
374
100
AcDbEntity
  8
Visible (ANSI)
100
AcDbVertex
100
AcDb2dVertex
 10
84.16440119766106
 20
69.8086495298367
 30
0.0
  0
VERTEX
  5
376
330
374
100
AcDbEntity
  8
Visible (ANSI)
100
AcDbVertex
100
AcDb2dVertex
 10
84.16443459845723
 20
69.80966778367376
 30
0.0
  0
VERTEX
  5
378
330
374
100
AcDbEntity
  8
Visible (ANSI)
100
AcDbVertex
100
AcDb2dVertex
 10
84.16453465782451
 20
69.81068603751079
 30
0.0
  0
VERTEX
  5
379
330
374
100
AcDbEntity
  8
Visible (ANSI)
100
AcDbVertex
100
AcDb2dVertex
 10
84.16470094729206
 20
69.8116922765533
 30
0.0
  0
VERTEX
  5
37A
330
374
100
AcDbEntity
  8
Visible (ANSI)
100
AcDbVertex
100
AcDb2dVertex
 10
84.16493275478712
 20
69.81268650080128
 30
0.0
  0
VERTEX
  5
37B
330
374
100
AcDbEntity
  8
Visible (ANSI)
100
AcDbVertex
100
AcDb2dVertex
 10
84.16522908760553
 20
69.81366270285744
 30
0.0
  0
VERTEX
  5
37C
330
374
100
AcDbEntity
  8
Visible (ANSI)
100
AcDbVertex
100
AcDb2dVertex
 10
84.16558867693487
 20
69.81461787902316
 30
0.0
  0
VERTEX
  5
37D
330
374
100
AcDbEntity
  8
Visible (ANSI)
100
AcDbVertex
100
AcDb2dVertex
 10
84.16600998297623
 20
69.81554902559981
 30
0.0
  0
VERTEX
  5
37E
330
374
100
AcDbEntity
  8
Visible (ANSI)
100
AcDbVertex
100
AcDb2dVertex
 10
84.16649120138382
 20
69.81645013519011
 30
0.0
  0
VERTEX
  5
37F
330
374
100
AcDbEntity
  8
Visible (ANSI)
100
AcDbVertex
100
AcDb2dVertex
 10
84.16703027178975
 20
69.8173152003968
 30
0.0
  0
VERTEX
  5
380
330
374
100
AcDbEntity
  8
Visible (ANSI)
100
AcDbVertex
100
AcDb2dVertex
 10
84.16762488568739
 20
69.81814422121989
 30
0.0
  0
VERTEX
  5
381
330
374
100
AcDbEntity
  8
Visible (ANSI)
100
AcDbVertex
100
AcDb2dVertex
 10
84.16827249660613
 20
69.81893419396072
 30
0.0
  0
VERTEX
  5
382
330
374
100
AcDbEntity
  8
Visible (ANSI)
100
AcDbVertex
100
AcDb2dVertex
 10
84.16897033184469
 20
69.81967911122204
 30
0.0
  0
VERTEX
  5
383
330
374
100
AcDbEntity
  8
Visible (ANSI)
100
AcDbVertex
100
AcDb2dVertex
 10
84.16971540310422
 20
69.82037596930521
 30
0.0
  0
VERTEX
  5
384
330
374
100
AcDbEntity
  8
Visible (ANSI)
100
AcDbVertex
100
AcDb2dVertex
 10
84.17050451932162
 20
69.82102476821022
 30
0.0
  0
VERTEX
  5
385
330
374
100
AcDbEntity
  8
Visible (ANSI)
100
AcDbVertex
100
AcDb2dVertex
 10
84.17133430170256
 20
69.82161950053984
 30
0.0
  0
VERTEX
  5
386
330
374
100
AcDbEntity
  8
Visible (ANSI)
100
AcDbVertex
100
AcDb2dVertex
 10
84.17220119802143
 20
69.82216016629401
 30
0.0
  0
VERTEX
  5
387
330
374
100
AcDbEntity
  8
Visible (ANSI)
100
AcDbVertex
100
AcDb2dVertex
 10
84.17310149435447
 20
69.82264075807551
 30
0.0
  0
VERTEX
  5
388
330
374
100
AcDbEntity
  8
Visible (ANSI)
100
AcDbVertex
100
AcDb2dVertex
 10
84.1740313363462
 20
69.82306127588433
 30
0.0
  0
VERTEX
  5
389
330
374
100
AcDbEntity
  8
Visible (ANSI)
100
AcDbVertex
100
AcDb2dVertex
 10
84.1749867420426
 20
69.82342171972044
 30
0.0
  0
VERTEX
  5
38A
330
374
100
AcDbEntity
  8
Visible (ANSI)
100
AcDbVertex
100
AcDb2dVertex
 10
84.17596362022427
 20
69.82371608218662
 30
0.0
  0
VERTEX
  5
38B
330
374
100
AcDbEntity
  8
Visible (ANSI)
100
AcDbVertex
100
AcDb2dVertex
 10
84.17695778873955
 20
69.82395037068009
 30
0.0
  0
VERTEX
  5
38C
330
374
100
AcDbEntity
  8
Visible (ANSI)
100
AcDbVertex
100
AcDb2dVertex
 10
84.17796498843763
 20
69.82411557410498
 30
0.0
  0
VERTEX
  5
38D
330
374
100
AcDbEntity
  8
Visible (ANSI)
100
AcDbVertex
100
AcDb2dVertex
 10
84.17898090883497
 20
69.82421469615991
 30
0.0
  0
VERTEX
  5
38E
330
374
100
AcDbEntity
  8
Visible (ANSI)
100
AcDbVertex
100
AcDb2dVertex
 10
84.18000119838183
 20
69.82424773684489
 30
0.0
  0
SEQEND
  5
377
330
374
100
AcDbEntity
  8
Visible (ANSI)
  0
POLYLINE
  5
38F
330
6C
100
AcDbEntity
  8
Visible (ANSI)
100
AcDb2dPolyline
 66
     1
 10
0.0
 20
0.0
 30
0.0
 70
   128
  0
VERTEX
  5
390
330
38F
100
AcDbEntity
  8
Visible (ANSI)
100
AcDbVertex
100
AcDb2dVertex
 10
84.07065119906903
 20
30.13934869111845
 30
0.0
  0
VERTEX
  5
391
330
38F
100
AcDbEntity
  8
Visible (ANSI)
100
AcDbVertex
100
AcDb2dVertex
 10
84.07088532329774
 20
30.13219686120366
 30
0.0
  0
VERTEX
  5
393
330
38F
100
AcDbEntity
  8
Visible (ANSI)
100
AcDbVertex
100
AcDb2dVertex
 10
84.07158670452865
 20
30.12507564906851
 30
0.0
  0
VERTEX
  5
394
330
38F
100
AcDbEntity
  8
Visible (ANSI)
100
AcDbVertex
100
AcDb2dVertex
 10
84.07275232732997
 20
30.11801556102725
 30
0.0
  0
VERTEX
  5
395
330
38F
100
AcDbEntity
  8
Visible (ANSI)
100
AcDbVertex
100
AcDb2dVertex
 10
84.07437721095915
 20
30.11104682766399
 30
0.0
  0
VERTEX
  5
396
330
38F
100
AcDbEntity
  8
Visible (ANSI)
100
AcDbVertex
100
AcDb2dVertex
 10
84.0764543858968
 20
30.1041992865007
 30
0.0
  0
VERTEX
  5
397
330
38F
100
AcDbEntity
  8
Visible (ANSI)
100
AcDbVertex
100
AcDb2dVertex
 10
84.07897497011211
 20
30.09750225879867
 30
0.0
  0
VERTEX
  5
398
330
38F
100
AcDbEntity
  8
Visible (ANSI)
100
AcDbVertex
100
AcDb2dVertex
 10
84.08192816319658
 20
30.09098442049329
 30
0.0
  0
VERTEX
  5
399
330
38F
100
AcDbEntity
  8
Visible (ANSI)
100
AcDbVertex
100
AcDb2dVertex
 10
84.08530132262956
 20
30.08467369072871
 30
0.0
  0
VERTEX
  5
39A
330
38F
100
AcDbEntity
  8
Visible (ANSI)
100
AcDbVertex
100
AcDb2dVertex
 10
84.08907999311136
 20
30.07859708519285
 30
0.0
  0
VERTEX
  5
39B
330
38F
100
AcDbEntity
  8
Visible (ANSI)
100
AcDbVertex
100
AcDb2dVertex
 10
84.09324801216206
 20
30.07278062811839
 30
0.0
  0
VERTEX
  5
39C
330
38F
100
AcDbEntity
  8
Visible (ANSI)
100
AcDbVertex
100
AcDb2dVertex
 10
84.09778751598798
 20
30.06724922615095
 30
0.0
  0
VERTEX
  5
39D
330
38F
100
AcDbEntity
  8
Visible (ANSI)
100
AcDbVertex
100
AcDb2dVertex
 10
84.102679068547
 20
30.06202656275027
 30
0.0
  0
VERTEX
  5
39E
330
38F
100
AcDbEntity
  8
Visible (ANSI)
100
AcDbVertex
100
AcDb2dVertex
 10
84.10790173194769
 20
30.05713500725794
 30
0.0
  0
VERTEX
  5
39F
330
38F
100
AcDbEntity
  8
Visible (ANSI)
100
AcDbVertex
100
AcDb2dVertex
 10
84.11343313684843
 20
30.05259550196536
 30
0.0
  0
VERTEX
  5
3A0
330
38F
100
AcDbEntity
  8
Visible (ANSI)
100
AcDbVertex
100
AcDb2dVertex
 10
84.11924959392289
 20
30.04842748878127
 30
0.0
  0
VERTEX
  5
3A1
330
38F
100
AcDbEntity
  8
Visible (ANSI)
100
AcDbVertex
100
AcDb2dVertex
 10
84.12532619652544
 20
30.04464881243286
 30
0.0
  0
VERTEX
  5
3A2
330
38F
100
AcDbEntity
  8
Visible (ANSI)
100
AcDbVertex
100
AcDb2dVertex
 10
84.13163692922333
 20
30.04127565593318
 30
0.0
  0
VERTEX
  5
3A3
330
38F
100
AcDbEntity
  8
Visible (ANSI)
100
AcDbVertex
100
AcDb2dVertex
 10
84.13815476459541
 20
30.03832246358205
 30
0.0
  0
VERTEX
  5
3A4
330
38F
100
AcDbEntity
  8
Visible (ANSI)
100
AcDbVertex
100
AcDb2dVertex
 10
84.14485179229743
 20
30.03580188083337
 30
0.0
  0
VERTEX
  5
3A5
330
38F
100
AcDbEntity
  8
Visible (ANSI)
100
AcDbVertex
100
AcDb2dVertex
 10
84.15169933492737
 20
30.03372470112913
 30
0.0
  0
VERTEX
  5
3A6
330
38F
100
AcDbEntity
  8
Visible (ANSI)
100
AcDbVertex
100
AcDb2dVertex
 10
84.15866807085727
 20
30.03209981988323
 30
0.0
  0
VERTEX
  5
3A7
330
38F
100
AcDbEntity
  8
Visible (ANSI)
100
AcDbVertex
100
AcDb2dVertex
 10
84.16572815853188
 20
30.03093419479029
 30
0.0
  0
VERTEX
  5
3A8
330
38F
100
AcDbEntity
  8
Visible (ANSI)
100
AcDbVertex
100
AcDb2dVertex
 10
84.17284936553375
 20
30.0302328170885
 30
0.0
  0
VERTEX
  5
3A9
330
38F
100
AcDbEntity
  8
Visible (ANSI)
100
AcDbVertex
100
AcDb2dVertex
 10
84.18000119838183
 20
30.02999869033899
 30
0.0
  0
SEQEND
  5
392
330
38F
100
AcDbEntity
  8
Visible (ANSI)
  0
LINE
  5
3AA
330
6C
100
AcDbEntity
  8
Visible (ANSI)
100
AcDbLine
 10
84.18000119766103
 20
30.12374869033898
 30
0.0
 11
84.94565119766104
 21
30.12374869033898
 31
0.0
  0
LINE
  5
3AB
330
6C
100
AcDbEntity
  8
Visible (ANSI)
100
AcDbLine
 10
84.18000119766103
 20
30.12374869033898
 30
0.0
 11
84.18000119766103
 21
30.02999869033899
 31
0.0
  0
POLYLINE
  5
3AC
330
6C
100
AcDbEntity
  8
Visible (ANSI)
100
AcDb2dPolyline
 66
     1
 10
0.0
 20
0.0
 30
0.0
 70
   128
  0
VERTEX
  5
3AD
330
3AC
100
AcDbEntity
  8
Visible (ANSI)
100
AcDbVertex
100
AcDb2dVertex
 10
84.16440119766106
 20
30.13934869111845
 30
0.0
  0
VERTEX
  5
3AE
330
3AC
100
AcDbEntity
  8
Visible (ANSI)
100
AcDbVertex
100
AcDb2dVertex
 10
84.16443459845723
 20
30.13832839570499
 30
0.0
  0
VERTEX
  5
3B0
330
3AC
100
AcDbEntity
  8
Visible (ANSI)
100
AcDbVertex
100
AcDb2dVertex
 10
84.16453465782451
 20
30.1373124767743
 30
0.0
  0
VERTEX
  5
3B1
330
3AC
100
AcDbEntity
  8
Visible (ANSI)
100
AcDbVertex
100
AcDb2dVertex
 10
84.16470094729206
 20
30.13630527560958
 30
0.0
  0
VERTEX
  5
3B2
330
3AC
100
AcDbEntity
  8
Visible (ANSI)
100
AcDbVertex
100
AcDb2dVertex
 10
84.16493275478712
 20
30.13531111002759
 30
0.0
  0
VERTEX
  5
3B3
330
3AC
100
AcDbEntity
  8
Visible (ANSI)
100
AcDbVertex
100
AcDb2dVertex
 10
84.16522908760553
 20
30.13433423917915
 30
0.0
  0
VERTEX
  5
3B4
330
3AC
100
AcDbEntity
  8
Visible (ANSI)
100
AcDbVertex
100
AcDb2dVertex
 10
84.16558867693487
 20
30.13337882834948
 30
0.0
  0
VERTEX
  5
3B5
330
3AC
100
AcDbEntity
  8
Visible (ANSI)
100
AcDbVertex
100
AcDb2dVertex
 10
84.16600998297623
 20
30.13244898415778
 30
0.0
  0
VERTEX
  5
3B6
330
3AC
100
AcDbEntity
  8
Visible (ANSI)
100
AcDbVertex
100
AcDb2dVertex
 10
84.16649120138382
 20
30.13154869589132
 30
0.0
  0
VERTEX
  5
3B7
330
3AC
100
AcDbEntity
  8
Visible (ANSI)
100
AcDbVertex
100
AcDb2dVertex
 10
84.16703027178975
 20
30.13068180030578
 30
0.0
  0
VERTEX
  5
3B8
330
3AC
100
AcDbEntity
  8
Visible (ANSI)
100
AcDbVertex
100
AcDb2dVertex
 10
84.16762488568739
 20
30.12985201682484
 30
0.0
  0
VERTEX
  5
3B9
330
3AC
100
AcDbEntity
  8
Visible (ANSI)
100
AcDbVertex
100
AcDb2dVertex
 10
84.16827249660613
 20
30.12906290060744
 30
0.0
  0
VERTEX
  5
3BA
330
3AC
100
AcDbEntity
  8
Visible (ANSI)
100
AcDbVertex
100
AcDb2dVertex
 10
84.16897033184469
 20
30.12831782494795
 30
0.0
  0
VERTEX
  5
3BB
330
3AC
100
AcDbEntity
  8
Visible (ANSI)
100
AcDbVertex
100
AcDb2dVertex
 10
84.16971540310422
 20
30.12761998714277
 30
0.0
  0
VERTEX
  5
3BC
330
3AC
100
AcDbEntity
  8
Visible (ANSI)
100
AcDbVertex
100
AcDb2dVertex
 10
84.17050451932162
 20
30.12697237915733
 30
0.0
  0
VERTEX
  5
3BD
330
3AC
100
AcDbEntity
  8
Visible (ANSI)
100
AcDbVertex
100
AcDb2dVertex
 10
84.17133430170256
 20
30.1263777641597
 30
0.0
  0
VERTEX
  5
3BE
330
3AC
100
AcDbEntity
  8
Visible (ANSI)
100
AcDbVertex
100
AcDb2dVertex
 10
84.17220119802143
 20
30.12583869412042
 30
0.0
  0
VERTEX
  5
3BF
330
3AC
100
AcDbEntity
  8
Visible (ANSI)
100
AcDbVertex
100
AcDb2dVertex
 10
84.17310149435447
 20
30.12535747461284
 30
0.0
  0
VERTEX
  5
3C0
330
3AC
100
AcDbEntity
  8
Visible (ANSI)
100
AcDbVertex
100
AcDb2dVertex
 10
84.1740313363462
 20
30.12493617067978
 30
0.0
  0
VERTEX
  5
3C1
330
3AC
100
AcDbEntity
  8
Visible (ANSI)
100
AcDbVertex
100
AcDb2dVertex
 10
84.1749867420426
 20
30.12457657750049
 30
0.0
  0
VERTEX
  5
3C2
330
3AC
100
AcDbEntity
  8
Visible (ANSI)
100
AcDbVertex
100
AcDb2dVertex
 10
84.17596362022427
 20
30.1242802497237
 30
0.0
  0
VERTEX
  5
3C3
330
3AC
100
AcDbEntity
  8
Visible (ANSI)
100
AcDbVertex
100
AcDb2dVertex
 10
84.17695778873955
 20
30.12404844280155
 30
0.0
  0
VERTEX
  5
3C4
330
3AC
100
AcDbEntity
  8
Visible (ANSI)
100
AcDbVertex
100
AcDb2dVertex
 10
84.17796498843763
 20
30.12388214818927
 30
0.0
  0
VERTEX
  5
3C5
330
3AC
100
AcDbEntity
  8
Visible (ANSI)
100
AcDbVertex
100
AcDb2dVertex
 10
84.17898090883497
 20
30.12378209334511
 30
0.0
  0
VERTEX
  5
3C6
330
3AC
100
AcDbEntity
  8
Visible (ANSI)
100
AcDbVertex
100
AcDb2dVertex
 10
84.18000119838183
 20
30.123748688931
 30
0.0
  0
SEQEND
  5
3AF
330
3AC
100
AcDbEntity
  8
Visible (ANSI)
  0
LINE
  5
3C7
330
6C
100
AcDbEntity
  8
Visible (ANSI)
100
AcDbLine
 10
84.18000119766103
 20
30.02999869033899
 30
0.0
 11
84.94565119766104
 21
30.02999869033899
 31
0.0
  0
LINE
  5
3C8
330
6C
100
AcDbEntity
  8
Visible (ANSI)
100
AcDbLine
 10
84.94565119766104
 20
30.12374869033898
 30
0.0
 11
84.94565119766104
 21
30.02999869033899
 31
0.0
  0
LINE
  5
3C9
330
6C
100
AcDbEntity
  8
Visible (ANSI)
100
AcDbLine
 10
84.07065119766105
 20
30.13934869033898
 30
0.0
 11
84.07065119766105
 21
69.80864869033898
 31
0.0
  0
LINE
  5
3CA
330
6C
100
AcDbEntity
  8
Hidden (ANSI)
 48
1.06620705127716
100
AcDbLine
 10
84.16440119766106
 20
69.80864869033898
 30
0.0
 11
84.16440119766106
 21
30.13934869033899
 31
0.0
  0
LINE
  5
3CB
330
6C
100
AcDbEntity
  8
Visible (ANSI)
100
AcDbLine
 10
84.94565119766107
 20
69.75795742960276
 30
0.0
 11
84.94565119766107
 21
30.19003995107523
 31
0.0
  0
LINE
  5
3CC
330
6C
100
AcDbEntity
  8
Hidden (ANSI)
 48
0.0177565310150385
100
AcDbLine
 10
84.16440119766082
 20
68.76149869033898
 30
0.0
 11
84.07065119766082
 21
68.76149869033898
 31
0.0
  0
LINE
  5
3CD
330
6C
100
AcDbEntity
  8
Hidden (ANSI)
 48
0.0177565310150385
100
AcDbLine
 10
84.16440119766082
 20
69.32449869033899
 30
0.0
 11
84.07065119766082
 21
69.32449869033899
 31
0.0
  0
LINE
  5
3CE
330
6C
100
AcDbEntity
  8
Hidden (ANSI)
 48
0.0177565310150385
100
AcDbLine
 10
84.16440119766082
 20
30.62349869033898
 30
0.0
 11
84.07065119766082
 21
30.62349869033898
 31
0.0
  0
LINE
  5
3CF
330
6C
100
AcDbEntity
  8
Hidden (ANSI)
 48
0.0177565310150385
100
AcDbLine
 10
84.16440119766082
 20
31.18649869033899
 30
0.0
 11
84.07065119766082
 21
31.18649869033899
 31
0.0
  0
MTEXT
  5
3D0
330
6C
100
AcDbEntity
  8
Symbol (ANSI)
100
AcDbMText
 10
80.76013180052298
 20
24.84653593709691
 30
0.0
 40
1.200000014830761
 41
0.0
 46
0.0
 71
     7
 72
     1
  1
SIDE VIEW
  7
Text Style153
 73
     1
 44
1.0
  0
LINE
  5
3D1
330
6C
100
AcDbEntity
  8
Symbol (ANSI)
370
    30
100
AcDbLine
 10
80.69869164247682
 20
24.59792977544984
 30
0.0
 11
88.80792984653178
 21
24.59792977544984
 31
0.0
  0
ELLIPSE
  5
3D2
330
6C
100
AcDbEntity
  8
Visible (ANSI)
100
AcDbEllipse
 10
139.7339920903877
 20
59.22684771329461
 30
0.0
 11
-0.1404775675610101
 21
0.2439432372748666
 31
0.0
210
0.0
220
0.0
230
1.0
 40
0.578093115915809
 41
0.0
 42
6.283185307179586
  0
ELLIPSE
  5
3D3
330
6C
100
AcDbEntity
  8
Visible (ANSI)
100
AcDbEllipse
 10
139.8002833511239
 20
59.26502231146264
 30
0.0
 11
-0.1404775675610109
 21
0.2439432372748679
 31
0.0
210
0.0
220
0.0
230
1.0
 40
0.578093115915809
 41
0.2372585647783669
 42
2.904334088811316
  0
ELLIPSE
  5
3D4
330
6C
100
AcDbEntity
  8
Visible (ANSI)
100
AcDbEllipse
 10
118.3440119594915
 20
71.54451805551101
 30
0.0
 11
-0.1404775675610101
 21
0.2439432372748666
 31
0.0
210
0.0
220
0.0
230
1.0
 40
0.578093115915809
 41
0.0
 42
6.283185307179586
  0
ELLIPSE
  5
3D5
330
6C
100
AcDbEntity
  8
Visible (ANSI)
100
AcDbEllipse
 10
118.4103032202277
 20
71.58269265367905
 30
0.0
 11
-0.1404775675610089
 21
0.2439432372748645
 31
0.0
210
0.0
220
0.0
230
1.0
 40
0.5780931159158089
 41
0.2372585647784442
 42
2.904334088811347
  0
ELLIPSE
  5
3D6
330
6C
100
AcDbEntity
  8
Visible (ANSI)
100
AcDbEllipse
 10
118.3440119594914
 20
40.36490580826634
 30
0.0
 11
-0.1404775675610101
 21
0.2439432372748666
 31
0.0
210
0.0
220
0.0
230
1.0
 40
0.578093115915809
 41
0.0
 42
6.283185307179586
  0
ELLIPSE
  5
3D7
330
6C
100
AcDbEntity
  8
Visible (ANSI)
100
AcDbEllipse
 10
118.4103032202276
 20
40.40308040643437
 30
0.0
 11
-0.14047756756101
 21
0.2439432372748665
 31
0.0
210
0.0
220
0.0
230
1.0
 40
0.578093115915809
 41
0.2372585647784335
 42
2.904334088811332
  0
ELLIPSE
  5
3D8
330
6C
100
AcDbEntity
  8
Visible (ANSI)
100
AcDbEllipse
 10
139.7339920903876
 20
28.04723546604993
 30
0.0
 11
-0.1404775675610101
 21
0.2439432372748666
 31
0.0
210
0.0
220
0.0
230
1.0
 40
0.578093115915809
 41
0.0
 42
6.283185307179586
  0
ELLIPSE
  5
3D9
330
6C
100
AcDbEntity
  8
Visible (ANSI)
100
AcDbEllipse
 10
139.8002833511238
 20
28.08541006421797
 30
0.0
 11
-0.1404775675610107
 21
0.2439432372748675
 31
0.0
210
0.0
220
0.0
230
1.0
 40
0.5780931159158087
 41
0.2372585647783794
 42
2.904334088811316
  0
LINE
  5
3DA
330
6C
100
AcDbEntity
  8
Visible Narrow (ANSI)
100
AcDbLine
 10
140.4300326504487
 20
59.4995907766957
 30
0.0
 11
140.4300326504487
 21
27.15095360611874
 31
0.0
  0
LINE
  5
3DB
330
6C
100
AcDbEntity
  8
Visible Narrow (ANSI)
100
AcDbLine
 10
140.2753883974032
 20
27.10951111164919
 30
0.0
 11
140.2753883974033
 21
59.54103327116524
 31
0.0
  0
LINE
  5
3DC
330
6C
100
AcDbEntity
  8
Visible Narrow (ANSI)
100
AcDbLine
 10
117.9157819132121
 20
72.59552677521796
 30
0.0
 11
140.3168663897125
 21
59.6956001646685
 31
0.0
  0
LINE
  5
3DD
330
6C
100
AcDbEntity
  8
Visible Narrow (ANSI)
100
AcDbLine
 10
140.2753883974033
 20
59.54103327116524
 30
0.0
 11
117.8026156524759
 21
72.48224240991175
 31
0.0
  0
LINE
  5
3DE
330
6C
100
AcDbEntity
  8
Visible Narrow (ANSI)
100
AcDbLine
 10
117.8026156524759
 20
72.48224240991175
 30
0.0
 11
117.8026156524758
 21
40.05072025039569
 31
0.0
  0
LINE
  5
3DF
330
6C
100
AcDbEntity
  8
Visible Narrow (ANSI)
100
AcDbLine
 10
117.8026156524758
 20
40.05072025039569
 30
0.0
 11
140.2753883974032
 21
27.10951111164919
 31
0.0
  0
LINE
  5
3E0
330
6C
100
AcDbEntity
  8
Visible (ANSI)
100
AcDbLine
 10
117.7705877789987
 20
72.50604801398018
 30
0.0
 11
117.7705877789986
 21
40.11596834893367
 31
0.0
  0
LINE
  5
3E1
330
6C
100
AcDbEntity
  8
Visible (ANSI)
100
AcDbLine
 10
117.8433347992246
 20
39.99014016074699
 30
0.0
 11
140.2801751590264
 21
27.06962310641932
 31
0.0
  0
POLYLINE
  5
3E2
330
6C
100
AcDbEntity
  8
Visible (ANSI)
100
AcDb2dPolyline
 66
     1
 10
0.0
 20
0.0
 30
0.0
 70
   128
  0
VERTEX
  5
3E3
330
3E2
100
AcDbEntity
  8
Visible (ANSI)
100
AcDbVertex
100
AcDb2dVertex
 10
140.2753883069167
 20
59.54103401074858
 30
0.0
  0
VERTEX
  5
3E4
330
3E2
100
AcDbEntity
  8
Visible (ANSI)
100
AcDbVertex
100
AcDb2dVertex
 10
140.2806109485839
 20
59.53649082757611
 30
0.0
  0
VERTEX
  5
3E6
330
3E2
100
AcDbEntity
  8
Visible (ANSI)
100
AcDbVertex
100
AcDb2dVertex
 10
140.2861427514891
 20
59.53214768471911
 30
0.0
  0
VERTEX
  5
3E7
330
3E2
100
AcDbEntity
  8
Visible (ANSI)
100
AcDbVertex
100
AcDb2dVertex
 10
140.2919582201077
 20
59.52802171966229
 30
0.0
  0
VERTEX
  5
3E8
330
3E2
100
AcDbEntity
  8
Visible (ANSI)
100
AcDbVertex
100
AcDb2dVertex
 10
140.2980347171019
 20
59.5241194564424
 30
0.0
  0
VERTEX
  5
3E9
330
3E2
100
AcDbEntity
  8
Visible (ANSI)
100
AcDbVertex
100
AcDb2dVertex
 10
140.3043460749204
 20
59.52045028803308
 30
0.0
  0
VERTEX
  5
3EA
330
3E2
100
AcDbEntity
  8
Visible (ANSI)
100
AcDbVertex
100
AcDb2dVertex
 10
140.3108647736624
 20
59.51702282864154
 30
0.0
  0
VERTEX
  5
3EB
330
3E2
100
AcDbEntity
  8
Visible (ANSI)
100
AcDbVertex
100
AcDb2dVertex
 10
140.317561936929
 20
59.51384245565465
 30
0.0
  0
VERTEX
  5
3EC
330
3E2
100
AcDbEntity
  8
Visible (ANSI)
100
AcDbVertex
100
AcDb2dVertex
 10
140.324409509687
 20
59.51091994026146
 30
0.0
  0
VERTEX
  5
3ED
330
3E2
100
AcDbEntity
  8
Visible (ANSI)
100
AcDbVertex
100
AcDb2dVertex
 10
140.331378155075
 20
59.50825794849958
 30
0.0
  0
VERTEX
  5
3EE
330
3E2
100
AcDbEntity
  8
Visible (ANSI)
100
AcDbVertex
100
AcDb2dVertex
 10
140.3384373290728
 20
59.50586090691532
 30
0.0
  0
VERTEX
  5
3EF
330
3E2
100
AcDbEntity
  8
Visible (ANSI)
100
AcDbVertex
100
AcDb2dVertex
 10
140.345559532521
 20
59.50373010310098
 30
0.0
  0
VERTEX
  5
3F0
330
3E2
100
AcDbEntity
  8
Visible (ANSI)
100
AcDbVertex
100
AcDb2dVertex
 10
140.3527097827056
 20
59.50186985371558
 30
0.0
  0
VERTEX
  5
3F1
330
3E2
100
AcDbEntity
  8
Visible (ANSI)
100
AcDbVertex
100
AcDb2dVertex
 10
140.3598626546235
 20
59.50027529274035
 30
0.0
  0
VERTEX
  5
3F2
330
3E2
100
AcDbEntity
  8
Visible (ANSI)
100
AcDbVertex
100
AcDb2dVertex
 10
140.3669832153401
 20
59.49895323064449
 30
0.0
  0
VERTEX
  5
3F3
330
3E2
100
AcDbEntity
  8
Visible (ANSI)
100
AcDbVertex
100
AcDb2dVertex
 10
140.374044094294
 20
59.49789768103675
 30
0.0
  0
VERTEX
  5
3F4
330
3E2
100
AcDbEntity
  8
Visible (ANSI)
100
AcDbVertex
100
AcDb2dVertex
 10
140.3810128122775
 20
59.49710706369024
 30
0.0
  0
VERTEX
  5
3F5
330
3E2
100
AcDbEntity
  8
Visible (ANSI)
100
AcDbVertex
100
AcDb2dVertex
 10
140.3878603539232
 20
59.49657690069828
 30
0.0
  0
VERTEX
  5
3F6
330
3E2
100
AcDbEntity
  8
Visible (ANSI)
100
AcDbVertex
100
AcDb2dVertex
 10
140.39455698828
 20
59.49630230207689
 30
0.0
  0
VERTEX
  5
3F7
330
3E2
100
AcDbEntity
  8
Visible (ANSI)
100
AcDbVertex
100
AcDb2dVertex
 10
140.4010744840116
 20
59.49627433956119
 30
0.0
  0
VERTEX
  5
3F8
330
3E2
100
AcDbEntity
  8
Visible (ANSI)
100
AcDbVertex
100
AcDb2dVertex
 10
140.4073861913254
 20
59.49648991644594
 30
0.0
  0
VERTEX
  5
3F9
330
3E2
100
AcDbEntity
  8
Visible (ANSI)
100
AcDbVertex
100
AcDb2dVertex
 10
140.4134628809568
 20
59.49693952979762
 30
0.0
  0
VERTEX
  5
3FA
330
3E2
100
AcDbEntity
  8
Visible (ANSI)
100
AcDbVertex
100
AcDb2dVertex
 10
140.4192792038684
 20
59.49761347444923
 30
0.0
  0
VERTEX
  5
3FB
330
3E2
100
AcDbEntity
  8
Visible (ANSI)
100
AcDbVertex
100
AcDb2dVertex
 10
140.4248095346414
 20
59.49850188607639
 30
0.0
  0
VERTEX
  5
3FC
330
3E2
100
AcDbEntity
  8
Visible (ANSI)
100
AcDbVertex
100
AcDb2dVertex
 10
140.4300323111287
 20
59.49958989219913
 30
0.0
  0
SEQEND
  5
3E5
330
3E2
100
AcDbEntity
  8
Visible (ANSI)
  0
POLYLINE
  5
3FD
330
6C
100
AcDbEntity
  8
Visible (ANSI)
100
AcDb2dPolyline
 66
     1
 10
0.0
 20
0.0
 30
0.0
 70
   128
  0
VERTEX
  5
3FE
330
3FD
100
AcDbEntity
  8
Visible (ANSI)
100
AcDbVertex
100
AcDb2dVertex
 10
140.4300323111286
 20
27.15095380454899
 30
0.0
  0
VERTEX
  5
3FF
330
3FD
100
AcDbEntity
  8
Visible (ANSI)
100
AcDbVertex
100
AcDb2dVertex
 10
140.4248095346414
 20
27.14641023626225
 30
0.0
  0
VERTEX
  5
401
330
3FD
100
AcDbEntity
  8
Visible (ANSI)
100
AcDbVertex
100
AcDb2dVertex
 10
140.4192792038683
 20
27.14206871813629
 30
0.0
  0
VERTEX
  5
402
330
3FD
100
AcDbEntity
  8
Visible (ANSI)
100
AcDbVertex
100
AcDb2dVertex
 10
140.4134628809567
 20
27.13794167657832
 30
0.0
  0
VERTEX
  5
403
330
3FD
100
AcDbEntity
  8
Visible (ANSI)
100
AcDbVertex
100
AcDb2dVertex
 10
140.4073861913253
 20
27.13403895672785
 30
0.0
  0
VERTEX
  5
404
330
3FD
100
AcDbEntity
  8
Visible (ANSI)
100
AcDbVertex
100
AcDb2dVertex
 10
140.4010744840115
 20
27.13037027334428
 30
0.0
  0
VERTEX
  5
405
330
3FD
100
AcDbEntity
  8
Visible (ANSI)
100
AcDbVertex
100
AcDb2dVertex
 10
140.39455698828
 20
27.12694268328846
 30
0.0
  0
VERTEX
  5
406
330
3FD
100
AcDbEntity
  8
Visible (ANSI)
100
AcDbVertex
100
AcDb2dVertex
 10
140.3878603539231
 20
27.12376417541105
 30
0.0
  0
VERTEX
  5
407
330
3FD
100
AcDbEntity
  8
Visible (ANSI)
100
AcDbVertex
100
AcDb2dVertex
 10
140.3810128122775
 20
27.1208412319042
 30
0.0
  0
VERTEX
  5
408
330
3FD
100
AcDbEntity
  8
Visible (ANSI)
100
AcDbVertex
100
AcDb2dVertex
 10
140.374044094294
 20
27.11817875234435
 30
0.0
  0
VERTEX
  5
409
330
3FD
100
AcDbEntity
  8
Visible (ANSI)
100
AcDbVertex
100
AcDb2dVertex
 10
140.36698321534
 20
27.1157811954533
 30
0.0
  0
VERTEX
  5
40A
330
3FD
100
AcDbEntity
  8
Visible (ANSI)
100
AcDbVertex
100
AcDb2dVertex
 10
140.3598626546234
 20
27.11365015105035
 30
0.0
  0
VERTEX
  5
40B
330
3FD
100
AcDbEntity
  8
Visible (ANSI)
100
AcDbVertex
100
AcDb2dVertex
 10
140.3527097827056
 20
27.11178915945405
 30
0.0
  0
VERTEX
  5
40C
330
3FD
100
AcDbEntity
  8
Visible (ANSI)
100
AcDbVertex
100
AcDb2dVertex
 10
140.3455595325209
 20
27.11019630234064
 30
0.0
  0
VERTEX
  5
40D
330
3FD
100
AcDbEntity
  8
Visible (ANSI)
100
AcDbVertex
100
AcDb2dVertex
 10
140.3384373290727
 20
27.10887400924863
 30
0.0
  0
VERTEX
  5
40E
330
3FD
100
AcDbEntity
  8
Visible (ANSI)
100
AcDbVertex
100
AcDb2dVertex
 10
140.3313781550749
 20
27.10781794433407
 30
0.0
  0
VERTEX
  5
40F
330
3FD
100
AcDbEntity
  8
Visible (ANSI)
100
AcDbVertex
100
AcDb2dVertex
 10
140.3244095096869
 20
27.10702682959715
 30
0.0
  0
VERTEX
  5
410
330
3FD
100
AcDbEntity
  8
Visible (ANSI)
100
AcDbVertex
100
AcDb2dVertex
 10
140.3175619369289
 20
27.10649624808399
 30
0.0
  0
VERTEX
  5
411
330
3FD
100
AcDbEntity
  8
Visible (ANSI)
100
AcDbVertex
100
AcDb2dVertex
 10
140.3108647736623
 20
27.10622105890689
 30
0.0
  0
VERTEX
  5
412
330
3FD
100
AcDbEntity
  8
Visible (ANSI)
100
AcDbVertex
100
AcDb2dVertex
 10
140.3043460749203
 20
27.10619541179962
 30
0.0
  0
VERTEX
  5
413
330
3FD
100
AcDbEntity
  8
Visible (ANSI)
100
AcDbVertex
100
AcDb2dVertex
 10
140.2980347171018
 20
27.10641148330259
 30
0.0
  0
VERTEX
  5
414
330
3FD
100
AcDbEntity
  8
Visible (ANSI)
100
AcDbVertex
100
AcDb2dVertex
 10
140.2919582201076
 20
27.10686064002369
 30
0.0
  0
VERTEX
  5
415
330
3FD
100
AcDbEntity
  8
Visible (ANSI)
100
AcDbVertex
100
AcDb2dVertex
 10
140.286142751489
 20
27.10753349858169
 30
0.0
  0
VERTEX
  5
416
330
3FD
100
AcDbEntity
  8
Visible (ANSI)
100
AcDbVertex
100
AcDb2dVertex
 10
140.2806109485838
 20
27.10842108886716
 30
0.0
  0
VERTEX
  5
417
330
3FD
100
AcDbEntity
  8
Visible (ANSI)
100
AcDbVertex
100
AcDb2dVertex
 10
140.2753883069166
 20
27.10951116554082
 30
0.0
  0
SEQEND
  5
400
330
3FD
100
AcDbEntity
  8
Visible (ANSI)
  0
LINE
  5
418
330
6C
100
AcDbEntity
  8
Visible (ANSI)
100
AcDbLine
 10
140.3651947678822
 20
59.5386023196887
 30
0.0
 11
140.9051376967279
 21
59.84953477312886
 31
0.0
  0
LINE
  5
419
330
6C
100
AcDbEntity
  8
Visible (ANSI)
100
AcDbLine
 10
140.9714289574641
 20
27.46272300438387
 30
0.0
 11
140.4300326504487
 21
27.15095360611874
 31
0.0
  0
LINE
  5
41A
330
6C
100
AcDbEntity
  8
Visible (ANSI)
100
AcDbLine
 10
140.3756180304943
 20
59.53092607230112
 30
0.0
 11
140.4300326504487
 21
59.4995907766957
 31
0.0
  0
POLYLINE
  5
41B
330
6C
100
AcDbEntity
  8
Visible (ANSI)
100
AcDb2dPolyline
 66
     1
 10
0.0
 20
0.0
 30
0.0
 70
   128
  0
VERTEX
  5
41C
330
41B
100
AcDbEntity
  8
Visible (ANSI)
100
AcDbVertex
100
AcDb2dVertex
 10
140.3416795666573
 20
59.57920860834328
 30
0.0
  0
VERTEX
  5
41D
330
41B
100
AcDbEntity
  8
Visible (ANSI)
100
AcDbVertex
100
AcDb2dVertex
 10
140.3422122171265
 20
59.57767100342836
 30
0.0
  0
VERTEX
  5
41F
330
41B
100
AcDbEntity
  8
Visible (ANSI)
100
AcDbVertex
100
AcDb2dVertex
 10
140.3427694126849
 20
59.57614507742515
 30
0.0
  0
VERTEX
  5
420
330
41B
100
AcDbEntity
  8
Visible (ANSI)
100
AcDbVertex
100
AcDb2dVertex
 10
140.3433468234197
 20
59.57463814060584
 30
0.0
  0
VERTEX
  5
421
330
41B
100
AcDbEntity
  8
Visible (ANSI)
100
AcDbVertex
100
AcDb2dVertex
 10
140.3439464367259
 20
59.57314643558337
 30
0.0
  0
VERTEX
  5
422
330
41B
100
AcDbEntity
  8
Visible (ANSI)
100
AcDbVertex
100
AcDb2dVertex
 10
140.3445638140027
 20
59.57167229871057
 30
0.0
  0
VERTEX
  5
423
330
41B
100
AcDbEntity
  8
Visible (ANSI)
100
AcDbVertex
100
AcDb2dVertex
 10
140.3452008346705
 20
59.57021436608714
 30
0.0
  0
VERTEX
  5
424
330
41B
100
AcDbEntity
  8
Visible (ANSI)
100
AcDbVertex
100
AcDb2dVertex
 10
140.3458550771198
 20
59.56877368938737
 30
0.0
  0
VERTEX
  5
425
330
41B
100
AcDbEntity
  8
Visible (ANSI)
100
AcDbVertex
100
AcDb2dVertex
 10
140.3465240670771
 20
59.56735128995828
 30
0.0
  0
VERTEX
  5
426
330
41B
100
AcDbEntity
  8
Visible (ANSI)
100
AcDbVertex
100
AcDb2dVertex
 10
140.3472074025449
 20
59.56594693630498
 30
0.0
  0
VERTEX
  5
427
330
41B
100
AcDbEntity
  8
Visible (ANSI)
100
AcDbVertex
100
AcDb2dVertex
 10
140.347900382773
 20
59.56456035815307
 30
0.0
  0
VERTEX
  5
428
330
41B
100
AcDbEntity
  8
Visible (ANSI)
100
AcDbVertex
100
AcDb2dVertex
 10
140.3486067526499
 20
59.56319373099795
 30
0.0
  0
VERTEX
  5
429
330
41B
100
AcDbEntity
  8
Visible (ANSI)
100
AcDbVertex
100
AcDb2dVertex
 10
140.3493217130325
 20
59.56184672790456
 30
0.0
  0
VERTEX
  5
42A
330
41B
100
AcDbEntity
  8
Visible (ANSI)
100
AcDbVertex
100
AcDb2dVertex
 10
140.3500446644897
 20
59.5605190036835
 30
0.0
  0
VERTEX
  5
42B
330
41B
100
AcDbEntity
  8
Visible (ANSI)
100
AcDbVertex
100
AcDb2dVertex
 10
140.350772838153
 20
59.55921141003589
 30
0.0
  0
VERTEX
  5
42C
330
41B
100
AcDbEntity
  8
Visible (ANSI)
100
AcDbVertex
100
AcDb2dVertex
 10
140.351505543847
 20
59.5579235495161
 30
0.0
  0
VERTEX
  5
42D
330
41B
100
AcDbEntity
  8
Visible (ANSI)
100
AcDbVertex
100
AcDb2dVertex
 10
140.3522399241627
 20
59.55665622283813
 30
0.0
  0
VERTEX
  5
42E
330
41B
100
AcDbEntity
  8
Visible (ANSI)
100
AcDbVertex
100
AcDb2dVertex
 10
140.3529752049213
 20
59.5554089841821
 30
0.0
  0
VERTEX
  5
42F
330
41B
100
AcDbEntity
  8
Visible (ANSI)
100
AcDbVertex
100
AcDb2dVertex
 10
140.3537126946559
 20
59.55417768523056
 30
0.0
  0
VERTEX
  5
430
330
41B
100
AcDbEntity
  8
Visible (ANSI)
100
AcDbVertex
100
AcDb2dVertex
 10
140.3544451693408
 20
59.55297041583329
 30
0.0
  0
VERTEX
  5
431
330
41B
100
AcDbEntity
  8
Visible (ANSI)
100
AcDbVertex
100
AcDb2dVertex
 10
140.3551759878122
 20
59.55178176217746
 30
0.0
  0
VERTEX
  5
432
330
41B
100
AcDbEntity
  8
Visible (ANSI)
100
AcDbVertex
100
AcDb2dVertex
 10
140.3558999791994
 20
59.55061363892944
 30
0.0
  0
VERTEX
  5
433
330
41B
100
AcDbEntity
  8
Visible (ANSI)
100
AcDbVertex
100
AcDb2dVertex
 10
140.3566161883534
 20
59.54946549605566
 30
0.0
  0
VERTEX
  5
434
330
41B
100
AcDbEntity
  8
Visible (ANSI)
100
AcDbVertex
100
AcDb2dVertex
 10
140.3573236300504
 20
59.54833676620331
 30
0.0
  0
VERTEX
  5
435
330
41B
100
AcDbEntity
  8
Visible (ANSI)
100
AcDbVertex
100
AcDb2dVertex
 10
140.3580212921022
 20
59.54722686649201
 30
0.0
  0
SEQEND
  5
41E
330
41B
100
AcDbEntity
  8
Visible (ANSI)
  0
LINE
  5
436
330
6C
100
AcDbEntity
  8
Visible (ANSI)
100
AcDbLine
 10
140.3416796581395
 20
59.57920786933328
 30
0.0
 11
140.3298914393623
 21
59.57241948561666
 31
0.0
  0
LINE
  5
437
330
6C
100
AcDbEntity
  8
Visible (ANSI)
100
AcDbLine
 10
140.3298914393623
 20
59.57241948561666
 30
0.0
 11
140.2753883974033
 21
59.54103327116524
 31
0.0
  0
LINE
  5
438
330
6C
100
AcDbEntity
  8
Visible (ANSI)
100
AcDbLine
 10
140.4300326504487
 20
59.4995907766957
 30
0.0
 11
140.9714289574642
 21
59.81136017496083
 31
0.0
  0
LINE
  5
439
330
6C
100
AcDbEntity
  8
Visible (ANSI)
100
AcDbLine
 10
140.9051376967279
 20
59.84953477312886
 30
0.0
 11
140.9714289574642
 21
59.81136017496083
 31
0.0
  0
POLYLINE
  5
43A
330
6C
100
AcDbEntity
  8
Visible (ANSI)
100
AcDb2dPolyline
 66
     1
 10
0.0
 20
0.0
 30
0.0
 70
   128
  0
VERTEX
  5
43B
330
43A
100
AcDbEntity
  8
Visible (ANSI)
100
AcDbVertex
100
AcDb2dVertex
 10
117.8026156540227
 20
72.48224309649663
 30
0.0
  0
VERTEX
  5
43C
330
43A
100
AcDbEntity
  8
Visible (ANSI)
100
AcDbVertex
100
AcDb2dVertex
 10
117.8042747132753
 20
72.48732531537759
 30
0.0
  0
VERTEX
  5
43E
330
43A
100
AcDbEntity
  8
Visible (ANSI)
100
AcDbVertex
100
AcDb2dVertex
 10
117.806264164826
 20
72.49257324743296
 30
0.0
  0
VERTEX
  5
43F
330
43A
100
AcDbEntity
  8
Visible (ANSI)
100
AcDbVertex
100
AcDb2dVertex
 10
117.8085818930359
 20
72.4979586429194
 30
0.0
  0
VERTEX
  5
440
330
43A
100
AcDbEntity
  8
Visible (ANSI)
100
AcDbVertex
100
AcDb2dVertex
 10
117.8112243676916
 20
72.503457377491
 30
0.0
  0
VERTEX
  5
441
330
43A
100
AcDbEntity
  8
Visible (ANSI)
100
AcDbVertex
100
AcDb2dVertex
 10
117.8141866523018
 20
72.50904206131521
 30
0.0
  0
VERTEX
  5
442
330
43A
100
AcDbEntity
  8
Visible (ANSI)
100
AcDbVertex
100
AcDb2dVertex
 10
117.8174624829159
 20
72.51468205579474
 30
0.0
  0
VERTEX
  5
443
330
43A
100
AcDbEntity
  8
Visible (ANSI)
100
AcDbVertex
100
AcDb2dVertex
 10
117.8210442141949
 20
72.52035332250577
 30
0.0
  0
VERTEX
  5
444
330
43A
100
AcDbEntity
  8
Visible (ANSI)
100
AcDbVertex
100
AcDb2dVertex
 10
117.8249228982301
 20
72.52602616159396
 30
0.0
  0
VERTEX
  5
445
330
43A
100
AcDbEntity
  8
Visible (ANSI)
100
AcDbVertex
100
AcDb2dVertex
 10
117.8290883301745
 20
72.53167257638121
 30
0.0
  0
VERTEX
  5
446
330
43A
100
AcDbEntity
  8
Visible (ANSI)
100
AcDbVertex
100
AcDb2dVertex
 10
117.8335290731321
 20
72.53726634503118
 30
0.0
  0
VERTEX
  5
447
330
43A
100
AcDbEntity
  8
Visible (ANSI)
100
AcDbVertex
100
AcDb2dVertex
 10
117.8382324871968
 20
72.54277564160958
 30
0.0
  0
VERTEX
  5
448
330
43A
100
AcDbEntity
  8
Visible (ANSI)
100
AcDbVertex
100
AcDb2dVertex
 10
117.8431848456047
 20
72.54817780829681
 30
0.0
  0
VERTEX
  5
449
330
43A
100
AcDbEntity
  8
Visible (ANSI)
100
AcDbVertex
100
AcDb2dVertex
 10
117.8483713264373
 20
72.5534446835072
 30
0.0
  0
VERTEX
  5
44A
330
43A
100
AcDbEntity
  8
Visible (ANSI)
100
AcDbVertex
100
AcDb2dVertex
 10
117.8537761287749
 20
72.55854750366387
 30
0.0
  0
VERTEX
  5
44B
330
43A
100
AcDbEntity
  8
Visible (ANSI)
100
AcDbVertex
100
AcDb2dVertex
 10
117.8593824934376
 20
72.56346189336125
 30
0.0
  0
VERTEX
  5
44C
330
43A
100
AcDbEntity
  8
Visible (ANSI)
100
AcDbVertex
100
AcDb2dVertex
 10
117.8651728004706
 20
72.56816543717182
 30
0.0
  0
VERTEX
  5
44D
330
43A
100
AcDbEntity
  8
Visible (ANSI)
100
AcDbVertex
100
AcDb2dVertex
 10
117.8711286707783
 20
72.57263279817634
 30
0.0
  0
VERTEX
  5
44E
330
43A
100
AcDbEntity
  8
Visible (ANSI)
100
AcDbVertex
100
AcDb2dVertex
 10
117.8772309847914
 20
72.57684315304175
 30
0.0
  0
VERTEX
  5
44F
330
43A
100
AcDbEntity
  8
Visible (ANSI)
100
AcDbVertex
100
AcDb2dVertex
 10
117.8834599986194
 20
72.58077040758213
 30
0.0
  0
VERTEX
  5
450
330
43A
100
AcDbEntity
  8
Visible (ANSI)
100
AcDbVertex
100
AcDb2dVertex
 10
117.8897954508703
 20
72.58439550793131
 30
0.0
  0
VERTEX
  5
451
330
43A
100
AcDbEntity
  8
Visible (ANSI)
100
AcDbVertex
100
AcDb2dVertex
 10
117.8962165997255
 20
72.58770160789538
 30
0.0
  0
VERTEX
  5
452
330
43A
100
AcDbEntity
  8
Visible (ANSI)
100
AcDbVertex
100
AcDb2dVertex
 10
117.9027023357221
 20
72.59066919390318
 30
0.0
  0
VERTEX
  5
453
330
43A
100
AcDbEntity
  8
Visible (ANSI)
100
AcDbVertex
100
AcDb2dVertex
 10
117.9092312979062
 20
72.59328349022327
 30
0.0
  0
VERTEX
  5
454
330
43A
100
AcDbEntity
  8
Visible (ANSI)
100
AcDbVertex
100
AcDb2dVertex
 10
117.9157819158338
 20
72.59552717348819
 30
0.0
  0
SEQEND
  5
43D
330
43A
100
AcDbEntity
  8
Visible (ANSI)
  0
POLYLINE
  5
455
330
6C
100
AcDbEntity
  8
Visible (ANSI)
100
AcDb2dPolyline
 66
     1
 10
0.0
 20
0.0
 30
0.0
 70
   128
  0
VERTEX
  5
456
330
455
100
AcDbEntity
  8
Visible (ANSI)
100
AcDbVertex
100
AcDb2dVertex
 10
140.3168668945362
 20
59.69560027373983
 30
0.0
  0
VERTEX
  5
457
330
455
100
AcDbEntity
  8
Visible (ANSI)
100
AcDbVertex
100
AcDb2dVertex
 10
140.3133029118095
 20
59.69163670164787
 30
0.0
  0
VERTEX
  5
459
330
455
100
AcDbEntity
  8
Visible (ANSI)
100
AcDbVertex
100
AcDb2dVertex
 10
140.3097605848263
 20
59.68730251650077
 30
0.0
  0
VERTEX
  5
45A
330
455
100
AcDbEntity
  8
Visible (ANSI)
100
AcDbVertex
100
AcDb2dVertex
 10
140.3062614757339
 20
59.68261504644367
 30
0.0
  0
VERTEX
  5
45B
330
455
100
AcDbEntity
  8
Visible (ANSI)
100
AcDbVertex
100
AcDb2dVertex
 10
140.3028269620797
 20
59.67758905765254
 30
0.0
  0
VERTEX
  5
45C
330
455
100
AcDbEntity
  8
Visible (ANSI)
100
AcDbVertex
100
AcDb2dVertex
 10
140.2994802689654
 20
59.67224284538315
 30
0.0
  0
VERTEX
  5
45D
330
455
100
AcDbEntity
  8
Visible (ANSI)
100
AcDbVertex
100
AcDb2dVertex
 10
140.2962378820416
 20
59.66659570679347
 30
0.0
  0
VERTEX
  5
45E
330
455
100
AcDbEntity
  8
Visible (ANSI)
100
AcDbVertex
100
AcDb2dVertex
 10
140.2931222032295
 20
59.66066546310102
 30
0.0
  0
VERTEX
  5
45F
330
455
100
AcDbEntity
  8
Visible (ANSI)
100
AcDbVertex
100
AcDb2dVertex
 10
140.2901529681227
 20
59.65447821326949
 30
0.0
  0
VERTEX
  5
460
330
455
100
AcDbEntity
  8
Visible (ANSI)
100
AcDbVertex
100
AcDb2dVertex
 10
140.2873492879939
 20
59.64805478540959
 30
0.0
  0
VERTEX
  5
461
330
455
100
AcDbEntity
  8
Visible (ANSI)
100
AcDbVertex
100
AcDb2dVertex
 10
140.2847316824679
 20
59.64141928379199
 30
0.0
  0
VERTEX
  5
462
330
455
100
AcDbEntity
  8
Visible (ANSI)
100
AcDbVertex
100
AcDb2dVertex
 10
140.2823135153312
 20
59.63459657480832
 30
0.0
  0
VERTEX
  5
463
330
455
100
AcDbEntity
  8
Visible (ANSI)
100
AcDbVertex
100
AcDb2dVertex
 10
140.2801136614028
 20
59.6276098155486
 30
0.0
  0
VERTEX
  5
464
330
455
100
AcDbEntity
  8
Visible (ANSI)
100
AcDbVertex
100
AcDb2dVertex
 10
140.2781479381959
 20
59.62048776003434
 30
0.0
  0
VERTEX
  5
465
330
455
100
AcDbEntity
  8
Visible (ANSI)
100
AcDbVertex
100
AcDb2dVertex
 10
140.2764311510355
 20
59.61325857940664
 30
0.0
  0
VERTEX
  5
466
330
455
100
AcDbEntity
  8
Visible (ANSI)
100
AcDbVertex
100
AcDb2dVertex
 10
140.2749770432788
 20
59.60594492192964
 30
0.0
  0
VERTEX
  5
467
330
455
100
AcDbEntity
  8
Visible (ANSI)
100
AcDbVertex
100
AcDb2dVertex
 10
140.273800370471
 20
59.59857739522217
 30
0.0
  0
VERTEX
  5
468
330
455
100
AcDbEntity
  8
Visible (ANSI)
100
AcDbVertex
100
AcDb2dVertex
 10
140.27290831334
 20
59.59118467208465
 30
0.0
  0
VERTEX
  5
469
330
455
100
AcDbEntity
  8
Visible (ANSI)
100
AcDbVertex
100
AcDb2dVertex
 10
140.2723132172619
 20
59.58379351654659
 30
0.0
  0
VERTEX
  5
46A
330
455
100
AcDbEntity
  8
Visible (ANSI)
100
AcDbVertex
100
AcDb2dVertex
 10
140.2720240218489
 20
59.57643363324006
 30
0.0
  0
VERTEX
  5
46B
330
455
100
AcDbEntity
  8
Visible (ANSI)
100
AcDbVertex
100
AcDb2dVertex
 10
140.2720483641429
 20
59.56912906536654
 30
0.0
  0
VERTEX
  5
46C
330
455
100
AcDbEntity
  8
Visible (ANSI)
100
AcDbVertex
100
AcDb2dVertex
 10
140.2723946486238
 20
59.56190921887469
 30
0.0
  0
VERTEX
  5
46D
330
455
100
AcDbEntity
  8
Visible (ANSI)
100
AcDbVertex
100
AcDb2dVertex
 10
140.2730635556148
 20
59.55480393456123
 30
0.0
  0
VERTEX
  5
46E
330
455
100
AcDbEntity
  8
Visible (ANSI)
100
AcDbVertex
100
AcDb2dVertex
 10
140.2740607309684
 20
59.54783611845655
 30
0.0
  0
VERTEX
  5
46F
330
455
100
AcDbEntity
  8
Visible (ANSI)
100
AcDbVertex
100
AcDb2dVertex
 10
140.2753883069167
 20
59.54103401074858
 30
0.0
  0
SEQEND
  5
458
330
455
100
AcDbEntity
  8
Visible (ANSI)
  0
LINE
  5
470
330
6C
100
AcDbEntity
  8
Visible (ANSI)
100
AcDbLine
 10
140.3183096726899
 20
59.61978625310489
 30
0.0
 11
140.8582626967279
 21
59.9307245199797
 31
0.0
  0
LINE
  5
471
330
6C
100
AcDbEntity
  8
Visible (ANSI)
100
AcDbLine
 10
140.8582626967279
 20
60.00736956293368
 30
0.0
 11
140.3168663897125
 21
59.6956001646685
 31
0.0
  0
LINE
  5
472
330
6C
100
AcDbEntity
  8
Visible (ANSI)
100
AcDbLine
 10
140.3168663897125
 20
59.6325844979625
 30
0.0
 11
140.3168663897125
 21
59.6956001646685
 31
0.0
  0
LINE
  5
473
330
6C
100
AcDbEntity
  8
Visible (ANSI)
100
AcDbLine
 10
140.8582626967279
 20
59.9307245199797
 30
0.0
 11
140.8582626967279
 21
60.00736956293368
 31
0.0
  0
POLYLINE
  5
474
330
6C
100
AcDbEntity
  8
Visible (ANSI)
100
AcDb2dPolyline
 66
     1
 10
0.0
 20
0.0
 30
0.0
 70
   128
  0
VERTEX
  5
475
330
474
100
AcDbEntity
  8
Visible (ANSI)
100
AcDbVertex
100
AcDb2dVertex
 10
140.3416795666573
 20
59.57920860834328
 30
0.0
  0
VERTEX
  5
476
330
474
100
AcDbEntity
  8
Visible (ANSI)
100
AcDbVertex
100
AcDb2dVertex
 10
140.3406150212456
 20
59.58043743189577
 30
0.0
  0
VERTEX
  5
478
330
474
100
AcDbEntity
  8
Visible (ANSI)
100
AcDbVertex
100
AcDb2dVertex
 10
140.3395750283974
 20
59.58167793866408
 30
0.0
  0
VERTEX
  5
479
330
474
100
AcDbEntity
  8
Visible (ANSI)
100
AcDbVertex
100
AcDb2dVertex
 10
140.3385573820768
 20
59.58293376012822
 30
0.0
  0
VERTEX
  5
47A
330
474
100
AcDbEntity
  8
Visible (ANSI)
100
AcDbVertex
100
AcDb2dVertex
 10
140.3375661935475
 20
59.58419746010424
 30
0.0
  0
VERTEX
  5
47B
330
474
100
AcDbEntity
  8
Visible (ANSI)
100
AcDbVertex
100
AcDb2dVertex
 10
140.336599148015
 20
59.5854676961119
 30
0.0
  0
VERTEX
  5
47C
330
474
100
AcDbEntity
  8
Visible (ANSI)
100
AcDbVertex
100
AcDb2dVertex
 10
140.3356560008261
 20
59.58674678293001
 30
0.0
  0
VERTEX
  5
47D
330
474
100
AcDbEntity
  8
Visible (ANSI)
100
AcDbVertex
100
AcDb2dVertex
 10
140.334736454064
 20
59.58803209333448
 30
0.0
  0
VERTEX
  5
47E
330
474
100
AcDbEntity
  8
Visible (ANSI)
100
AcDbVertex
100
AcDb2dVertex
 10
140.3338380334226
 20
59.58932219298849
 30
0.0
  0
VERTEX
  5
47F
330
474
100
AcDbEntity
  8
Visible (ANSI)
100
AcDbVertex
100
AcDb2dVertex
 10
140.3329645843223
 20
59.59061440394944
 30
0.0
  0
VERTEX
  5
480
330
474
100
AcDbEntity
  8
Visible (ANSI)
100
AcDbVertex
100
AcDb2dVertex
 10
140.3321135296892
 20
59.59190723270044
 30
0.0
  0
VERTEX
  5
481
330
474
100
AcDbEntity
  8
Visible (ANSI)
100
AcDbVertex
100
AcDb2dVertex
 10
140.3312843665403
 20
59.59319793392772
 30
0.0
  0
VERTEX
  5
482
330
474
100
AcDbEntity
  8
Visible (ANSI)
100
AcDbVertex
100
AcDb2dVertex
 10
140.3304765428262
 20
59.59448864539227
 30
0.0
  0
VERTEX
  5
483
330
474
100
AcDbEntity
  8
Visible (ANSI)
100
AcDbVertex
100
AcDb2dVertex
 10
140.3296873351801
 20
59.59577778933277
 30
0.0
  0
VERTEX
  5
484
330
474
100
AcDbEntity
  8
Visible (ANSI)
100
AcDbVertex
100
AcDb2dVertex
 10
140.3289203458923
 20
59.59706009213218
 30
0.0
  0
VERTEX
  5
485
330
474
100
AcDbEntity
  8
Visible (ANSI)
100
AcDbVertex
100
AcDb2dVertex
 10
140.3281727607222
 20
59.59833637936351
 30
0.0
  0
VERTEX
  5
486
330
474
100
AcDbEntity
  8
Visible (ANSI)
100
AcDbVertex
100
AcDb2dVertex
 10
140.3274438455482
 20
59.59960377260906
 30
0.0
  0
VERTEX
  5
487
330
474
100
AcDbEntity
  8
Visible (ANSI)
100
AcDbVertex
100
AcDb2dVertex
 10
140.326732825673
 20
59.60086428141557
 30
0.0
  0
VERTEX
  5
488
330
474
100
AcDbEntity
  8
Visible (ANSI)
100
AcDbVertex
100
AcDb2dVertex
 10
140.3260367617583
 20
59.60211374798677
 30
0.0
  0
VERTEX
  5
489
330
474
100
AcDbEntity
  8
Visible (ANSI)
100
AcDbVertex
100
AcDb2dVertex
 10
140.3253590484198
 20
59.60334923477884
 30
0.0
  0
VERTEX
  5
48A
330
474
100
AcDbEntity
  8
Visible (ANSI)
100
AcDbVertex
100
AcDb2dVertex
 10
140.3246966724273
 20
59.60457390843965
 30
0.0
  0
VERTEX
  5
48B
330
474
100
AcDbEntity
  8
Visible (ANSI)
100
AcDbVertex
100
AcDb2dVertex
 10
140.3240487102628
 20
59.60578232582019
 30
0.0
  0
VERTEX
  5
48C
330
474
100
AcDbEntity
  8
Visible (ANSI)
100
AcDbVertex
100
AcDb2dVertex
 10
140.3234142062592
 20
59.60697393658824
 30
0.0
  0
VERTEX
  5
48D
330
474
100
AcDbEntity
  8
Visible (ANSI)
100
AcDbVertex
100
AcDb2dVertex
 10
140.322790050738
 20
59.60814939618561
 30
0.0
  0
VERTEX
  5
48E
330
474
100
AcDbEntity
  8
Visible (ANSI)
100
AcDbVertex
100
AcDb2dVertex
 10
140.3221794783455
 20
59.6093081306135
 30
0.0
  0
SEQEND
  5
477
330
474
100
AcDbEntity
  8
Visible (ANSI)
  0
LINE
  5
48F
330
6C
100
AcDbEntity
  8
Visible (ANSI)
100
AcDbLine
 10
117.9157819132121
 20
72.59552677521796
 30
0.0
 11
118.4571782202275
 21
72.90729617348315
 31
0.0
  0
POLYLINE
  5
490
330
6C
100
AcDbEntity
  8
Visible (ANSI)
100
AcDb2dPolyline
 66
     1
 10
0.0
 20
0.0
 30
0.0
 70
   128
  0
VERTEX
  5
491
330
490
100
AcDbEntity
  8
Visible (ANSI)
100
AcDbVertex
100
AcDb2dVertex
 10
117.8026156540226
 20
40.05072025128888
 30
0.0
  0
VERTEX
  5
492
330
490
100
AcDbEntity
  8
Visible (ANSI)
100
AcDbVertex
100
AcDb2dVertex
 10
117.80012714811
 20
40.05306435499874
 30
0.0
  0
VERTEX
  5
494
330
490
100
AcDbEntity
  8
Visible (ANSI)
100
AcDbVertex
100
AcDb2dVertex
 10
117.7977240974217
 20
40.05545455403394
 30
0.0
  0
VERTEX
  5
495
330
490
100
AcDbEntity
  8
Visible (ANSI)
100
AcDbVertex
100
AcDb2dVertex
 10
117.7954090905044
 20
40.05788920482594
 30
0.0
  0
VERTEX
  5
496
330
490
100
AcDbEntity
  8
Visible (ANSI)
100
AcDbVertex
100
AcDb2dVertex
 10
117.7931845914553
 20
40.06036664480648
 30
0.0
  0
VERTEX
  5
497
330
490
100
AcDbEntity
  8
Visible (ANSI)
100
AcDbVertex
100
AcDb2dVertex
 10
117.7910529938503
 20
40.06288512768628
 30
0.0
  0
VERTEX
  5
498
330
490
100
AcDbEntity
  8
Visible (ANSI)
100
AcDbVertex
100
AcDb2dVertex
 10
117.7890165751126
 20
40.06544289288002
 30
0.0
  0
VERTEX
  5
499
330
490
100
AcDbEntity
  8
Visible (ANSI)
100
AcDbVertex
100
AcDb2dVertex
 10
117.7870775214027
 20
40.06803811769215
 30
0.0
  0
VERTEX
  5
49A
330
490
100
AcDbEntity
  8
Visible (ANSI)
100
AcDbVertex
100
AcDb2dVertex
 10
117.785237902728
 20
40.0706689507609
 30
0.0
  0
VERTEX
  5
49B
330
490
100
AcDbEntity
  8
Visible (ANSI)
100
AcDbVertex
100
AcDb2dVertex
 10
117.7834996895368
 20
40.07333348813264
 30
0.0
  0
VERTEX
  5
49C
330
490
100
AcDbEntity
  8
Visible (ANSI)
100
AcDbVertex
100
AcDb2dVertex
 10
117.7818647444211
 20
40.07602982118713
 30
0.0
  0
VERTEX
  5
49D
330
490
100
AcDbEntity
  8
Visible (ANSI)
100
AcDbVertex
100
AcDb2dVertex
 10
117.7803348179685
 20
40.07875598147173
 30
0.0
  0
VERTEX
  5
49E
330
490
100
AcDbEntity
  8
Visible (ANSI)
100
AcDbVertex
100
AcDb2dVertex
 10
117.7789115529104
 20
40.08150996712685
 30
0.0
  0
VERTEX
  5
49F
330
490
100
AcDbEntity
  8
Visible (ANSI)
100
AcDbVertex
100
AcDb2dVertex
 10
117.7775964633808
 20
40.08428975957092
 30
0.0
  0
VERTEX
  5
4A0
330
490
100
AcDbEntity
  8
Visible (ANSI)
100
AcDbVertex
100
AcDb2dVertex
 10
117.7763909681022
 20
40.08709330438956
 30
0.0
  0
VERTEX
  5
4A1
330
490
100
AcDbEntity
  8
Visible (ANSI)
100
AcDbVertex
100
AcDb2dVertex
 10
117.7752963530513
 20
40.0899185136874
 30
0.0
  0
VERTEX
  5
4A2
330
490
100
AcDbEntity
  8
Visible (ANSI)
100
AcDbVertex
100
AcDb2dVertex
 10
117.7743137922005
 20
40.09276330684676
 30
0.0
  0
VERTEX
  5
4A3
330
490
100
AcDbEntity
  8
Visible (ANSI)
100
AcDbVertex
100
AcDb2dVertex
 10
117.7734443309242
 20
40.09562555297289
 30
0.0
  0
VERTEX
  5
4A4
330
490
100
AcDbEntity
  8
Visible (ANSI)
100
AcDbVertex
100
AcDb2dVertex
 10
117.7726889067411
 20
40.09850310687498
 30
0.0
  0
VERTEX
  5
4A5
330
490
100
AcDbEntity
  8
Visible (ANSI)
100
AcDbVertex
100
AcDb2dVertex
 10
117.7720483306459
 20
40.10139381977889
 30
0.0
  0
VERTEX
  5
4A6
330
490
100
AcDbEntity
  8
Visible (ANSI)
100
AcDbVertex
100
AcDb2dVertex
 10
117.7715232850361
 20
40.10429551663317
 30
0.0
  0
VERTEX
  5
4A7
330
490
100
AcDbEntity
  8
Visible (ANSI)
100
AcDbVertex
100
AcDb2dVertex
 10
117.7711143278595
 20
40.10720600323842
 30
0.0
  0
VERTEX
  5
4A8
330
490
100
AcDbEntity
  8
Visible (ANSI)
100
AcDbVertex
100
AcDb2dVertex
 10
117.770821907134
 20
40.11012311058936
 30
0.0
  0
VERTEX
  5
4A9
330
490
100
AcDbEntity
  8
Visible (ANSI)
100
AcDbVertex
100
AcDb2dVertex
 10
117.7706463277603
 20
40.11304462776464
 30
0.0
  0
VERTEX
  5
4AA
330
490
100
AcDbEntity
  8
Visible (ANSI)
100
AcDbVertex
100
AcDb2dVertex
 10
117.7705877764125
 20
40.11596834985209
 30
0.0
  0
SEQEND
  5
493
330
490
100
AcDbEntity
  8
Visible (ANSI)
  0
POLYLINE
  5
4AB
330
6C
100
AcDbEntity
  8
Visible (ANSI)
100
AcDb2dPolyline
 66
     1
 10
0.0
 20
0.0
 30
0.0
 70
   128
  0
VERTEX
  5
4AC
330
4AB
100
AcDbEntity
  8
Visible (ANSI)
100
AcDbVertex
100
AcDb2dVertex
 10
117.8026156529856
 20
72.52985253785711
 30
0.0
  0
VERTEX
  5
4AD
330
4AB
100
AcDbEntity
  8
Visible (ANSI)
100
AcDbVertex
100
AcDb2dVertex
 10
117.797724096093
 20
72.52857379505515
 30
0.0
  0
VERTEX
  5
4AF
330
4AB
100
AcDbEntity
  8
Visible (ANSI)
100
AcDbVertex
100
AcDb2dVertex
 10
117.7931845912609
 20
72.52711480471626
 30
0.0
  0
VERTEX
  5
4B0
330
4AB
100
AcDbEntity
  8
Visible (ANSI)
100
AcDbVertex
100
AcDb2dVertex
 10
117.7890165767979
 20
72.52549166235766
 30
0.0
  0
VERTEX
  5
4B1
330
4AB
100
AcDbEntity
  8
Visible (ANSI)
100
AcDbVertex
100
AcDb2dVertex
 10
117.7852379009132
 20
72.52371871090094
 30
0.0
  0
VERTEX
  5
4B2
330
4AB
100
AcDbEntity
  8
Visible (ANSI)
100
AcDbVertex
100
AcDb2dVertex
 10
117.7818647449397
 20
72.52181093484292
 30
0.0
  0
VERTEX
  5
4B3
330
4AB
100
AcDbEntity
  8
Visible (ANSI)
100
AcDbVertex
100
AcDb2dVertex
 10
117.778911552392
 20
72.51978635166437
 30
0.0
  0
VERTEX
  5
4B4
330
4AB
100
AcDbEntity
  8
Visible (ANSI)
100
AcDbVertex
100
AcDb2dVertex
 10
117.7763909691393
 20
72.51765612239352
 30
0.0
  0
VERTEX
  5
4B5
330
4AB
100
AcDbEntity
  8
Visible (ANSI)
100
AcDbVertex
100
AcDb2dVertex
 10
117.7743137890894
 20
72.51543921684265
 30
0.0
  0
VERTEX
  5
4B6
330
4AB
100
AcDbEntity
  8
Visible (ANSI)
100
AcDbVertex
100
AcDb2dVertex
 10
117.7726889098523
 20
72.51315252211883
 30
0.0
  0
VERTEX
  5
4B7
330
4AB
100
AcDbEntity
  8
Visible (ANSI)
100
AcDbVertex
100
AcDb2dVertex
 10
117.7715232839991
 20
72.5108132212483
 30
0.0
  0
VERTEX
  5
4B8
330
4AB
100
AcDbEntity
  8
Visible (ANSI)
100
AcDbVertex
100
AcDb2dVertex
 10
117.7708219050599
 20
72.50843872240682
 30
0.0
  0
VERTEX
  5
4B9
330
4AB
100
AcDbEntity
  8
Visible (ANSI)
100
AcDbVertex
100
AcDb2dVertex
 10
117.7705877764126
 20
72.50604904411364
 30
0.0
  0
VERTEX
  5
4BA
330
4AB
100
AcDbEntity
  8
Visible (ANSI)
100
AcDbVertex
100
AcDb2dVertex
 10
117.7708219071341
 20
72.5036569113497
 30
0.0
  0
VERTEX
  5
4BB
330
4AB
100
AcDbEntity
  8
Visible (ANSI)
100
AcDbVertex
100
AcDb2dVertex
 10
117.7715232850362
 20
72.50128241429989
 30
0.0
  0
VERTEX
  5
4BC
330
4AB
100
AcDbEntity
  8
Visible (ANSI)
100
AcDbVertex
100
AcDb2dVertex
 10
117.7726889067411
 20
72.49894311104049
 30
0.0
  0
VERTEX
  5
4BD
330
4AB
100
AcDbEntity
  8
Visible (ANSI)
100
AcDbVertex
100
AcDb2dVertex
 10
117.7743137922006
 20
72.49665641751107
 30
0.0
  0
VERTEX
  5
4BE
330
4AB
100
AcDbEntity
  8
Visible (ANSI)
100
AcDbVertex
100
AcDb2dVertex
 10
117.7763909681023
 20
72.4944395119602
 30
0.0
  0
VERTEX
  5
4BF
330
4AB
100
AcDbEntity
  8
Visible (ANSI)
100
AcDbVertex
100
AcDb2dVertex
 10
117.7789115529105
 20
72.49231173686151
 30
0.0
  0
VERTEX
  5
4C0
330
4AB
100
AcDbEntity
  8
Visible (ANSI)
100
AcDbVertex
100
AcDb2dVertex
 10
117.7818647444212
 20
72.49028469742057
 30
0.0
  0
VERTEX
  5
4C1
330
4AB
100
AcDbEntity
  8
Visible (ANSI)
100
AcDbVertex
100
AcDb2dVertex
 10
117.7852379027281
 20
72.48837692390072
 30
0.0
  0
VERTEX
  5
4C2
330
4AB
100
AcDbEntity
  8
Visible (ANSI)
100
AcDbVertex
100
AcDb2dVertex
 10
117.7890165751127
 20
72.48660397251864
 30
0.0
  0
VERTEX
  5
4C3
330
4AB
100
AcDbEntity
  8
Visible (ANSI)
100
AcDbVertex
100
AcDb2dVertex
 10
117.7931845914554
 20
72.48498083094388
 30
0.0
  0
VERTEX
  5
4C4
330
4AB
100
AcDbEntity
  8
Visible (ANSI)
100
AcDbVertex
100
AcDb2dVertex
 10
117.7977240974218
 20
72.4835242927429
 30
0.0
  0
VERTEX
  5
4C5
330
4AB
100
AcDbEntity
  8
Visible (ANSI)
100
AcDbVertex
100
AcDb2dVertex
 10
117.8026156540227
 20
72.48224309649663
 30
0.0
  0
SEQEND
  5
4AE
330
4AB
100
AcDbEntity
  8
Visible (ANSI)
  0
LINE
  5
4C6
330
6C
100
AcDbEntity
  8
Visible (ANSI)
100
AcDbLine
 10
118.2487098524429
 20
40.36175581592838
 30
0.0
 11
118.4103032202275
 21
40.45481124756876
 31
0.0
  0
LINE
  5
4C7
330
6C
100
AcDbEntity
  8
Visible (ANSI)
100
AcDbLine
 10
117.8561767876231
 20
72.56069742444113
 30
0.0
 11
117.8026156524759
 21
72.52985361804859
 31
0.0
  0
LINE
  5
4C8
330
6C
100
AcDbEntity
  8
Visible (ANSI)
100
AcDbLine
 10
117.8205157597983
 20
72.51954563179807
 30
0.0
 11
117.8026156524759
 21
72.52985361804859
 31
0.0
  0
POLYLINE
  5
4C9
330
6C
100
AcDbEntity
  8
Visible (ANSI)
100
AcDb2dPolyline
 66
     1
 10
0.0
 20
0.0
 30
0.0
 70
   128
  0
VERTEX
  5
4CA
330
4C9
100
AcDbEntity
  8
Visible (ANSI)
100
AcDbVertex
100
AcDb2dVertex
 10
140.2753883069166
 20
27.10951116554082
 30
0.0
  0
VERTEX
  5
4CB
330
4C9
100
AcDbEntity
  8
Visible (ANSI)
100
AcDbVertex
100
AcDb2dVertex
 10
140.2740607309683
 20
27.10461937646528
 30
0.0
  0
VERTEX
  5
4CD
330
4C9
100
AcDbEntity
  8
Visible (ANSI)
100
AcDbVertex
100
AcDb2dVertex
 10
140.2730635556148
 20
27.09994288391599
 30
0.0
  0
VERTEX
  5
4CE
330
4C9
100
AcDbEntity
  8
Visible (ANSI)
100
AcDbVertex
100
AcDb2dVertex
 10
140.2723946486237
 20
27.09550540037154
 30
0.0
  0
VERTEX
  5
4CF
330
4C9
100
AcDbEntity
  8
Visible (ANSI)
100
AcDbVertex
100
AcDb2dVertex
 10
140.2720483641428
 20
27.09133083571527
 30
0.0
  0
VERTEX
  5
4D0
330
4C9
100
AcDbEntity
  8
Visible (ANSI)
100
AcDbVertex
100
AcDb2dVertex
 10
140.2720240218488
 20
27.08743829938262
 30
0.0
  0
VERTEX
  5
4D1
330
4C9
100
AcDbEntity
  8
Visible (ANSI)
100
AcDbVertex
100
AcDb2dVertex
 10
140.2723132172619
 20
27.0838493692548
 30
0.0
  0
VERTEX
  5
4D2
330
4C9
100
AcDbEntity
  8
Visible (ANSI)
100
AcDbVertex
100
AcDb2dVertex
 10
140.2729083133399
 20
27.08058309138027
 30
0.0
  0
VERTEX
  5
4D3
330
4C9
100
AcDbEntity
  8
Visible (ANSI)
100
AcDbVertex
100
AcDb2dVertex
 10
140.2738003704709
 20
27.07765714299486
 30
0.0
  0
VERTEX
  5
4D4
330
4C9
100
AcDbEntity
  8
Visible (ANSI)
100
AcDbVertex
100
AcDb2dVertex
 10
140.2749770432787
 20
27.07508894765367
 30
0.0
  0
VERTEX
  5
4D5
330
4C9
100
AcDbEntity
  8
Visible (ANSI)
100
AcDbVertex
100
AcDb2dVertex
 10
140.2764311510354
 20
27.07289075391436
 30
0.0
  0
VERTEX
  5
4D6
330
4C9
100
AcDbEntity
  8
Visible (ANSI)
100
AcDbVertex
100
AcDb2dVertex
 10
140.2781479381959
 20
27.07107687316642
 30
0.0
  0
VERTEX
  5
4D7
330
4C9
100
AcDbEntity
  8
Visible (ANSI)
100
AcDbVertex
100
AcDb2dVertex
 10
140.2801136614028
 20
27.06965875348124
 30
0.0
  0
VERTEX
  5
4D8
330
4C9
100
AcDbEntity
  8
Visible (ANSI)
100
AcDbVertex
100
AcDb2dVertex
 10
140.2823135153311
 20
27.06864615703004
 30
0.0
  0
VERTEX
  5
4D9
330
4C9
100
AcDbEntity
  8
Visible (ANSI)
100
AcDbVertex
100
AcDb2dVertex
 10
140.2847316824678
 20
27.06804709642295
 30
0.0
  0
VERTEX
  5
4DA
330
4C9
100
AcDbEntity
  8
Visible (ANSI)
100
AcDbVertex
100
AcDb2dVertex
 10
140.2873492879939
 20
27.0678690432376
 30
0.0
  0
VERTEX
  5
4DB
330
4C9
100
AcDbEntity
  8
Visible (ANSI)
100
AcDbVertex
100
AcDb2dVertex
 10
140.2901529681226
 20
27.06811399831366
 30
0.0
  0
VERTEX
  5
4DC
330
4C9
100
AcDbEntity
  8
Visible (ANSI)
100
AcDbVertex
100
AcDb2dVertex
 10
140.2931222032294
 20
27.0687858217474
 30
0.0
  0
VERTEX
  5
4DD
330
4C9
100
AcDbEntity
  8
Visible (ANSI)
100
AcDbVertex
100
AcDb2dVertex
 10
140.2962378820415
 20
27.06988531698458
 30
0.0
  0
VERTEX
  5
4DE
330
4C9
100
AcDbEntity
  8
Visible (ANSI)
100
AcDbVertex
100
AcDb2dVertex
 10
140.2994802689653
 20
27.07141145730711
 30
0.0
  0
VERTEX
  5
4DF
330
4C9
100
AcDbEntity
  8
Visible (ANSI)
100
AcDbVertex
100
AcDb2dVertex
 10
140.3028269620796
 20
27.07336261264048
 30
0.0
  0
VERTEX
  5
4E0
330
4C9
100
AcDbEntity
  8
Visible (ANSI)
100
AcDbVertex
100
AcDb2dVertex
 10
140.3062614757339
 20
27.07573166957712
 30
0.0
  0
VERTEX
  5
4E1
330
4C9
100
AcDbEntity
  8
Visible (ANSI)
100
AcDbVertex
100
AcDb2dVertex
 10
140.3097605848262
 20
27.07851338810008
 30
0.0
  0
VERTEX
  5
4E2
330
4C9
100
AcDbEntity
  8
Visible (ANSI)
100
AcDbVertex
100
AcDb2dVertex
 10
140.3133029118094
 20
27.08169953827097
 30
0.0
  0
VERTEX
  5
4E3
330
4C9
100
AcDbEntity
  8
Visible (ANSI)
100
AcDbVertex
100
AcDb2dVertex
 10
140.3168668945361
 20
27.08528015882778
 30
0.0
  0
SEQEND
  5
4CC
330
4C9
100
AcDbEntity
  8
Visible (ANSI)
  0
POLYLINE
  5
4E4
330
6C
100
AcDbEntity
  8
Visible (ANSI)
100
AcDb2dPolyline
 66
     1
 10
0.0
 20
0.0
 30
0.0
 70
   128
  0
VERTEX
  5
4E5
330
4E4
100
AcDbEntity
  8
Visible (ANSI)
100
AcDbVertex
100
AcDb2dVertex
 10
117.8433347946334
 20
39.99014016144908
 30
0.0
  0
VERTEX
  5
4E6
330
4E4
100
AcDbEntity
  8
Visible (ANSI)
100
AcDbVertex
100
AcDb2dVertex
 10
117.8408187854132
 20
39.99165693041938
 30
0.0
  0
VERTEX
  5
4E8
330
4E4
100
AcDbEntity
  8
Visible (ANSI)
100
AcDbVertex
100
AcDb2dVertex
 10
117.8383633913258
 20
39.99327450536354
 30
0.0
  0
VERTEX
  5
4E9
330
4E4
100
AcDbEntity
  8
Visible (ANSI)
100
AcDbVertex
100
AcDb2dVertex
 10
117.8359704666668
 20
39.99499160642315
 30
0.0
  0
VERTEX
  5
4EA
330
4E4
100
AcDbEntity
  8
Visible (ANSI)
100
AcDbVertex
100
AcDb2dVertex
 10
117.8336417744687
 20
39.99680685071353
 30
0.0
  0
VERTEX
  5
4EB
330
4E4
100
AcDbEntity
  8
Visible (ANSI)
100
AcDbVertex
100
AcDb2dVertex
 10
117.831378998946
 20
39.99871875240719
 30
0.0
  0
VERTEX
  5
4EC
330
4E4
100
AcDbEntity
  8
Visible (ANSI)
100
AcDbVertex
100
AcDb2dVertex
 10
117.8291837952752
 20
40.00072571074317
 30
0.0
  0
VERTEX
  5
4ED
330
4E4
100
AcDbEntity
  8
Visible (ANSI)
100
AcDbVertex
100
AcDb2dVertex
 10
117.8270576983318
 20
40.00282603635079
 30
0.0
  0
VERTEX
  5
4EE
330
4E4
100
AcDbEntity
  8
Visible (ANSI)
100
AcDbVertex
100
AcDb2dVertex
 10
117.8250022098045
 20
40.00501792737029
 30
0.0
  0
VERTEX
  5
4EF
330
4E4
100
AcDbEntity
  8
Visible (ANSI)
100
AcDbVertex
100
AcDb2dVertex
 10
117.8230187193779
 20
40.00729950050803
 30
0.0
  0
VERTEX
  5
4F0
330
4E4
100
AcDbEntity
  8
Visible (ANSI)
100
AcDbVertex
100
AcDb2dVertex
 10
117.821108571105
 20
40.00966874801848
 30
0.0
  0
VERTEX
  5
4F1
330
4E4
100
AcDbEntity
  8
Visible (ANSI)
100
AcDbVertex
100
AcDb2dVertex
 10
117.819273005331
 20
40.01212358793509
 30
0.0
  0
VERTEX
  5
4F2
330
4E4
100
AcDbEntity
  8
Visible (ANSI)
100
AcDbVertex
100
AcDb2dVertex
 10
117.8175131877317
 20
40.01466185692213
 30
0.0
  0
VERTEX
  5
4F3
330
4E4
100
AcDbEntity
  8
Visible (ANSI)
100
AcDbVertex
100
AcDb2dVertex
 10
117.8158302176095
 20
40.01728127199753
 30
0.0
  0
VERTEX
  5
4F4
330
4E4
100
AcDbEntity
  8
Visible (ANSI)
100
AcDbVertex
100
AcDb2dVertex
 10
117.8142250864112
 20
40.01997948792095
 30
0.0
  0
VERTEX
  5
4F5
330
4E4
100
AcDbEntity
  8
Visible (ANSI)
100
AcDbVertex
100
AcDb2dVertex
 10
117.8126987358034
 20
40.02275405419431
 30
0.0
  0
VERTEX
  5
4F6
330
4E4
100
AcDbEntity
  8
Visible (ANSI)
100
AcDbVertex
100
AcDb2dVertex
 10
117.8112519830035
 20
40.02560246289452
 30
0.0
  0
VERTEX
  5
4F7
330
4E4
100
AcDbEntity
  8
Visible (ANSI)
100
AcDbVertex
100
AcDb2dVertex
 10
117.8098855954494
 20
40.02852210084079
 30
0.0
  0
VERTEX
  5
4F8
330
4E4
100
AcDbEntity
  8
Visible (ANSI)
100
AcDbVertex
100
AcDb2dVertex
 10
117.8086002285743
 20
40.0315102902422
 30
0.0
  0
VERTEX
  5
4F9
330
4E4
100
AcDbEntity
  8
Visible (ANSI)
100
AcDbVertex
100
AcDb2dVertex
 10
117.8073964548451
 20
40.03456429114208
 30
0.0
  0
VERTEX
  5
4FA
330
4E4
100
AcDbEntity
  8
Visible (ANSI)
100
AcDbVertex
100
AcDb2dVertex
 10
117.806274780356
 20
40.03768127271476
 30
0.0
  0
VERTEX
  5
4FB
330
4E4
100
AcDbEntity
  8
Visible (ANSI)
100
AcDbVertex
100
AcDb2dVertex
 10
117.8052355867516
 20
40.04085834670951
 30
0.0
  0
VERTEX
  5
4FC
330
4E4
100
AcDbEntity
  8
Visible (ANSI)
100
AcDbVertex
100
AcDb2dVertex
 10
117.8042792058969
 20
40.04409254839522
 30
0.0
  0
VERTEX
  5
4FD
330
4E4
100
AcDbEntity
  8
Visible (ANSI)
100
AcDbVertex
100
AcDb2dVertex
 10
117.8034058452075
 20
40.04738087959686
 30
0.0
  0
VERTEX
  5
4FE
330
4E4
100
AcDbEntity
  8
Visible (ANSI)
100
AcDbVertex
100
AcDb2dVertex
 10
117.8026156540226
 20
40.05072025128888
 30
0.0
  0
SEQEND
  5
4E7
330
4E4
100
AcDbEntity
  8
Visible (ANSI)
  0
LINE
  5
4FF
330
6C
100
AcDbEntity
  8
Visible (ANSI)
100
AcDbLine
 10
118.2958402024587
 20
40.28071311537202
 30
0.0
 11
118.4571782202275
 21
40.37362150071798
 31
0.0
  0
LINE
  5
500
330
6C
100
AcDbEntity
  8
Visible (ANSI)
100
AcDbLine
 10
140.3168663897124
 20
27.10645680396256
 30
0.0
 11
140.3168663897124
 21
27.08528044894937
 31
0.0
  0
LINE
  5
501
330
6C
100
AcDbEntity
  8
Visible (ANSI)
100
AcDbLine
 10
140.3168663897124
 20
27.08528044894937
 30
0.0
 11
140.3739155180666
 21
27.11813285704312
 31
0.0
  0
LINE
  5
502
330
6C
100
AcDbEntity
  8
Visible (ANSI)
100
AcDbLine
 10
140.4284862578634
 20
27.14955805608657
 30
0.0
 11
140.8582626967278
 21
27.39704984721452
 31
0.0
  0
LINE
  5
503
330
6C
100
AcDbEntity
  8
Visible (ANSI)
100
AcDbLine
 10
140.8582626967278
 20
27.39755488898212
 30
0.0
 11
140.8582626967278
 21
27.39704984721452
 31
0.0
  0
POLYLINE
  5
504
330
6C
100
AcDbEntity
  8
Visible (ANSI)
100
AcDb2dPolyline
 66
     1
 10
0.0
 20
0.0
 30
0.0
 70
   128
  0
VERTEX
  5
505
330
504
100
AcDbEntity
  8
Visible (ANSI)
100
AcDbVertex
100
AcDb2dVertex
 10
140.3580212921022
 20
59.54722686649201
 30
0.0
  0
VERTEX
  5
506
330
504
100
AcDbEntity
  8
Visible (ANSI)
100
AcDbVertex
100
AcDb2dVertex
 10
140.3616339376382
 20
59.54233669382911
 30
0.0
  0
VERTEX
  5
508
330
504
100
AcDbEntity
  8
Visible (ANSI)
100
AcDbVertex
100
AcDb2dVertex
 10
140.365905097607
 20
59.53794805320725
 30
0.0
  0
VERTEX
  5
509
330
504
100
AcDbEntity
  8
Visible (ANSI)
100
AcDbVertex
100
AcDb2dVertex
 10
140.3706506984477
 20
59.53412614832568
 30
0.0
  0
VERTEX
  5
50A
330
504
100
AcDbEntity
  8
Visible (ANSI)
100
AcDbVertex
100
AcDb2dVertex
 10
140.3756170791867
 20
59.53092554022476
 30
0.0
  0
SEQEND
  5
507
330
504
100
AcDbEntity
  8
Visible (ANSI)
  0
POLYLINE
  5
50B
330
6C
100
AcDbEntity
  8
Visible (ANSI)
100
AcDb2dPolyline
 66
     1
 10
0.0
 20
0.0
 30
0.0
 70
   128
  0
VERTEX
  5
50C
330
50B
100
AcDbEntity
  8
Visible (ANSI)
100
AcDbVertex
100
AcDb2dVertex
 10
140.3168668945362
 20
59.6325829938289
 30
0.0
  0
VERTEX
  5
50D
330
50B
100
AcDbEntity
  8
Visible (ANSI)
100
AcDbVertex
100
AcDb2dVertex
 10
140.3171590155462
 20
59.62670423615158
 30
0.0
  0
VERTEX
  5
50F
330
50B
100
AcDbEntity
  8
Visible (ANSI)
100
AcDbVertex
100
AcDb2dVertex
 10
140.3180971282725
 20
59.6207235369826
 30
0.0
  0
VERTEX
  5
510
330
50B
100
AcDbEntity
  8
Visible (ANSI)
100
AcDbVertex
100
AcDb2dVertex
 10
140.3197615901827
 20
59.61484434316041
 30
0.0
  0
VERTEX
  5
511
330
50B
100
AcDbEntity
  8
Visible (ANSI)
100
AcDbVertex
100
AcDb2dVertex
 10
140.3221794783455
 20
59.6093081306135
 30
0.0
  0
SEQEND
  5
50E
330
50B
100
AcDbEntity
  8
Visible (ANSI)
  0
LINE
  5
512
330
6C
100
AcDbEntity
  8
Visible (ANSI)
100
AcDbLine
 10
140.9714289574642
 20
59.81136017496083
 30
0.0
 11
140.9714289574641
 21
27.46272300438387
 31
0.0
  0
LINE
  5
513
330
6C
100
AcDbEntity
  8
Visible (ANSI)
100
AcDbLine
 10
118.4571782202275
 20
72.90729617348315
 30
0.0
 11
140.8582626967279
 21
60.00736956293368
 31
0.0
  0
LINE
  5
514
330
6C
100
AcDbEntity
  8
Visible (ANSI)
100
AcDbLine
 10
118.4103032202275
 20
40.45481124756876
 30
0.0
 11
118.4103032202275
 21
40.54373290145377
 31
0.0
  0
LINE
  5
515
330
6C
100
AcDbEntity
  8
Visible (ANSI)
100
AcDbLine
 10
118.4103032202275
 20
71.35255313803596
 30
0.0
 11
118.4103032202275
 21
71.72334514869845
 31
0.0
  0
LINE
  5
516
330
6C
100
AcDbEntity
  8
Visible (ANSI)
100
AcDbLine
 10
139.9225060879342
 20
28.01256128261648
 30
0.0
 11
139.6012442140106
 21
28.19756369179581
 31
0.0
  0
LINE
  5
517
330
6C
100
AcDbEntity
  8
Visible (ANSI)
100
AcDbLine
 10
118.532525957038
 20
40.33023162483288
 30
0.0
 11
118.4571782202275
 21
40.37362150071798
 31
0.0
  0
SPLINE
  5
518
330
6C
100
AcDbEntity
  8
Visible (ANSI)
100
AcDbSpline
210
0.0
220
0.0
230
1.0
 70
     8
 71
     3
 72
    11
 73
     7
 74
     0
 42
0.0000000001
 43
0.0000000001
 40
0.0
 40
0.0
 40
0.0
 40
0.0
 40
1.084645898259285
 40
1.084645898259285
 40
1.084645898259285
 40
1.570796326794838
 40
1.570796326794838
 40
1.570796326794838
 40
1.570796326794838
 10
58.02291030154111
 20
90.60703711481499
 30
0.0
 10
58.06244564453266
 20
90.60703711481499
 30
0.0
 10
58.10111886201365
 20
90.63034127288014
 30
0.0
 10
58.11959079450917
 20
90.66529597292664
 30
0.0
 10
58.1278701213503
 20
90.68096306062246
 30
0.0
 10
58.13226030154112
 20
90.69866693169485
 30
0.0
 10
58.13226030154112
 20
90.71638711481496
 30
0.0
  0
LINE
  5
519
330
6C
100
AcDbEntity
  8
Visible (ANSI)
100
AcDbLine
 10
58.03851030154112
 20
90.71638711481496
 30
0.0
 11
58.03851030154117
 21
91.48203711481498
 31
0.0
  0
LINE
  5
51A
330
6C
100
AcDbEntity
  8
Visible (ANSI)
100
AcDbLine
 10
58.03851030154112
 20
90.71638711481496
 30
0.0
 11
58.13226030154112
 21
90.71638711481496
 31
0.0
  0
SPLINE
  5
51B
330
6C
100
AcDbEntity
  8
Visible (ANSI)
100
AcDbSpline
210
0.0
220
0.0
230
1.0
 70
     8
 71
     3
 72
     8
 73
     4
 74
     0
 42
0.0000000001
 43
0.0000000001
 40
0.0
 40
0.0
 40
0.0
 40
0.0
 40
1.570796326794838
 40
1.570796326794838
 40
1.570796326794838
 40
1.570796326794838
 10
58.02291030154111
 20
90.70078711481498
 30
0.0
 10
58.03107844244045
 20
90.70078711481498
 30
0.0
 10
58.03851030154112
 20
90.70821897391564
 30
0.0
 10
58.03851030154112
 20
90.71638711481496
 30
0.0
  0
LINE
  5
51C
330
6C
100
AcDbEntity
  8
Visible (ANSI)
100
AcDbLine
 10
58.02291030154111
 20
90.70078711481498
 30
0.0
 11
58.02291030154111
 21
90.68411605594405
 31
0.0
  0
LINE
  5
51D
330
6C
100
AcDbEntity
  8
Visible (ANSI)
100
AcDbLine
 10
58.02291030154111
 20
90.68411605594405
 30
0.0
 11
58.02291030154111
 21
90.60703711481499
 31
0.0
  0
LINE
  5
51E
330
6C
100
AcDbEntity
  8
Visible (ANSI)
100
AcDbLine
 10
58.13226030154112
 20
90.71638711481496
 30
0.0
 11
58.13226030154115
 21
91.48203711481496
 31
0.0
  0
LINE
  5
51F
330
6C
100
AcDbEntity
  8
Visible (ANSI)
100
AcDbLine
 10
58.03851030154117
 20
91.48203711481498
 30
0.0
 11
58.13226030154115
 21
91.48203711481496
 31
0.0
  0
SPLINE
  5
520
330
6C
100
AcDbEntity
  8
Visible (ANSI)
100
AcDbSpline
210
0.0
220
0.0
230
1.0
 70
     8
 71
     3
 72
    11
 73
     7
 74
     0
 42
0.0000000001
 43
0.0000000001
 40
0.0
 40
0.0
 40
0.0
 40
0.0
 40
1.084645898258662
 40
1.084645898258662
 40
1.084645898258662
 40
1.570796326794961
 40
1.570796326794961
 40
1.570796326794961
 40
1.570796326794961
 10
26.24161030154112
 20
90.60703711481499
 30
0.0
 10
26.25327785875339
 20
90.60703711481499
 30
0.0
 10
26.26494541596566
 20
90.63034127288014
 30
0.0
 10
26.27661297317793
 20
90.66529597292662
 30
0.0
 10
26.28184250287774
 20
90.68096306062246
 30
0.0
 10
26.28707203257754
 20
90.69866693169487
 30
0.0
 10
26.29230156227735
 20
90.71638711481503
 30
0.0
  0
SPLINE
  5
521
330
6C
100
AcDbEntity
  8
Visible (ANSI)
100
AcDbSpline
210
0.0
220
0.0
230
1.0
 70
     8
 71
     3
 72
    11
 73
     7
 74
     0
 42
0.0000000001
 43
0.0000000001
 40
0.0
 40
0.0
 40
0.0
 40
0.0
 40
1.084645898258349
 40
1.084645898258349
 40
1.084645898258349
 40
1.570796326794962
 40
1.570796326794962
 40
1.570796326794962
 40
1.570796326794962
 10
57.97221904080487
 20
90.71638711481503
 30
0.0
 10
57.98388659801715
 20
90.67685177182351
 30
0.0
 10
57.99555415522941
 20
90.63817855434253
 30
0.0
 10
58.00722171244167
 20
90.61970662184698
 30
0.0
 10
58.01245124214148
 20
90.61142729500582
 30
0.0
 10
58.01768077184131
 20
90.60703711481499
 30
0.0
 10
58.02291030154111
 20
90.60703711481499
 30
0.0
  0
LINE
  5
522
330
6C
100
AcDbEntity
  8
Visible (ANSI)
100
AcDbLine
 10
57.97221904080487
 20
91.48203711481501
 30
0.0
 11
57.97221904080487
 21
90.71638711481503
 31
0.0
  0
SPLINE
  5
523
330
6C
100
AcDbEntity
  8
Visible (ANSI)
100
AcDbSpline
210
0.0
220
0.0
230
1.0
 70
     8
 71
     3
 72
     8
 73
     4
 74
     0
 42
0.0000000001
 43
0.0000000001
 40
0.0
 40
0.0
 40
0.0
 40
0.0
 40
1.570796326794962
 40
1.570796326794962
 40
1.570796326794962
 40
1.570796326794962
 10
58.02291030154111
 20
90.70078711481498
 30
0.0
 10
58.00601321462903
 20
90.70078711481498
 30
0.0
 10
57.98911612771695
 20
90.70821897391565
 30
0.0
 10
57.97221904080487
 20
90.71638711481499
 30
0.0
  0
SPLINE
  5
524
330
6C
100
AcDbEntity
  8
Visible (ANSI)
100
AcDbSpline
210
0.0
220
0.0
230
1.0
 70
     8
 71
     3
 72
     8
 73
     4
 74
     0
 42
0.0000000001
 43
0.0000000001
 40
0.0
 40
0.0
 40
0.0
 40
0.0
 40
1.570796326794961
 40
1.570796326794961
 40
1.570796326794961
 40
1.570796326794961
 10
26.24161030154112
 20
90.70078711481498
 30
0.0
 10
26.25850738845319
 20
90.70078711481498
 30
0.0
 10
26.27540447536527
 20
90.70821897391565
 30
0.0
 10
26.29230156227735
 20
90.71638711481499
 30
0.0
  0
LINE
  5
525
330
6C
100
AcDbEntity
  8
Visible (ANSI)
100
AcDbLine
 10
26.24161030154112
 20
90.70078711481498
 30
0.0
 11
26.24161030154112
 21
90.68411605594405
 31
0.0
  0
LINE
  5
526
330
6C
100
AcDbEntity
  8
Visible (ANSI)
100
AcDbLine
 10
26.24161030154112
 20
90.68411605594405
 30
0.0
 11
26.24161030154112
 21
90.60703711481499
 31
0.0
  0
LINE
  5
527
330
6C
100
AcDbEntity
  8
Visible (ANSI)
100
AcDbLine
 10
26.29230156227735
 20
90.71638711481503
 30
0.0
 11
26.29230156227734
 21
91.48203711481501
 31
0.0
  0
SPLINE
  5
528
330
6C
100
AcDbEntity
  8
Visible (ANSI)
100
AcDbSpline
210
0.0
220
0.0
230
1.0
 70
     8
 71
     3
 72
    11
 73
     7
 74
     0
 42
0.0000000001
 43
0.0000000001
 40
0.0
 40
0.0
 40
0.0
 40
0.0
 40
1.084645898258923
 40
1.084645898258923
 40
1.084645898258923
 40
1.570796326794871
 40
1.570796326794871
 40
1.570796326794871
 40
1.570796326794871
 10
26.13226030154112
 20
90.71638711481496
 30
0.0
 10
26.13226030154112
 20
90.67685177182344
 30
0.0
 10
26.15556445960628
 20
90.63817855434246
 30
0.0
 10
26.19051915965276
 20
90.61970662184693
 30
0.0
 10
26.20618624734858
 20
90.61142729500579
 30
0.0
 10
26.22389011842098
 20
90.60703711481499
 30
0.0
 10
26.24161030154112
 20
90.60703711481499
 30
0.0
  0
LINE
  5
529
330
6C
100
AcDbEntity
  8
Visible (ANSI)
100
AcDbLine
 10
26.22601030154112
 20
90.71638711481496
 30
0.0
 11
26.22601030154112
 21
91.48203711481498
 31
0.0
  0
LINE
  5
52A
330
6C
100
AcDbEntity
  8
Visible (ANSI)
100
AcDbLine
 10
26.13226030154111
 20
91.48203711481498
 30
0.0
 11
26.13226030154112
 21
90.71638711481496
 31
0.0
  0
LINE
  5
52B
330
6C
100
AcDbEntity
  8
Visible (ANSI)
100
AcDbLine
 10
26.22601030154112
 20
90.71638711481496
 30
0.0
 11
26.13226030154112
 21
90.71638711481496
 31
0.0
  0
LINE
  5
52C
330
6C
100
AcDbEntity
  8
Visible (ANSI)
100
AcDbLine
 10
26.22601030154112
 20
91.48203711481498
 30
0.0
 11
26.13226030154111
 21
91.48203711481498
 31
0.0
  0
SPLINE
  5
52D
330
6C
100
AcDbEntity
  8
Visible (ANSI)
100
AcDbSpline
210
0.0
220
0.0
230
1.0
 70
     8
 71
     3
 72
     8
 73
     4
 74
     0
 42
0.0000000001
 43
0.0000000001
 40
0.0
 40
0.0
 40
0.0
 40
0.0
 40
1.570796326794871
 40
1.570796326794871
 40
1.570796326794871
 40
1.570796326794871
 10
26.24161030154112
 20
90.70078711481498
 30
0.0
 10
26.23344216064178
 20
90.70078711481498
 30
0.0
 10
26.22601030154112
 20
90.70821897391564
 30
0.0
 10
26.22601030154112
 20
90.71638711481497
 30
0.0
  0
LINE
  5
52E
330
6C
100
AcDbEntity
  8
Visible (ANSI)
100
AcDbLine
 10
58.02291030154111
 20
90.60703711481499
 30
0.0
 11
26.24161030154112
 21
90.60703711481499
 31
0.0
  0
LINE
  5
52F
330
6C
100
AcDbEntity
  8
Hidden (ANSI)
 48
1.098254919052124
100
AcDbLine
 10
26.24161030154112
 20
90.70078711481498
 30
0.0
 11
58.02291030154111
 21
90.70078711481498
 31
0.0
  0
LINE
  5
530
330
6C
100
AcDbEntity
  8
Visible (ANSI)
100
AcDbLine
 10
26.29230156227734
 20
91.48203711481501
 30
0.0
 11
57.97221904080487
 21
91.48203711481501
 31
0.0
  0
LINE
  5
531
330
6C
100
AcDbEntity
  8
Hidden (ANSI)
 48
0.0177565310150385
100
AcDbLine
 10
57.53876030154112
 20
90.70078711481476
 30
0.0
 11
57.53876030154112
 21
90.60703711481476
 31
0.0
  0
LINE
  5
532
330
6C
100
AcDbEntity
  8
Hidden (ANSI)
 48
0.0177565310150385
100
AcDbLine
 10
56.97576030154111
 20
90.70078711481476
 30
0.0
 11
56.97576030154111
 21
90.60703711481476
 31
0.0
  0
LINE
  5
533
330
6C
100
AcDbEntity
  8
Hidden (ANSI)
 48
0.0177565310150385
100
AcDbLine
 10
27.28876030154112
 20
90.70078711481476
 30
0.0
 11
27.28876030154112
 21
90.60703711481476
 31
0.0
  0
LINE
  5
534
330
6C
100
AcDbEntity
  8
Hidden (ANSI)
 48
0.0177565310150385
100
AcDbLine
 10
26.72576030154111
 20
90.70078711481476
 30
0.0
 11
26.72576030154111
 21
90.60703711481476
 31
0.0
  0
MTEXT
  5
535
330
6C
100
AcDbEntity
  8
Symbol (ANSI)
100
AcDbMText
 10
38.22303308312982
 20
85.0536763872696
 30
0.0
 40
1.200000014830761
 41
0.0
 46
0.0
 71
     7
 72
     1
  1
TOP VIEW
  7
Text Style153
 73
     1
 44
1.0
  0
LINE
  5
536
330
6C
100
AcDbEntity
  8
Symbol (ANSI)
370
    30
100
AcDbLine
 10
38.22399308559928
 20
84.8089600135207
 30
0.0
 11
45.7954678592766
 21
84.8089600135207
 31
0.0
  0
LINE
  5
537
330
6C
100
AcDbEntity
  8
Center Mark (ANSI)
  6
CHAIN
 48
0.170057401061058
100
AcDbLine
 10
27.00726030152919
 20
70.574498690339
 30
0.0
 11
27.00726030152919
 21
67.51149869033899
 31
0.0
  0
LINE
  5
538
330
6C
100
AcDbEntity
  8
Center Mark (ANSI)
  6
CHAIN
 48
0.170057401061058
100
AcDbLine
 10
57.25726030152919
 20
70.574498690339
 30
0.0
 11
57.25726030152919
 21
67.51149869033899
 31
0.0
  0
LINE
  5
539
330
6C
100
AcDbEntity
  8
Centerline (ANSI)
  6
CHAIN
 48
0.9524481296539306
100
AcDbLine
 10
25.47576030152918
 20
69.04299869033899
 30
0.0
 11
58.78876030152919
 21
69.04299869033899
 31
0.0
  0
LINE
  5
53A
330
6C
100
AcDbEntity
  8
Center Mark (ANSI)
  6
CHAIN
 48
0.170057401061058
100
AcDbLine
 10
58.78876030152919
 20
69.04299869033899
 30
0.0
 11
55.72576030152919
 21
69.04299869033899
 31
0.0
  0
LINE
  5
53B
330
6C
100
AcDbEntity
  8
Center Mark (ANSI)
  6
CHAIN
 48
0.170057401061058
100
AcDbLine
 10
58.78876030152919
 20
30.90499869033899
 30
0.0
 11
55.72576030152919
 21
30.90499869033899
 31
0.0
  0
LINE
  5
53C
330
6C
100
AcDbEntity
  8
Centerline (ANSI)
  6
CHAIN
 48
0.9524481296539306
100
AcDbLine
 10
57.25726030152919
 20
70.574498690339
 30
0.0
 11
57.25726030152919
 21
29.373498690339
 31
0.0
  0
LINE
  5
53D
330
6C
100
AcDbEntity
  8
Center Mark (ANSI)
  6
CHAIN
 48
0.170057401061058
100
AcDbLine
 10
57.25726030152919
 20
29.373498690339
 30
0.0
 11
57.25726030152919
 21
32.43649869033899
 31
0.0
  0
LINE
  5
53E
330
6C
100
AcDbEntity
  8
Center Mark (ANSI)
  6
CHAIN
 48
0.170057401061058
100
AcDbLine
 10
27.00726030152918
 20
29.373498690339
 30
0.0
 11
27.00726030152918
 21
32.43649869033899
 31
0.0
  0
LINE
  5
53F
330
6C
100
AcDbEntity
  8
Centerline (ANSI)
  6
CHAIN
 48
0.9524481296539306
100
AcDbLine
 10
58.78876030152919
 20
30.90499869033899
 30
0.0
 11
25.47576030152918
 21
30.90499869033899
 31
0.0
  0
LINE
  5
540
330
6C
100
AcDbEntity
  8
Center Mark (ANSI)
  6
CHAIN
 48
0.170057401061058
100
AcDbLine
 10
25.47576030152918
 20
30.90499869033899
 30
0.0
 11
28.53876030152918
 21
30.90499869033899
 31
0.0
  0
LINE
  5
541
330
6C
100
AcDbEntity
  8
Center Mark (ANSI)
  6
CHAIN
 48
0.170057401061058
100
AcDbLine
 10
25.47576030152918
 20
69.04299869033899
 30
0.0
 11
28.53876030152919
 21
69.04299869033899
 31
0.0
  0
LINE
  5
542
330
6C
100
AcDbEntity
  8
Centerline (ANSI)
  6
CHAIN
 48
0.9524481296539306
100
AcDbLine
 10
27.00726030152918
 20
29.37349869033899
 30
0.0
 11
27.00726030152919
 21
70.574498690339
 31
0.0
  0
DIMENSION
  5
543
330
6C
100
AcDbEntity
  8
Dimension (ANSI)
100
AcDbDimension
280
     0
  2
*D4
 10
58.13226030152918
 20
78.41937475243738
 30
0.0
 11
42.13226030152917
 21
78.41937475243738
 31
0.0
 70
   160
  1
<>
 42
32.0
 73
     0
 74
     0
 75
     0
  3
Default (ANSI)
100
AcDbAlignedDimension
 13
26.13226030152919
 23
69.75795742960276
 33
0.0
 14
58.13226030152918
 24
69.75795742960277
 34
0.0
100
AcDbRotatedDimension
1001
ACAD
1000
DSTYLE
1002
{
1070
   289
1070
     1
1070
    73
1070
     0
1070
    74
1070
     0
1070
   271
1070
     2
1070
   272
1070
     2
1070
    48
1040
0.0
1070
    47
1040
0.0
1002
}
  0
DIMENSION
  5
62F
330
6C
100
AcDbEntity
  8
Dimension (ANSI)
100
AcDbDimension
280
     0
  2
*D5
 10
27.00726030152919
 20
74.51150656435476
 30
0.0
 11
21.80215408349905
 21
74.51150656435476
 31
0.0
 70
   160
  1
<>
 42
0.875
 73
     0
 74
     0
 75
     0
  3
Default (ANSI)
100
AcDbAlignedDimension
 13
26.13226030152919
 23
69.75795742960276
 33
0.0
 14
27.00726030152919
 24
70.574498690339
 34
0.0
100
AcDbRotatedDimension
1001
ACAD
1000
DSTYLE
1002
{
1070
   289
1070
     1
1070
    73
1070
     0
1070
    74
1070
     0
1070
   271
1070
     2
1070
   272
1070
     2
1070
    48
1040
0.0
1070
    47
1040
0.0
1002
}
  0
DIMENSION
  5
719
330
6C
100
AcDbEntity
  8
Dimension (ANSI)
100
AcDbDimension
280
     0
  2
*D6
 10
57.25726030152919
 20
74.51150656435475
 30
0.0
 11
42.13226030152918
 21
74.51150656435475
 31
0.0
 70
   160
  1
<>
 42
30.25
 73
     0
 74
     0
 75
     0
  3
Default (ANSI)
100
AcDbAlignedDimension
 13
27.00726030152919
 23
70.574498690339
 33
0.0
 14
57.25726030152919
 24
70.574498690339
 34
0.0
 50
180.0
100
AcDbRotatedDimension
1001
ACAD
1000
DSTYLE
1002
{
1070
   289
1070
     1
1070
    73
1070
     0
1070
    74
1070
     0
1070
   271
1070
     2
1070
   272
1070
     2
1070
    48
1040
0.0
1070
    47
1040
0.0
1002
}
  0
DIMENSION
  5
803
330
6C
100
AcDbEntity
  8
Dimension (ANSI)
100
AcDbDimension
280
     0
  2
*D7
 10
24.37604430264305
 20
30.90499869033899
 30
0.0
 11
21.53875242751343
 21
27.16002203151759
 31
0.0
 70
   160
  1
<>
 42
0.875
 73
     0
 74
     0
 75
     0
  3
Default (ANSI)
100
AcDbAlignedDimension
 13
26.29230156226544
 23
30.02999869033899
 33
0.0
 14
25.47576030152918
 24
30.90499869033899
 34
0.0
 50
90.0
100
AcDbRotatedDimension
1001
ACAD
1000
DSTYLE
1002
{
1070
   289
1070
     1
1070
   271
1070
     2
1070
   272
1070
     2
1070
    48
1040
0.0
1070
    47
1040
0.0
1002
}
  0
DIMENSION
  5
903
330
6C
100
AcDbEntity
  8
Dimension (ANSI)
100
AcDbDimension
280
     0
  2
*D8
 10
21.53875242751345
 20
69.04299869033899
 30
0.0
 11
21.53875242751344
 21
49.96999869033899
 31
0.0
 70
   160
  1
<>
 42
38.13799999999999
 73
     0
 74
     0
 75
     0
  3
Default (ANSI)
100
AcDbAlignedDimension
 13
25.47576030152918
 23
30.90499869033899
 33
0.0
 14
25.47576030152918
 24
69.04299869033899
 34
0.0
 50
90.0
100
AcDbRotatedDimension
1001
ACAD
1000
DSTYLE
1002
{
1070
   289
1070
     1
1070
   271
1070
     2
1070
   272
1070
     2
1070
    48
1040
0.0
1070
    47
1040
0.0
1002
}
  0
DIMENSION
  5
9ED
330
6C
100
AcDbEntity
  8
Dimension (ANSI)
100
AcDbDimension
280
     0
  2
*D9
 10
15.26867951502135
 20
69.91799869033899
 30
0.0
 11
15.26867951502134
 21
49.97399869033899
 31
0.0
 70
   160
  1
<>
 42
39.87999999999998
 73
     0
 74
     0
 75
     0
  3
Default (ANSI)
100
AcDbAlignedDimension
 13
26.29230156226544
 23
30.02999869033899
 33
0.0
 14
26.29230156226542
 24
69.91799869033899
 34
0.0
 50
90.0
100
AcDbRotatedDimension
1001
ACAD
1000
DSTYLE
1002
{
1070
   289
1070
     1
1070
   271
1070
     2
1070
   144
1040
0.9997994384275971
1070
   272
1070
     2
1070
    48
1040
0.0
1070
    47
1040
0.0
1002
}
  0
DIMENSION
  5
AE1
330
6C
100
AcDbEntity
  8
Dimension (ANSI)
100
AcDbDimension
280
     0
  2
*D10
 10
57.08525042471618
 20
31.12783237782536
 30
0.0
 11
63.78258217010739
 21
27.91767832019076
 31
0.0
 70
   163
  1
<>{\P(4 PL.)}
 71
     4
 42
0.5629999999999999
 73
     0
 74
     0
 75
     0
  3
Default (ANSI)
100
AcDbDiametricDimension
 15
57.42927017834219
 25
30.68216500285262
 35
0.0
 40
0.0
1001
ACAD
1000
DSTYLE
1002
{
1070
   144
1040
1.000000000000008
1070
   271
1070
     3
1070
   272
1070
     3
1070
    48
1040
0.0
1070
    47
1040
0.0
1002
}
1001
ACAD_DSTYLE_DIMRADIAL_EXTENSION
1070
   387
1070
     1
1070
   388
1040
0.0
1070
   390
1040
0.0
  0
DIMENSION
  5
B9B
330
6C
100
AcDbEntity
  8
Dimension (ANSI)
100
AcDbDimension
280
     0
  2
*D11
 10
51.2880305954771
 20
90.60703711481499
 30
0.0
 11
54.17246820756838
 21
95.70201379032098
 31
0.0
 70
   160
  1
<>{\PTYP.}
 71
     5
 42
0.8750000000000284
 73
     0
 74
     0
 75
     0
  3
Default (ANSI)
100
AcDbAlignedDimension
 13
54.17246820756838
 23
91.48203711481501
 33
0.0
 14
54.16813826210366
 24
90.60703711481499
 34
0.0
 50
270.0
100
AcDbRotatedDimension
1001
ACAD
1000
DSTYLE
1002
{
1070
   289
1070
     1
1070
   271
1070
     2
1070
    76
1070
     1
1070
    75
1070
     1
1070
   272
1070
     2
1070
    48
1040
0.0
1070
    47
1040
0.0
1002
}
  0
DIMENSION
  5
CA4
330
6C
100
AcDbEntity
  8
Dimension (ANSI)
100
AcDbDimension
280
     0
  2
*D12
 10
84.07065119766105
 20
67.89185246128923
 30
0.0
 11
89.36838303367215
 21
67.89185246128923
 31
0.0
 70
   160
  1
<>{\PTYP.}
 71
     4
 42
0.8750000000000284
 73
     0
 74
     0
 75
     0
  3
Default (ANSI)
100
AcDbAlignedDimension
 13
84.94565119766107
 23
67.89185246128923
 33
0.0
 14
84.07065119766105
 24
67.91139695415011
 34
0.0
 50
180.0
100
AcDbRotatedDimension
1001
ACAD
1000
DSTYLE
1002
{
1070
   289
1070
     1
1070
    73
1070
     0
1070
    74
1070
     0
1070
   271
1070
     2
1070
    76
1070
     1
1070
    75
1070
     1
1070
   272
1070
     2
1070
    48
1040
0.0
1070
    47
1040
0.0
1002
}
  0
MTEXT
  5
D93
102
{ACAD_XDICTIONARY
360
D9A
102
}
330
6C
100
AcDbEntity
  8
Symbol (ANSI)
100
AcDbMText
 10
91.19007614931716
 20
11.83943697183422
 30
0.0
 40
1.000000031914297
 41
73.83387107548752
 46
0.0
 71
     4
 72
     1
  3
{\fRomanS|b0|i0|c0|p2;\H2x;PART#: WA90P36F2G\P(DATA SUBJECT TO CHANGE WITHOUT NOTICE)\H1.6157x; \H0.61894x;\P \H1.352x; \H0.73963x;\P\H0.6x;THIS DRAWING IS PROPERTY OF HUBBELL INC. WIEGMANN\H1.5633x; \H0.63966x;\PALL INFORMATION IS PROPRIETARY AND NO
  1
T TO BE DUPLICATED\H1.234x; \H0.81039x;\P\H1.2571x; }
  7
Note Text (ANSI)
 73
     1
 44
0.8026435375213623
  0
ENDSEC
  0
SECTION
  2
OBJECTS
  0
DICTIONARY
  5
C
330
0
100
AcDbDictionary
281
     1
  3
ACAD_CIP_PREVIOUS_PRODUCT_INFO
350
D95
  3
ACAD_COLOR
350
63
  3
ACAD_GROUP
350
D
  3
ACAD_LAYOUT
350
62
  3
ACAD_MATERIAL
350
10
  3
ACAD_MLEADERSTYLE
350
66
  3
ACAD_MLINESTYLE
350
5F
  3
ACAD_PLOTSETTINGS
350
61
  3
ACAD_PLOTSTYLENAME
350
E
  3
ACAD_SCALELIST
350
42
  3
ACAD_TABLESTYLE
350
64
  3
ACAD_VISUALSTYLE
350
29
  3
ACDB_RECOMPOSE_DATA
350
D9C
  3
AcDbVariableDictionary
350
76
  0
DICTIONARY
  5
D9A
330
D93
100
AcDbDictionary
280
     1
281
     1
  3
ACAD_MTEXT_2008_RT
360
D9B
  0
XRECORD
  5
D95
102
{ACAD_REACTORS
330
C
102
}
330
C
100
AcDbXrecord
280
     1
300
INVNTOR
300
2012
300
PDSP_F_S
  0
DICTIONARY
  5
63
102
{ACAD_REACTORS
330
C
102
}
330
C
100
AcDbDictionary
281
     1
  0
DICTIONARY
  5
D
102
{ACAD_REACTORS
330
C
102
}
330
C
100
AcDbDictionary
281
     1
  0
DICTIONARY
  5
62
102
{ACAD_REACTORS
330
C
102
}
330
C
100
AcDbDictionary
281
     1
  3
Layout1
350
6B
  3
Layout2
350
73
  3
Model
350
6F
  0
DICTIONARY
  5
10
102
{ACAD_REACTORS
330
C
102
}
330
C
100
AcDbDictionary
281
     1
  3
ByBlock
350
19
  3
ByLayer
350
11
  3
Global
350
21
  0
DICTIONARY
  5
66
102
{ACAD_REACTORS
330
C
102
}
330
C
100
AcDbDictionary
281
     1
  3
Standard
350
67
  0
DICTIONARY
  5
5F
102
{ACAD_REACTORS
330
C
102
}
330
C
100
AcDbDictionary
281
     1
  3
Standard
350
60
  0
DICTIONARY
  5
61
102
{ACAD_REACTORS
330
C
102
}
330
C
100
AcDbDictionary
281
     1
  0
ACDBDICTIONARYWDFLT
  5
E
102
{ACAD_REACTORS
330
C
102
}
330
C
100
AcDbDictionary
281
     1
  3
Normal
350
F
100
AcDbDictionaryWithDefault
340
F
  0
DICTIONARY
  5
42
102
{ACAD_REACTORS
330
C
102
}
330
C
100
AcDbDictionary
281
     1
  3
A0
350
43
  3
A1
350
44
  3
A2
350
45
  3
A3
350
46
  3
A4
350
47
  3
A5
350
48
  3
A6
350
49
  3
A7
350
4A
  3
A8
350
4B
  3
A9
350
4C
  3
B0
350
4D
  3
B1
350
4E
  3
B2
350
4F
  3
B3
350
50
  3
B4
350
51
  3
B5
350
52
  3
B6
350
53
  0
DICTIONARY
  5
64
102
{ACAD_REACTORS
330
C
102
}
330
C
100
AcDbDictionary
281
     1
  3
Standard
350
65
  0
DICTIONARY
  5
29
102
{ACAD_REACTORS
330
C
102
}
330
C
100
AcDbDictionary
281
     1
  3
2dWireframe
350
2F
  3
Basic
350
2E
  3
Brighten
350
35
  3
ColorChange
350
39
  3
Conceptual
350
32
  3
Dim
350
34
  3
EdgeColorOff
350
41
  3
Facepattern
350
38
  3
Flat
350
2A
  3
FlatWithEdges
350
2B
  3
Gouraud
350
2C
  3
GouraudWithEdges
350
2D
  3
Hidden
350
31
  3
JitterOff
350
3F
  3
Linepattern
350
37
  3
OverhangOff
350
40
  3
Realistic
350
33
  3
Shaded
350
3E
  3
Shaded with edges
350
3D
  3
Shades of Gray
350
3A
  3
Sketchy
350
3B
  3
Thicken
350
36
  3
Wireframe
350
30
  3
X-Ray
350
3C
  0
XRECORD
  5
D9C
102
{ACAD_REACTORS
330
C
102
}
330
C
100
AcDbXrecord
280
     1
 90
        1
330
65
330
D93
  0
DICTIONARY
  5
76
102
{ACAD_REACTORS
330
C
102
}
330
C
100
AcDbDictionary
281
     1
  3
CANNOSCALE
350
79
  3
CMLEADERSTYLE
350
78
  3
CTABLESTYLE
350
77
  0
XRECORD
  5
D9B
102
{ACAD_REACTORS
330
D9A
102
}
330
D9A
100
AcDbXrecord
280
     1
 40
3109235.0
  1
\pxsm0.94;{\fRomanS|b0|i0;\H2.0000;PART#: WA90P36F2G\P(DATA SUBJECT TO CHANGE WITHOUT NOTICE)\P \P\fRomanS|b0|i0;\H1.2000;THIS DRAWING IS PROPERTY OF HUBBELL INC. WIEGMANN\PALL INFORMATION IS PROPRIETARY AND NOT TO BE DUPLICATED\P}
  0
LAYOUT
  5
6B
102
{ACAD_REACTORS
330
62
102
}
330
62
100
AcDbPlotSettings
  1

  2

  4

  6

 40
0.0
 41
0.0
 42
0.0
 43
0.0
 44
0.0
 45
0.0
 46
0.0
 47
0.0
 48
0.0
 49
0.0
140
0.0
141
0.0
142
1.0
143
1.0
 70
   688
 72
     0
 73
     0
 74
     5
  7

 75
    16
147
1.0
 76
     0
 77
     2
 78
   300
148
0.0
149
0.0
100
AcDbLayout
  1
Layout1
 70
     1
 71
     1
 10
0.0
 20
0.0
 11
12.0
 21
9.0
 12
0.0
 22
0.0
 32
0.0
 14
0.0
 24
0.0
 34
0.0
 15
0.0
 25
0.0
 35
0.0
146
0.0
 13
0.0
 23
0.0
 33
0.0
 16
1.0
 26
0.0
 36
0.0
 17
0.0
 27
1.0
 37
0.0
 76
     0
330
68
  0
LAYOUT
  5
73
102
{ACAD_REACTORS
330
62
102
}
330
62
100
AcDbPlotSettings
  1

  2

  4

  6

 40
0.0
 41
0.0
 42
0.0
 43
0.0
 44
0.0
 45
0.0
 46
0.0
 47
0.0
 48
0.0
 49
0.0
140
0.0
141
0.0
142
1.0
143
1.0
 70
   688
 72
     0
 73
     0
 74
     5
  7

 75
    16
147
1.0
 76
     0
 77
     2
 78
   300
148
0.0
149
0.0
100
AcDbLayout
  1
Layout2
 70
     1
 71
     2
 10
0.0
 20
0.0
 11
12.0
 21
9.0
 12
0.0
 22
0.0
 32
0.0
 14
0.0
 24
0.0
 34
0.0
 15
0.0
 25
0.0
 35
0.0
146
0.0
 13
0.0
 23
0.0
 33
0.0
 16
1.0
 26
0.0
 36
0.0
 17
0.0
 27
1.0
 37
0.0
 76
     0
330
70
  0
LAYOUT
  5
6F
102
{ACAD_REACTORS
330
62
102
}
330
62
100
AcDbPlotSettings
  1

  2

  4

  6

 40
0.0
 41
0.0
 42
0.0
 43
0.0
 44
0.0
 45
0.0
 46
0.0
 47
0.0
 48
0.0
 49
0.0
140
0.0
141
0.0
142
1.0
143
1.0
 70
  1712
 72
     0
 73
     0
 74
     0
  7

 75
     0
147
1.0
 76
     0
 77
     2
 78
   300
148
0.0
149
0.0
100
AcDbLayout
  1
Model
 70
     1
 71
     0
 10
0.0
 20
0.0
 11
12.0
 21
9.0
 12
0.0
 22
0.0
 32
0.0
 14
0.0
 24
0.0
 34
0.0
 15
0.0
 25
0.0
 35
0.0
146
0.0
 13
0.0
 23
0.0
 33
0.0
 16
1.0
 26
0.0
 36
0.0
 17
0.0
 27
1.0
 37
0.0
 76
     0
330
6C
  0
MATERIAL
  5
19
102
{ACAD_XDICTIONARY
360
1A
102
}
102
{ACAD_REACTORS
330
10
102
}
330
10
100
AcDbMaterial
  1
ByBlock
 72
     0
 43
0.0208333333333333
 43
0.0
 43
0.0
 43
0.0
 43
0.0
 43
0.0208333333333333
 43
0.0
 43
0.0
 43
0.0
 43
0.0
 43
1.0
 43
0.0
 43
0.0
 43
0.0
 43
0.0
 43
1.0
 77
     0
 47
0.0208333333333333
 47
0.0
 47
0.0
 47
0.0
 47
0.0
 47
0.0208333333333333
 47
0.0
 47
0.0
 47
0.0
 47
0.0
 47
1.0
 47
0.0
 47
0.0
 47
0.0
 47
0.0
 47
1.0
171
     0
 49
0.0208333333333333
 49
0.0
 49
0.0
 49
0.0
 49
0.0
 49
0.0208333333333333
 49
0.0
 49
0.0
 49
0.0
 49
0.0
 49
1.0
 49
0.0
 49
0.0
 49
0.0
 49
0.0
 49
1.0
175
     0
142
0.0208333333333333
142
0.0
142
0.0
142
0.0
142
0.0
142
0.0208333333333333
142
0.0
142
0.0
142
0.0
142
0.0
142
1.0
142
0.0
142
0.0
142
0.0
142
0.0
142
1.0
179
     0
144
0.0208333333333333
144
0.0
144
0.0
144
0.0
144
0.0
144
0.0208333333333333
144
0.0
144
0.0
144
0.0
144
0.0
144
1.0
144
0.0
144
0.0
144
0.0
144
0.0
144
1.0
147
0.0208333333333333
147
0.0
147
0.0
147
0.0
147
0.0
147
0.0208333333333333
147
0.0
147
0.0
147
0.0
147
0.0
147
1.0
147
0.0
147
0.0
147
0.0
147
0.0
147
1.0
  0
MATERIAL
  5
11
102
{ACAD_XDICTIONARY
360
12
102
}
102
{ACAD_REACTORS
330
10
102
}
330
10
100
AcDbMaterial
  1
ByLayer
 72
     0
 43
0.0208333333333333
 43
0.0
 43
0.0
 43
0.0
 43
0.0
 43
0.0208333333333333
 43
0.0
 43
0.0
 43
0.0
 43
0.0
 43
1.0
 43
0.0
 43
0.0
 43
0.0
 43
0.0
 43
1.0
 77
     0
 47
0.0208333333333333
 47
0.0
 47
0.0
 47
0.0
 47
0.0
 47
0.0208333333333333
 47
0.0
 47
0.0
 47
0.0
 47
0.0
 47
1.0
 47
0.0
 47
0.0
 47
0.0
 47
0.0
 47
1.0
171
     0
 49
0.0208333333333333
 49
0.0
 49
0.0
 49
0.0
 49
0.0
 49
0.0208333333333333
 49
0.0
 49
0.0
 49
0.0
 49
0.0
 49
1.0
 49
0.0
 49
0.0
 49
0.0
 49
0.0
 49
1.0
175
     0
142
0.0208333333333333
142
0.0
142
0.0
142
0.0
142
0.0
142
0.0208333333333333
142
0.0
142
0.0
142
0.0
142
0.0
142
1.0
142
0.0
142
0.0
142
0.0
142
0.0
142
1.0
179
     0
144
0.0208333333333333
144
0.0
144
0.0
144
0.0
144
0.0
144
0.0208333333333333
144
0.0
144
0.0
144
0.0
144
0.0
144
1.0
144
0.0
144
0.0
144
0.0
144
0.0
144
1.0
147
0.0208333333333333
147
0.0
147
0.0
147
0.0
147
0.0
147
0.0208333333333333
147
0.0
147
0.0
147
0.0
147
0.0
147
1.0
147
0.0
147
0.0
147
0.0
147
0.0
147
1.0
  0
MATERIAL
  5
21
102
{ACAD_XDICTIONARY
360
22
102
}
102
{ACAD_REACTORS
330
10
102
}
330
10
100
AcDbMaterial
  1
Global
 72
     0
 43
0.0208333333333333
 43
0.0
 43
0.0
 43
0.0
 43
0.0
 43
0.0208333333333333
 43
0.0
 43
0.0
 43
0.0
 43
0.0
 43
1.0
 43
0.0
 43
0.0
 43
0.0
 43
0.0
 43
1.0
 77
     0
 47
0.0208333333333333
 47
0.0
 47
0.0
 47
0.0
 47
0.0
 47
0.0208333333333333
 47
0.0
 47
0.0
 47
0.0
 47
0.0
 47
1.0
 47
0.0
 47
0.0
 47
0.0
 47
0.0
 47
1.0
171
     0
 49
0.0208333333333333
 49
0.0
 49
0.0
 49
0.0
 49
0.0
 49
0.0208333333333333
 49
0.0
 49
0.0
 49
0.0
 49
0.0
 49
1.0
 49
0.0
 49
0.0
 49
0.0
 49
0.0
 49
1.0
175
     0
142
0.0208333333333333
142
0.0
142
0.0
142
0.0
142
0.0
142
0.0208333333333333
142
0.0
142
0.0
142
0.0
142
0.0
142
1.0
142
0.0
142
0.0
142
0.0
142
0.0
142
1.0
179
     0
144
0.0208333333333333
144
0.0
144
0.0
144
0.0
144
0.0
144
0.0208333333333333
144
0.0
144
0.0
144
0.0
144
0.0
144
1.0
144
0.0
144
0.0
144
0.0
144
0.0
144
1.0
147
0.0208333333333333
147
0.0
147
0.0
147
0.0
147
0.0
147
0.0208333333333333
147
0.0
147
0.0
147
0.0
147
0.0
147
1.0
147
0.0
147
0.0
147
0.0
147
0.0
147
1.0
  0
MLEADERSTYLE
  5
67
102
{ACAD_XDICTIONARY
360
D98
102
}
102
{ACAD_REACTORS
330
66
102
}
330
66
100
AcDbMLeaderStyle
179
     2
170
     2
171
     1
172
     0
 90
        2
 40
0.0
 41
0.0
173
     1
 91
-1056964608
340
5B
 92
       -2
290
     1
 42
0.09
291
     1
 43
0.36
  3
Standard
 44
0.18
300

342
55
174
     1
178
     6
175
     1
176
     0
 93
-1056964608
 45
0.18
292
     0
297
     0
 46
0.18
 94
-1056964608
 47
1.0
 49
1.0
140
1.0
293
     1
141
0.0
294
     1
177
     0
142
1.0
295
     0
296
     0
143
0.125
271
     0
272
     9
273
     9
  0
MLINESTYLE
  5
60
102
{ACAD_REACTORS
330
5F
102
}
330
5F
100
AcDbMlineStyle
  2
STANDARD
 70
     0
  3

 62
   256
 51
90.0
 52
90.0
 71
     2
 49
0.5
 62
   256
  6
BYLAYER
 49
-0.5
 62
   256
  6
BYLAYER
  0
ACDBPLACEHOLDER
  5
F
102
{ACAD_REACTORS
330
E
102
}
330
E
  0
SCALE
  5
43
102
{ACAD_REACTORS
330
42
102
}
330
42
100
AcDbScale
 70
     0
300
1:1
140
1.0
141
1.0
290
     1
  0
SCALE
  5
44
102
{ACAD_REACTORS
330
42
102
}
330
42
100
AcDbScale
 70
     0
300
1/128" = 1'-0"
140
0.0078125
141
12.0
290
     0
  0
SCALE
  5
45
102
{ACAD_REACTORS
330
42
102
}
330
42
100
AcDbScale
 70
     0
300
1/64" = 1'-0"
140
0.015625
141
12.0
290
     0
  0
SCALE
  5
46
102
{ACAD_REACTORS
330
42
102
}
330
42
100
AcDbScale
 70
     0
300
1/32" = 1'-0"
140
0.03125
141
12.0
290
     0
  0
SCALE
  5
47
102
{ACAD_REACTORS
330
42
102
}
330
42
100
AcDbScale
 70
     0
300
1/16" = 1'-0"
140
0.0625
141
12.0
290
     0
  0
SCALE
  5
48
102
{ACAD_REACTORS
330
42
102
}
330
42
100
AcDbScale
 70
     0
300
3/32" = 1'-0"
140
0.09375
141
12.0
290
     0
  0
SCALE
  5
49
102
{ACAD_REACTORS
330
42
102
}
330
42
100
AcDbScale
 70
     0
300
1/8" = 1'-0"
140
0.125
141
12.0
290
     0
  0
SCALE
  5
4A
102
{ACAD_REACTORS
330
42
102
}
330
42
100
AcDbScale
 70
     0
300
3/16" = 1'-0"
140
0.1875
141
12.0
290
     0
  0
SCALE
  5
4B
102
{ACAD_REACTORS
330
42
102
}
330
42
100
AcDbScale
 70
     0
300
1/4" = 1'-0"
140
0.25
141
12.0
290
     0
  0
SCALE
  5
4C
102
{ACAD_REACTORS
330
42
102
}
330
42
100
AcDbScale
 70
     0
300
3/8" = 1'-0"
140
0.375
141
12.0
290
     0
  0
SCALE
  5
4D
102
{ACAD_REACTORS
330
42
102
}
330
42
100
AcDbScale
 70
     0
300
1/2" = 1'-0"
140
0.5
141
12.0
290
     0
  0
SCALE
  5
4E
102
{ACAD_REACTORS
330
42
102
}
330
42
100
AcDbScale
 70
     0
300
3/4" = 1'-0"
140
0.75
141
12.0
290
     0
  0
SCALE
  5
4F
102
{ACAD_REACTORS
330
42
102
}
330
42
100
AcDbScale
 70
     0
300
1" = 1'-0"
140
1.0
141
12.0
290
     0
  0
SCALE
  5
50
102
{ACAD_REACTORS
330
42
102
}
330
42
100
AcDbScale
 70
     0
300
1-1/2" = 1'-0"
140
1.5
141
12.0
290
     0
  0
SCALE
  5
51
102
{ACAD_REACTORS
330
42
102
}
330
42
100
AcDbScale
 70
     0
300
3" = 1'-0"
140
3.0
141
12.0
290
     0
  0
SCALE
  5
52
102
{ACAD_REACTORS
330
42
102
}
330
42
100
AcDbScale
 70
     0
300
6" = 1'-0"
140
6.0
141
12.0
290
     0
  0
SCALE
  5
53
102
{ACAD_REACTORS
330
42
102
}
330
42
100
AcDbScale
 70
     0
300
1'-0" = 1'-0"
140
12.0
141
12.0
290
     0
  0
TABLESTYLE
  5
65
102
{ACAD_XDICTIONARY
360
D96
102
}
102
{ACAD_REACTORS
330
64
102
}
330
64
100
AcDbTableStyle
280
     0
  3
Standard
 70
     0
 71
     0
 40
0.06
 41
0.06
280
     0
281
     0
  7
Standard
140
0.18
170
     2
 62
     0
 63
     7
283
     0
 90
      512
 91
        0
  1

274
    -2
284
     1
 64
     0
275
    -2
285
     1
 65
     0
276
    -2
286
     1
 66
     0
277
    -2
287
     1
 67
     0
278
    -2
288
     1
 68
     0
279
    -2
289
     1
 69
     0
  7
Standard
140
0.25
170
     5
 62
     0
 63
     7
283
     0
 90
      512
 91
        0
  1

274
    -2
284
     1
 64
     0
275
    -2
285
     1
 65
     0
276
    -2
286
     1
 66
     0
277
    -2
287
     1
 67
     0
278
    -2
288
     1
 68
     0
279
    -2
289
     1
 69
     0
  7
Standard
140
0.18
170
     5
 62
     0
 63
     7
283
     0
 90
      512
 91
        0
  1

274
    -2
284
     1
 64
     0
275
    -2
285
     1
 65
     0
276
    -2
286
     1
 66
     0
277
    -2
287
     1
 67
     0
278
    -2
288
     1
 68
     0
279
    -2
289
     1
 69
     0
  0
VISUALSTYLE
  5
2F
102
{ACAD_REACTORS
330
29
102
}
330
29
100
AcDbVisualStyle
  2
2dWireframe
 70
     4
177
     2
291
     0
 71
     0
176
     1
 72
     2
176
     1
 73
     0
176
     1
 90
        0
176
     1
 40
0.6
176
     1
 41
30.0
176
     1
 63
     7
421
 16777215
176
     1
 74
     1
176
     1
 91
        4
176
     1
 64
     7
176
     1
 65
   257
176
     1
 75
     1
176
     1
175
     1
176
     1
 42
1.0
176
     1
 92
        0
176
     1
 66
   257
176
     1
 43
1.0
176
     1
 76
     1
176
     1
 77
     6
176
     1
 78
     2
176
     1
 67
     7
176
     1
 79
     5
176
     1
170
     0
176
     1
171
     0
176
     1
290
     0
176
     1
 93
        1
176
     1
 44
0.0
176
     1
173
     0
176
     1
  0
VISUALSTYLE
  5
2E
102
{ACAD_REACTORS
330
29
102
}
330
29
100
AcDbVisualStyle
  2
Basic
 70
     7
177
     2
291
     1
 71
     1
176
     1
 72
     0
176
     1
 73
     1
176
     1
 90
        0
176
     1
 40
0.6
176
     1
 41
30.0
176
     1
 63
     7
421
 16777215
176
     1
 74
     0
176
     1
 91
        4
176
     1
 64
     7
176
     1
 65
   257
176
     1
 75
     1
176
     1
175
     1
176
     1
 42
1.0
176
     1
 92
        8
176
     1
 66
     7
176
     1
 43
1.0
176
     1
 76
     1
176
     1
 77
     6
176
     1
 78
     2
176
     1
 67
     7
176
     1
 79
     5
176
     1
170
     0
176
     1
171
     0
176
     1
290
     0
176
     1
 93
        1
176
     1
 44
0.0
176
     1
173
     0
176
     1
  0
VISUALSTYLE
  5
35
102
{ACAD_REACTORS
330
29
102
}
330
29
100
AcDbVisualStyle
  2
Brighten
 70
    12
177
     2
291
     1
 71
     2
176
     1
 72
     2
176
     1
 73
     0
176
     1
 90
        0
176
     1
 40
0.6
176
     1
 41
30.0
176
     1
 63
     7
421
 16777215
176
     1
 74
     1
176
     1
 91
        4
176
     1
 64
     7
176
     1
 65
   257
176
     1
 75
     1
176
     1
175
     1
176
     1
 42
1.0
176
     1
 92
        8
176
     1
 66
     7
176
     1
 43
1.0
176
     1
 76
     1
176
     1
 77
     6
176
     1
 78
     2
176
     1
 67
     7
176
     1
 79
     5
176
     1
170
     0
176
     1
171
     0
176
     1
290
     0
176
     1
 93
        1
176
     1
 44
50.0
176
     1
173
     0
176
     1
  0
VISUALSTYLE
  5
39
102
{ACAD_REACTORS
330
29
102
}
330
29
100
AcDbVisualStyle
  2
ColorChange
 70
    16
177
     2
291
     1
 71
     2
176
     1
 72
     2
176
     1
 73
     3
176
     1
 90
        0
176
     1
 40
0.6
176
     1
 41
30.0
176
     1
 63
     8
421
  8421504
176
     1
 74
     1
176
     1
 91
        4
176
     1
 64
     7
176
     1
 65
   257
176
     1
 75
     1
176
     1
175
     1
176
     1
 42
1.0
176
     1
 92
        8
176
     1
 66
     8
424
  8421504
176
     1
 43
1.0
176
     1
 76
     1
176
     1
 77
     6
176
     1
 78
     2
176
     1
 67
     7
176
     1
 79
     5
176
     1
170
     0
176
     1
171
     0
176
     1
290
     0
176
     1
 93
        1
176
     1
 44
0.0
176
     1
173
     0
176
     1
  0
VISUALSTYLE
  5
32
102
{ACAD_REACTORS
330
29
102
}
330
29
100
AcDbVisualStyle
  2
Conceptual
 70
     9
177
     2
291
     0
 71
     3
176
     1
 72
     2
176
     1
 73
     0
176
     1
 90
        0
176
     1
 40
0.6
176
     1
 41
30.0
176
     1
 63
     7
421
 16777215
176
     1
 74
     2
176
     1
 91
        2
176
     1
 64
     7
176
     1
 65
   257
176
     1
 75
     1
176
     1
175
     1
176
     1
 42
179.0
176
     1
 92
        8
176
     1
 66
     7
176
     1
 43
1.0
176
     1
 76
     1
176
     1
 77
     6
176
     1
 78
     2
176
     1
 67
     7
176
     1
 79
     3
176
     1
170
     0
176
     1
171
     0
176
     1
290
     0
176
     1
 93
        1
176
     1
 44
0.0
176
     1
173
     0
176
     1
  0
VISUALSTYLE
  5
34
102
{ACAD_REACTORS
330
29
102
}
330
29
100
AcDbVisualStyle
  2
Dim
 70
    11
177
     2
291
     1
 71
     2
176
     1
 72
     2
176
     1
 73
     0
176
     1
 90
        0
176
     1
 40
0.6
176
     1
 41
30.0
176
     1
 63
     7
421
 16777215
176
     1
 74
     1
176
     1
 91
        4
176
     1
 64
     7
176
     1
 65
   257
176
     1
 75
     1
176
     1
175
     1
176
     1
 42
1.0
176
     1
 92
        8
176
     1
 66
     7
176
     1
 43
1.0
176
     1
 76
     1
176
     1
 77
     6
176
     1
 78
     2
176
     1
 67
     7
176
     1
 79
     5
176
     1
170
     0
176
     1
171
     0
176
     1
290
     0
176
     1
 93
        1
176
     1
 44
-50.0
176
     1
173
     0
176
     1
  0
VISUALSTYLE
  5
41
102
{ACAD_REACTORS
330
29
102
}
330
29
100
AcDbVisualStyle
  2
EdgeColorOff
 70
    22
177
     2
291
     1
 71
     2
176
     0
 72
     2
176
     0
 73
     0
176
     0
 90
        0
176
     0
 40
0.6
176
     0
 41
30.0
176
     0
 63
     7
421
 16777215
176
     0
 74
     1
176
     0
 91
        4
176
     0
 64
     7
176
     0
 65
   257
176
     0
 75
     1
176
     0
175
     1
176
     0
 42
1.0
176
     0
 92
        8
176
     2
 66
     7
176
     0
 43
1.0
176
     0
 76
     1
176
     0
 77
     6
176
     0
 78
     2
176
     0
 67
     7
176
     0
 79
     5
176
     0
170
     0
176
     0
171
     0
176
     0
290
     0
176
     0
 93
        1
176
     0
 44
0.0
176
     0
173
     0
176
     0
  0
VISUALSTYLE
  5
38
102
{ACAD_REACTORS
330
29
102
}
330
29
100
AcDbVisualStyle
  2
Facepattern
 70
    15
177
     2
291
     1
 71
     2
176
     1
 72
     2
176
     1
 73
     0
176
     1
 90
        0
176
     1
 40
0.6
176
     1
 41
30.0
176
     1
 63
     7
421
 16777215
176
     1
 74
     1
176
     1
 91
        4
176
     1
 64
     7
176
     1
 65
   257
176
     1
 75
     1
176
     1
175
     1
176
     1
 42
1.0
176
     1
 92
        8
176
     1
 66
     7
176
     1
 43
1.0
176
     1
 76
     1
176
     1
 77
     6
176
     1
 78
     2
176
     1
 67
     7
176
     1
 79
     5
176
     1
170
     0
176
     1
171
     0
176
     1
290
     0
176
     1
 93
        1
176
     1
 44
0.0
176
     1
173
     0
176
     1
  0
VISUALSTYLE
  5
2A
102
{ACAD_REACTORS
330
29
102
}
330
29
100
AcDbVisualStyle
  2
Flat
 70
     0
177
     2
291
     1
 71
     2
176
     1
 72
     1
176
     1
 73
     1
176
     1
 90
        2
176
     1
 40
0.6
176
     1
 41
30.0
176
     1
 63
     7
421
 16777215
176
     1
 74
     0
176
     1
 91
        0
176
     1
 64
     7
176
     1
 65
   257
176
     1
 75
     1
176
     1
175
     1
176
     1
 42
1.0
176
     1
 92
        8
176
     1
 66
     7
176
     1
 43
1.0
176
     1
 76
     1
176
     1
 77
     6
176
     1
 78
     2
176
     1
 67
     7
176
     1
 79
     5
176
     1
170
     0
176
     1
171
     0
176
     1
290
     0
176
     1
 93
       13
176
     1
 44
0.0
176
     1
173
     0
176
     1
  0
VISUALSTYLE
  5
2B
102
{ACAD_REACTORS
330
29
102
}
330
29
100
AcDbVisualStyle
  2
FlatWithEdges
 70
     1
177
     2
291
     1
 71
     2
176
     1
 72
     1
176
     1
 73
     1
176
     1
 90
        2
176
     1
 40
0.6
176
     1
 41
30.0
176
     1
 63
     7
421
 16777215
176
     1
 74
     1
176
     1
 91
        0
176
     1
 64
     7
176
     1
 65
   257
176
     1
 75
     1
176
     1
175
     1
176
     1
 42
1.0
176
     1
 92
        0
176
     1
 66
   257
176
     1
 43
1.0
176
     1
 76
     1
176
     1
 77
     6
176
     1
 78
     2
176
     1
 67
     7
176
     1
 79
     5
176
     1
170
     0
176
     1
171
     0
176
     1
290
     0
176
     1
 93
       13
176
     1
 44
0.0
176
     1
173
     0
176
     1
  0
VISUALSTYLE
  5
2C
102
{ACAD_REACTORS
330
29
102
}
330
29
100
AcDbVisualStyle
  2
Gouraud
 70
     2
177
     2
291
     1
 71
     2
176
     1
 72
     2
176
     1
 73
     1
176
     1
 90
        2
176
     1
 40
0.6
176
     1
 41
30.0
176
     1
 63
     7
421
 16777215
176
     1
 74
     0
176
     1
 91
        0
176
     1
 64
     7
176
     1
 65
   257
176
     1
 75
     1
176
     1
175
     1
176
     1
 42
1.0
176
     1
 92
        0
176
     1
 66
     7
176
     1
 43
1.0
176
     1
 76
     1
176
     1
 77
     6
176
     1
 78
     2
176
     1
 67
     7
176
     1
 79
     5
176
     1
170
     0
176
     1
171
     0
176
     1
290
     0
176
     1
 93
       13
176
     1
 44
0.0
176
     1
173
     0
176
     1
  0
VISUALSTYLE
  5
2D
102
{ACAD_REACTORS
330
29
102
}
330
29
100
AcDbVisualStyle
  2
GouraudWithEdges
 70
     3
177
     2
291
     1
 71
     2
176
     1
 72
     2
176
     1
 73
     1
176
     1
 90
        2
176
     1
 40
0.6
176
     1
 41
30.0
176
     1
 63
     7
421
 16777215
176
     1
 74
     1
176
     1
 91
        0
176
     1
 64
     7
176
     1
 65
   257
176
     1
 75
     1
176
     1
175
     1
176
     1
 42
1.0
176
     1
 92
        0
176
     1
 66
   257
176
     1
 43
1.0
176
     1
 76
     1
176
     1
 77
     6
176
     1
 78
     2
176
     1
 67
     7
176
     1
 79
     5
176
     1
170
     0
176
     1
171
     0
176
     1
290
     0
176
     1
 93
       13
176
     1
 44
0.0
176
     1
173
     0
176
     1
  0
VISUALSTYLE
  5
31
102
{ACAD_REACTORS
330
29
102
}
330
29
100
AcDbVisualStyle
  2
Hidden
 70
     6
177
     2
291
     0
 71
     1
176
     1
 72
     2
176
     1
 73
     2
176
     1
 90
        0
176
     1
 40
0.6
176
     1
 41
30.0
176
     1
 63
     7
421
 16777215
176
     1
 74
     2
176
     1
 91
        2
176
     1
 64
     7
176
     1
 65
   257
176
     1
 75
     2
176
     1
175
     1
176
     1
 42
40.0
176
     1
 92
        0
176
     1
 66
   257
176
     1
 43
1.0
176
     1
 76
     1
176
     1
 77
     6
176
     1
 78
     2
176
     1
 67
     7
176
     1
 79
     3
176
     1
170
     0
176
     1
171
     0
176
     1
290
     0
176
     1
 93
        1
176
     1
 44
0.0
176
     1
173
     0
176
     1
  0
VISUALSTYLE
  5
3F
102
{ACAD_REACTORS
330
29
102
}
330
29
100
AcDbVisualStyle
  2
JitterOff
 70
    20
177
     2
291
     1
 71
     2
176
     0
 72
     2
176
     0
 73
     0
176
     0
 90
        0
176
     0
 40
0.6
176
     0
 41
30.0
176
     0
 63
     7
421
 16777215
176
     0
 74
     1
176
     0
 91
        4
176
     0
 64
     7
176
     0
 65
   257
176
     0
 75
     1
176
     0
175
     1
176
     0
 42
1.0
176
     0
 92
       10
176
     2
 66
     7
176
     0
 43
1.0
176
     0
 76
     1
176
     0
 77
     6
176
     0
 78
     2
176
     0
 67
     7
176
     0
 79
     5
176
     0
170
     0
176
     0
171
     0
176
     0
290
     0
176
     0
 93
        1
176
     0
 44
0.0
176
     0
173
     0
176
     0
  0
VISUALSTYLE
  5
37
102
{ACAD_REACTORS
330
29
102
}
330
29
100
AcDbVisualStyle
  2
Linepattern
 70
    14
177
     2
291
     1
 71
     2
176
     1
 72
     2
176
     1
 73
     0
176
     1
 90
        0
176
     1
 40
0.6
176
     1
 41
30.0
176
     1
 63
     7
421
 16777215
176
     1
 74
     1
176
     1
 91
        4
176
     1
 64
     7
176
     1
 65
   257
176
     1
 75
     7
176
     1
175
     7
176
     1
 42
1.0
176
     1
 92
        8
176
     1
 66
     7
176
     1
 43
1.0
176
     1
 76
     1
176
     1
 77
     6
176
     1
 78
     2
176
     1
 67
     7
176
     1
 79
     5
176
     1
170
     0
176
     1
171
     0
176
     1
290
     0
176
     1
 93
        1
176
     1
 44
0.0
176
     1
173
     0
176
     1
  0
VISUALSTYLE
  5
40
102
{ACAD_REACTORS
330
29
102
}
330
29
100
AcDbVisualStyle
  2
OverhangOff
 70
    21
177
     2
291
     1
 71
     2
176
     0
 72
     2
176
     0
 73
     0
176
     0
 90
        0
176
     0
 40
0.6
176
     0
 41
30.0
176
     0
 63
     7
421
 16777215
176
     0
 74
     1
176
     0
 91
        4
176
     0
 64
     7
176
     0
 65
   257
176
     0
 75
     1
176
     0
175
     1
176
     0
 42
1.0
176
     0
 92
        9
176
     2
 66
     7
176
     0
 43
1.0
176
     0
 76
     1
176
     0
 77
     6
176
     0
 78
     2
176
     0
 67
     7
176
     0
 79
     5
176
     0
170
     0
176
     0
171
     0
176
     0
290
     0
176
     0
 93
        1
176
     0
 44
0.0
176
     0
173
     0
176
     0
  0
VISUALSTYLE
  5
33
102
{ACAD_REACTORS
330
29
102
}
330
29
100
AcDbVisualStyle
  2
Realistic
 70
     8
177
     2
291
     0
 71
     2
176
     1
 72
     3
176
     1
 73
     0
176
     1
 90
        2
176
     1
 40
0.6
176
     1
 41
30.0
176
     1
 63
     7
421
 16777215
176
     1
 74
     0
176
     1
 91
        0
176
     1
 64
     7
176
     1
 65
   257
176
     1
 75
     1
176
     1
175
     1
176
     1
 42
1.0
176
     1
 92
        8
176
     1
 66
   257
176
     1
 43
1.0
176
     1
 76
     1
176
     1
 77
     6
176
     1
 78
     2
176
     1
 67
     7
176
     1
 79
     3
176
     1
170
     0
176
     1
171
     0
176
     1
290
     0
176
     1
 93
       13
176
     1
 44
0.0
176
     1
173
     0
176
     1
  0
VISUALSTYLE
  5
3E
102
{ACAD_REACTORS
330
29
102
}
330
29
100
AcDbVisualStyle
  2
Shaded
 70
    27
177
     2
291
     0
 71
     2
176
     1
 72
     2
176
     1
 73
     1
176
     1
 90
        2
176
     1
 40
0.6
176
     1
 41
30.0
176
     1
 63
     7
421
 16777215
176
     1
 74
     0
176
     1
 91
        4
176
     1
 64
     7
176
     1
 65
   257
176
     1
 75
     1
176
     1
175
     1
176
     1
 42
1.0
176
     1
 92
        8
176
     1
 66
   257
176
     1
 43
1.0
176
     1
 76
     1
176
     1
 77
     6
176
     1
 78
     2
176
     1
 67
     8
425
  7895160
176
     1
 79
     3
176
     1
170
     0
176
     1
171
     0
176
     1
290
     0
176
     1
 93
        5
176
     1
 44
0.0
176
     1
173
     0
176
     1
  0
VISUALSTYLE
  5
3D
102
{ACAD_REACTORS
330
29
102
}
330
29
100
AcDbVisualStyle
  2
Shaded with edges
 70
    26
177
     2
291
     0
 71
     2
176
     1
 72
     2
176
     1
 73
     1
176
     1
 90
        2
176
     1
 40
0.6
176
     1
 41
30.0
176
     1
 63
     7
421
 16777215
176
     1
 74
     1
176
     1
 91
       10
176
     1
 64
     7
176
     1
 65
   257
176
     1
 75
     2
176
     1
175
     1
176
     1
 42
1.0
176
     1
 92
        8
176
     1
 66
   257
176
     1
 43
1.0
176
     1
 76
     1
176
     1
 77
     6
176
     1
 78
     2
176
     1
 67
     7
176
     1
 79
     3
176
     1
170
     0
176
     1
171
     0
176
     1
290
     0
176
     1
 93
        5
176
     1
 44
0.0
176
     1
173
     0
176
     1
  0
VISUALSTYLE
  5
3A
102
{ACAD_REACTORS
330
29
102
}
330
29
100
AcDbVisualStyle
  2
Shades of Gray
 70
    23
177
     2
291
     0
 71
     2
176
     1
 72
     2
176
     1
 73
     3
176
     1
 90
        0
176
     1
 40
0.6
176
     1
 41
30.0
176
     1
 63
     7
421
 16777215
176
     1
 74
     2
176
     1
 91
        2
176
     1
 64
     7
176
     1
 65
     7
176
     1
 75
     1
176
     1
175
     1
176
     1
 42
40.0
176
     1
 92
        8
176
     1
 66
     7
176
     1
 43
1.0
176
     1
 76
     1
176
     1
 77
     6
176
     1
 78
     2
176
     1
 67
     7
176
     1
 79
     3
176
     1
170
     0
176
     1
171
     0
176
     1
290
     0
176
     1
 93
        1
176
     1
 44
0.0
176
     1
173
     0
176
     1
  0
VISUALSTYLE
  5
3B
102
{ACAD_REACTORS
330
29
102
}
330
29
100
AcDbVisualStyle
  2
Sketchy
 70
    24
177
     2
291
     0
 71
     1
176
     1
 72
     2
176
     1
 73
     2
176
     1
 90
        0
176
     1
 40
0.6
176
     1
 41
30.0
176
     1
 63
     7
421
 16777215
176
     1
 74
     2
176
     1
 91
        2
176
     1
 64
     7
176
     1
 65
     7
176
     1
 75
     1
176
     1
175
     1
176
     1
 42
40.0
176
     1
 92
       11
176
     1
 66
     7
176
     1
 43
1.0
176
     1
 76
     1
176
     1
 77
     6
176
     1
 78
     2
176
     1
 67
     7
176
     1
 79
     6
176
     1
170
     0
176
     1
171
     0
176
     1
290
     0
176
     1
 93
        1
176
     1
 44
0.0
176
     1
173
     0
176
     1
  0
VISUALSTYLE
  5
36
102
{ACAD_REACTORS
330
29
102
}
330
29
100
AcDbVisualStyle
  2
Thicken
 70
    13
177
     2
291
     1
 71
     2
176
     1
 72
     2
176
     1
 73
     0
176
     1
 90
        0
176
     1
 40
0.6
176
     1
 41
30.0
176
     1
 63
     7
421
 16777215
176
     1
 74
     1
176
     1
 91
        4
176
     1
 64
     7
176
     1
 65
   257
176
     1
 75
     1
176
     1
175
     1
176
     1
 42
1.0
176
     1
 92
       12
176
     1
 66
     7
176
     1
 43
1.0
176
     1
 76
     1
176
     1
 77
     6
176
     1
 78
     2
176
     1
 67
     7
176
     1
 79
     5
176
     1
170
     0
176
     1
171
     0
176
     1
290
     0
176
     1
 93
        1
176
     1
 44
0.0
176
     1
173
     0
176
     1
  0
VISUALSTYLE
  5
30
102
{ACAD_REACTORS
330
29
102
}
330
29
100
AcDbVisualStyle
  2
Wireframe
 70
     5
177
     2
291
     0
 71
     0
176
     1
 72
     2
176
     1
 73
     0
176
     1
 90
        0
176
     1
 40
0.6
176
     1
 41
30.0
176
     1
 63
     7
421
 16777215
176
     1
 74
     1
176
     1
 91
        4
176
     1
 64
     7
176
     1
 65
   257
176
     1
 75
     1
176
     1
175
     1
176
     1
 42
1.0
176
     1
 92
        0
176
     1
 66
   257
176
     1
 43
1.0
176
     1
 76
     1
176
     1
 77
     6
176
     1
 78
     2
176
     1
 67
     7
176
     1
 79
     3
176
     1
170
     0
176
     1
171
     0
176
     1
290
     0
176
     1
 93
        1
176
     1
 44
0.0
176
     1
173
     0
176
     1
  0
VISUALSTYLE
  5
3C
102
{ACAD_REACTORS
330
29
102
}
330
29
100
AcDbVisualStyle
  2
X-Ray
 70
    25
177
     2
291
     0
 71
     2
176
     1
 72
     2
176
     1
 73
     1
176
     1
 90
        1
176
     1
 40
0.5
176
     1
 41
30.0
176
     1
 63
     7
421
 16777215
176
     1
 74
     1
176
     1
 91
        0
176
     1
 64
     7
176
     1
 65
   257
176
     1
 75
     1
176
     1
175
     1
176
     1
 42
1.0
176
     1
 92
        8
176
     1
 66
     7
176
     1
 43
1.0
176
     1
 76
     1
176
     1
 77
     6
176
     1
 78
     2
176
     1
 67
     7
176
     1
 79
     3
176
     1
170
     0
176
     1
171
     0
176
     1
290
     0
176
     1
 93
       13
176
     1
 44
0.0
176
     1
173
     0
176
     1
  0
DICTIONARYVAR
  5
79
102
{ACAD_REACTORS
330
76
102
}
330
76
100
DictionaryVariables
280
     0
  1
1:1
  0
DICTIONARYVAR
  5
78
102
{ACAD_REACTORS
330
76
102
}
330
76
100
DictionaryVariables
280
     0
  1
STANDARD
  0
DICTIONARYVAR
  5
77
102
{ACAD_REACTORS
330
76
102
}
330
76
100
DictionaryVariables
280
     0
  1
STANDARD
  0
DICTIONARY
  5
1A
330
19
100
AcDbDictionary
280
     1
281
     1
  3
BUMPTILE
360
1C
  3
DIFFUSETILE
360
1B
  3
OPACITYTILE
360
1F
  3
REFLECTIONTILE
360
1E
  3
REFRACTIONTILE
360
20
  3
SPECULARTILE
360
1D
  0
DICTIONARY
  5
12
330
11
100
AcDbDictionary
280
     1
281
     1
  3
BUMPTILE
360
14
  3
DIFFUSETILE
360
13
  3
FBXASSET
360
109
  3
OPACITYTILE
360
17
  3
REFLECTIONTILE
360
16
  3
REFRACTIONTILE
360
18
  3
SPECULARTILE
360
15
  0
DICTIONARY
  5
22
330
21
100
AcDbDictionary
280
     1
281
     1
  3
BUMPTILE
360
24
  3
DIFFUSETILE
360
23
  3
FBXASSET
360
BA
  3
OPACITYTILE
360
27
  3
REFLECTIONTILE
360
26
  3
REFRACTIONTILE
360
28
  3
SPECULARTILE
360
25
  0
DICTIONARY
  5
D98
330
67
100
AcDbDictionary
280
     1
281
     1
  3
ACAD_XREC_ROUNDTRIP
360
D99
  0
DICTIONARY
  5
D96
330
65
100
AcDbDictionary
280
     1
281
     1
  3
ACAD_ROUNDTRIP_2008_TABLESTYLE_CELLSTYLEMAP
360
D97
  0
XRECORD
  5
1C
102
{ACAD_REACTORS
330
1A
102
}
330
1A
100
AcDbXrecord
280
     1
270
     1
271
     1
  0
XRECORD
  5
1B
102
{ACAD_REACTORS
330
1A
102
}
330
1A
100
AcDbXrecord
280
     1
270
     1
271
     1
  0
XRECORD
  5
1F
102
{ACAD_REACTORS
330
1A
102
}
330
1A
100
AcDbXrecord
280
     1
270
     1
271
     1
  0
XRECORD
  5
1E
102
{ACAD_REACTORS
330
1A
102
}
330
1A
100
AcDbXrecord
280
     1
270
     1
271
     1
  0
XRECORD
  5
20
102
{ACAD_REACTORS
330
1A
102
}
330
1A
100
AcDbXrecord
280
     1
270
     1
271
     1
  0
XRECORD
  5
1D
102
{ACAD_REACTORS
330
1A
102
}
330
1A
100
AcDbXrecord
280
     1
270
     1
271
     1
  0
XRECORD
  5
14
102
{ACAD_REACTORS
330
12
102
}
330
12
100
AcDbXrecord
280
     1
270
     1
271
     1
  0
XRECORD
  5
13
102
{ACAD_REACTORS
330
12
102
}
330
12
100
AcDbXrecord
280
     1
270
     1
271
     1
  0
XRECORD
  5
109
102
{ACAD_REACTORS
330
12
102
}
330
12
100
AcDbXrecord
280
     1
 70
     1
 90
1959938040
 71
     1
  1
2A897CB0-D62F-4CE5-8C86-C5CCDF14561C
311
504B03040A0000080000E89AD5423DEE336E79000000790000001B0000006175746F6465736B2D64657369676E2D7061636B6167652E786D6C3C3F786D6C2076657273696F6E3D22312E302220656E636F64696E673D227574662D3822203F3E3C666F726D6174733E3C666F726D61743E687474703A2F2F736368656D612E
311
6175746F6465736B2E636F6D2F64657369676E2D7061636B6167652F323030393C2F666F726D61743E3C2F666F726D6174733E504B0304140006080800E89AD542D486FD9CA0000000F4000000130000005B436F6E74656E745F54797065735D2E786D6C7D8EC10E82300C865F65E91D8A1E8C310C0EEA1BF002731658846E
311
D98AC1B77784ABF1D8FE5FBFBF75BBCE937A534CCEB38643598122B6FEE978D0B0485F9C41B54DDD7D022595594E1A469170414C76A4D9A4D207E29CF43ECE46F218070CC6BECC4078ACAA135ACF422C856C0E68EA1BF5669944DDD7BCDE7B1F8E415D77AECB980613C2E4AC91FC167A2B244592486606FC29C8FD7F045B9A
311
EF7053A7E60B504B0304140006080800E89AD54273172653EA0000007C01000008000000636F72652E786D6C8D90416EC3201045AF82665B6103761BDBC2446A129FA01740401C94182C03558E5F9C3852BBEB6A467FFE9B197DBEBF4F37F46D9660BDEB8116049071CA6BEBC61E523CE306D05EF0C5FBF8CB06C8C9C9F4B0
311
CA20F8B8F8346F92F22E1A17B3EABC369B2843301190BAE5A687A02E6692854C313BC2B598A5BACAD114F4D5653825ABD1F388D5799F3D5BB38068C940293D123CB0BAC135639FB83D1D191E0ECD89EC08ADDB86F17285058F767ADD578B91D168108CD00A930FCCE8176D3B567574F746DEBB8AF072B5FF81D2ACFF0925EB
311
62C5B6779F580041F3238F81E0E59A452E8FA0725D73133F504B0304140006080800E89AD54255019EA25F0000007C00000007000000636E782E786D6C4DCB3B0E80201045D1AD90E915ED2CF8AC45050C11660C8261F98AB1B07AC9C97D42D718D865D3E909258CFD00CCE24AC6E326A164D74DC0B4128928FF326038472B
311
A13128B1252AC747C6BAB984FC68F0B87FE8960A5C09FE86CFB69FBA01504B0304140006080800E89AD5426B0A2CDE67010000020300000C0000006662782F636F72652E786D6C8D52ED8E8230107C95A67F2FA51F7827985A933BF509EE052A548F082D292DF1F16F110CE7C51843529A999DDDD901B9B93435EA8DEF2A67
311
D798270C23630B5756F6B4C6311C4986D14649EF5CF8538691D58D59E301C64A9EBC8BED0415CE066303A0D695660275D799805151C3658DBBE2C7343AD1314045774E5A5D9CF5C9243C011AEA94EC820703681C329C581D0F1749475CC918AB7262AB12A655C7CA78AC72B6E79C6F19D98B454616427C927CB71564FF95ED
311
D892F1459E094907B192A16A6EEE0A6F7430255682F194B00F22F837CF57225DF1E51B7B5FA54CD2A1FC4E14DBF24551AC6C48C5647794755871307225FE6D0B1105D4E91EFC5025E91022BCAE09DF070D8140C8411FEADB1E67807A5304E717C0942ECE54AFEB68602A43D747D29185CED706B0D9C33EE2499FE73DE0036A
311
7B026B3AC0F510C3305D8E53A7285AE3491F2EC83ADFE87A36375A9CCF79D04379E16AE75F51D369553A854987BF57FD02504B0304140006080800E89AD5422E5954D47E0000009D0000000B0000006662782F636E782E786D6C4DCCDF0A83201C86E15B91DFB9EB0FDA12D498D9EE239685643A9C8E5DFE6A74B0A30F1E3E
311
5EDE7D3687DE26BE6CF002AA4B09C8F84798AC5F04E434E3165027790C21FDDD00F97133020E06C99718F2F3A4C9CC6376695767FD7A62D5504AEE378507D5D498948C62D60E3DAE879E68A6B4AEAE1A0AC98B5F69DF232CBF504B0304140006080800E89AD542D857DE782D01000014020000310000006662782F31363535
311
344641422D454236322D343039352D393845432D3245433444394244443137442F636F72652E786D6C8D515B6EC32010BC0AE2AB55651BFC8A1D61A2264E4FD00B1020294A0C168F2AC72FD48ED4FEE58745B333B3A35DB2BB4F37F02DAD53460F10E70802A9B9114A5F0618FC39EB20D851628DF17F68106836C901261852
311
72B126CC2BC48DF652FB886A23E40A32E7A48780DFE267808E7FC989E52CF8C870D77C66FCCA2E32C7796C471E25CEDB18002C43D20B296E9BA6FE78DF67C77D5B6635EA9BACEF8E87AC3C1EEAB1DF8F23DE8CA458849484A0C42A5722C6516725EDB326494C8957D3233EB7927929202D11AE32D46625FEC4FDB6ACB678F3
311
869A6D854891E8FF4461164F8A82D2BE2AD7B88BCCC5ACA4581A9408134EB74718799F8DF520CD7B7192BF428A728471D7D5D586140B352E207AB6F5EAE9BCB171C12FD75364E366316E6B4A8A74A3587E0F186BBA27FD01504B0304140006080800E89AD542644DD76B4F01000033030000300000006662782F3136353534
311
4641422D454236322D343039352D393845432D3245433444394244443137442F636E782E786D6CD593CD6EC32010845F0571ADFC439CA66D8489D4439FA0875E316C121A0C16E0AA79FB2E094973C9A1C75E90353BCCAC3E61BEF91E2DF982108D773D65754B0938E5B571BB9ECE695B3D53B2113C789F6E6C943839424FB3
311
4C05DF053F4F45D2B095B34DA85AE30E450C10FD1C144494F34D62BD921603C055338A300EA035687235E2D71602AE82E27024690FE4EDF583F8E113548ABCC9298237B943F07C96A61B1325CACA187B1AD51E4659CB39790DF1506B9964CDEA4BD79D9D7E9348BE70A99C8321B9BCA7F9A4A26C542347DEE050F09802D22B
311
A6749C800A394DD62899107273329E3D82CFC6A5D5B2780D820FE866AB6EB9C4B0D34CF06446280E154026D0542C5AD655EDAA5AB077F6B25E746BF6F4D03EAEBB9637D92EF8E0BD2D973006829F88F22E814B5430DEE4F13D7CC547B409C8DA87E31F402280D27AA673CDF8CF7C9AD3FB465C01FF02F103504B0304140006
311
080800E89AD542D97310F5A605000081100000340000006662782F31363535344641422D454236322D343039352D393845432D3245433444394244443137442F6F626A656374732E786D6CAD57DB6EDB3810FD1541FBB2FB20DBB29DD459282A12B9298C366D51A3C53E1830288952B8A12E20A9C4D9AFDF43899225D74EBD
311
8BBEE8C2CB70E6CC990BBDB7BB8C5B4F544856E4D7B63B9AD816CDA32266797A6D572A7116B6F5D6F74451A8DE32DBCA4946AF6D3D6CFB5E2A8AAA3443314D48C5D5C1E8DDED5F968C684E6D2BE244CA6B5B460F34232352A922A6F2711413454669B21BB9A366E1506C2A48F97020B42482E60A9A623C8714AB51CA1DFE4E
311
ECB1EF8DF5BCEFE9A759353BBD6A5CDB333C9FE552913CFAE1B003313377BE7C37BDB8722EE6F39933BF9CBACEEDDDEDD271DFCC26C165105CDDBCBBC2C1520948329A089AD8FE7B602358E48D9B29DFAB58AE6653B3C438682CE813D39EB2FDA9E57AE3664D679D31F298FA5191E734AAB1021AB57D46744C4B9AC7F039A3
311
129AF5109A0C7F5D8D636F7AA6FFCD91FDE1F310E8EFE8096A756FDF7D4D8BF06F9820CF6190905433B0C1D218DA7075B247382C0A6EE698B432A2A860845B9C85828817DBC752BDC4F706623493858E066D81EDC30BCDF4902E08A39FF3FC989649C5B9A6B1EDD751B045AC50256BCDD83F54ECB5EF23039DE02BCD868531
311
48BD94D4F6AF1A8A2C0ED8D40069259CA47039CCD43B67D30343031DA7ABA5ED7FB80B776B1DBBC70F2F455152A1347D40ADD671ED5BA3647472CFF29CDE601FA8B207E52B90FF8450DFAB02BF09B69BEFE6E61425482E934264F08D35B19C091E13CBAD9FFABBF7E58DBBCD43EF9DC213CED650FD023C8736F47DD983D3F7
311
9E40F842CC8C69EB8870A48D7B9603204D128B1718421E4EC29DEDAF90E59095B18B70DF85C950F7099FDED88841A2A84FEABD7360799016CF48D080AD6624D468C86F14DCFBE98774561F6C969D82F7E297D0F566B9FEB0AE4442227A6F627A491396338512B7E74D5FA101E6038B1EE9CB73216218FA23DEEB3EDE99394A
311
026D8DB9063E6D73BAFED99F3C3820C2BEB4D0E9C6FBC909304217D69EFC7B2623CA39C96951B5E7BE5A3F50361A8875B06B267705665F58409A66E6200651A423C14A0D6257ADBAA4393A61DDB7D52730D2F66F5F3E92977EF60AF7B9372A7821B6E1CBB6494B47A1FE3EE4B6C160ACA580EE7590B4F16F40DFC62C492A89
311
247804D7EFABA0EF3B9D1690225AA94DB4CC613F828B0843DA562EAAB520A8A445BE65A89B88BBA307F4E50352C3805AE0298D25E5C996715E65DB847154A36D46CA1370FC7FFDC32A2BB7242BAA5C9D903D501DD561A8FB80BDF299A8E8C1F6D7F5DBB945EE8D697C820CBA961CC16AE0DAE9CDE2EA4D703B719697D33B67
311
1EBCBB7016C1E2D2092E826079E7CE2F2E5D986E34AA9B28DF6B4B4D3FA2E1259436AF12CCB8EFDB0AF1639280EDDF132537EF9BF06CDFDF5623F4C2DE187B502FBB8D37F113FA3E1AFF5CC07EE55141ABACE434A3B9223A86EEF507FF4AD0670C9469C6571949E919523EBF5F1F18839133F67DD1F14E9F0FF69AD14007E4
311
5121EAA1CAC29C307EB0316D901C95796AF06B7DD2BD9B42D3FEEA3FE31874A6B2E02C461E8CAD94161955C886671421915109EAF57BFAD8DC3DCED8FDD474888A849CB69A3C1034C95C222C40F22A52C371EB373475BAAFBAB6516E478F78984C615BE0CCB58D265DB188CA518802AD5BA15A38B8D4EFE4C15992A71CBD76
311
B3A9FBEF76696C0625B95B724EFF64EC6A52B8310069A444DF808608DEA995F1BD5A37331FFD27C35B752CA2F01956AAB3653FD019531F83106D8C32B70534318FE6E81D02F575B3DC51BD6680C859B7AC5749D048751411697D53D0FA19956E965FC6E850ACD567ABE4550A5F9E2FC9111464AE74808345608591591205AA
311
067F6EBE880237D9CCBA63A080F5FB6E71F9C72628B2ACC89BA1CD8DB90F5BEB07DC6EE30D9203D5D712B9994EDCE9A6BE0E981BCA3624928E482C1F3100CF0AD6013D703F78D9DC1951879A896EDD58BBE280A1ABA5650ADB1C420D5DFAB9558383C623A71662485F2975C4F41794AFDE08C6F552A820D0CBFBFF02504B03
311
04140006080000E89AD542000000000000000000000000350000006662782F31363535344641422D454236322D343039352D393845432D3245433444394244443137442F76657274696365732E62696E504B0304140006080800E89AD542F270F1330600000004000000360000006662782F31363535344641422D45423632
311
2D343039352D393845432D3245433444394244443137442F747269616E676C65732E62696E636660600000504B0304140006080000E89AD542000000000000000000000000370000006662782F31363535344641422D454236322D343039352D393845432D3245433444394244443137442F617474726962757465732E6269
311
6E504B0304140006080800E89AD542D5987DFC8F00000041010000360000006662782F31363535344641422D454236322D343039352D393845432D3245433444394244443137442F6469726563746F72792E786D6C858F410EC2201045AF4266AF15DDB800BA74E7C21B903225242D6328188F2FA5C4183471359997F9FF81
311
E89FF3C41E1816475E02DF1F80A11FC8386F25A438EECEC07A250251FC3803E6F58C12560C4AD840E95E91C151A72936F496F35732D860FE635F62C8F2DA16B505C545B74125BAA2FA9E05D7CC053D063734D5C7665FD55B6B8D15D5E9BFEAFD8490FFA45E504B0304140006080800E89AD542A9900A66FD000000A0010000
311
3B0000006662782F31363535344641422D454236322D343039352D393845432D3245433444394244443137442F7265736F75726365732F636F72652E786D6C8D504B6E833010BD0A9A6D65B00D6D0019476A1A4ED00B586642AD041BF953F5F8350995DA5D3733A3F7D13C3D71FC5A6EC527FA609C1D8095140AB4DA4DC6CE
311
03A478212D144729BC73F1970C0AAB161C6083418AD9BBB4EE907636A28D19B56EC21D5421608442DFF23140D01FB8A852A59815E15AAE4A5FD58C252B339D755284E87380E2F1649B203D0697BCC620AA072B454A66DA3566CA3FCDC5A007D9D19131761AC9C89B96349CBF92EEFCC6C9786ACFF44059D3B55C549B598A68
311
969F8CDAA38A3881E494D584BE10CEDE59D7F3BA678727FADCD754549BFC8F29ADD33F4DC9D858F33DEEC31640B21CE44E48516D7DE5752F33EFAD5BF90D504B010214000A0000080000E89AD5423DEE336E79000000790000001B00000000000000000000000000000000006175746F6465736B2D64657369676E2D706163
311
6B6167652E786D6C504B01021400140006080800E89AD542D486FD9CA0000000F40000001300000000000000000000000000B20000005B436F6E74656E745F54797065735D2E786D6C504B01021400140006080800E89AD54273172653EA0000007C010000080000000000000000000000000083010000636F72652E786D6C
311
504B01021400140006080800E89AD54255019EA25F0000007C000000070000000000000000000000000093020000636E782E786D6C504B01021400140006080800E89AD5426B0A2CDE67010000020300000C00000000000000000000000000170300006662782F636F72652E786D6C504B01021400140006080800E89AD542
311
2E5954D47E0000009D0000000B00000000000000000000000000A80400006662782F636E782E786D6C504B01021400140006080800E89AD542D857DE782D0100001402000031000000000000000000000000004F0500006662782F31363535344641422D454236322D343039352D393845432D324543344439424444313744
311
2F636F72652E786D6C504B01021400140006080800E89AD542644DD76B4F010000330300003000000000000000000000000000CB0600006662782F31363535344641422D454236322D343039352D393845432D3245433444394244443137442F636E782E786D6C504B01021400140006080800E89AD542D97310F5A6050000
311
811000003400000000000000000000000000680800006662782F31363535344641422D454236322D343039352D393845432D3245433444394244443137442F6F626A656374732E786D6C504B01021400140006080000E89AD5420000000000000000000000003500000000000000000000000000600E00006662782F313635
311
35344641422D454236322D343039352D393845432D3245433444394244443137442F76657274696365732E62696E504B01021400140006080800E89AD542F270F13306000000040000003600000000000000000000000000B30E00006662782F31363535344641422D454236322D343039352D393845432D32454334443942
311
44443137442F747269616E676C65732E62696E504B01021400140006080000E89AD54200000000000000000000000037000000000000000000000000000D0F00006662782F31363535344641422D454236322D343039352D393845432D3245433444394244443137442F617474726962757465732E62696E504B0102140014
311
0006080800E89AD542D5987DFC8F000000410100003600000000000000000000000000620F00006662782F31363535344641422D454236322D343039352D393845432D3245433444394244443137442F6469726563746F72792E786D6C504B01021400140006080800E89AD542A9900A66FD000000A00100003B0000000000
311
0000000000000000451000006662782F31363535344641422D454236322D343039352D393845432D3245433444394244443137442F7265736F75726365732F636F72652E786D6C504B0506000000000E000E00800400009B1100000000
310
504B03040A0000080000E89AD5423DEE336E79000000790000001B0000006175746F6465736B2D64657369676E2D7061636B6167652E786D6C3C3F786D6C2076657273696F6E3D22312E302220656E636F64696E673D227574662D3822203F3E3C666F726D6174733E3C666F726D61743E687474703A2F2F736368656D612E
310
6175746F6465736B2E636F6D2F64657369676E2D7061636B6167652F323030393C2F666F726D61743E3C2F666F726D6174733E504B0304140006080800E89AD542D486FD9CA0000000F4000000130000005B436F6E74656E745F54797065735D2E786D6C7D8EC10E82300C865F65E91D8A1E8C310C0EEA1BF002731658846E
310
D98AC1B77784ABF1D8FE5FBFBF75BBCE937A534CCEB38643598122B6FEE978D0B0485F9C41B54DDD7D022595594E1A469170414C76A4D9A4D207E29CF43ECE46F218070CC6BECC4078ACAA135ACF422C856C0E68EA1BF5669944DDD7BCDE7B1F8E415D77AECB980613C2E4AC91FC167A2B244592486606FC29C8FD7F045B9A
310
EF7053A7E60B504B0304140006080800E89AD5429AC611D9EC0000007C01000008000000636F72652E786D6C8D90416E83301045AF62CDB63260431B40C611A1E504BD80653BC44AB011B6AB1EBF262152BBEB6A467FFE9B197D76FC9E6FE84BAFDE38DB01C90A40DA4AA78C9D3A88E18C6B4047CE56E7C22F1B202B66DDC1
310
260367D3EAE2B24BD2D9A06D48AA754AEFA2F05E0740F2969A0EBCBCE859642286E4F0D76C11F22A269D916797E0188D428F2346A57DE66CF40AFCA3AF6B32BE0FB869EA1A570DEDF169AC4EB8A2876A18C6435FF50DCB3798B360E6E77DB96A11B4024E0B52E2E20D53F2499A96962D39BC14AF6D59B07CB3FF81E2A2FE09
310
45634349F7771F98074ED223F70167F996452AF7A052DD72E33F504B0304140006080800E89AD54255019EA25F0000007C00000007000000636E782E786D6C4DCB3B0E80201045D1AD90E915ED2CF8AC45050C11660C8261F98AB1B07AC9C97D42D718D865D3E909258CFD00CCE24AC6E326A164D74DC0B4128928FF326038
310
472BA13128B1252AC747C6BAB984FC68F0B87FE8960A5C09FE86CFB69FBA01504B0304140006080800E89AD54282E16B8669010000020300000C0000006662782F636F72652E786D6C8D525B6E833010BC8AE5DF0A8C8136101947246D4ED00B38E05014B091B1518EDFE511D154511421196B6667777680EDAE6D830669FA
310
5AAB0C533FC048AA4297B5AA32ECECD94B30DA7166B4B67FCA3052A295191E61CC5965B4EB16A8D0CA4A650155BA940B28FA5E5A8C8A062E19EE8B1FD90A5F380B15FDC5EF44711195F4A90F34D471D65B0306D03C643C313F9FAE8CCC3867CED5E5C2D6254CABCFB534987FE549428F9F072F4D93C48BD330F7F6C778EFC5
310
E1263E1C8E9B3CCE5346463167B66E6FEE0A23859525E66140232FF8F042FA4DD36D186DE9E62D78DF46012363F99DC875E58B22572B1B858BDD59D6634EC1C844FCDB1622B2A81703F8219C913144784D09DF070D8140C8569C9ADB1E17800659586D62604AED566A108D93303540D3C3C8CC42E7A9016CF6B04FF8A4CFF3
310
1EF00185AAC09AB0703D393B4E67F3D4258A4E1A6FB057A4B46945B39A9B2DAEE73AE8A1BCD08D36AFA8C9B22A59C224E3DFCB7F01504B0304140006080800E89AD5421C31C5197E0000009D0000000B0000006662782F636E782E786D6C4DCCD10E82201886E15B61FF39698A861BE022F03E5CA263213482D6E5A7CD838E
310
BEEDD9B797F59FD5A1B7892F1B3C87F3A90464FC3D4CD62F1C729A3105D40B1643487F37407E5C0D879D41B02586FC3C6832F3985DDAD459FF3890AA41915A137CA14A6352CB0A5F6547F14D375D4B9A560E55098560C5AFB4ED1E165F504B0304140006080800E89AD542009D1BA62D01000014020000310000006662782F
310
38444644343345342D373844452D343342322D414239382D4345353936343536424632302F636F72652E786D6C8D515B6EC32010BC8AC557AA0A1B8CEDD811266A9AE404BD8003244189C1E251E5F885DA91DABFFCB068766676B44BB78FF19E7D4BEB94D13DC0390299D4DC08A52F3D08FE0C5B906D19B5C6F83F3490E961
310
943D483060F4624D9816881BEDA5F611D546C8051C9C931E64FC1E3F3D70FC2AC7211F828F0C77CBA781DF868BCC711EDB91C7A8F33606C8E621E905ACDD1FF715395470DDEE0FB022BB127EECBA167E1EEAAEA9EA66772C112D6621A32128B1C8958871D45949FBAA491233EAD5F88CCFAD1CBC1480950813881A58E22FDC
310
6D4AB2C1EB77546F489C9CE8FF4461122F8A82D29E944BDC59E600C3B4981B8C0A134EF76718F9988CF5599AB77292BF0186728471D7B46D4D8B991A17103D9B6AF174DED8B8E0D5ED14D964316E2A468B74A3587E0F186BBA27FB01504B0304140006080800E89AD54202EA187C5701000033030000300000006662782F38
310
444644343345342D373844452D343342322D414239382D4345353936343536424632302F636E782E786D6CBD93CD6EC32010845F0571ADFC839DA6698489D4439FA0875E316C121A1B2CC055F3F65D1292E69243A5AA1764CD0E33AB4F986FBEC6817C820FC6D98EB2B2A604AC72DAD85D47E7B82D56946C04F7CEC51B1B25
310
568ED0D12453C177DECD5396346CE53C445407630F59F410DCEC150494D34D323825070C005BCC28C2D883D6A0C9D5885F5BF0B80A8AFD91C43D90D79777E2FA0F5031F02AA5085EA50EC1D3999B6E4C94A84186D0D1A0F630CA52CED169088752CB284B565EBAEEECF49344D2854BE5EC0D49E51D4D271579A31239F20A87
310
8287E8915E36C5E30454C8691A8C9211215727E3D923F86C6C5C2EB2D720788FEEB659AE5618769A091ECD08D9A13CC8089A8AA6666D512F8B86BDB1E775D3AED9D343FDB86E6B5E25BBE0BD7343BE8431E0DD4494B3116CA482F12A8DEFE1CB3EA28D47D6CE1F7F011201E4D6339D6BC65FF261CB76B1F8473ED5E97D232E
310
8F7F81F806504B0304140006080800E89AD5428E967D66630700009A1B0000340000006662782F38444644343345342D373844452D343342322D414239382D4345353936343536424632302F6F626A656374732E786D6CED595B73A33614FE2B0C7D691F8C8D2F69D22174127BB3E3D9A6DDA9BB9D3E78869141266A846024
310
918DFBEB7B74010331096ED3B73ED880908ECEF9CE5587E0C7E78C3A4F980B92B36BD7F726AE83599C2784A5D76E29F7A34BD7F9310C789ECBC634D76128C3D7AE1A76C320E57959D8A104EF51496567F4EEF60F47C49861D7892912E2DA15F103CE90874A9927583C7A0992C84BF7CF9EEF99896DB22947C5438768813866
310
1238857106541CC394DF7E9CB8E33018ABF761A0FEEDACD9A059F3FE59632D759B4BC284442C7EC15287CC6C104B337FBEFA305D5C8D16F3F96C34BF98FAA3DBBBDBD5C8FF7E36595E2C9757371FAE80BD5D9E532B53820BCC12D0DFC10DFD60ACDED4A25B044E711DE78CE15803095069B1BA040916B05503BE49FBD15712
310
355E6B091BCF73F5DEB2D0189EB5A9F4CD1A06448B2E0862B7AB24AEAE4DF9F2DD9F20B81862945C6009DC0AC941BB161E0E5EE18693606C46C36077D405114E8624E6045187921D471C940253D59430300B2C19E51C1C48394A02AD39F3BA6D5BE0996FBBCE292EF725A5CA33DC503B5604EE87A5D09C91BF303F72DF4406
310
7802694BC2E4A5E5521E0AEC8657C1580F8681BACCA6F6A501D2D953940A8D8879DB1174A95C7FBD72C34F77BBE78D0A07A7372F785E602E95D1293D6ABEC090ED55A164B7F507694E2D00610CA876E511945F01F99F217A1C5901BD71F23C7F9EDBB9922326F639CF4037CEC4194DE06FE2F8FA5FDD37EE8271BDB8ADBD3E
310
3CC14D155497FF1ECFB60C1A2BCB7F03CE30780283CFF9CCBEDAC488823DDF130600292371680E4310DAF7BB67375C43E084400FAB100D7D1019D87D82DB606CC91CB552B997F53A0688DA3D66439404B0698B04367AF4F411B20727F1514D4D11FBE05DBC8BB9DEAC369F3625DFA318DF5B9F5EE13D614442D63CCD500BF3
310
96448FF8F035E70908FA12EF4D13EFCC6E25006D85B9023EAD40500FC79D5B1BC4B02ECD55B809DED8018450B9BA41FF9E8818538A18CECB6ADF3ABA2943AD3DDED60C6E383510CFA61D13E6F889A8AA029CE638A3C528E4FD98934281E8861F8D6475D0F47AA4FBB2FE192CB29EDF336BCD20F432447FD341EB040E2DCBAE
310
90B640D402EF8EE13CCE69CEA3DD213291CE855A02D8687BCBEF2DA210EB8D921415F020ED775548498DB45142F6FB52405C3DC1E2EFEB65D31C26DECC5F38CDFF8E33CE21DA82EF226EFDAEB347443294E2688F92BEED9ABBD5B48526D9439AE33D05B9C813918708C96892E0F41C68CE227EF5AED4539A0B41181690AF4E
310
82DF4463E2412031DAAC58565AED004D44946189E8390828323DE0EAB4A36BDC184A87B779ACADF7358D3589FE4716C111D492398B0894A29043DE64DCF7161043DAE81A943BF882B555B4B518B48412223E445F31491FE439A81BF23DB8C77024296594172806B31E40F685AF28A57678DFA1F851E58F282EE97B1988C074
310
1F114ACB2C821F6170F218E2DA75607A1585067113FB24CEA02843B2E44336B9584C5EEC636A866E086C6CB42714C27694A1A207F55640D4F58853836FA9F7287557664584B2BC64830CC59B75BDC992EFAA55911DC8AF2A15A16CAC085B82614098ACB36A15B3C1D475600537D281EA10099415D49CC2DE483C7EED4D9A72
310
EF06DCFAE9FB6E9041E1D7A3BD66449D5730581E5B8581F88A64FCE0861B7D1DDD42FD9DE0E498EAAB5AB3590102622A92979C58157D594379636B3437BC47526C3F9AAC5B5DBFAC3DE87E04635803B54BBD70AD80CE3093485526F7EA86FE8A2004B76898F1B5CAA9E750B949125D35227A47FAD4D92A235A9B66C42B1E30
310
CB33F8B12D61312D13BC4589788CEE258D3644B16EA5F4325261FCAA80BF7CDC74E0819101227D56051EFEDA596B4797AA5C3A49443E94D98E210241B0255A6A74E3152CB51AA9B45C5FD59902EA2E3030ABE2F9FF278B663BE2FF93456A0DE35F9D2C6E0F3FA143B32FD248E7B1B2EBB38E01757E5254DEE318A0DB0E35D5
310
3A8B98646EE5B7CE144150ACA2FCE06AAC0A1A86601FC7FF386BF76541B35D87FFF3B2B6FFA2E2382BABB426AB2ED589CA75DDCC61D39BCBABEF97B793D1EA627A379A2F3F2C4697CBCB8BD172B15CAEEEFCF9E2C25FD6686A470D833A98E9DC05CF26A855C3EAC962005D59915392C0693E71520C315FC2997E40FB9C6758
310
40F26C36BB13DB941FB0FAC9F43925DA515C71F280A0414C05A475C0A88C657BDCF9065A93120EDAD72E348DBC47F8B356E93A9079AE5D6815481263E1EDA0CDA41A7A9A38A45C9DFB2D31C007B154A544B3A87EAE57296C5AE1BF9E32240D58B95A3D0C28DC0AE87EB53A149A37CB537C96E0153B0E9270BB2B25546B4696
310
E3402D8CDEE6A87E231B25ECD16EFD0CAEFBBA58BEA7E7B41019F4C9E0552330544712F154F7BB156396A59BD5E731F4D99CF52F4E41CB1474399CD2886330E6521554604560159666812498EAF287ED679EC3279ECCD15591F3EDF3E5C577DB659E65393343DB1B389525F0A1C8D93CC0679F640BC50356CD75B19D4EFCE9
310
5637B56D9F3DDA21813D5515C140554C28413A260776F9A24165DB9763A58ACEF4F5CAB141149A01C68E5EF478CD472E077C487D4E511EA3FDBC92F6D5BEF6584F059BE0D0910EFF06504B0304140006080000E89AD542000000000000000000000000350000006662782F38444644343345342D373844452D343342322D41
310
4239382D4345353936343536424632302F76657274696365732E62696E504B0304140006080800E89AD542F270F1330600000004000000360000006662782F38444644343345342D373844452D343342322D414239382D4345353936343536424632302F747269616E676C65732E62696E636660600000504B030414000608
310
0000E89AD542000000000000000000000000370000006662782F38444644343345342D373844452D343342322D414239382D4345353936343536424632302F617474726962757465732E62696E504B0304140006080800E89AD542D5987DFC8F00000041010000360000006662782F38444644343345342D373844452D3433
310
42322D414239382D4345353936343536424632302F6469726563746F72792E786D6C858F410EC2201045AF4266AF15DDB800BA74E7C21B903225242D6328188F2FA5C4183471359997F9FF81E89FF3C41E1816475E02DF1F80A11FC8386F25A438EECEC07A250251FC3803E6F58C12560C4AD840E95E91C151A72936F496F3
310
5732D860FE635F62C8F2DA16B505C545B74125BAA2FA9E05D7CC053D063734D5C7665FD55B6B8D15D5E9BFEAFD8490FFA45E504B0304140006080800E89AD542896D3F41FE000000A00100003B0000006662782F38444644343345342D373844452D343342322D414239382D4345353936343536424632302F7265736F7572
310
6365732F636F72652E786D6C8D504B6E833010BD0A9A6D65C0401B40C611A4E504BD806526D44AB0913F558F5F13A8D4EEBA9919BD8FE6E9B1F3D7724F3ED13A65740734CD21412DCDA4F4DC41F057524372E6CC1AE37FC920D162C10E3618389BAD09EB0149A33D6A1F516D263C40E11C7A48E43D1E1D38F9818B4845F051
310
E16EE92AE44DCC98D234D251C799F3360648F627DB046ED19960253A96ED2C6721A8E9D0A829FE54578516F85B5FD7747C1D48D3D435A99AA227C3580DA42A4ED5E5329EFAAA6F58B69939F36AF9C9282D0A8F13F022A725C95F4841DF69D316654B4F4FF9735BE62CDBE47F4C619DFE690A4AFBB238E2EE36079CC6200F82
310
B36CEB2BAE4799716FDDF26F504B010214000A0000080000E89AD5423DEE336E79000000790000001B00000000000000000000000000000000006175746F6465736B2D64657369676E2D7061636B6167652E786D6C504B01021400140006080800E89AD542D486FD9CA0000000F40000001300000000000000000000000000
310
B20000005B436F6E74656E745F54797065735D2E786D6C504B01021400140006080800E89AD5429AC611D9EC0000007C010000080000000000000000000000000083010000636F72652E786D6C504B01021400140006080800E89AD54255019EA25F0000007C000000070000000000000000000000000095020000636E782E
310
786D6C504B01021400140006080800E89AD54282E16B8669010000020300000C00000000000000000000000000190300006662782F636F72652E786D6C504B01021400140006080800E89AD5421C31C5197E0000009D0000000B00000000000000000000000000AC0400006662782F636E782E786D6C504B01021400140006
310
080800E89AD542009D1BA62D010000140200003100000000000000000000000000530500006662782F38444644343345342D373844452D343342322D414239382D4345353936343536424632302F636F72652E786D6C504B01021400140006080800E89AD54202EA187C570100003303000030000000000000000000000000
310
00CF0600006662782F38444644343345342D373844452D343342322D414239382D4345353936343536424632302F636E782E786D6C504B01021400140006080800E89AD5428E967D66630700009A1B00003400000000000000000000000000740800006662782F38444644343345342D373844452D343342322D414239382D
310
4345353936343536424632302F6F626A656374732E786D6C504B01021400140006080000E89AD5420000000000000000000000003500000000000000000000000000291000006662782F38444644343345342D373844452D343342322D414239382D4345353936343536424632302F76657274696365732E62696E504B0102
310
1400140006080800E89AD542F270F133060000000400000036000000000000000000000000007C1000006662782F38444644343345342D373844452D343342322D414239382D4345353936343536424632302F747269616E676C65732E62696E504B01021400140006080000E89AD542000000000000000000000000370000
310
0000000000000000000000D61000006662782F38444644343345342D373844452D343342322D414239382D4345353936343536424632302F617474726962757465732E62696E504B01021400140006080800E89AD542D5987DFC8F0000004101000036000000000000000000000000002B1100006662782F38444644343345
310
342D373844452D343342322D414239382D4345353936343536424632302F6469726563746F72792E786D6C504B01021400140006080800E89AD542896D3F41FE000000A00100003B000000000000000000000000000E1200006662782F38444644343345342D373844452D343342322D414239382D43453539363435364246
310
32302F7265736F75726365732F636F72652E786D6C504B0506000000000E000E0080040000651300000000
  0
XRECORD
  5
17
102
{ACAD_REACTORS
330
12
102
}
330
12
100
AcDbXrecord
280
     1
270
     1
271
     1
  0
XRECORD
  5
16
102
{ACAD_REACTORS
330
12
102
}
330
12
100
AcDbXrecord
280
     1
270
     1
271
     1
  0
XRECORD
  5
18
102
{ACAD_REACTORS
330
12
102
}
330
12
100
AcDbXrecord
280
     1
270
     1
271
     1
  0
XRECORD
  5
15
102
{ACAD_REACTORS
330
12
102
}
330
12
100
AcDbXrecord
280
     1
270
     1
271
     1
  0
XRECORD
  5
24
102
{ACAD_REACTORS
330
22
102
}
330
22
100
AcDbXrecord
280
     1
270
     1
271
     1
  0
XRECORD
  5
23
102
{ACAD_REACTORS
330
22
102
}
330
22
100
AcDbXrecord
280
     1
270
     1
271
     1
  0
XRECORD
  5
BA
102
{ACAD_REACTORS
330
22
102
}
330
22
100
AcDbXrecord
280
     1
 70
     1
 90
1959938040
 71
     1
  1
C65E83BA-44FD-4F51-B5AC-49E66996CD09
311
504B03040A0000080000E79AD5423DEE336E79000000790000001B0000006175746F6465736B2D64657369676E2D7061636B6167652E786D6C3C3F786D6C2076657273696F6E3D22312E302220656E636F64696E673D227574662D3822203F3E3C666F726D6174733E3C666F726D61743E687474703A2F2F736368656D612E
311
6175746F6465736B2E636F6D2F64657369676E2D7061636B6167652F323030393C2F666F726D61743E3C2F666F726D6174733E504B0304140006080800E79AD542D486FD9CA0000000F4000000130000005B436F6E74656E745F54797065735D2E786D6C7D8EC10E82300C865F65E91D8A1E8C310C0EEA1BF002731658846E
311
D98AC1B77784ABF1D8FE5FBFBF75BBCE937A534CCEB38643598122B6FEE978D0B0485F9C41B54DDD7D022595594E1A469170414C76A4D9A4D207E29CF43ECE46F218070CC6BECC4078ACAA135ACF422C856C0E68EA1BF5669944DDD7BCDE7B1F8E415D77AECB980613C2E4AC91FC167A2B244592486606FC29C8FD7F045B9A
311
EF7053A7E60B504B0304140006080800E79AD542A933CF77EA0000007C01000008000000636F72652E786D6C8D90416EC3201045AF82665B618371E2D8C24449E41BF402088883128365A0EAF18B13476A77DD30A3CF7F33A3CF8FDFD3037D992558EF7AA00501649CF2DABAB18714AFF800E828F8E27DFC6503E4E4647A58
311
65107C5C7C9A374979178D8B59755E9B4D94219808483D72D343503733C942A6981DE15ECC52DDE5680AFAEE329C92D5E8B5C4EA3CCF5EAD5940EC6B766E0EE701B3A63DE0BAD9317CCA2F26FBD385D17618487BE1E50A0B1EEDF4DEAF1623A3D1202A425936E38A7ED2B6AB5847EB0FB2EB18E1E56AFF03A559FF134AD645
311
566DE7BEB00082E6439E1F82976B16B93C83CA75CD4DFC00504B0304140006080800E79AD54255019EA25F0000007C00000007000000636E782E786D6C4DCB3B0E80201045D1AD90E915ED2CF8AC45050C11660C8261F98AB1B07AC9C97D42D718D865D3E909258CFD00CCE24AC6E326A164D74DC0B4128928FF326038472B
311
A13128B1252AC747C6BAB984FC68F0B87FE8960A5C09FE86CFB69FBA01504B0304140006080800E79AD542AD6E806465010000020300000C0000006662782F636F72652E786D6C8D52DB8E823014FC95A6AF1B28372F9852A3C63FD81FA8A5B24468492FC4CFDFC3C5B06E8C3124A59973E6CC9C01BABFB70DEAA5B1B55605
311
8EC30823A9842E6B5515D8BB6BB0C568CFA8D1DAFD69C348F15616788031A395D1BE9B21A19593CA01AA742967905B2B1D46A2814B81ADF8912D0FB977D0616F61C7C58D57328C4328431FA3D61930802691E1C4EC7AB95332E18C7A5F9773B52E41ADBED6D260B6CED2E3667B3C07E926DF06D9669506073883687D38A571
311
7E3E47F9899281CCA8ABDB873B612477B2C42C89E2149A8324FE8EF35D92EEE2EC2B5AEDD28892A1FD89E4BBF24392AF954B93D9EE44B398C560642CFCDB162272C8F21EFC1046C91022BCC6849F8386402064C72FCD638F1B40BD144E9B0C2AA5F64BA9E78D97A01AA1F1A164AAC2E471006CF6724EF266CEFB19F001B9AA
311
C01A7770BD7837A8D349758EA29326E8DD1D296D5ADE2CE6268BCBB908BDA40BDD68F3099BCCAB92394C32FCBDEC17504B0304140006080800E79AD54245545E677D0000009D0000000B0000006662782F636E782E786D6C4DCCD10AC2201805E05791FFDEE6E6A606EA48EA41467343721AA6D1E3E762175D1DCEC7E1C8F1
311
B379F4B6E9E56250D09E08201BEE7176615550F28205A051CB1463FE9B010AD36615EC0C5AAE2996E741B35DA6E27355EFC2E340C24C4FF999E3EE465BDC73C3B060B5722106D3514287CB151A2D9BDF53CDFD587F01504B0304140006080800E79AD542E539A6082901000013020000310000006662782F30364234333739
311
372D324533312D343742362D383639372D3738383542323330333541442F636F72652E786D6C8D515B6EC32010BC8AC557AACA360F3F234CD4A8BD412FE01892A2C460F1A872FC2EB523B57FF9616177667696E587FB7CCBBE95F3DA9A019102A34C99C94A6D2E038AE19C77283B08EEAC0D7F602833E3AC0694D248F08BB3
311
71D95293354199005963A5DA92A3F72AA06CBAC165407EFA52F3588C3100C25F8B659CAEE34515A48032E004F7C181816C6D924E247073AC58DBB739FD6024AFDA6393770D3CDBAEAB8F946156BFBDF372250A1EA3961B5D4BB0A3CF5AB967451259F0A0E787FDC9A931288904C584E5B8C929F924FD9EB23DA95E71BD6798
311
9709FE8F1417F924296A1318DDECAE348F04E1E55A105CDA78BA3DCCA8FB625DC852BF9D57D30B4C556042FAB6A7BC5C91303F4836D526E98375F0BFBBEB09C0A45E759B4AF032AD08C2EFFE20A6758A1F504B0304140006080800E79AD54267725BF94F01000033030000300000006662782F30364234333739372D324533
311
312D343742362D383639372D3738383542323330333541442F636E782E786D6CD593CD6EC32010845F0571ADFC43EC466D8489D4439FA0875E316C1A1A0C16E0AA79FB2E094973C9A1C75E90353BCCAC3E61BEFD9E2CF982108D770365754B0938E5B5711F035DD2AE7AA2642B78F03EDDD8287172828166990AFE11FC3217
311
49C34E2E36A16A8D3B143140F44B501051CE3789F54A5A0C00572D28C23482D6A0C9D5885F3B08B80A8AE391A43D90D79777E2C74F5029F226A708DEE40EC1F3599A6E4C94282B631C68547B98642D97E435C443AD659235AB2F5D7776FA4D22F9C2A5720986E4F281E6938AB2518D1C798343C1630A48AF98D271062AE43C
311
5BA36442C8CDC978F608BE1897D67DF11A041FD0CDD65DDF63D8692678321314870A2013682A562DEBAA765DADD81B7BDEACBA0DEB1FDAC74DD7F226DB051FBDB7E512C640F03351DE2570890AC69B3CBE87AFF888360159FB70FC034804505ACF74AE19FF994F737ADF882BE05F207E00504B0304140006080800E79AD542
311
CB520A7CA405000080100000340000006662782F30364234333739372D324533312D343742362D383639372D3738383542323330333541442F6F626A656374732E786D6CAD57DB6EDB3810FD1541FBB2FBE0BBE3C60B458563278551A42D6AB4D807030625518A3694289054E2ECD7EFA148C9926BA7DE455F2C8B1A0E67CE
311
9CB9D07BBFCF98F34C854C797EE38EFA43D7A179C8A3344F6EDC52C5BD6BD779EF7B8273D512739D9C64F4C6D5CBAEEF258297855D8A684C4AA68E56EF6FFF72644873EA3A212352DEB8327CA419E99352F188CAA77E4414E927F1BE3FEA1BC1AEDA4490E2F148694104CD152CC57A0E2D8E316AD47D1DBA03DF1BE8EFBEA7
311
7FADD4E4BCD4A0F2A77B7E9A4B45F2F087C38ED44C46D3D5DDF86ADEBB9A4E27BDE96C3CEADDDEDFAE7AA37793E172B65CCE1777731C2C9580266B89A0B1EB7F0036220DBD81F9E47B659AABC9D88AD8000D047D4E75A45C7FEC8CBC819169BCB34E9E323FE4794EC30A2BA051F9675547B4A0798498A754C2B21642C3EEEB
311
48E3D8FA3CD1EFF6C8F6F26508B477B414D5B6D7CFB6A53CF81B2EC84B182424D50C34585A470D5787078403CE99FD964A27238A8A943087A58120E2D5F521AA457CAFA3463359E86CD01EB83EA2603E77E98234FA39CF4F5919978C691ABB7E95053BE40A55B2B22CFD878A83F56D64601362A5D9706D1D52AF0575FDB9A1
311
C8F5119B0C904ECC488290C34DBD73323E7274A9F374BD72FD8FF7C17EA373F7F4E185E005154AD307D4AA03573F354AD6A6D14591D31BDC23530EA07C05F29F90EA0753103791EEA7FBA93D450992CB988B0CB171864E6F889FA133AA7EF5FFD63F6FD06CEE46EF1C9E08B686EA17E0D9F5A11DCB169CBEF70CC27331B1AE
311
6D42C250361ED21C006992388C630975380EF6AEBF46954355C62EC2FC115C86B9CFF8EB0DAC1A148AEAA4D63307964765F182020DD82A46C20C437E6BE0214E3F94B3EA602B760EDEAB5F42D7C56AF371538A9884F4C1E6F48AC6699E2AB4B8036FDA067530EF78F4445F5FB888E0E88F786FDA7867F62809B435E61AF8A4
311
AEE9FAE57072E78010FB12AECB8DF79313E0846EAC2DFD0FA90C296324A7BCACCF7DB37FA06D188875B26B26370DE6D058401AF3E52807D1A44391161AC4A65B3545B37FC6BB6FEB4F6024E4190F083B080587D21B72C6C52E78DD99AA7412E9EF5D6A5B08065A0BD85EE5489DFE16F35D94C6712951034FC0FA7DBD6C874E
311
570554885AAB499629DC476E1161395BEB45B316048D94E7BB146D136977F280B67E206A0950293C67B1A42CDEA58C95D92E4E199AD12E23C51938FEBFFD4199153B92F132576774774C4773E8DADE21AF7C212A7C74FD4DF5ECDDA2F446343A84B923AC5BC909AC3AA15DCEAEEEAE27B78BDE747ABFEA4DEFAF303E5D2D96
311
BDE9FC6E369BCF67CBD5705EC7C928F7BDBAD3B4131A514267F34A91DAF07D5B237D6C0D70FD07A2E4F683C9CEFAF96DDDC728EC0DB007EDB2D9B8889E31F6D1E8E70A0E922715ADB382D18CE68AE8147AD07FD8578231A3638C595F6724A11768F9FC6173E40C562ED8F745A73B7D39DA6B57973A214F2A518F6516E42465
311
471B138364BFC8138B5F1D93E669FA4CFDAADF6C6030984ACED20865307212CA33AA500C2FE84122A312D46B8FF491BD7A5CB0FBD90C888A048CD6963C12CCC84C222D40AD3254DD75E737CC747AACBA71D16DFB4FF8B195C275C0991B1733BA4A432AFB01FAB39E842AE5E0527B90C7DC4FF28461D4369B9AF76697C6A6D3
311
911B914BC627EB97A9E0D6019491026303E62144A732C6F72ADBECF7F03F395E9BE31085BF41A91A5F0E0B8D33D5314851E394BD2C608679B247EF91A86FBB35EA57321D442EBA64BD4902A3B5A78848AA8B82B6CF9AB4587D19604071D69F9D8295096279B9A69EA02073A9131C2C022BACCE82285075F9E7F68BE0B8C866
311
CE7D0A0A38BFEFAF677F6C973CCB786E96B60B7B1D76368FB8DC465B1407AA6F25723B1E8EC6DBEA36602F28BB8048DA27917CC202222BD206E84EF8C14B7365441F321F1AB9810EC51143D72BC736B629945ABAB46BAB060773474E1DE490BE51EA8C690B146F5E080695284C1018E5FD7F01504B0304140006080000E79A
311
D542000000000000000000000000350000006662782F30364234333739372D324533312D343742362D383639372D3738383542323330333541442F76657274696365732E62696E504B0304140006080800E79AD542F270F1330600000004000000360000006662782F30364234333739372D324533312D343742362D383639
311
372D3738383542323330333541442F747269616E676C65732E62696E636660600000504B0304140006080000E79AD542000000000000000000000000370000006662782F30364234333739372D324533312D343742362D383639372D3738383542323330333541442F617474726962757465732E62696E504B030414000608
311
0800E79AD542D5987DFC8F00000041010000360000006662782F30364234333739372D324533312D343742362D383639372D3738383542323330333541442F6469726563746F72792E786D6C858F410EC2201045AF4266AF15DDB800BA74E7C21B903225242D6328188F2FA5C4183471359997F9FF81E89FF3C41E1816475E
311
02DF1F80A11FC8386F25A438EECEC07A250251FC3803E6F58C12560C4AD840E95E91C151A72936F496F35732D860FE635F62C8F2DA16B505C545B74125BAA2FA9E05D7CC053D063734D5C7665FD55B6B8D15D5E9BFEAFD8490FFA45E504B0304140006080800E79AD542BA98E1EFFC000000A00100003B0000006662782F30
311
364234333739372D324533312D343742362D383639372D3738383542323330333541442F7265736F75726365732F636F72652E786D6C8D504B6E833010BD0A9A6D65C09884808CA324CD0D7A01CB4C889560237FAA1EBF2650A9DD7533337A1FCDD3E3C7AFE9997DA2F3DA9A1E685E428646D9419BB187186EE400D9517067
311
6DF82583CCC8097B5860107C7436CE1BA4AC096842428D1D7003A5F7182053CF74F4E0D51D2799CB1892C23FF259AA871C31A779A2934E701F5C0A90AD4F9609C2A1B7D129F4BC5859C163D4C3A6D143FAA96F1A1D887DCDCECDE1FC4E58D31E48DDEC1839A549CAFDE9C2687BBD96ED85178B59F0A0A79F8CCAA10C3880A8
311
4ACA929854F483B65DC53A5ABF95BB8E95BC58E47F4C711EFE698ADA04566D71579B07415390172178B1F495D6ABCCB4976EC537504B010214000A0000080000E79AD5423DEE336E79000000790000001B00000000000000000000000000000000006175746F6465736B2D64657369676E2D7061636B6167652E786D6C504B
311
01021400140006080800E79AD542D486FD9CA0000000F40000001300000000000000000000000000B20000005B436F6E74656E745F54797065735D2E786D6C504B01021400140006080800E79AD542A933CF77EA0000007C010000080000000000000000000000000083010000636F72652E786D6C504B0102140014000608
311
0800E79AD54255019EA25F0000007C000000070000000000000000000000000093020000636E782E786D6C504B01021400140006080800E79AD542AD6E806465010000020300000C00000000000000000000000000170300006662782F636F72652E786D6C504B01021400140006080800E79AD54245545E677D0000009D00
311
00000B00000000000000000000000000A60400006662782F636E782E786D6C504B01021400140006080800E79AD542E539A608290100001302000031000000000000000000000000004C0500006662782F30364234333739372D324533312D343742362D383639372D3738383542323330333541442F636F72652E786D6C50
311
4B01021400140006080800E79AD54267725BF94F010000330300003000000000000000000000000000C40600006662782F30364234333739372D324533312D343742362D383639372D3738383542323330333541442F636E782E786D6C504B01021400140006080800E79AD542CB520A7CA405000080100000340000000000
311
0000000000000000610800006662782F30364234333739372D324533312D343742362D383639372D3738383542323330333541442F6F626A656374732E786D6C504B01021400140006080000E79AD5420000000000000000000000003500000000000000000000000000570E00006662782F30364234333739372D32453331
311
2D343742362D383639372D3738383542323330333541442F76657274696365732E62696E504B01021400140006080800E79AD542F270F13306000000040000003600000000000000000000000000AA0E00006662782F30364234333739372D324533312D343742362D383639372D3738383542323330333541442F74726961
311
6E676C65732E62696E504B01021400140006080000E79AD5420000000000000000000000003700000000000000000000000000040F00006662782F30364234333739372D324533312D343742362D383639372D3738383542323330333541442F617474726962757465732E62696E504B01021400140006080800E79AD542D5
311
987DFC8F000000410100003600000000000000000000000000590F00006662782F30364234333739372D324533312D343742362D383639372D3738383542323330333541442F6469726563746F72792E786D6C504B01021400140006080800E79AD542BA98E1EFFC000000A00100003B000000000000000000000000003C10
311
00006662782F30364234333739372D324533312D343742362D383639372D3738383542323330333541442F7265736F75726365732F636F72652E786D6C504B0506000000000E000E0080040000911100000000
310
504B03040A0000080000E79AD5423DEE336E79000000790000001B0000006175746F6465736B2D64657369676E2D7061636B6167652E786D6C3C3F786D6C2076657273696F6E3D22312E302220656E636F64696E673D227574662D3822203F3E3C666F726D6174733E3C666F726D61743E687474703A2F2F736368656D612E
310
6175746F6465736B2E636F6D2F64657369676E2D7061636B6167652F323030393C2F666F726D61743E3C2F666F726D6174733E504B0304140006080800E79AD542D486FD9CA0000000F4000000130000005B436F6E74656E745F54797065735D2E786D6C7D8EC10E82300C865F65E91D8A1E8C310C0EEA1BF002731658846E
310
D98AC1B77784ABF1D8FE5FBFBF75BBCE937A534CCEB38643598122B6FEE978D0B0485F9C41B54DDD7D022595594E1A469170414C76A4D9A4D207E29CF43ECE46F218070CC6BECC4078ACAA135ACF422C856C0E68EA1BF5669944DDD7BCDE7B1F8E415D77AECB980613C2E4AC91FC167A2B244592486606FC29C8FD7F045B9A
310
EF7053A7E60B504B0304140006080800E79AD542834185FFEC0000007C01000008000000636F72652E786D6C8D904D6EC3201085AF82665B61F393A4B185899A3A39412F8080B828315806AA1EBF3871A476D7D58CDEBC6F66F4C4E17BBCA12F3B47177C07B42280ACD7C1383F7490D305EF011DA4984348BF6C80BC1A6D07
310
8B0C520C73C8D32AE9E093F5A9A83E18BB8A2A469B00E95B693A88FAD38EAA52391547BC5693D25735D88A3EBB02E7EC0C7A1C71A6EC731767679084B23DEFDF7B4CF9EB1BDE1C770437E713C3ACD96E4F3DE9CFBC398A7A81A5486E7CDED7B355C91A908C508EC90E33FA419B96F1966E5EC8B6E544D48BFD0F9427F34F28
310
3B9F385BDF7D6011242D8FDC0752D44B16A5DC832A75C94DFE00504B0304140006080800E79AD54255019EA25F0000007C00000007000000636E782E786D6C4DCB3B0E80201045D1AD90E915ED2CF8AC45050C11660C8261F98AB1B07AC9C97D42D718D865D3E909258CFD00CCE24AC6E326A164D74DC0B4128928FF326038
310
472BA13128B1252AC747C6BAB984FC68F0B87FE8960A5C09FE86CFB69FBA01504B0304140006080800E79AD542C5FE76A968010000020300000C0000006662782F636F72652E786D6C8D52ED8E8230107C95A67F2FD016D413536ACE439FE05EA042E588D092D2121FFF960FC37931E642529A999DDDD901BEBF3535EA95ED
310
2AA353CC428A91D2B9292A5DA6D8BB4BB0C5682FB835C6FD2AC348CB46A57880B1E0A535BE9DA1DC68A7B403549B42CDA0EC3AE530CA6BB8A4B8CBBF552343E91D5474D7B095F955962A6421D0502778E72C1840D390E1C4E272BE7132E1827B5F15335B1530ADBA54CA624159B48DB3CF2C60F1FB47B03A6C68909C8E5110
310
25EBF531A3D9294E0E9C0C62C15DD5DCDDE55649A70A2C22CAE2806E82887DB16417C53BB67AA3EB5D4C3919CA1F44BE2DFE29F295767134DB9D641D160C8C8CC49F6D2122873AD9831F2238194284D798F063D0100884ECE4B9BEEF7105A857B93376054C61FC42F5B2F60AA652343E9C4C2C741E1BC0664FFB442FFABCEE
310
011F50EA12AC4907D7B377C3743E4D9DA368950D7A7743DAD846D68BB9C9E2722E839ECA73531BFB1F35995725739864F87BC50F504B0304140006080800E79AD542E3123BA07E0000009D0000000B0000006662782F636E782E786D6C4DCCD10A83201886E15B91FFDC359BD41FA851CDEE239685643A5C8E5DFE6A74B0A3
310
0F1E3E5E517F5647DE26BE6CF012D8E50AC4F84718AD9F25A46DA208A4562286B0FDDD80F86135120E0625E618D2F3A4D14C4372DBAECEFAE5C446575CDFCA8E7256B49463DED2AA474D3BECF302B1BC374C43A644F62BED7B84D517504B0304140006080800E79AD54236D13FEC2C01000014020000310000006662782F41
310
453934453337432D343136422D343832422D394638452D4338463236383837444131452F636F72652E786D6C8D515B6EC32010BC0AE22B55850DB6633B11264A52E704BD8003244589C1E251E5F885DA91DABFFCB068766676B44B778FF10EBEA575CAE80E920C4320353742E96B0783BFA016821DA3D618FF8706811E46D9
310
C1044346AFD6846981B8D15E6A1F516D845CC0C139E921E0F7F8E9A0E35F721CB221F8C870B76C1AF86DB8CA8C64B11D798C3A6F6300300F492F64FB7E53F565734415A90FA86A8B03DA9CDA1E1DDB5351B76DF3B1273DCD6721A32128B1C8958871D44549FBAA491233EAD5F88CCFAD1CBC149015989408D7A8209F64B32D
310
CA2DA9DEF17A5B629A27FA3F5198C48BA2A0B42F8B25EE2C7390119ACF0D468509E7FB338C7C4CC67A90E6AD9CE46F90E12CC6C26B5C37349FA97101D1B3AE164FE78D8D0B5EDDCE915D2EC675C5689E6E14CBEF01634DF7643F504B0304140006080800E79AD54201D594EE5601000033030000300000006662782F414539
310
34453337432D343136422D343832422D394638452D4338463236383837444131452F636E782E786D6CBD93CD6EC32010845F0571ADFC83ED46698489D4439FA0875E316C1A1A1B2CC055F3F65D1292E69243A5AA1764CD0E33AB4F986FBFA6917C820FC6D99EB2B2A604AC72DAD8F79E2E7157AC29D90AEE9D8B37364AAC9C
310
A0A749A682BF7BB7CC59D2B093CB18511D8D3D64D143708B5710504E37C9E8941C31006CB1A008D3005A832657237EEDC0E32A280E4712F7405E9EDF881B3E40C5C0AB942278953A044F676EBA3151A24619424F83DAC3244BB944A7211C4A2DA32C5979E9BAB3D34F1249172E958B372495F7349D54E48D4AE4C82B1C0A1E
310
A2477AD9148F335021E779344A46845C9D8C678FE08BB171D565AF41F01EDD6DB35AAF31EC34133C9A09B24379901134154DCDDAA25E150D7B654F9BA6DDB0EEA17EDCB435AF925DF0C1B9315FC218F06E26CAD9083652C17895C6F7F0651FD1C6236BE78FBF00890072EB99CE35E32FF9B055DB75FFC8A73ABD6FC4E5F12F
310
10DF504B0304140006080800E79AD542ACA1B20961070000991B0000340000006662782F41453934453337432D343136422D343832422D394638452D4338463236383837444131452F6F626A656374732E786D6CED595B73A33614FE2B0C7D691F8C4D6CA77187D049ECCD8E6727DB9DBABBD307CF3032C8448D108C2472E9
310
AFEFD1050CC424B89BBEF5C106847474CE77AE3A04BF3E65D479C05C909C5DBABE37711DCCE23C212CBD744BB91F5DB8CEAF61C0F35C36A6B90E4319BE74D5B01B0629CFCBC20E25788F4A2A3BA337D77F3A22C60CBB4E4C911097AE88EF70863C54CA3CC1E2DE4B90445EBA7FF27CCF4C6C934D392AEE3A440BC43193C029
310
8C33A0E218A6FCF6E3C41D87C158BD0F03F56F674D07CD9AF5CF1A6BA9DB5C12262462F10B963A64A683589AFAB3D587B3F962349FCDA6A3D9F9993FBABEB95E8DFC9FA793E5F972B9B8FAB000F676794EAD4C092E304B407FCF6EE80763F5A616DD22708CEB38670CC71A48804A8BD52548B080AD1AF04DDA8FBE92A8F15A
310
4BD8789EA9F79685C6F0B44DA56FD630205A744110BB5D2571756DCA97EFFE02C1C510A3E4024BE056480EDAB5F070F00A379C0463331A06BB832E887032243127883A94EC38E2A01498AAA684815960C928E7E040CA511268CD99D76DDB02CF7CDB758E71B92F29559EE186DAB122703F2C85E68CFC8DF981FB2632C01348
310
5B12262F2C97F2B9C06EB808C67A300CD4657A665F1A209D3D45A9D08898B71D4197CAF5D72B37FC74B37BDAA870707CF382E705E652199DD2A3E60B0CD95E154A765B7F90E6D40210C6806A571E40F91D90FF0CD1E3C00AE88D93A7D9D3CCCE951C31B1CF7906BA7126CE68027F13C7D7FFEABE71178CEBC56DEDF5E1096E
310
AAA0BAF87E3CDB3268AC2CFF0D38C3E0010C3EE753FB6A13230AF67C4B1800A48CC4A1390C4168DFEF9EDC700D8113023DAC4234F4416460F7016E83B12573D04AE55ED6EB18206AF7980E5112C0A62D12D8E8D1D347C81E9CC407353545EC8377FE2EE67AB5DA7CDA947C8F627C6B7D7A85F784110959F338432DCC5B12DD
310
E3E7C79C2720E84BBC374DBC33BB9500B415E60AF8B402413D1C766E6D10C3BA3457E1267863071042E5EA06FD5B22624C2962382FAB7DEBE8A60CB5F6785B33B8E19981787AD631618E1F88AA2AC0690E335A8C42DE8F392914886EF8D14856074DAF47BAAFEBCF6091F5FC9E596B06A19721FA870E5A477068597685B405
310
A216787708E7714E731EED9E2313E95CA825808DB6B77C6B1185586F94A4A8800769BFAB424A6AA48D12B2DF9702E2EA1116BFAD974D739878537FEE34FF3BCE3883680BBE8BB8F5BBCE1E11C9508AA33D4AFAB66BEE56D3169A640F698EF714E4220F443E4748469304A7A7407312F1C5BB524F692E04615840BE3A0A7E13
310
8D890781C468B3625969B5033411518625A2A720A0C8F480ABD38EAE7163281DDEE6B1B6DED734D624FA1F590447504BE62C22508A420E799371DF9B430C69A36B50EEE00BD656D1D662D0124A88F8397AC424BD93A7A06EC8F7E01EC391A494515EA018CC7A00D917BEA294DAE17D87E27B953FA2B8A4EF652002D37D4428
310
2DB3087E84C1C963886BD781E955141AC44DEC933883A20CC9920FD9E47C3E79B18FA919BA21B0B1D19E5008DB51868A1ED45B0151D7234E0DBEA5DEA3D45D991511CAF2920D32146FDAF5264BBEAB56457620BFAA5484B2B1226C09860161B2CEAA55CC0653D78115DC4807AAE748A0ACA0E614F646E2F16B6FD2947B37E0
310
D64FDF77830C0ABF1EED3523EAAC82C1F2D82A0CC42392F19D1B6EF475740DF577829343AAAF6ACD66050888A9485E726255F4750DE58DADD1DCF01649B1FD68B26E75FDBAF6A0FB118C610DD42EF5C2B5023AC34C225599DCAA1BFA3B8210DCA261C6D72AA79E42E52A4974D588E80DE95367AB8C686D9A11AFB8C32CCFE0
310
C7B684C5B44CF01625E23EBA9534DA10C5BA95D2CB4885F1AB02FEF671D38107460688F4451578F8B1B3D68E2E55B9749488BC2BB31D430482604BB4D4E8C62B586A355269B9BEAA3305D45D606056C5B3FF4F16CD76C4FF278BD41AC6F79D2C68BE43F4106D1AD93C56667DD229A04E4F8ACA7B9C0274D7A1A65A271193CB
310
ADF8D69722888955901F5C8C5531C310ECE3F85F27EDBE2468B6EBF07F5AD2F65F141C272595D664D5A43A52B8AE9B296C793EFF7031BDBE1ACD6637ABD1EC660EFDD9F9D572345B7C383F5F2CCE97ABC9A24653FB6918D4B14CA72E783631AD1A564F160368CA8A9C92040EF389936208F9128EF403BAE73CC3027267B3D7
310
9DD89EFC80D50FA6CD29D18EE28A933B04FD612A20AB0346652CDBE3CE0FD0999470CEBE74A167E4DDC39FB54AD781C473E942A74092180B6F075D26D5CFD3C421E3EAD46F89013E88A52A239A45F573BD4A61D38AFEF5942159C0CAD56A6140DD5640F3ABD5A0D0BC599EE29304AFD8719084DB5D29A15833B21C066A61F4
310
3607F51BD92861F776EB2770DDD7C5F23D3DA785C8A02F06AF1A81A13A9288A7BADDAD18B32C5DADBE8CA1CDE6AC7F730A5AA6A0CBE194461C833197AA9E022B02ABB0340B24C15497BF6CBFF01CBEF0648E2E8A9C1F9F2ECE7FDA2EF32CCB9919DA5EC1A12C81EF44CEE60EBEFA245BA81DB0EAAD8BEDD9C43FDBEA9EB66D
310
B3473B24B0A78A2218A86A092548C7E4C02E5FF4A76CF772AC54D199BE5E393688422FC0D8D18B16AFF9C6E5800FA9AF29CA63B49F57D2BEDAD61EEBA960131C1AD2E13F504B0304140006080000E79AD542000000000000000000000000350000006662782F41453934453337432D343136422D343832422D394638452D43
310
38463236383837444131452F76657274696365732E62696E504B0304140006080800E79AD542F270F1330600000004000000360000006662782F41453934453337432D343136422D343832422D394638452D4338463236383837444131452F747269616E676C65732E62696E636660600000504B0304140006080000E79AD5
310
42000000000000000000000000370000006662782F41453934453337432D343136422D343832422D394638452D4338463236383837444131452F617474726962757465732E62696E504B0304140006080800E79AD542D5987DFC8F00000041010000360000006662782F41453934453337432D343136422D343832422D3946
310
38452D4338463236383837444131452F6469726563746F72792E786D6C858F410EC2201045AF4266AF15DDB800BA74E7C21B903225242D6328188F2FA5C4183471359997F9FF81E89FF3C41E1816475E02DF1F80A11FC8386F25A438EECEC07A250251FC3803E6F58C12560C4AD840E95E91C151A72936F496F35732D860FE
310
635F62C8F2DA16B505C545B74125BAA2FA9E05D7CC053D063734D5C7665FD55B6B8D15D5E9BFEAFD8490FFA45E504B0304140006080800E79AD5425C2F4F47FE000000A00100003B0000006662782F41453934453337432D343136422D343832422D394638452D4338463236383837444131452F7265736F75726365732F63
310
6F72652E786D6C8D50596AC33010BD8A99DF225B4B92C6415668B613F402429EA422B164B4941EBF72EC42FBD79F99E12DCCE3C9FDD7F0A83E3144EB5D07ACA650A133BEB7EED6414E57B2856AAF64F03EFD9241E5F4801D4C3028790B3E8F0B64BC4BE852419DEF7101758C98A0328F727410CD070EBAD6391545BCD7A336
310
777DC39AD5852E3A25630A2540353F9926A880D1E76030CA666695CCD9F68BC6F6E5A7BD5A0CA028E35B713A1E0913AF6F6475D850D25ECE9CF076BD3E9FE8E922DA836C26B392C90E3F194D409DB007C52913846E0867EFACDD71B163AB17BADE092A9B49FEC794C7FE9FA66C5D127C893BDB222856823C09259BA9AFB29E
310
65963D75ABBE01504B010214000A0000080000E79AD5423DEE336E79000000790000001B00000000000000000000000000000000006175746F6465736B2D64657369676E2D7061636B6167652E786D6C504B01021400140006080800E79AD542D486FD9CA0000000F40000001300000000000000000000000000B20000005B
310
436F6E74656E745F54797065735D2E786D6C504B01021400140006080800E79AD542834185FFEC0000007C010000080000000000000000000000000083010000636F72652E786D6C504B01021400140006080800E79AD54255019EA25F0000007C000000070000000000000000000000000095020000636E782E786D6C504B
310
01021400140006080800E79AD542C5FE76A968010000020300000C00000000000000000000000000190300006662782F636F72652E786D6C504B01021400140006080800E79AD542E3123BA07E0000009D0000000B00000000000000000000000000AB0400006662782F636E782E786D6C504B01021400140006080800E79A
310
D54236D13FEC2C010000140200003100000000000000000000000000520500006662782F41453934453337432D343136422D343832422D394638452D4338463236383837444131452F636F72652E786D6C504B01021400140006080800E79AD54201D594EE56010000330300003000000000000000000000000000CD060000
310
6662782F41453934453337432D343136422D343832422D394638452D4338463236383837444131452F636E782E786D6C504B01021400140006080800E79AD542ACA1B20961070000991B00003400000000000000000000000000710800006662782F41453934453337432D343136422D343832422D394638452D4338463236
310
383837444131452F6F626A656374732E786D6C504B01021400140006080000E79AD5420000000000000000000000003500000000000000000000000000241000006662782F41453934453337432D343136422D343832422D394638452D4338463236383837444131452F76657274696365732E62696E504B01021400140006
310
080800E79AD542F270F13306000000040000003600000000000000000000000000771000006662782F41453934453337432D343136422D343832422D394638452D4338463236383837444131452F747269616E676C65732E62696E504B01021400140006080000E79AD5420000000000000000000000003700000000000000
310
000000000000D11000006662782F41453934453337432D343136422D343832422D394638452D4338463236383837444131452F617474726962757465732E62696E504B01021400140006080800E79AD542D5987DFC8F000000410100003600000000000000000000000000261100006662782F41453934453337432D343136
310
422D343832422D394638452D4338463236383837444131452F6469726563746F72792E786D6C504B01021400140006080800E79AD5425C2F4F47FE000000A00100003B00000000000000000000000000091200006662782F41453934453337432D343136422D343832422D394638452D4338463236383837444131452F7265
310
736F75726365732F636F72652E786D6C504B0506000000000E000E0080040000601300000000
  0
XRECORD
  5
27
102
{ACAD_REACTORS
330
22
102
}
330
22
100
AcDbXrecord
280
     1
270
     1
271
     1
  0
XRECORD
  5
26
102
{ACAD_REACTORS
330
22
102
}
330
22
100
AcDbXrecord
280
     1
270
     1
271
     1
  0
XRECORD
  5
28
102
{ACAD_REACTORS
330
22
102
}
330
22
100
AcDbXrecord
280
     1
270
     1
271
     1
  0
XRECORD
  5
25
102
{ACAD_REACTORS
330
22
102
}
330
22
100
AcDbXrecord
280
     1
270
     1
271
     1
  0
XRECORD
  5
D99
102
{ACAD_REACTORS
330
D98
102
}
330
D98
100
AcDbXrecord
280
     1
102
ACAD_ROUNDTRIP_2012_MLEADER_STYLE
298
     1
  0
CELLSTYLEMAP
  5
D97
102
{ACAD_REACTORS
330
D96
102
}
330
D96
100
AcDbCellStyleMap
 90
        3
300
CELLSTYLE
  1
TABLEFORMAT_BEGIN
 90
        5
170
     1
 91
        0
 92
    32768
 62
   257
 93
        1
300
CONTENTFORMAT
  1
CONTENTFORMAT_BEGIN
 90
        0
 91
        0
 92
      512
 93
        0
300

 40
0.0
140
1.0
 94
        5
 62
     0
340
55
144
0.25
309
CONTENTFORMAT_END
171
     0
 94
        0
309
TABLEFORMAT_END
  1
CELLSTYLE_BEGIN
 90
        1
 91
        1
300
_TITLE
309
CELLSTYLE_END
300
CELLSTYLE
  1
TABLEFORMAT_BEGIN
 90
        5
170
     1
 91
        0
 92
        0
 62
   257
 93
        1
300
CONTENTFORMAT
  1
CONTENTFORMAT_BEGIN
 90
        0
 91
        0
 92
      512
 93
        0
300

 40
0.0
140
1.0
 94
        5
 62
     0
340
55
144
0.18
309
CONTENTFORMAT_END
171
     0
 94
        0
309
TABLEFORMAT_END
  1
CELLSTYLE_BEGIN
 90
        2
 91
        1
300
_HEADER
309
CELLSTYLE_END
300
CELLSTYLE
  1
TABLEFORMAT_BEGIN
 90
        5
170
     1
 91
        0
 92
        0
 62
   257
 93
        1
300
CONTENTFORMAT
  1
CONTENTFORMAT_BEGIN
 90
        0
 91
        0
 92
      512
 93
        0
300

 40
0.0
140
1.0
 94
        2
 62
     0
340
55
144
0.18
309
CONTENTFORMAT_END
171
     0
 94
        0
309
TABLEFORMAT_END
  1
CELLSTYLE_BEGIN
 90
        3
 91
        2
300
_DATA
309
CELLSTYLE_END
  0
ENDSEC
  0
EOF
