  0
SECTION
  2
HEADER
  9
$ACADVER
  1
AC1024
  9
$ACADMAINTVER
 70
    63
  9
$DWGCODEPAGE
  3
ANSI_1252
  9
$AUTHOR
  1
PR
  9
$REVISIONNUMBER
  1
-
  9
$CUSTOMPROPERTYTAG
  1
Manager
  9
$CUSTOMPROPERTY
  1

  9
$CUSTOMPROPERTYTAG
  1
Company
  9
$CUSTOMPROPERTY
  1

  9
$CUSTOMPROPERTYTAG
  1
Category
  9
$CUSTOMPROPERTY
  1

  9
$CUSTOMPROPERTYTAG
  1
Part Number
  9
$CUSTOMPROPERTY
  1
HWDWA90P48F1
  9
$CUSTOMPROPERTYTAG
  1
Description
  9
$CUSTOMPROPERTY
  1
N1P PANEL MASTER VIEW
  9
$CUSTOMPROPERTYTAG
  1
Project
  9
$CUSTOMPROPERTY
  1

  9
$CUSTOMPROPERTYTAG
  1
Designer
  9
$CUSTOMPROPERTY
  1
PR
  9
$CUSTOMPROPERTYTAG
  1
Engineer
  9
$CUSTOMPROPERTY
  1

  9
$CUSTOMPROPERTYTAG
  1
Authority
  9
$CUSTOMPROPERTY
  1

  9
$CUSTOMPROPERTYTAG
  1
Cost Center
  9
$CUSTOMPROPERTY
  1

  9
$CUSTOMPROPERTYTAG
  1
Vendor
  9
$CUSTOMPROPERTY
  1

  9
$CUSTOMPROPERTYTAG
  1
User Status
  9
$CUSTOMPROPERTY
  1

  9
$CUSTOMPROPERTYTAG
  1
Design Status
  9
$CUSTOMPROPERTY
  1
WorkInProgress
  9
$CUSTOMPROPERTYTAG
  1
Checked by
  9
$CUSTOMPROPERTY
  1
NJ
  9
$CUSTOMPROPERTYTAG
  1
Engr Approved by
  9
$CUSTOMPROPERTY
  1

  9
$CUSTOMPROPERTYTAG
  1
Date Eng Approved
  9
$CUSTOMPROPERTY
  1
06/19/2013
  9
$CUSTOMPROPERTYTAG
  1
Mfg Approved by
  9
$CUSTOMPROPERTY
  1

  9
$CUSTOMPROPERTYTAG
  1
DWG. NO
  9
$CUSTOMPROPERTY
  1

  9
$CUSTOMPROPERTYTAG
  1
NUMBER OF SHEETS
  9
$CUSTOMPROPERTY
  1
1
  9
$CUSTOMPROPERTYTAG
  1
DRAWING #
  9
$CUSTOMPROPERTY
  1
1
  9
$INSBASE
 10
0.0
 20
0.0
 30
0.0
  9
$EXTMIN
 10
0.0
 20
0.0
 30
0.0
  9
$EXTMAX
 10
238.0
 20
154.0
 30
0.0
  9
$LIMMIN
 10
0.0
 20
0.0
  9
$LIMMAX
 10
238.0
 20
154.0
  9
$ORTHOMODE
 70
     0
  9
$REGENMODE
 70
     1
  9
$FILLMODE
 70
     1
  9
$QTEXTMODE
 70
     0
  9
$MIRRTEXT
 70
     0
  9
$LTSCALE
 40
14.0
  9
$ATTMODE
 70
     1
  9
$TEXTSIZE
 40
0.2
  9
$TRACEWID
 40
0.05
  9
$TEXTSTYLE
  7
Standard
  9
$CLAYER
  8
0
  9
$CELTYPE
  6
ByLayer
  9
$CECOLOR
 62
   256
  9
$CELTSCALE
 40
1.0
  9
$DISPSILH
 70
     0
  9
$DIMSCALE
 40
1.0
  9
$DIMASZ
 40
0.0708661417322835
  9
$DIMEXO
 40
0.0625
  9
$DIMDLI
 40
0.38
  9
$DIMRND
 40
0.0
  9
$DIMDLE
 40
0.0
  9
$DIMEXE
 40
0.18
  9
$DIMTP
 40
0.0
  9
$DIMTM
 40
0.0
  9
$DIMTXT
 40
0.0708661417322835
  9
$DIMCEN
 40
0.09
  9
$DIMTSZ
 40
0.0
  9
$DIMTOL
 70
     0
  9
$DIMLIM
 70
     0
  9
$DIMTIH
 70
     1
  9
$DIMTOH
 70
     1
  9
$DIMSE1
 70
     0
  9
$DIMSE2
 70
     0
  9
$DIMTAD
 70
     0
  9
$DIMZIN
 70
     0
  9
$DIMBLK
  1

  9
$DIMASO
 70
     1
  9
$DIMSHO
 70
     1
  9
$DIMPOST
  1

  9
$DIMAPOST
  1

  9
$DIMALT
 70
     0
  9
$DIMALTD
 70
     2
  9
$DIMALTF
 40
25.4
  9
$DIMLFAC
 40
1.0
  9
$DIMTOFL
 70
     0
  9
$DIMTVP
 40
0.0
  9
$DIMTIX
 70
     0
  9
$DIMSOXD
 70
     0
  9
$DIMSAH
 70
     0
  9
$DIMBLK1
  1

  9
$DIMBLK2
  1

  9
$DIMSTYLE
  2
STANDARD
  9
$DIMCLRD
 70
     0
  9
$DIMCLRE
 70
     0
  9
$DIMCLRT
 70
     0
  9
$DIMTFAC
 40
1.0
  9
$DIMGAP
 40
0.09
  9
$DIMJUST
 70
     0
  9
$DIMSD1
 70
     0
  9
$DIMSD2
 70
     0
  9
$DIMTOLJ
 70
     1
  9
$DIMTZIN
 70
     0
  9
$DIMALTZ
 70
     0
  9
$DIMALTTZ
 70
     0
  9
$DIMUPT
 70
     0
  9
$DIMDEC
 70
     4
  9
$DIMTDEC
 70
     4
  9
$DIMALTU
 70
     2
  9
$DIMALTTD
 70
     2
  9
$DIMTXSTY
  7
Standard
  9
$DIMAUNIT
 70
     0
  9
$DIMADEC
 70
     0
  9
$DIMALTRND
 40
0.0
  9
$DIMAZIN
 70
     0
  9
$DIMDSEP
 70
    46
  9
$DIMATFIT
 70
     3
  9
$DIMFRAC
 70
     0
  9
$DIMLDRBLK
  1

  9
$DIMLUNIT
 70
     2
  9
$DIMLWD
 70
    -2
  9
$DIMLWE
 70
    -2
  9
$DIMTMOVE
 70
     0
  9
$DIMFXL
 40
1.0
  9
$DIMFXLON
 70
     0
  9
$DIMJOGANG
 40
0.7853981633974483
  9
$DIMTFILL
 70
     0
  9
$DIMTFILLCLR
 70
     0
  9
$DIMARCSYM
 70
     0
  9
$DIMLTYPE
  6

  9
$DIMLTEX1
  6

  9
$DIMLTEX2
  6

  9
$DIMTXTDIRECTION
 70
     0
  9
$LUNITS
 70
     2
  9
$LUPREC
 70
     4
  9
$SKETCHINC
 40
0.1
  9
$FILLETRAD
 40
0.0
  9
$AUNITS
 70
     0
  9
$AUPREC
 70
     0
  9
$MENU
  1
.
  9
$ELEVATION
 40
0.0
  9
$PELEVATION
 40
0.0
  9
$THICKNESS
 40
0.0
  9
$LIMCHECK
 70
     0
  9
$CHAMFERA
 40
0.0
  9
$CHAMFERB
 40
0.0
  9
$CHAMFERC
 40
0.0
  9
$CHAMFERD
 40
0.0
  9
$SKPOLY
 70
     0
  9
$TDCREATE
 40
2456465.808080405
  9
$TDUCREATE
 40
2456465.578913739
  9
$TDUPDATE
 40
2456465.808080417
  9
$TDUUPDATE
 40
2456465.578913750
  9
$TDINDWG
 40
0.0000478356
  9
$TDUSRTIMER
 40
0.0000478356
  9
$USRTIMER
 70
     1
  9
$ANGBASE
 50
0.0
  9
$ANGDIR
 70
     0
  9
$PDMODE
 70
     0
  9
$PDSIZE
 40
0.0
  9
$PLINEWID
 40
0.0
  9
$SPLFRAME
 70
     0
  9
$SPLINETYPE
 70
     6
  9
$SPLINESEGS
 70
     8
  9
$HANDSEED
  5
F7F
  9
$SURFTAB1
 70
     6
  9
$SURFTAB2
 70
     6
  9
$SURFTYPE
 70
     6
  9
$SURFU
 70
     6
  9
$SURFV
 70
     6
  9
$UCSBASE
  2

  9
$UCSNAME
  2

  9
$UCSORG
 10
0.0
 20
0.0
 30
0.0
  9
$UCSXDIR
 10
1.0
 20
0.0
 30
0.0
  9
$UCSYDIR
 10
0.0
 20
1.0
 30
0.0
  9
$UCSORTHOREF
  2

  9
$UCSORTHOVIEW
 70
     0
  9
$UCSORGTOP
 10
0.0
 20
0.0
 30
0.0
  9
$UCSORGBOTTOM
 10
0.0
 20
0.0
 30
0.0
  9
$UCSORGLEFT
 10
0.0
 20
0.0
 30
0.0
  9
$UCSORGRIGHT
 10
0.0
 20
0.0
 30
0.0
  9
$UCSORGFRONT
 10
0.0
 20
0.0
 30
0.0
  9
$UCSORGBACK
 10
0.0
 20
0.0
 30
0.0
  9
$PUCSBASE
  2

  9
$PUCSNAME
  2

  9
$PUCSORG
 10
0.0
 20
0.0
 30
0.0
  9
$PUCSXDIR
 10
1.0
 20
0.0
 30
0.0
  9
$PUCSYDIR
 10
0.0
 20
1.0
 30
0.0
  9
$PUCSORTHOREF
  2

  9
$PUCSORTHOVIEW
 70
     0
  9
$PUCSORGTOP
 10
0.0
 20
0.0
 30
0.0
  9
$PUCSORGBOTTOM
 10
0.0
 20
0.0
 30
0.0
  9
$PUCSORGLEFT
 10
0.0
 20
0.0
 30
0.0
  9
$PUCSORGRIGHT
 10
0.0
 20
0.0
 30
0.0
  9
$PUCSORGFRONT
 10
0.0
 20
0.0
 30
0.0
  9
$PUCSORGBACK
 10
0.0
 20
0.0
 30
0.0
  9
$USERI1
 70
     0
  9
$USERI2
 70
     0
  9
$USERI3
 70
     0
  9
$USERI4
 70
     0
  9
$USERI5
 70
     0
  9
$USERR1
 40
0.0
  9
$USERR2
 40
0.0
  9
$USERR3
 40
0.0
  9
$USERR4
 40
0.0
  9
$USERR5
 40
0.0
  9
$WORLDVIEW
 70
     1
  9
$SHADEDGE
 70
     3
  9
$SHADEDIF
 70
    70
  9
$TILEMODE
 70
     1
  9
$MAXACTVP
 70
    64
  9
$PINSBASE
 10
0.0
 20
0.0
 30
0.0
  9
$PLIMCHECK
 70
     0
  9
$PEXTMIN
 10
0.0
 20
0.0
 30
0.0
  9
$PEXTMAX
 10
238.0
 20
154.0
 30
0.0
  9
$PLIMMIN
 10
0.0
 20
0.0
  9
$PLIMMAX
 10
238.0
 20
154.0
  9
$UNITMODE
 70
     0
  9
$VISRETAIN
 70
     1
  9
$PLINEGEN
 70
     0
  9
$PSLTSCALE
 70
     1
  9
$TREEDEPTH
 70
  3020
  9
$CMLSTYLE
  2
Standard
  9
$CMLJUST
 70
     0
  9
$CMLSCALE
 40
1.0
  9
$PROXYGRAPHICS
 70
     1
  9
$MEASUREMENT
 70
     0
  9
$CELWEIGHT
370
    -1
  9
$ENDCAPS
280
     0
  9
$JOINSTYLE
280
     0
  9
$LWDISPLAY
290
     0
  9
$INSUNITS
 70
     1
  9
$HYPERLINKBASE
  1

  9
$STYLESHEET
  1

  9
$XEDIT
290
     1
  9
$CEPSNTYPE
380
     0
  9
$PSTYLEMODE
290
     1
  9
$FINGERPRINTGUID
  2
{23E4F14E-D882-4588-90DF-789C36710EF8}
  9
$VERSIONGUID
  2
{53FDC79F-8CB6-4E78-A2A8-0C1E0F7C4E4D}
  9
$EXTNAMES
290
     1
  9
$PSVPSCALE
 40
0.0
  9
$OLESTARTUP
290
     0
  9
$SORTENTS
280
   127
  9
$INDEXCTL
280
     0
  9
$HIDETEXT
280
     1
  9
$XCLIPFRAME
280
     2
  9
$HALOGAP
280
     0
  9
$OBSCOLOR
 70
   257
  9
$OBSLTYPE
280
     0
  9
$INTERSECTIONDISPLAY
280
     0
  9
$INTERSECTIONCOLOR
 70
   257
  9
$DIMASSOC
280
     1
  9
$PROJECTNAME
  1

  9
$CAMERADISPLAY
290
     0
  9
$LENSLENGTH
 40
50.0
  9
$CAMERAHEIGHT
 40
0.0
  9
$STEPSPERSEC
 40
2.0
  9
$STEPSIZE
 40
6.0
  9
$3DDWFPREC
 40
2.0
  9
$PSOLWIDTH
 40
0.25
  9
$PSOLHEIGHT
 40
4.0
  9
$LOFTANG1
 40
1.570796326794896
  9
$LOFTANG2
 40
1.570796326794896
  9
$LOFTMAG1
 40
0.0
  9
$LOFTMAG2
 40
0.0
  9
$LOFTPARAM
 70
     7
  9
$LOFTNORMALS
280
     1
  9
$LATITUDE
 40
37.795
  9
$LONGITUDE
 40
-122.394
  9
$NORTHDIRECTION
 40
0.0
  9
$TIMEZONE
 70
 -8000
  9
$LIGHTGLYPHDISPLAY
280
     1
  9
$TILEMODELIGHTSYNCH
280
     1
  9
$CMATERIAL
347
11
  9
$SOLIDHIST
280
     0
  9
$SHOWHIST
280
     1
  9
$DWFFRAME
280
     2
  9
$DGNFRAME
280
     0
  9
$REALWORLDSCALE
290
     1
  9
$INTERFERECOLOR
 62
     1
  9
$INTERFEREOBJVS
345
33
  9
$INTERFEREVPVS
346
30
  9
$CSHADOW
280
     0
  9
$SHADOWPLANELOCATION
 40
0.0
  0
ENDSEC
  0
SECTION
  2
CLASSES
  0
CLASS
  1
ACDBDICTIONARYWDFLT
  2
AcDbDictionaryWithDefault
  3
ObjectDBX Classes
 90
        0
 91
        1
280
     0
281
     0
  0
CLASS
  1
MATERIAL
  2
AcDbMaterial
  3
ObjectDBX Classes
 90
     1153
 91
        3
280
     0
281
     0
  0
CLASS
  1
VISUALSTYLE
  2
AcDbVisualStyle
  3
ObjectDBX Classes
 90
     4095
 91
       24
280
     0
281
     0
  0
CLASS
  1
SCALE
  2
AcDbScale
  3
ObjectDBX Classes
 90
     1153
 91
       17
280
     0
281
     0
  0
CLASS
  1
TABLESTYLE
  2
AcDbTableStyle
  3
ObjectDBX Classes
 90
     4095
 91
        1
280
     0
281
     0
  0
CLASS
  1
MLEADERSTYLE
  2
AcDbMLeaderStyle
  3
ACDB_MLEADERSTYLE_CLASS
 90
     4095
 91
        1
280
     0
281
     0
  0
CLASS
  1
DICTIONARYVAR
  2
AcDbDictionaryVar
  3
ObjectDBX Classes
 90
        0
 91
        3
280
     0
281
     0
  0
CLASS
  1
CELLSTYLEMAP
  2
AcDbCellStyleMap
  3
ObjectDBX Classes
 90
     1152
 91
        1
280
     0
281
     0
  0
ENDSEC
  0
SECTION
  2
TABLES
  0
TABLE
  2
VPORT
  5
8
330
0
100
AcDbSymbolTable
 70
     1
  0
VPORT
  5
57
330
8
100
AcDbSymbolTableRecord
100
AcDbViewportTableRecord
  2
*Active
 70
     0
 10
0.0
 20
0.0
 11
1.0
 21
1.0
 12
119.0
 22
77.0
 13
0.0
 23
0.0
 14
1.0
 24
1.0
 15
0.0
 25
0.0
 16
0.0
 26
0.0
 36
1.0
 17
0.0
 27
0.0
 37
0.0
 40
154.0
 41
1.545454545454545
 42
50.0
 43
0.0
 44
0.0
 50
0.0
 51
0.0
 71
     0
 72
   100
 73
     1
 74
     1
 75
     0
 76
     0
 77
     0
 78
     0
281
     0
 65
     1
110
0.0
120
0.0
130
0.0
111
1.0
121
0.0
131
0.0
112
0.0
122
1.0
132
0.0
 79
     0
146
0.0
 60
     3
 61
     5
292
     1
282
     1
141
0.0
142
0.0
 63
   250
421
  3355443
  0
ENDTAB
  0
TABLE
  2
LTYPE
  5
5
330
0
100
AcDbSymbolTable
 70
    59
  0
LTYPE
  5
5B
330
5
100
AcDbSymbolTableRecord
100
AcDbLinetypeTableRecord
  2
ByBlock
 70
     0
  3

 72
    65
 73
     0
 40
0.0
  0
LTYPE
  5
5C
330
5
100
AcDbSymbolTableRecord
100
AcDbLinetypeTableRecord
  2
ByLayer
 70
     0
  3

 72
    65
 73
     0
 40
0.0
  0
LTYPE
  5
5D
330
5
100
AcDbSymbolTableRecord
100
AcDbLinetypeTableRecord
  2
Continuous
 70
     0
  3
Solid line
 72
    65
 73
     0
 40
0.0
  0
LTYPE
  5
7C
330
5
100
AcDbSymbolTableRecord
100
AcDbLinetypeTableRecord
  2
BY_STANDARD
 70
     0
  3
By Standard ____________    ____    ____   _
 72
    65
 73
     6
 40
1.240299999999999
 49
0.6614
 74
     0
 49
-0.0827
 74
     0
 49
0.1654
 74
     0
 49
-0.0827
 74
     0
 49
0.1654
 74
     0
 49
-0.0827
 74
     0
  0
LTYPE
  5
7D
330
5
100
AcDbSymbolTableRecord
100
AcDbLinetypeTableRecord
  2
CHAIN
 70
     0
  3
Chain ____ _ ____ _ ____ _ ____ _ ____ _ ____
 72
    65
 73
     4
 40
0.7087
 49
0.4724000000000001
 74
     0
 49
-0.0591
 74
     0
 49
0.1181
 74
     0
 49
-0.0591
 74
     0
  0
LTYPE
  5
7E
330
5
100
AcDbSymbolTableRecord
100
AcDbLinetypeTableRecord
  2
DASH_DOT
 70
     0
  3
Dash dot __ . __ . __ . __ . __ . __ . __ . __
 72
    65
 73
     4
 40
0.37
 49
0.24
 74
     0
 49
-0.06
 74
     0
 49
0.01
 74
     0
 49
-0.06
 74
     0
  0
LTYPE
  5
7F
330
5
100
AcDbSymbolTableRecord
100
AcDbLinetypeTableRecord
  2
DOUBLE_DASH_DOT
 70
     0
  3
Double-Dash Dot __ __ . __ __ . __ __ . __ _
 72
    65
 73
     6
 40
0.4398
 49
0.24
 74
     0
 49
-0.06
 74
     0
 49
0.0098
 74
     0
 49
-0.06
 74
     0
 49
0.01
 74
     0
 49
-0.06
 74
     0
  0
LTYPE
  5
80
330
5
100
AcDbSymbolTableRecord
100
AcDbLinetypeTableRecord
  2
DASH_TRIPLE_DOT
 70
     0
  3
Dash Triple-Dot _ . . . _ . . . _ . . . _
 72
    65
 73
     8
 40
0.51
 49
0.24
 74
     0
 49
-0.06
 74
     0
 49
0.01
 74
     0
 49
-0.06
 74
     0
 49
0.01
 74
     0
 49
-0.06
 74
     0
 49
0.01
 74
     0
 49
-0.06
 74
     0
  0
LTYPE
  5
81
330
5
100
AcDbSymbolTableRecord
100
AcDbLinetypeTableRecord
  2
DASHED
 70
     0
  3
Dashed __ __ __ __ __ __ __ __ __ __ __ __ __ _
 72
    65
 73
     2
 40
0.2067
 49
0.1654
 74
     0
 49
-0.0413
 74
     0
  0
LTYPE
  5
82
330
5
100
AcDbSymbolTableRecord
100
AcDbLinetypeTableRecord
  2
DASH_DOUBLE_DOT
 70
     0
  3
Dash Double-Dot __ . . __ . . __ . . __ . .
 72
    65
 73
     6
 40
0.4398
 49
0.24
 74
     0
 49
-0.06
 74
     0
 49
0.0098
 74
     0
 49
-0.06
 74
     0
 49
0.01
 74
     0
 49
-0.06
 74
     0
  0
LTYPE
  5
83
330
5
100
AcDbSymbolTableRecord
100
AcDbLinetypeTableRecord
  2
DASHED_SPACE
 70
     0
  3
Dashed Space __ __ __ __ __ __ __ __ __ __ __ _
 72
    65
 73
     2
 40
0.2067
 49
0.1654
 74
     0
 49
-0.0413
 74
     0
  0
LTYPE
  5
84
330
5
100
AcDbSymbolTableRecord
100
AcDbLinetypeTableRecord
  2
DOTTED
 70
     0
  3
Dotted . . . . . . . . . . . . . . . . . . . . 
 72
    65
 73
     2
 40
0.0482
 49
0.0069
 74
     0
 49
-0.0413
 74
     0
  0
LTYPE
  5
85
330
5
100
AcDbSymbolTableRecord
100
AcDbLinetypeTableRecord
  2
DOUBLE_DASH_CHAIN
 70
     0
  3
Double-Dash Chain ______  __  __  ______  __  _
 72
    65
 73
     6
 40
1.240299999999999
 49
0.6614
 74
     0
 49
-0.0827
 74
     0
 49
0.1654
 74
     0
 49
-0.0827
 74
     0
 49
0.1654
 74
     0
 49
-0.0827
 74
     0
  0
LTYPE
  5
87
330
5
100
AcDbSymbolTableRecord
100
AcDbLinetypeTableRecord
  2
DOUBLE_DASH_DOUBLE_DOT
 70
     0
  3
Double-Dash Double-dot _ _ . . _ _ . . _
 72
    65
 73
     8
 40
0.7400000000000001
 49
0.24
 74
     0
 49
-0.06
 74
     0
 49
0.24
 74
     0
 49
-0.06
 74
     0
 49
0.01
 74
     0
 49
-0.06
 74
     0
 49
0.01
 74
     0
 49
-0.06
 74
     0
  0
LTYPE
  5
88
330
5
100
AcDbSymbolTableRecord
100
AcDbLinetypeTableRecord
  2
DOUBLE_DASH_TRIPLE_DOT
 70
     0
  3
Double Dash Triple Dot __ __ . . . __ __ . .
 72
    65
 73
    10
 40
0.8100000000000001
 49
0.24
 74
     0
 49
-0.06
 74
     0
 49
0.24
 74
     0
 49
-0.06
 74
     0
 49
0.01
 74
     0
 49
-0.06
 74
     0
 49
0.01
 74
     0
 49
-0.06
 74
     0
 49
0.01
 74
     0
 49
-0.06
 74
     0
  0
LTYPE
  5
89
330
5
100
AcDbSymbolTableRecord
100
AcDbLinetypeTableRecord
  2
LONG_DASH_DOTTED
 70
     0
  3
Long Dash Dotted ____ . ____ . ____ . ____ . _
 72
    65
 73
     4
 40
0.3543
 49
0.2362
 74
     0
 49
-0.0295
 74
     0
 49
0.0591
 74
     0
 49
-0.0295
 74
     0
  0
LTYPE
  5
8A
330
5
100
AcDbSymbolTableRecord
100
AcDbLinetypeTableRecord
  2
LONG_DASH_DOUBLE_DOT
 70
     0
  3
Long Dash Double Dot ________  .  .  ________  
 72
    65
 73
     6
 40
0.6799999999999999
 49
0.48
 74
     0
 49
-0.06
 74
     0
 49
0.01
 74
     0
 49
-0.06
 74
     0
 49
0.01
 74
     0
 49
-0.06
 74
     0
  0
LTYPE
  5
8B
330
5
100
AcDbSymbolTableRecord
100
AcDbLinetypeTableRecord
  2
LONG_DASH_TRIPLE_DOT
 70
     0
  3
Long Dash Triple Dot ____ ... ____ ... ____
 72
    65
 73
     8
 40
0.3689
 49
0.2362
 74
     0
 49
-0.0295
 74
     0
 49
0.0049
 74
     0
 49
-0.0295
 74
     0
 49
0.0049
 74
     0
 49
-0.0295
 74
     0
 49
0.0049
 74
     0
 49
-0.0295
 74
     0
  0
LTYPE
  5
8C
330
5
100
AcDbSymbolTableRecord
100
AcDbLinetypeTableRecord
  2
BORDER
 70
     0
  3
Border __ __ . __ __ . __ __ . __ __ . __ __ .
 72
    65
 73
     6
 40
1.75
 49
0.5
 74
     0
 49
-0.25
 74
     0
 49
0.5
 74
     0
 49
-0.25
 74
     0
 49
0.0
 74
     0
 49
-0.25
 74
     0
  0
LTYPE
  5
8D
330
5
100
AcDbSymbolTableRecord
100
AcDbLinetypeTableRecord
  2
BORDER2
 70
     0
  3
Border (.5x) __.__.__.__.__.__.__.__.__.__.__.
 72
    65
 73
     6
 40
0.875
 49
0.25
 74
     0
 49
-0.125
 74
     0
 49
0.25
 74
     0
 49
-0.125
 74
     0
 49
0.0
 74
     0
 49
-0.125
 74
     0
  0
LTYPE
  5
8E
330
5
100
AcDbSymbolTableRecord
100
AcDbLinetypeTableRecord
  2
BORDERX2
 70
     0
  3
Border (2x) ____  ____  .  ____  ____  .  ___
 72
    65
 73
     6
 40
3.5
 49
1.0
 74
     0
 49
-0.5
 74
     0
 49
1.0
 74
     0
 49
-0.5
 74
     0
 49
0.0
 74
     0
 49
-0.5
 74
     0
  0
LTYPE
  5
8F
330
5
100
AcDbSymbolTableRecord
100
AcDbLinetypeTableRecord
  2
CENTER
 70
     0
  3
Center ____ _ ____ _ ____ _ ____ _ ____ _ ____
 72
    65
 73
     4
 40
2.0
 49
1.25
 74
     0
 49
-0.25
 74
     0
 49
0.25
 74
     0
 49
-0.25
 74
     0
  0
LTYPE
  5
90
330
5
100
AcDbSymbolTableRecord
100
AcDbLinetypeTableRecord
  2
CENTER2
 70
     0
  3
Center (.5x) ___ _ ___ _ ___ _ ___ _ ___ _ ___
 72
    65
 73
     4
 40
1.125
 49
0.75
 74
     0
 49
-0.125
 74
     0
 49
0.125
 74
     0
 49
-0.125
 74
     0
  0
LTYPE
  5
91
330
5
100
AcDbSymbolTableRecord
100
AcDbLinetypeTableRecord
  2
CENTERX2
 70
     0
  3
Center (2x) ________  __  ________  __  _____
 72
    65
 73
     4
 40
4.0
 49
2.5
 74
     0
 49
-0.5
 74
     0
 49
0.5
 74
     0
 49
-0.5
 74
     0
  0
LTYPE
  5
92
330
5
100
AcDbSymbolTableRecord
100
AcDbLinetypeTableRecord
  2
DASHDOT2
 70
     0
  3
Dash dot (.5x) _._._._._._._._._._._._._._._.
 72
    65
 73
     4
 40
0.5
 49
0.25
 74
     0
 49
-0.125
 74
     0
 49
0.0
 74
     0
 49
-0.125
 74
     0
  0
LTYPE
  5
93
330
5
100
AcDbSymbolTableRecord
100
AcDbLinetypeTableRecord
  2
DASHDOTX2
 70
     0
  3
Dash dot (2x) ____  .  ____  .  ____  .  ___
 72
    65
 73
     4
 40
2.0
 49
1.0
 74
     0
 49
-0.5
 74
     0
 49
0.0
 74
     0
 49
-0.5
 74
     0
  0
LTYPE
  5
95
330
5
100
AcDbSymbolTableRecord
100
AcDbLinetypeTableRecord
  2
DASHED2
 70
     0
  3
Dashed (.5x) _ _ _ _ _ _ _ _ _ _ _ _ _ _ _ _ _
 72
    65
 73
     2
 40
0.375
 49
0.25
 74
     0
 49
-0.125
 74
     0
  0
LTYPE
  5
96
330
5
100
AcDbSymbolTableRecord
100
AcDbLinetypeTableRecord
  2
DASHEDX2
 70
     0
  3
Dashed (2x) ____  ____  ____  ____  ____  ___
 72
    65
 73
     2
 40
1.5
 49
1.0
 74
     0
 49
-0.5
 74
     0
  0
LTYPE
  5
97
330
5
100
AcDbSymbolTableRecord
100
AcDbLinetypeTableRecord
  2
DIVIDE
 70
     0
  3
Divide ____ . . ____ . . ____ . . ____ . . ____
 72
    65
 73
     6
 40
1.25
 49
0.5
 74
     0
 49
-0.25
 74
     0
 49
0.0
 74
     0
 49
-0.25
 74
     0
 49
0.0
 74
     0
 49
-0.25
 74
     0
  0
LTYPE
  5
98
330
5
100
AcDbSymbolTableRecord
100
AcDbLinetypeTableRecord
  2
DIVIDE2
 70
     0
  3
Divide (.5x) __..__..__..__..__..__..__..__.._
 72
    65
 73
     6
 40
0.625
 49
0.25
 74
     0
 49
-0.125
 74
     0
 49
0.0
 74
     0
 49
-0.125
 74
     0
 49
0.0
 74
     0
 49
-0.125
 74
     0
  0
LTYPE
  5
99
330
5
100
AcDbSymbolTableRecord
100
AcDbLinetypeTableRecord
  2
DIVIDEX2
 70
     0
  3
Divide (2x) ________  .  .  ________  .  .  _
 72
    65
 73
     6
 40
2.5
 49
1.0
 74
     0
 49
-0.5
 74
     0
 49
0.0
 74
     0
 49
-0.5
 74
     0
 49
0.0
 74
     0
 49
-0.5
 74
     0
  0
LTYPE
  5
9A
330
5
100
AcDbSymbolTableRecord
100
AcDbLinetypeTableRecord
  2
DOT
 70
     0
  3
Dot . . . . . . . . . . . . . . . . . . . . . .
 72
    65
 73
     2
 40
0.25
 49
0.0
 74
     0
 49
-0.25
 74
     0
  0
LTYPE
  5
9B
330
5
100
AcDbSymbolTableRecord
100
AcDbLinetypeTableRecord
  2
DOT2
 70
     0
  3
Dot (.5x) .....................................
 72
    65
 73
     2
 40
0.125
 49
0.0
 74
     0
 49
-0.125
 74
     0
  0
LTYPE
  5
9C
330
5
100
AcDbSymbolTableRecord
100
AcDbLinetypeTableRecord
  2
DOTX2
 70
     0
  3
Dot (2x) .  .  .  .  .  .  .  .  .  .  .  .  . 
 72
    65
 73
     2
 40
0.5
 49
0.0
 74
     0
 49
-0.5
 74
     0
  0
LTYPE
  5
9D
330
5
100
AcDbSymbolTableRecord
100
AcDbLinetypeTableRecord
  2
HIDDEN
 70
     0
  3
Hidden __ __ __ __ __ __ __ __ __ __ __ __ __ _
 72
    65
 73
     2
 40
0.375
 49
0.25
 74
     0
 49
-0.125
 74
     0
  0
LTYPE
  5
9E
330
5
100
AcDbSymbolTableRecord
100
AcDbLinetypeTableRecord
  2
HIDDEN2
 70
     0
  3
Hidden (.5x) _ _ _ _ _ _ _ _ _ _ _ _ _ _ _ _ _
 72
    65
 73
     2
 40
0.1875
 49
0.125
 74
     0
 49
-0.0625
 74
     0
  0
LTYPE
  5
9F
330
5
100
AcDbSymbolTableRecord
100
AcDbLinetypeTableRecord
  2
HIDDENX2
 70
     0
  3
Hidden (2x) ____ ____ ____ ____ ____ ____ ____
 72
    65
 73
     2
 40
0.75
 49
0.5
 74
     0
 49
-0.25
 74
     0
  0
LTYPE
  5
A0
330
5
100
AcDbSymbolTableRecord
100
AcDbLinetypeTableRecord
  2
PHANTOM
 70
     0
  3
Phantom ______  __  __  ______  __  __  ______
 72
    65
 73
     6
 40
2.5
 49
1.25
 74
     0
 49
-0.25
 74
     0
 49
0.25
 74
     0
 49
-0.25
 74
     0
 49
0.25
 74
     0
 49
-0.25
 74
     0
  0
LTYPE
  5
A1
330
5
100
AcDbSymbolTableRecord
100
AcDbLinetypeTableRecord
  2
PHANTOM2
 70
     0
  3
Phantom (.5x) ___ _ _ ___ _ _ ___ _ _ ___ _ _
 72
    65
 73
     6
 40
1.25
 49
0.625
 74
     0
 49
-0.125
 74
     0
 49
0.125
 74
     0
 49
-0.125
 74
     0
 49
0.125
 74
     0
 49
-0.125
 74
     0
  0
LTYPE
  5
A2
330
5
100
AcDbSymbolTableRecord
100
AcDbLinetypeTableRecord
  2
PHANTOMX2
 70
     0
  3
Phantom (2x) ____________    ____    ____   _
 72
    65
 73
     6
 40
5.0
 49
2.5
 74
     0
 49
-0.5
 74
     0
 49
0.5
 74
     0
 49
-0.5
 74
     0
 49
0.5
 74
     0
 49
-0.5
 74
     0
  0
LTYPE
  5
A3
330
5
100
AcDbSymbolTableRecord
100
AcDbLinetypeTableRecord
  2
ACAD_ISO02W100
 70
     0
  3
ISO dash __ __ __ __ __ __ __ __ __ __ __ __ __
 72
    65
 73
     2
 40
0.59
 49
0.47
 74
     0
 49
-0.12
 74
     0
  0
LTYPE
  5
A4
330
5
100
AcDbSymbolTableRecord
100
AcDbLinetypeTableRecord
  2
ACAD_ISO03W100
 70
     0
  3
ISO dash space __    __    __    __    __    __
 72
    65
 73
     2
 40
1.179999999999999
 49
0.47
 74
     0
 49
-0.71
 74
     0
  0
LTYPE
  5
A5
330
5
100
AcDbSymbolTableRecord
100
AcDbLinetypeTableRecord
  2
ACAD_ISO04W100
 70
     0
  3
ISO long-dash dot ____ . ____ . ____ . ____ . _
 72
    65
 73
     4
 40
1.179999999999999
 49
0.9399999999999998
 74
     0
 49
-0.12
 74
     0
 49
0.0
 74
     0
 49
-0.12
 74
     0
  0
LTYPE
  5
A6
330
5
100
AcDbSymbolTableRecord
100
AcDbLinetypeTableRecord
  2
ACAD_ISO05W100
 70
     0
  3
ISO long-dash double-dot ____ .. ____ .. ____ .
 72
    65
 73
     6
 40
1.299999999999999
 49
0.9399999999999998
 74
     0
 49
-0.12
 74
     0
 49
0.0
 74
     0
 49
-0.12
 74
     0
 49
0.0
 74
     0
 49
-0.12
 74
     0
  0
LTYPE
  5
A7
330
5
100
AcDbSymbolTableRecord
100
AcDbLinetypeTableRecord
  2
ACAD_ISO06W100
 70
     0
  3
ISO long-dash triple-dot ____ ... ____ ... ____
 72
    65
 73
     8
 40
1.419999999999999
 49
0.9399999999999998
 74
     0
 49
-0.12
 74
     0
 49
0.0
 74
     0
 49
-0.12
 74
     0
 49
0.0
 74
     0
 49
-0.12
 74
     0
 49
0.0
 74
     0
 49
-0.12
 74
     0
  0
LTYPE
  5
A8
330
5
100
AcDbSymbolTableRecord
100
AcDbLinetypeTableRecord
  2
ACAD_ISO07W100
 70
     0
  3
ISO dot . . . . . . . . . . . . . . . . . . . .
 72
    65
 73
     2
 40
0.12
 49
0.0
 74
     0
 49
-0.12
 74
     0
  0
LTYPE
  5
A9
330
5
100
AcDbSymbolTableRecord
100
AcDbLinetypeTableRecord
  2
ACAD_ISO08W100
 70
     0
  3
ISO long-dash short-dash ____ __ ____ __ ____ _
 72
    65
 73
     4
 40
0.95
 49
0.47
 74
     0
 49
-0.12
 74
     0
 49
0.24
 74
     0
 49
-0.12
 74
     0
  0
LTYPE
  5
AA
330
5
100
AcDbSymbolTableRecord
100
AcDbLinetypeTableRecord
  2
ACAD_ISO09W100
 70
     0
  3
ISO long-dash double-short-dash ____ __ __ ____
 72
    65
 73
     6
 40
1.31
 49
0.47
 74
     0
 49
-0.12
 74
     0
 49
0.24
 74
     0
 49
-0.12
 74
     0
 49
0.24
 74
     0
 49
-0.12
 74
     0
  0
LTYPE
  5
AB
330
5
100
AcDbSymbolTableRecord
100
AcDbLinetypeTableRecord
  2
ACAD_ISO10W100
 70
     0
  3
ISO dash dot __ . __ . __ . __ . __ . __ . __ .
 72
    65
 73
     4
 40
0.71
 49
0.47
 74
     0
 49
-0.12
 74
     0
 49
0.0
 74
     0
 49
-0.12
 74
     0
  0
LTYPE
  5
AC
330
5
100
AcDbSymbolTableRecord
100
AcDbLinetypeTableRecord
  2
ACAD_ISO11W100
 70
     0
  3
ISO double-dash dot __ __ . __ __ . __ __ . __ 
 72
    65
 73
     6
 40
1.299999999999999
 49
0.47
 74
     0
 49
-0.12
 74
     0
 49
0.47
 74
     0
 49
-0.12
 74
     0
 49
0.0
 74
     0
 49
-0.12
 74
     0
  0
LTYPE
  5
AD
330
5
100
AcDbSymbolTableRecord
100
AcDbLinetypeTableRecord
  2
ACAD_ISO12W100
 70
     0
  3
ISO dash double-dot __ . . __ . . __ . . __ . .
 72
    65
 73
     6
 40
0.8299999999999998
 49
0.47
 74
     0
 49
-0.12
 74
     0
 49
0.0
 74
     0
 49
-0.12
 74
     0
 49
0.0
 74
     0
 49
-0.12
 74
     0
  0
LTYPE
  5
AE
330
5
100
AcDbSymbolTableRecord
100
AcDbLinetypeTableRecord
  2
ACAD_ISO13W100
 70
     0
  3
ISO double-dash double-dot __ __ . . __ __ . . 
 72
    65
 73
     8
 40
1.419999999999999
 49
0.47
 74
     0
 49
-0.12
 74
     0
 49
0.47
 74
     0
 49
-0.12
 74
     0
 49
0.0
 74
     0
 49
-0.12
 74
     0
 49
0.0
 74
     0
 49
-0.12
 74
     0
  0
LTYPE
  5
AF
330
5
100
AcDbSymbolTableRecord
100
AcDbLinetypeTableRecord
  2
ACAD_ISO14W100
 70
     0
  3
ISO dash triple-dot __ . . . __ . . . __ . . . 
 72
    65
 73
     8
 40
0.95
 49
0.47
 74
     0
 49
-0.12
 74
     0
 49
0.0
 74
     0
 49
-0.12
 74
     0
 49
0.0
 74
     0
 49
-0.12
 74
     0
 49
0.0
 74
     0
 49
-0.12
 74
     0
  0
LTYPE
  5
B0
330
5
100
AcDbSymbolTableRecord
100
AcDbLinetypeTableRecord
  2
ACAD_ISO15W100
 70
     0
  3
ISO double-dash triple-dot __ __ . . . __ __ . 
 72
    65
 73
    10
 40
1.539999999999999
 49
0.47
 74
     0
 49
-0.12
 74
     0
 49
0.47
 74
     0
 49
-0.12
 74
     0
 49
0.0
 74
     0
 49
-0.12
 74
     0
 49
0.0
 74
     0
 49
-0.12
 74
     0
 49
0.0
 74
     0
 49
-0.12
 74
     0
  0
LTYPE
  5
B3
330
5
100
AcDbSymbolTableRecord
100
AcDbLinetypeTableRecord
  2
FENCELINE1
 70
     0
  3
Fenceline circle ----0-----0----0-----0----0---
 72
    65
 73
     4
 40
1.45
 49
0.25
 74
     0
 49
-0.1
 74
     4
 75
   133
340
B2
 46
0.1
 50
0.0
 44
-0.1
 45
0.0
 49
-0.1
 74
     0
 49
1.0
 74
     0
  0
LTYPE
  5
B4
330
5
100
AcDbSymbolTableRecord
100
AcDbLinetypeTableRecord
  2
FENCELINE2
 70
     0
  3
Fenceline square ----[]-----[]----[]-----[]----
 72
    65
 73
     4
 40
1.45
 49
0.25
 74
     0
 49
-0.1
 74
     4
 75
   132
340
B2
 46
0.1
 50
0.0
 44
-0.1
 45
0.0
 49
-0.1
 74
     0
 49
1.0
 74
     0
  0
LTYPE
  5
B5
330
5
100
AcDbSymbolTableRecord
100
AcDbLinetypeTableRecord
  2
TRACKS
 70
     0
  3
Tracks -|-|-|-|-|-|-|-|-|-|-|-|-|-|-|-|-|-|-|-|
 72
    65
 73
     2
 40
0.3
 49
0.15
 74
     4
 75
   130
340
B2
 46
0.25
 50
0.0
 44
0.0
 45
0.0
 49
0.15
 74
     0
  0
LTYPE
  5
B6
330
5
100
AcDbSymbolTableRecord
100
AcDbLinetypeTableRecord
  2
BATTING
 70
     0
  3
Batting SSSSSSSSSSSSSSSSSSSSSSSSSSSSSSSSSSSSSSS
 72
    65
 73
     4
 40
0.4001000000000001
 49
0.0001
 74
     0
 49
-0.1
 74
     4
 75
   134
340
B2
 46
0.1
 50
0.0
 44
-0.1
 45
0.0
 49
-0.2
 74
     4
 75
   134
340
B2
 46
0.1
 50
180.0
 44
0.1
 45
0.0
 49
-0.1
 74
     0
  0
LTYPE
  5
B7
330
5
100
AcDbSymbolTableRecord
100
AcDbLinetypeTableRecord
  2
HOT_WATER_SUPPLY
 70
     0
  3
Hot water supply ---- HW ---- HW ---- HW ----
 72
    65
 73
     3
 40
0.9
 49
0.5
 74
     0
 49
-0.2
 74
     2
 75
     0
340
55
 46
0.1
 50
0.0
 44
-0.1
 45
-0.05
  9
HW
 49
-0.2
 74
     0
  0
LTYPE
  5
B8
330
5
100
AcDbSymbolTableRecord
100
AcDbLinetypeTableRecord
  2
GAS_LINE
 70
     0
  3
Gas line ----GAS----GAS----GAS----GAS----GAS---
 72
    65
 73
     3
 40
0.95
 49
0.5
 74
     0
 49
-0.2
 74
     2
 75
     0
340
55
 46
0.1
 50
0.0
 44
-0.1
 45
-0.05
  9
GAS
 49
-0.25
 74
     0
  0
LTYPE
  5
B9
330
5
100
AcDbSymbolTableRecord
100
AcDbLinetypeTableRecord
  2
ZIGZAG
 70
     0
  3
Zig zag /\/\/\/\/\/\/\/\/\/\/\/\/\/\/\/\/\/\/\/
 72
    65
 73
     4
 40
0.8001000000000001
 49
0.0001
 74
     0
 49
-0.2
 74
     4
 75
   131
340
B2
 46
0.2
 50
0.0
 44
-0.2
 45
0.0
 49
-0.4
 74
     4
 75
   131
340
B2
 46
0.2
 50
180.0
 44
0.2
 45
0.0
 49
-0.2
 74
     0
  0
ENDTAB
  0
TABLE
  2
LAYER
  5
2
330
0
100
AcDbSymbolTable
 70
    27
  0
LAYER
  5
54
330
2
100
AcDbSymbolTableRecord
100
AcDbLayerTableRecord
  2
0
 70
     0
 62
     7
  6
Continuous
370
    18
390
F
347
21
  0
LAYER
  5
C0
330
2
100
AcDbSymbolTableRecord
100
AcDbLayerTableRecord
  2
Center Mark (ANSI)
 70
     0
 62
     7
  6
Continuous
370
    15
390
F
347
21
  0
LAYER
  5
C1
330
2
100
AcDbSymbolTableRecord
100
AcDbLayerTableRecord
  2
Centerline (ANSI)
 70
     0
 62
     7
  6
Continuous
370
    15
390
F
347
21
  0
LAYER
  5
C3
330
2
100
AcDbSymbolTableRecord
100
AcDbLayerTableRecord
  2
Dimension (ANSI)
 70
     0
 62
     7
  6
Continuous
370
    13
390
F
347
21
  0
LAYER
  5
C5
330
2
100
AcDbSymbolTableRecord
100
AcDbLayerTableRecord
  2
Hidden (ANSI)
 70
     0
 62
     7
  6
DASHED
370
    15
390
F
347
21
  0
LAYER
  5
CC
330
2
100
AcDbSymbolTableRecord
100
AcDbLayerTableRecord
  2
Symbol (ANSI)
 70
     0
 62
     7
  6
Continuous
370
    18
390
F
347
21
  0
LAYER
  5
CF
330
2
100
AcDbSymbolTableRecord
100
AcDbLayerTableRecord
  2
Visible (ANSI)
 70
     0
 62
     7
  6
Continuous
370
    13
390
F
347
21
  0
LAYER
  5
D0
330
2
100
AcDbSymbolTableRecord
100
AcDbLayerTableRecord
  2
Visible Narrow (ANSI)
 70
     0
 62
     7
  6
Continuous
370
    18
390
F
347
21
  0
LAYER
  5
55A
330
2
100
AcDbSymbolTableRecord
100
AcDbLayerTableRecord
  2
Defpoints
 70
     0
 62
     7
  6
Continuous
290
     0
370
    -3
390
F
347
21
  0
ENDTAB
  0
TABLE
  2
STYLE
  5
3
330
0
100
AcDbSymbolTable
 70
    18
  0
STYLE
  5
55
330
3
100
AcDbSymbolTableRecord
100
AcDbTextStyleTableRecord
  2
Standard
 70
     0
 40
0.0
 41
1.0
 50
0.0
 71
     0
 42
0.2
  3
txt
  4

  0
STYLE
  5
5A
330
3
100
AcDbSymbolTableRecord
100
AcDbTextStyleTableRecord
  2
Annotative
 70
     0
 40
0.0
 41
1.0
 50
0.0
 71
     0
 42
0.2
  3
txt
  4

1001
AcadAnnotative
1000
AnnotativeData
1002
{
1070
     1
1070
     1
1002
}
  0
STYLE
  5
B2
330
3
100
AcDbSymbolTableRecord
100
AcDbTextStyleTableRecord
  2

 70
     1
 40
0.0
 41
1.0
 50
0.0
 71
     0
 42
0.2
  3
ltypeshp.shx
  4

  0
STYLE
  5
D4
330
3
100
AcDbSymbolTableRecord
100
AcDbTextStyleTableRecord
  2
ITALICC_120
 70
     0
 40
0.0
 41
1.0
 50
0.0
 71
     0
 42
0.2
  3
italicc.shx
  4

  0
STYLE
  5
D5
330
3
100
AcDbSymbolTableRecord
100
AcDbTextStyleTableRecord
  2
Label Text (ANSI)
 70
     0
 40
0.0
 41
1.0
 50
0.0
 71
     0
 42
0.2
  3
tahoma.ttf
  4

1001
ACAD
1000
Tahoma
1071
      256
  0
STYLE
  5
D6
330
3
100
AcDbSymbolTableRecord
100
AcDbTextStyleTableRecord
  2
Note Text (ANSI)
 70
     0
 40
0.0
 41
1.0
 50
0.0
 71
     0
 42
0.2
  3
tahoma.ttf
  4

1001
ACAD
1000
Tahoma
1071
      256
  0
STYLE
  5
D7
330
3
100
AcDbSymbolTableRecord
100
AcDbTextStyleTableRecord
  2
ROMANS
 70
     0
 40
0.0
 41
1.0
 50
0.0
 71
     0
 42
0.2
  3
romans.shx
  4

  0
STYLE
  5
D8
330
3
100
AcDbSymbolTableRecord
100
AcDbTextStyleTableRecord
  2
SANSSERIF_114
 70
     0
 40
0.0
 41
1.0
 50
0.0
 71
     0
 42
0.2
  3
tahoma.ttf
  4

1001
ACAD
1000
Tahoma
1071
      256
  0
STYLE
  5
D9
330
3
100
AcDbSymbolTableRecord
100
AcDbTextStyleTableRecord
  2
SANSSERIF_117
 70
     0
 40
0.0
 41
1.0
 50
0.0
 71
     0
 42
0.2
  3
tahoma.ttf
  4

1001
ACAD
1000
Tahoma
1071
      256
  0
STYLE
  5
DA
330
3
100
AcDbSymbolTableRecord
100
AcDbTextStyleTableRecord
  2
STANDARDAM_ANSI
 70
     0
 40
0.0
 41
1.0
 50
0.0
 71
     0
 42
0.2
  3
txt.shx
  4

  0
STYLE
  5
DB
330
3
100
AcDbSymbolTableRecord
100
AcDbTextStyleTableRecord
  2
StandardAM_ANSI$0
 70
     0
 40
0.0
 41
1.0
 50
0.0
 71
     0
 42
0.2
  3
txt.shx
  4

  0
STYLE
  5
DC
330
3
100
AcDbSymbolTableRecord
100
AcDbTextStyleTableRecord
  2
STANDARDAM_ANSI$3
 70
     0
 40
0.0
 41
1.0
 50
0.0
 71
     0
 42
0.2
  3
txt.shx
  4

  0
STYLE
  5
DD
330
3
100
AcDbSymbolTableRecord
100
AcDbTextStyleTableRecord
  2
STANDARDAM_ANSI$4
 70
     0
 40
0.0
 41
1.0
 50
0.0
 71
     0
 42
0.2
  3
txt.shx
  4

  0
STYLE
  5
DE
330
3
100
AcDbSymbolTableRecord
100
AcDbTextStyleTableRecord
  2
STANDARDAM_ANSI$7
 70
     0
 40
0.0
 41
1.0
 50
0.0
 71
     0
 42
0.2
  3
txt.shx
  4

  0
STYLE
  5
DF
330
3
100
AcDbSymbolTableRecord
100
AcDbTextStyleTableRecord
  2
STANDARDAM_ANSI$SF
 70
     0
 40
0.0
 41
1.0
 50
0.0
 71
     0
 42
0.2
  3
txt.shx
  4

  0
STYLE
  5
E0
330
3
100
AcDbSymbolTableRecord
100
AcDbTextStyleTableRecord
  2
STANDARDAM_ANSI$SH
 70
     0
 40
0.0
 41
1.0
 50
0.0
 71
     0
 42
0.2
  3
txt.shx
  4

  0
STYLE
  5
E1
330
3
100
AcDbSymbolTableRecord
100
AcDbTextStyleTableRecord
  2
STANDARDSTANDARD
 70
     0
 40
0.0
 41
1.0
 50
0.0
 71
     0
 42
0.2
  3
txt.shx
  4

  0
STYLE
  5
2E3
330
3
100
AcDbSymbolTableRecord
100
AcDbTextStyleTableRecord
  2
Text Style153
 70
     0
 40
0.0
 41
1.0
 50
0.0
 71
     0
 42
0.2
  3
tahoma.ttf
  4

1001
ACAD
1000
Tahoma
1071
      256
  0
ENDTAB
  0
TABLE
  2
VIEW
  5
6
330
0
100
AcDbSymbolTable
 70
     0
  0
ENDTAB
  0
TABLE
  2
UCS
  5
7
330
0
100
AcDbSymbolTable
 70
     0
  0
ENDTAB
  0
TABLE
  2
APPID
  5
9
330
0
100
AcDbSymbolTable
 70
     3
  0
APPID
  5
56
330
9
100
AcDbSymbolTableRecord
100
AcDbRegAppTableRecord
  2
ACAD
 70
     0
  0
APPID
  5
5E
330
9
100
AcDbSymbolTableRecord
100
AcDbRegAppTableRecord
  2
AcadAnnotative
 70
     0
  0
APPID
  5
C6F
330
9
100
AcDbSymbolTableRecord
100
AcDbRegAppTableRecord
  2
ACAD_DSTYLE_DIMRADIAL_EXTENSION
 70
     0
  0
ENDTAB
  0
TABLE
  2
DIMSTYLE
  5
A
330
0
100
AcDbSymbolTable
 70
    27
100
AcDbDimStyleTable
 71
     2
340
F6
340
58
  0
DIMSTYLE
105
58
330
A
100
AcDbSymbolTableRecord
100
AcDbDimStyleTableRecord
  2
STANDARD
 70
     0
 41
0.1800000071525573
 42
0.0625
140
0.1800000071525574
144
1.0
147
0.0900000035762787
176
   256
177
   256
178
   256
274
     3
340
55
371
    -1
372
    -1
  0
DIMSTYLE
105
59
330
A
100
AcDbSymbolTableRecord
100
AcDbDimStyleTableRecord
  2
Annotative
 70
     0
340
55
1001
AcadAnnotative
1000
AnnotativeData
1002
{
1070
     1
1070
     1
1002
}
  0
DIMSTYLE
105
E2
330
A
100
AcDbSymbolTableRecord
100
AcDbDimStyleTableRecord
  2
AM_ANSI
 70
     0
  4
 mm
 40
14.0
 41
0.119999997317791
 42
0.05
 43
0.5
 44
0.1
 45
0.00000001
 78
     4
 79
     2
140
0.1200000047683716
146
0.7099999189376831
147
0.0599999986588955
176
   256
177
   256
178
     2
284
     4
340
DA
371
    -1
372
    -1
  0
DIMSTYLE
105
E3
330
A
100
AcDbSymbolTableRecord
100
AcDbDimStyleTableRecord
  2
AM_ANSI$7
 70
     0
  4
 mm
 40
14.0
 41
0.119999997317791
 42
0.05
 43
0.5
 44
0.1
 45
0.00000001
 78
     4
 79
     2
140
0.1200000047683716
146
0.7099999189376831
147
0.0599999986588955
176
   256
177
   256
178
     2
284
     4
340
DA
371
    -1
372
    -1
  0
DIMSTYLE
105
E4
330
A
100
AcDbSymbolTableRecord
100
AcDbDimStyleTableRecord
  2
AM_ANSI$0
 70
     0
  4
 mm
 40
14.0
 41
0.119999997317791
 42
0.05
 43
0.5
 44
0.1
 45
0.00000001
 78
     4
 79
     2
140
0.1200000047683716
146
0.7099999189376831
147
0.0599999986588955
176
   256
177
   256
178
     2
284
     4
340
DB
371
    -1
372
    -1
  0
DIMSTYLE
105
E5
330
A
100
AcDbSymbolTableRecord
100
AcDbDimStyleTableRecord
  2
AM_ANSI$0$7
 70
     0
  4
 mm
 40
14.0
 41
0.119999997317791
 42
0.05
 43
0.5
 44
0.1
 45
0.00000001
 78
     4
 79
     2
140
0.1200000047683716
146
0.7099999189376831
147
0.0599999986588955
176
   256
177
   256
178
     2
284
     4
340
DB
371
    -1
372
    -1
  0
DIMSTYLE
105
E6
330
A
100
AcDbSymbolTableRecord
100
AcDbDimStyleTableRecord
  2
AM_ANSI$3
 70
     0
  4
 mm
 40
14.0
 41
0.119999997317791
 42
0.05
 43
0.5
 44
0.1
 45
0.00000001
 78
     4
 79
     2
140
0.1200000047683716
146
0.7099999189376831
147
0.0599999986588955
176
   256
177
   256
178
     2
284
     4
340
DC
371
    -1
372
    -1
  0
DIMSTYLE
105
E7
330
A
100
AcDbSymbolTableRecord
100
AcDbDimStyleTableRecord
  2
AM_ANSI$3$7
 70
     0
  4
 mm
 40
14.0
 41
0.119999997317791
 42
0.05
 43
0.5
 44
0.1
 45
0.00000001
 78
     4
 79
     2
140
0.1200000047683716
146
0.7099999189376831
147
0.0599999986588955
176
   256
177
   256
178
     2
284
     4
340
DC
371
    -1
372
    -1
  0
DIMSTYLE
105
E8
330
A
100
AcDbSymbolTableRecord
100
AcDbDimStyleTableRecord
  2
AM_ANSI$4
 70
     0
  4
 mm
 40
14.0
 41
0.119999997317791
 42
0.05
 43
0.5
 44
0.1
 45
0.00000001
 78
     4
 79
     2
140
0.1200000047683716
146
0.7099999189376831
147
0.0599999986588955
176
   256
177
   256
178
     2
284
     4
340
DD
371
    -1
372
    -1
  0
DIMSTYLE
105
E9
330
A
100
AcDbSymbolTableRecord
100
AcDbDimStyleTableRecord
  2
AM_ANSI$4$7
 70
     0
  4
 mm
 40
14.0
 41
0.119999997317791
 42
0.05
 43
0.5
 44
0.1
 45
0.00000001
 78
     4
 79
     2
140
0.1200000047683716
146
0.7099999189376831
147
0.0599999986588955
176
   256
177
   256
178
     2
284
     4
340
DD
371
    -1
372
    -1
  0
DIMSTYLE
105
EA
330
A
100
AcDbSymbolTableRecord
100
AcDbDimStyleTableRecord
  2
AM_ANSI$SF
 70
     0
  4
 mm
 40
14.0
 41
0.119999997317791
 42
0.05
 43
0.5
 44
0.1
 45
0.00000001
 75
     1
 76
     1
 78
     4
 79
     2
140
0.1200000047683716
146
0.7099999189376831
147
0.0599999986588955
176
   256
177
   256
178
     2
284
     4
340
DF
371
    -1
372
    -1
  0
DIMSTYLE
105
EB
330
A
100
AcDbSymbolTableRecord
100
AcDbDimStyleTableRecord
  2
AM_ANSI$SF$7
 70
     0
  4
 mm
 40
14.0
 41
0.119999997317791
 42
0.05
 43
0.5
 44
0.1
 45
0.00000001
 75
     1
 76
     1
 78
     4
 79
     2
140
0.1200000047683716
146
0.7099999189376831
147
0.0599999986588955
176
   256
177
   256
178
     2
284
     4
340
DF
371
    -1
372
    -1
  0
DIMSTYLE
105
EC
330
A
100
AcDbSymbolTableRecord
100
AcDbDimStyleTableRecord
  2
AM_ANSI$SH
 70
     0
  4
 mm
 40
14.0
 41
0.119999997317791
 42
0.05
 43
0.5
 44
0.1
 45
0.00000001
 75
     1
 76
     1
 78
     4
 79
     2
140
0.1200000047683716
146
0.7099999189376831
147
0.0599999986588955
176
   256
177
   256
178
     2
284
     4
340
E0
371
    -1
372
    -1
  0
DIMSTYLE
105
ED
330
A
100
AcDbSymbolTableRecord
100
AcDbDimStyleTableRecord
  2
AM_ANSI$SH$7
 70
     0
  4
 mm
 40
14.0
 41
0.119999997317791
 42
0.05
 43
0.5
 44
0.1
 45
0.00000001
 75
     1
 76
     1
 78
     4
 79
     2
140
0.1200000047683716
146
0.7099999189376831
147
0.0599999986588955
176
   256
177
   256
178
     2
284
     4
340
E0
371
    -1
372
    -1
  0
DIMSTYLE
105
EE
330
A
100
AcDbSymbolTableRecord
100
AcDbDimStyleTableRecord
  2
Architectural (ANSI)
 70
     0
 40
14.0
 41
0.0984251946210861
 43
0.2362204724409449
 44
0.125
 45
0.00000001
 46
0.3937007874015748
 78
     3
 79
     3
140
0.1200000047683716
147
0.031496062992126
171
     1
176
   256
177
   256
178
   256
272
     2
274
     1
276
     2
277
     4
284
    12
285
     4
286
    12
340
D6
371
    -1
372
    -1
  0
DIMSTYLE
105
EF
330
A
100
AcDbSymbolTableRecord
100
AcDbDimStyleTableRecord
  2
Architectural (ANSI)$7
 70
     0
 40
14.0
 41
0.0984251946210861
 43
0.2362204724409449
 44
0.125
 45
0.00000001
 46
0.3937007874015748
 78
     3
 79
     3
140
0.1200000047683716
147
0.031496062992126
171
     1
176
   256
177
   256
178
   256
272
     2
274
     1
276
     2
277
     4
284
    12
285
     4
286
    12
340
D6
371
    -1
372
    -1
  0
DIMSTYLE
105
F0
330
A
100
AcDbSymbolTableRecord
100
AcDbDimStyleTableRecord
  2
Default - Fraction (ANSI)
 70
     0
 40
14.0
 41
0.0984251946210861
 43
0.2362204724409449
 44
0.125
 45
0.00000001
 46
0.3937007874015748
 79
     3
140
0.1200000047683716
147
0.031496062992126
171
     1
176
   256
177
   256
178
   256
272
     2
274
     1
276
     2
277
     5
284
    12
285
     4
286
    12
340
D6
371
    -1
372
    -1
  0
DIMSTYLE
105
F1
330
A
100
AcDbSymbolTableRecord
100
AcDbDimStyleTableRecord
  2
Default - Fraction (ANSI)$7
 70
     0
 40
14.0
 41
0.0984251946210861
 43
0.2362204724409449
 44
0.125
 45
0.00000001
 46
0.3937007874015748
 79
     3
140
0.1200000047683716
147
0.031496062992126
171
     1
176
   256
177
   256
178
   256
272
     2
274
     1
276
     2
277
     5
284
    12
285
     4
286
    12
340
D6
371
    -1
372
    -1
  0
DIMSTYLE
105
F2
330
A
100
AcDbSymbolTableRecord
100
AcDbDimStyleTableRecord
  2
Default - mm (ANSI)
 70
     0
 40
14.0
 41
0.0984251946210861
 42
0.063
 43
0.2362204724409449
 44
0.125
 45
0.00000001
 46
0.3937007874015748
 73
     0
 78
     4
 79
     1
140
0.1200000047683716
143
1.0
144
25.4
147
0.031496062992126
171
     1
176
   256
177
   256
178
   256
179
     1
271
     2
272
     2
274
     1
284
     4
285
     4
340
D6
371
    -1
372
    -1
  0
DIMSTYLE
105
F3
330
A
100
AcDbSymbolTableRecord
100
AcDbDimStyleTableRecord
  2
Default - mm (ANSI)$7
 70
     0
 40
14.0
 41
0.0984251946210861
 42
0.063
 43
0.2362204724409449
 44
0.125
 45
0.00000001
 46
0.3937007874015748
 73
     0
 78
     4
 79
     1
140
0.1200000047683716
143
1.0
144
25.4
147
0.031496062992126
171
     1
176
   256
177
   256
178
   256
179
     1
271
     2
272
     2
274
     1
284
     4
285
     4
340
D6
371
    -1
372
    -1
  0
DIMSTYLE
105
F4
330
A
100
AcDbSymbolTableRecord
100
AcDbDimStyleTableRecord
  2
Default - mm [in] (ANSI)
 70
     0
  4
 in
 40
14.0
 41
0.0984251946210861
 42
0.063
 43
0.25
 44
0.125
 45
0.00000001
 46
0.3937007874015748
 73
     0
 78
     4
 79
     1
140
0.1200000047683716
143
0.03937
144
25.4
147
0.031496062992126
170
     1
171
     3
176
   256
177
   256
178
   256
179
     1
271
     2
272
     2
274
     3
284
     4
285
     4
286
     4
340
D6
371
    -1
372
    -1
  0
DIMSTYLE
105
F5
330
A
100
AcDbSymbolTableRecord
100
AcDbDimStyleTableRecord
  2
Default - mm [in] (ANSI)$7
 70
     0
  4
 in
 40
14.0
 41
0.0984251946210861
 42
0.063
 43
0.25
 44
0.125
 45
0.00000001
 46
0.3937007874015748
 73
     0
 78
     4
 79
     1
140
0.1200000047683716
143
0.03937
144
25.4
147
0.031496062992126
170
     1
171
     3
176
   256
177
   256
178
   256
179
     1
271
     2
272
     2
274
     3
284
     4
285
     4
286
     4
340
D6
371
    -1
372
    -1
  0
DIMSTYLE
105
F6
102
{ACAD_REACTORS
330
558
330
644
330
72E
330
818
330
918
330
A02
330
AEC
330
BD6
330
C90
330
D99
330
E8B
102
}
330
A
100
AcDbSymbolTableRecord
100
AcDbDimStyleTableRecord
  2
Default (ANSI)
 70
     0
 40
14.0
 41
0.0984251946210861
 43
0.2362204724409449
 44
0.125
 45
0.00000001
 46
0.3937007874015748
 79
     1
140
0.1200000047683716
147
0.031496062992126
171
     1
176
   256
177
   256
178
   256
271
     2
272
     2
274
     1
284
     4
285
     4
340
D6
371
    -1
372
    -1
  0
DIMSTYLE
105
F7
330
A
100
AcDbSymbolTableRecord
100
AcDbDimStyleTableRecord
  2
Default (ANSI)$7
 70
     0
 40
14.0
 41
0.0984251946210861
 43
0.2362204724409449
 44
0.125
 45
0.00000001
 46
0.3937007874015748
 79
     1
140
0.1200000047683716
147
0.031496062992126
171
     1
176
   256
177
   256
178
   256
271
     2
272
     2
274
     1
284
     4
285
     4
340
D6
371
    -1
372
    -1
  0
DIMSTYLE
105
F8
330
A
100
AcDbSymbolTableRecord
100
AcDbDimStyleTableRecord
  2
Alternate (ANSI)
 70
     0
 40
14.0
 41
0.0979999974370003
340
55
342
F9
  0
DIMSTYLE
105
10B
330
A
100
AcDbSymbolTableRecord
100
AcDbDimStyleTableRecord
  2
Datum (ANSI)
 70
     0
 40
14.0
 41
0.0979999974370003
340
55
342
F9
  0
DIMSTYLE
105
11A
330
A
100
AcDbSymbolTableRecord
100
AcDbDimStyleTableRecord
  2
Large (ANSI)
 70
     0
 40
14.0
 41
0.1959999948740005
340
55
342
F9
  0
ENDTAB
  0
TABLE
  2
BLOCK_RECORD
  5
1
330
0
100
AcDbSymbolTable
 70
    15
  0
BLOCK_RECORD
  5
6C
330
1
100
AcDbSymbolTableRecord
100
AcDbBlockTableRecord
  2
*Model_Space
340
6F
 70
     0
280
     1
281
     0
  0
BLOCK_RECORD
  5
68
330
1
100
AcDbSymbolTableRecord
100
AcDbBlockTableRecord
  2
*Paper_Space
340
6B
 70
     0
280
     1
281
     0
  0
BLOCK_RECORD
  5
70
330
1
100
AcDbSymbolTableRecord
100
AcDbBlockTableRecord
  2
*Paper_Space0
340
73
 70
     0
280
     1
281
     0
  0
BLOCK_RECORD
  5
F9
330
1
100
AcDbSymbolTableRecord
100
AcDbBlockTableRecord
  2
_Closed
340
0
 70
     0
280
     1
281
     0
  0
BLOCK_RECORD
  5
100
330
1
100
AcDbSymbolTableRecord
100
AcDbBlockTableRecord
  2
DatumFilled45
340
0
 70
     0
280
     1
281
     0
  0
BLOCK_RECORD
  5
10C
330
1
100
AcDbSymbolTableRecord
100
AcDbBlockTableRecord
  2
Filled-1
340
0
 70
     0
280
     1
281
     0
  0
BLOCK_RECORD
  5
55B
330
1
100
AcDbSymbolTableRecord
100
AcDbBlockTableRecord
  2
*D4
340
0
 70
     0
280
     1
281
     0
  0
BLOCK_RECORD
  5
645
330
1
100
AcDbSymbolTableRecord
100
AcDbBlockTableRecord
  2
*D5
340
0
 70
     0
280
     1
281
     0
  0
BLOCK_RECORD
  5
72F
330
1
100
AcDbSymbolTableRecord
100
AcDbBlockTableRecord
  2
*D6
340
0
 70
     0
280
     1
281
     0
  0
BLOCK_RECORD
  5
819
330
1
100
AcDbSymbolTableRecord
100
AcDbBlockTableRecord
  2
*D7
340
0
 70
     0
280
     1
281
     0
  0
BLOCK_RECORD
  5
919
330
1
100
AcDbSymbolTableRecord
100
AcDbBlockTableRecord
  2
*D8
340
0
 70
     0
280
     1
281
     0
  0
BLOCK_RECORD
  5
A03
330
1
100
AcDbSymbolTableRecord
100
AcDbBlockTableRecord
  2
*D9
340
0
 70
     0
280
     1
281
     0
  0
BLOCK_RECORD
  5
AED
330
1
100
AcDbSymbolTableRecord
100
AcDbBlockTableRecord
  2
*D10
340
0
 70
     0
280
     1
281
     0
  0
BLOCK_RECORD
  5
BD7
330
1
100
AcDbSymbolTableRecord
100
AcDbBlockTableRecord
  2
*D11
340
0
 70
     0
280
     1
281
     0
  0
BLOCK_RECORD
  5
C91
330
1
100
AcDbSymbolTableRecord
100
AcDbBlockTableRecord
  2
*D12
340
0
 70
     0
280
     1
281
     0
  0
BLOCK_RECORD
  5
D9A
330
1
100
AcDbSymbolTableRecord
100
AcDbBlockTableRecord
  2
*D13
340
0
 70
     0
280
     1
281
     0
  0
BLOCK_RECORD
  5
E8C
330
1
100
AcDbSymbolTableRecord
100
AcDbBlockTableRecord
  2
*D14
340
0
 70
     0
280
     1
281
     0
  0
ENDTAB
  0
ENDSEC
  0
SECTION
  2
BLOCKS
  0
BLOCK
  5
6D
330
6C
100
AcDbEntity
  8
0
100
AcDbBlockBegin
  2
*Model_Space
 70
     0
 10
0.0
 20
0.0
 30
0.0
  3
*Model_Space
  1

  0
ENDBLK
  5
6E
330
6C
100
AcDbEntity
  8
0
100
AcDbBlockEnd
  0
BLOCK
  5
69
330
68
100
AcDbEntity
 67
     1
  8
0
100
AcDbBlockBegin
  2
*Paper_Space
 70
     0
 10
0.0
 20
0.0
 30
0.0
  3
*Paper_Space
  1

  0
ENDBLK
  5
6A
330
68
100
AcDbEntity
 67
     1
  8
0
100
AcDbBlockEnd
  0
BLOCK
  5
71
330
70
100
AcDbEntity
 67
     1
  8
0
100
AcDbBlockBegin
  2
*Paper_Space0
 70
     0
 10
0.0
 20
0.0
 30
0.0
  3
*Paper_Space0
  1

  0
ENDBLK
  5
72
330
70
100
AcDbEntity
 67
     1
  8
0
100
AcDbBlockEnd
  0
BLOCK
  5
FE
330
F9
100
AcDbEntity
  8
0
100
AcDbBlockBegin
  2
_Closed
 70
     0
 10
0.0
 20
0.0
 30
0.0
  3
_Closed
  1

  0
LINE
  5
FA
330
F9
100
AcDbEntity
  8
0
  6
ByBlock
 62
     0
370
    -2
100
AcDbLine
 10
-1.0
 20
0.1666666666666666
 30
0.0
 11
0.0
 21
0.0
 31
0.0
  0
LINE
  5
FB
330
F9
100
AcDbEntity
  8
0
  6
ByBlock
 62
     0
370
    -2
100
AcDbLine
 10
0.0
 20
0.0
 30
0.0
 11
-1.0
 21
-0.1666666666666666
 31
0.0
  0
LINE
  5
FC
330
F9
100
AcDbEntity
  8
0
  6
ByBlock
 62
     0
370
    -2
100
AcDbLine
 10
-1.0
 20
0.1666666666666666
 30
0.0
 11
-1.0
 21
-0.1666666666666666
 31
0.0
  0
LINE
  5
FD
330
F9
100
AcDbEntity
  8
0
  6
ByBlock
 62
     0
370
    -2
100
AcDbLine
 10
0.0
 20
0.0
 30
0.0
 11
-1.0
 21
0.0
 31
0.0
  0
ENDBLK
  5
FF
330
F9
100
AcDbEntity
  8
0
100
AcDbBlockEnd
  0
BLOCK
  5
101
330
100
100
AcDbEntity
  8
0
100
AcDbBlockBegin
  2
DatumFilled45
 70
     0
 10
0.0
 20
0.0
 30
0.0
  3
DatumFilled45
  1

  0
POLYLINE
  5
103
330
100
100
AcDbEntity
  8
0
 62
     0
100
AcDb2dPolyline
 66
     1
 10
0.0
 20
0.0
 30
0.0
 70
   128
  0
VERTEX
  5
104
330
103
100
AcDbEntity
  8
0
 62
     0
100
AcDbVertex
100
AcDb2dVertex
 10
0.0
 20
0.9999999999999998
 30
0.0
  0
VERTEX
  5
105
330
103
100
AcDbEntity
  8
0
 62
     0
100
AcDbVertex
100
AcDb2dVertex
 10
0.0
 20
-0.9999999999999998
 30
0.0
  0
VERTEX
  5
107
330
103
100
AcDbEntity
  8
0
 62
     0
100
AcDbVertex
100
AcDb2dVertex
 10
-0.9999999999999998
 20
0.0
 30
0.0
  0
VERTEX
  5
108
330
103
100
AcDbEntity
  8
0
 62
     0
100
AcDbVertex
100
AcDb2dVertex
 10
0.0
 20
0.9999999999999998
 30
0.0
  0
SEQEND
  5
106
330
103
100
AcDbEntity
  8
0
 62
     0
  0
SOLID
  5
10A
330
100
100
AcDbEntity
  8
0
 62
     0
100
AcDbTrace
 10
0.0
 20
0.9999999999999998
 30
0.0
 11
0.0
 21
-0.9999999999999998
 31
0.0
 12
-0.9999999999999998
 22
0.0
 32
0.0
 13
0.0
 23
0.9999999999999998
 33
0.0
  0
ENDBLK
  5
102
330
100
100
AcDbEntity
  8
0
100
AcDbBlockEnd
  0
BLOCK
  5
10D
330
10C
100
AcDbEntity
  8
0
100
AcDbBlockBegin
  2
Filled-1
 70
     0
 10
0.0
 20
0.0
 30
0.0
  3
Filled-1
  1

  0
LINE
  5
10F
330
10C
100
AcDbEntity
  8
0
 62
     0
100
AcDbLine
 10
-0.9999999999999998
 20
0.0
 30
0.0
 11
0.0
 21
0.0
 31
0.0
  0
POLYLINE
  5
110
330
10C
100
AcDbEntity
  8
0
 62
     0
100
AcDb2dPolyline
 66
     1
 10
0.0
 20
0.0
 30
0.0
 70
   128
  0
VERTEX
  5
111
330
110
100
AcDbEntity
  8
0
 62
     0
100
AcDbVertex
100
AcDb2dVertex
 10
-0.9999999999999998
 20
-0.0994897959183674
 30
0.0
  0
VERTEX
  5
112
330
110
100
AcDbEntity
  8
0
 62
     0
100
AcDbVertex
100
AcDb2dVertex
 10
0.0
 20
0.0
 30
0.0
  0
VERTEX
  5
114
330
110
100
AcDbEntity
  8
0
 62
     0
100
AcDbVertex
100
AcDb2dVertex
 10
-0.9999999999999998
 20
0.0994897959183674
 30
0.0
  0
VERTEX
  5
115
330
110
100
AcDbEntity
  8
0
 62
     0
100
AcDbVertex
100
AcDb2dVertex
 10
-0.9999999999999998
 20
-0.0994897959183674
 30
0.0
  0
SEQEND
  5
113
330
110
100
AcDbEntity
  8
0
 62
     0
  0
SOLID
  5
116
330
10C
100
AcDbEntity
  8
0
 62
     0
100
AcDbTrace
 10
-0.9999999999999998
 20
-0.0994897959183674
 30
0.0
 11
0.0
 21
0.0
 31
0.0
 12
-0.9999999999999998
 22
0.0994897959183674
 32
0.0
 13
-0.9999999999999998
 23
-0.0994897959183674
 33
0.0
  0
LINE
  5
117
330
10C
100
AcDbEntity
  8
0
 62
     0
100
AcDbLine
 10
-0.9999999999999998
 20
-0.0994897959183674
 30
0.0
 11
0.0
 21
0.0
 31
0.0
  0
LINE
  5
118
330
10C
100
AcDbEntity
  8
0
 62
     0
100
AcDbLine
 10
0.0
 20
0.0
 30
0.0
 11
-0.9999999999999998
 21
0.0994897959183674
 31
0.0
  0
LINE
  5
119
330
10C
100
AcDbEntity
  8
0
 62
     0
100
AcDbLine
 10
-0.9999999999999998
 20
0.0994897959183674
 30
0.0
 11
-0.9999999999999998
 21
-0.0994897959183674
 31
0.0
  0
ENDBLK
  5
10E
330
10C
100
AcDbEntity
  8
0
100
AcDbBlockEnd
  0
BLOCK
  5
55C
330
55B
100
AcDbEntity
  8
0
100
AcDbBlockBegin
  2
*D4
 70
     1
 10
0.0
 20
0.0
 30
0.0
  3
*D4
  1

  0
LINE
  5
63A
330
55B
100
AcDbEntity
  8
Dimension (ANSI)
440
 16777216
100
AcDbLine
 10
37.61498736597574
 20
112.0020418350394
 30
0.0
 11
37.61498736597574
 21
125.1065474654911
 31
0.0
  0
LINE
  5
63B
330
55B
100
AcDbEntity
  8
Dimension (ANSI)
440
 16777216
100
AcDbLine
 10
81.61498736597572
 20
112.0020418350394
 30
0.0
 11
81.61498736597572
 21
125.1065474654911
 31
0.0
  0
LINE
  5
63C
330
55B
100
AcDbEntity
  8
Dimension (ANSI)
440
 16777216
100
AcDbLine
 10
38.99294009067095
 20
123.3565474654911
 30
0.0
 11
56.37084561444855
 21
123.3565474654911
 31
0.0
  0
LINE
  5
63D
330
55B
100
AcDbEntity
  8
Dimension (ANSI)
440
 16777216
100
AcDbLine
 10
80.23703464128052
 20
123.3565474654911
 30
0.0
 11
62.8591291175029
 21
123.3565474654911
 31
0.0
  0
SOLID
  5
63E
330
55B
100
AcDbEntity
  8
Dimension (ANSI)
440
 16777216
100
AcDbTrace
 10
38.99294009067095
 20
123.5862062529403
 30
0.0
 11
38.99294009067095
 21
123.1268886780419
 31
0.0
 12
37.61498736597574
 22
123.3565474654911
 32
0.0
 13
37.61498736597574
 23
123.3565474654911
 33
0.0
  0
SOLID
  5
63F
330
55B
100
AcDbEntity
  8
Dimension (ANSI)
440
 16777216
100
AcDbTrace
 10
80.23703464128052
 20
123.5862062529403
 30
0.0
 11
80.23703464128052
 21
123.1268886780419
 31
0.0
 12
81.61498736597572
 22
123.3565474654911
 32
0.0
 13
81.61498736597572
 23
123.3565474654911
 33
0.0
  0
MTEXT
  5
640
330
55B
100
AcDbEntity
  8
Dimension (ANSI)
440
 16777216
100
AcDbMText
 10
56.81179049633832
 20
124.2309598518743
 30
0.0
 40
1.680000066757202
 41
0.0
 46
0.0
 71
     1
 72
     1
  1
\A1;44.00
  7
Note Text (ANSI)
 73
     1
 44
1.0
  0
POINT
  5
641
330
55B
100
AcDbEntity
  8
Defpoints
 62
     0
440
 16777216
100
AcDbPoint
 10
37.61498736597574
 20
111.1270418350394
 30
0.0
  0
POINT
  5
642
330
55B
100
AcDbEntity
  8
Defpoints
 62
     0
440
 16777216
100
AcDbPoint
 10
81.61498736597572
 20
111.1270418350394
 30
0.0
  0
POINT
  5
643
330
55B
100
AcDbEntity
  8
Defpoints
 62
     0
440
 16777216
100
AcDbPoint
 10
81.61498736597572
 20
123.3565474654911
 30
0.0
  0
ENDBLK
  5
55D
330
55B
100
AcDbEntity
  8
0
100
AcDbBlockEnd
  0
BLOCK
  5
646
330
645
100
AcDbEntity
  8
0
100
AcDbBlockBegin
  2
*D5
 70
     1
 10
0.0
 20
0.0
 30
0.0
  3
*D5
  1

  0
LINE
  5
724
330
645
100
AcDbEntity
  8
Dimension (ANSI)
440
 16777216
100
AcDbLine
 10
37.61498736597574
 20
112.0020418350394
 30
0.0
 11
37.61498736597574
 21
116.4432166021739
 31
0.0
  0
LINE
  5
725
330
645
100
AcDbEntity
  8
Dimension (ANSI)
440
 16777216
100
AcDbLine
 10
38.48998736597574
 20
113.3719301826877
 30
0.0
 11
38.48998736597574
 21
116.4432166021739
 31
0.0
  0
LINE
  5
726
330
645
100
AcDbEntity
  8
Dimension (ANSI)
440
 16777216
100
AcDbLine
 10
39.86794009067095
 20
114.6932166021739
 30
0.0
 11
41.24589281536615
 21
114.6932166021739
 31
0.0
  0
LINE
  5
727
330
645
100
AcDbEntity
  8
Dimension (ANSI)
440
 16777216
100
AcDbLine
 10
36.23703464128054
 20
114.6932166021739
 30
0.0
 11
32.5016067061598
 21
114.6932166021739
 31
0.0
  0
SOLID
  5
728
330
645
100
AcDbEntity
  8
Dimension (ANSI)
440
 16777216
100
AcDbTrace
 10
39.86794009067095
 20
114.9228753896231
 30
0.0
 11
39.86794009067095
 21
114.4635578147247
 31
0.0
 12
38.48998736597574
 22
114.6932166021739
 32
0.0
 13
38.48998736597574
 23
114.6932166021739
 33
0.0
  0
SOLID
  5
729
330
645
100
AcDbEntity
  8
Dimension (ANSI)
440
 16777216
100
AcDbTrace
 10
36.23703464128054
 20
114.9228753896231
 30
0.0
 11
36.23703464128054
 21
114.4635578147247
 31
0.0
 12
37.61498736597574
 22
114.6932166021739
 32
0.0
 13
37.61498736597574
 23
114.6932166021739
 33
0.0
  0
MTEXT
  5
72A
330
645
100
AcDbEntity
  8
Dimension (ANSI)
440
 16777216
100
AcDbMText
 10
27.75403978707704
 20
115.5715779477214
 30
0.0
 40
1.680000066757202
 41
0.0
 46
0.0
 71
     1
 72
     1
  1
\A1;0.88
  7
Note Text (ANSI)
 73
     1
 44
1.0
  0
POINT
  5
72B
330
645
100
AcDbEntity
  8
Defpoints
 62
     0
440
 16777216
100
AcDbPoint
 10
37.61498736597574
 20
111.1270418350394
 30
0.0
  0
POINT
  5
72C
330
645
100
AcDbEntity
  8
Defpoints
 62
     0
440
 16777216
100
AcDbPoint
 10
38.48998736597574
 20
112.4969301826877
 30
0.0
  0
POINT
  5
72D
330
645
100
AcDbEntity
  8
Defpoints
 62
     0
440
 16777216
100
AcDbPoint
 10
38.48998736597574
 20
114.6932166021739
 30
0.0
  0
ENDBLK
  5
647
330
645
100
AcDbEntity
  8
0
100
AcDbBlockEnd
  0
BLOCK
  5
730
330
72F
100
AcDbEntity
  8
0
100
AcDbBlockBegin
  2
*D6
 70
     1
 10
0.0
 20
0.0
 30
0.0
  3
*D6
  1

  0
LINE
  5
80E
330
72F
100
AcDbEntity
  8
Dimension (ANSI)
440
 16777216
100
AcDbLine
 10
38.48998736597574
 20
113.3719301826877
 30
0.0
 11
38.48998736597574
 21
121.3193492074076
 31
0.0
  0
LINE
  5
80F
330
72F
100
AcDbEntity
  8
Dimension (ANSI)
440
 16777216
100
AcDbLine
 10
80.73998736597571
 20
113.3719301826877
 30
0.0
 11
80.73998736597571
 21
121.3193492074076
 31
0.0
  0
LINE
  5
810
330
72F
100
AcDbEntity
  8
Dimension (ANSI)
440
 16777216
100
AcDbLine
 10
39.86794009067095
 20
119.5693492074076
 30
0.0
 11
56.3843849030119
 21
119.5693492074076
 31
0.0
  0
LINE
  5
811
330
72F
100
AcDbEntity
  8
Dimension (ANSI)
440
 16777216
100
AcDbLine
 10
79.36203464128052
 20
119.5693492074076
 30
0.0
 11
62.84558982893955
 21
119.5693492074076
 31
0.0
  0
SOLID
  5
812
330
72F
100
AcDbEntity
  8
Dimension (ANSI)
440
 16777216
100
AcDbTrace
 10
39.86794009067095
 20
119.7990079948568
 30
0.0
 11
39.86794009067095
 21
119.3396904199584
 31
0.0
 12
38.48998736597574
 22
119.5693492074076
 32
0.0
 13
38.48998736597574
 23
119.5693492074076
 33
0.0
  0
SOLID
  5
813
330
72F
100
AcDbEntity
  8
Dimension (ANSI)
440
 16777216
100
AcDbTrace
 10
79.36203464128052
 20
119.7990079948568
 30
0.0
 11
79.36203464128052
 21
119.3396904199584
 31
0.0
 12
80.73998736597571
 22
119.5693492074076
 32
0.0
 13
80.73998736597571
 23
119.5693492074076
 33
0.0
  0
MTEXT
  5
814
330
72F
100
AcDbEntity
  8
Dimension (ANSI)
440
 16777216
100
AcDbMText
 10
56.82532978490167
 20
120.4443257308142
 30
0.0
 40
1.680000066757202
 41
0.0
 46
0.0
 71
     1
 72
     1
  1
\A1;42.25
  7
Note Text (ANSI)
 73
     1
 44
1.0
  0
POINT
  5
815
330
72F
100
AcDbEntity
  8
Defpoints
 62
     0
440
 16777216
100
AcDbPoint
 10
38.48998736597574
 20
112.4969301826877
 30
0.0
  0
POINT
  5
816
330
72F
100
AcDbEntity
  8
Defpoints
 62
     0
440
 16777216
100
AcDbPoint
 10
80.73998736597571
 20
112.4969301826877
 30
0.0
  0
POINT
  5
817
330
72F
100
AcDbEntity
  8
Defpoints
 62
     0
440
 16777216
100
AcDbPoint
 10
80.73998736597571
 20
119.5693492074076
 30
0.0
  0
ENDBLK
  5
731
330
72F
100
AcDbEntity
  8
0
100
AcDbBlockEnd
  0
BLOCK
  5
81A
330
819
100
AcDbEntity
  8
0
100
AcDbBlockBegin
  2
*D7
 70
     1
 10
0.0
 20
0.0
 30
0.0
  3
*D7
  1

  0
LINE
  5
90D
330
819
100
AcDbEntity
  8
Dimension (ANSI)
440
 16777216
100
AcDbLine
 10
36.95337571362408
 20
33.34043018268772
 30
0.0
 11
33.16888496753517
 21
33.34043018268772
 31
0.0
  0
LINE
  5
90E
330
819
100
AcDbEntity
  8
Dimension (ANSI)
440
 16777216
100
AcDbLine
 10
35.58348736597575
 20
34.21543018268772
 30
0.0
 11
33.16888496753517
 21
34.21543018268772
 31
0.0
  0
LINE
  5
90F
330
819
100
AcDbEntity
  8
Dimension (ANSI)
440
 16777216
100
AcDbLine
 10
34.91888496753516
 20
35.59338290738292
 30
0.0
 11
34.91888496753516
 21
36.97133563207813
 31
0.0
  0
LINE
  5
910
330
819
100
AcDbEntity
  8
Dimension (ANSI)
440
 16777216
100
AcDbLine
 10
34.91888496753516
 20
31.96247745799251
 30
0.0
 11
34.91888496753516
 21
29.32246286033776
 31
0.0
  0
LINE
  5
911
330
819
100
AcDbEntity
  8
Dimension (ANSI)
440
 16777216
100
AcDbLine
 10
34.91888496753516
 20
29.32246286033776
 30
0.0
 11
33.54093224283996
 21
29.32246286033776
 31
0.0
  0
SOLID
  5
912
330
819
100
AcDbEntity
  8
Dimension (ANSI)
440
 16777216
100
AcDbTrace
 10
34.68922618008596
 20
35.59338290738292
 30
0.0
 11
35.14854375498437
 21
35.59338290738292
 31
0.0
 12
34.91888496753516
 22
34.21543018268772
 32
0.0
 13
34.91888496753516
 23
34.21543018268772
 33
0.0
  0
SOLID
  5
913
330
819
100
AcDbEntity
  8
Dimension (ANSI)
440
 16777216
100
AcDbTrace
 10
34.68922618008596
 20
31.96247745799251
 30
0.0
 11
35.14854375498437
 21
31.96247745799251
 31
0.0
 12
34.91888496753516
 22
33.34043018268772
 32
0.0
 13
34.91888496753516
 23
33.34043018268772
 33
0.0
  0
MTEXT
  5
914
330
819
100
AcDbEntity
  8
Dimension (ANSI)
440
 16777216
100
AcDbMText
 10
28.7933653237572
 20
30.20082420588524
 30
0.0
 40
1.680000066757202
 41
0.0
 46
0.0
 71
     1
 72
     1
  1
\A1;0.88
  7
Note Text (ANSI)
 73
     1
 44
1.0
  0
POINT
  5
915
330
819
100
AcDbEntity
  8
Defpoints
 62
     0
440
 16777216
100
AcDbPoint
 10
37.82837571362408
 20
33.34043018268772
 30
0.0
  0
POINT
  5
916
330
819
100
AcDbEntity
  8
Defpoints
 62
     0
440
 16777216
100
AcDbPoint
 10
36.45848736597574
 20
34.21543018268772
 30
0.0
  0
POINT
  5
917
330
819
100
AcDbEntity
  8
Defpoints
 62
     0
440
 16777216
100
AcDbPoint
 10
34.91888496753516
 20
34.21543018268772
 30
0.0
  0
ENDBLK
  5
81B
330
819
100
AcDbEntity
  8
0
100
AcDbBlockEnd
  0
BLOCK
  5
91A
330
919
100
AcDbEntity
  8
0
100
AcDbBlockBegin
  2
*D8
 70
     1
 10
0.0
 20
0.0
 30
0.0
  3
*D8
  1

  0
LINE
  5
9F8
330
919
100
AcDbEntity
  8
Dimension (ANSI)
440
 16777216
100
AcDbLine
 10
35.58348736597575
 20
34.21543018268772
 30
0.0
 11
29.1966763423537
 21
34.21543018268772
 31
0.0
  0
LINE
  5
9F9
330
919
100
AcDbEntity
  8
Dimension (ANSI)
440
 16777216
100
AcDbLine
 10
35.58348736597576
 20
72.34043018268771
 30
0.0
 11
29.19667634235371
 21
72.34043018268772
 31
0.0
  0
LINE
  5
9FA
330
919
100
AcDbEntity
  8
Dimension (ANSI)
440
 16777216
100
AcDbLine
 10
30.9466763423537
 20
35.59338290738292
 30
0.0
 11
30.9466763423537
 21
51.95862395525046
 31
0.0
  0
LINE
  5
9FB
330
919
100
AcDbEntity
  8
Dimension (ANSI)
440
 16777216
100
AcDbLine
 10
30.94667634235371
 20
70.96247745799252
 30
0.0
 11
30.9466763423537
 21
54.59723641012494
 31
0.0
  0
SOLID
  5
9FC
330
919
100
AcDbEntity
  8
Dimension (ANSI)
440
 16777216
100
AcDbTrace
 10
30.7170175549045
 20
35.59338290738292
 30
0.0
 11
31.1763351298029
 21
35.59338290738292
 31
0.0
 12
30.9466763423537
 22
34.21543018268772
 32
0.0
 13
30.9466763423537
 23
34.21543018268772
 33
0.0
  0
SOLID
  5
9FD
330
919
100
AcDbEntity
  8
Dimension (ANSI)
440
 16777216
100
AcDbTrace
 10
30.71701755490451
 20
70.96247745799252
 30
0.0
 11
31.17633512980291
 21
70.96247745799252
 31
0.0
 12
30.94667634235371
 22
72.34043018268772
 32
0.0
 13
30.94667634235371
 23
72.34043018268772
 33
0.0
  0
MTEXT
  5
9FE
330
919
100
AcDbEntity
  8
Dimension (ANSI)
440
 16777216
100
AcDbMText
 10
28.19425180482886
 20
54.1562915282352
 30
0.0
 40
1.680000066757202
 41
0.0
 46
0.0
 71
     1
 72
     1
  1
\A1;38.13
  7
Note Text (ANSI)
 73
     1
 44
1.0
  0
POINT
  5
9FF
330
919
100
AcDbEntity
  8
Defpoints
 62
     0
440
 16777216
100
AcDbPoint
 10
36.45848736597574
 20
34.21543018268772
 30
0.0
  0
POINT
  5
A00
330
919
100
AcDbEntity
  8
Defpoints
 62
     0
440
 16777216
100
AcDbPoint
 10
36.45848736597576
 20
72.34043018268771
 30
0.0
  0
POINT
  5
A01
330
919
100
AcDbEntity
  8
Defpoints
 62
     0
440
 16777216
100
AcDbPoint
 10
30.94667634235371
 20
72.34043018268772
 30
0.0
  0
ENDBLK
  5
91B
330
919
100
AcDbEntity
  8
0
100
AcDbBlockEnd
  0
BLOCK
  5
A04
330
A03
100
AcDbEntity
  8
0
100
AcDbBlockBegin
  2
*D9
 70
     1
 10
0.0
 20
0.0
 30
0.0
  3
*D9
  1

  0
LINE
  5
AE2
330
A03
100
AcDbEntity
  8
Dimension (ANSI)
440
 16777216
100
AcDbLine
 10
35.58348736597575
 20
34.21543018268772
 30
0.0
 11
21.48014090928284
 21
34.21543018268772
 31
0.0
  0
LINE
  5
AE3
330
A03
100
AcDbEntity
  8
Dimension (ANSI)
440
 16777216
100
AcDbLine
 10
35.58348736597575
 20
110.4654301826877
 30
0.0
 11
21.48014090928286
 21
110.4654301826877
 31
0.0
  0
LINE
  5
AE4
330
A03
100
AcDbEntity
  8
Dimension (ANSI)
440
 16777216
100
AcDbLine
 10
23.23014090928284
 20
35.59338290738292
 30
0.0
 11
23.23014090928285
 21
71.02450877739129
 31
0.0
  0
LINE
  5
AE5
330
A03
100
AcDbEntity
  8
Dimension (ANSI)
440
 16777216
100
AcDbLine
 10
23.23014090928286
 20
109.0874774579925
 30
0.0
 11
23.23014090928285
 21
73.65635158798411
 31
0.0
  0
SOLID
  5
AE6
330
A03
100
AcDbEntity
  8
Dimension (ANSI)
440
 16777216
100
AcDbTrace
 10
23.00048212183364
 20
35.59338290738292
 30
0.0
 11
23.45979969673204
 21
35.59338290738292
 31
0.0
 12
23.23014090928284
 22
34.21543018268772
 32
0.0
 13
23.23014090928284
 23
34.21543018268772
 33
0.0
  0
SOLID
  5
AE7
330
A03
100
AcDbEntity
  8
Dimension (ANSI)
440
 16777216
100
AcDbTrace
 10
23.00048212183366
 20
109.0874774579925
 30
0.0
 11
23.45979969673206
 21
109.0874774579925
 31
0.0
 12
23.23014090928286
 22
110.4654301826877
 32
0.0
 13
23.23014090928286
 23
110.4654301826877
 33
0.0
  0
MTEXT
  5
AE8
330
A03
100
AcDbEntity
  8
Dimension (ANSI)
440
 16777216
100
AcDbMText
 10
20.47376741259369
 20
73.21540670609434
 30
0.0
 40
1.680000066757202
 41
0.0
 46
0.0
 71
     1
 72
     1
  1
\A1;76.25
  7
Note Text (ANSI)
 73
     1
 44
1.0
  0
POINT
  5
AE9
330
A03
100
AcDbEntity
  8
Defpoints
 62
     0
440
 16777216
100
AcDbPoint
 10
36.45848736597574
 20
34.21543018268772
 30
0.0
  0
POINT
  5
AEA
330
A03
100
AcDbEntity
  8
Defpoints
 62
     0
440
 16777216
100
AcDbPoint
 10
36.45848736597575
 20
110.4654301826877
 30
0.0
  0
POINT
  5
AEB
330
A03
100
AcDbEntity
  8
Defpoints
 62
     0
440
 16777216
100
AcDbPoint
 10
23.23014090928286
 20
110.4654301826877
 30
0.0
  0
ENDBLK
  5
A05
330
A03
100
AcDbEntity
  8
0
100
AcDbBlockEnd
  0
BLOCK
  5
AEE
330
AED
100
AcDbEntity
  8
0
100
AcDbBlockBegin
  2
*D10
 70
     1
 10
0.0
 20
0.0
 30
0.0
  3
*D10
  1

  0
LINE
  5
BCC
330
AED
100
AcDbEntity
  8
Dimension (ANSI)
440
 16777216
100
AcDbLine
 10
36.95337571362408
 20
33.34043018268772
 30
0.0
 11
11.58157732888114
 21
33.34043018268773
 31
0.0
  0
LINE
  5
BCD
330
AED
100
AcDbEntity
  8
Dimension (ANSI)
440
 16777216
100
AcDbLine
 10
36.95337571362408
 20
111.3404301826877
 30
0.0
 11
11.58157732888116
 21
111.3404301826877
 31
0.0
  0
LINE
  5
BCE
330
AED
100
AcDbEntity
  8
Dimension (ANSI)
440
 16777216
100
AcDbLine
 10
13.33157732888114
 20
34.71838290738293
 30
0.0
 11
13.33157732888115
 21
71.02112395525046
 31
0.0
  0
LINE
  5
BCF
330
AED
100
AcDbEntity
  8
Dimension (ANSI)
440
 16777216
100
AcDbLine
 10
13.33157732888116
 20
109.9624774579925
 30
0.0
 11
13.33157732888115
 21
73.65973641012496
 31
0.0
  0
SOLID
  5
BD0
330
AED
100
AcDbEntity
  8
Dimension (ANSI)
440
 16777216
100
AcDbTrace
 10
13.10191854143194
 20
34.71838290738293
 30
0.0
 11
13.56123611633034
 21
34.71838290738293
 31
0.0
 12
13.33157732888114
 22
33.34043018268773
 32
0.0
 13
13.33157732888114
 23
33.34043018268773
 33
0.0
  0
SOLID
  5
BD1
330
AED
100
AcDbEntity
  8
Dimension (ANSI)
440
 16777216
100
AcDbTrace
 10
13.10191854143196
 20
109.9624774579925
 30
0.0
 11
13.56123611633036
 21
109.9624774579925
 31
0.0
 12
13.33157732888116
 22
111.3404301826877
 32
0.0
 13
13.33157732888116
 23
111.3404301826877
 33
0.0
  0
MTEXT
  5
BD2
330
AED
100
AcDbEntity
  8
Dimension (ANSI)
440
 16777216
100
AcDbMText
 10
10.56166454362863
 20
73.2187915282352
 30
0.0
 40
1.680000066757202
 41
0.0
 46
0.0
 71
     1
 72
     1
  1
\A1;78.00
  7
Note Text (ANSI)
 73
     1
 44
1.0
  0
POINT
  5
BD3
330
AED
100
AcDbEntity
  8
Defpoints
 62
     0
440
 16777216
100
AcDbPoint
 10
37.82837571362408
 20
33.34043018268772
 30
0.0
  0
POINT
  5
BD4
330
AED
100
AcDbEntity
  8
Defpoints
 62
     0
440
 16777216
100
AcDbPoint
 10
37.82837571362408
 20
111.3404301826877
 30
0.0
  0
POINT
  5
BD5
330
AED
100
AcDbEntity
  8
Defpoints
 62
     0
440
 16777216
100
AcDbPoint
 10
13.33157732888116
 20
111.3404301826877
 30
0.0
  0
ENDBLK
  5
AEF
330
AED
100
AcDbEntity
  8
0
100
AcDbBlockEnd
  0
BLOCK
  5
BD8
330
BD7
100
AcDbEntity
  8
0
100
AcDbBlockBegin
  2
*D11
 70
     1
 10
0.0
 20
0.0
 30
0.0
  3
*D11
  1

  0
LINE
  5
C88
330
BD7
100
AcDbEntity
  8
Dimension (ANSI)
440
 16777216
100
AcDbLine
 10
84.92475631286698
 20
31.2281098125395
 30
0.0
 11
83.04596100338478
 21
31.2281098125395
 31
0.0
  0
LINE
  5
C89
330
BD7
100
AcDbEntity
  8
Dimension (ANSI)
440
 16777216
100
AcDbLine
 10
83.04596100338478
 20
31.2281098125395
 30
0.0
 11
81.7539918375631
 21
32.90181750114907
 31
0.0
  0
MTEXT
  5
C8A
330
BD7
100
AcDbEntity
  8
Dimension (ANSI)
440
 16777216
100
AcDbMText
 10
85.36570119475674
 20
31.22810981253952
 30
0.0
 40
1.680000066757202
 41
0.0
 46
0.0
 71
     4
 72
     1
  1
\A1;∅0.563{\P(8 PL.)}
  7
Note Text (ANSI)
 73
     1
 44
1.0
  0
SOLID
  5
C8B
330
BD7
100
AcDbEntity
  8
Dimension (ANSI)
440
 16777216
100
AcDbTrace
 10
81.93578833657181
 20
33.04214993361147
 30
0.0
 11
81.57219533855439
 21
32.76148506868668
 31
0.0
 12
80.91199724278874
 22
33.99259649520136
 32
0.0
 13
80.91199724278874
 23
33.99259649520136
 33
0.0
  0
LINE
  5
C8C
330
BD7
100
AcDbEntity
  8
Dimension (ANSI)
440
 16777216
100
AcDbLine
 10
79.47998736597572
 20
34.21543018268773
 30
0.0
 11
81.99998736597573
 21
34.21543018268773
 31
0.0
  0
LINE
  5
C8D
330
BD7
100
AcDbEntity
  8
Dimension (ANSI)
440
 16777216
100
AcDbLine
 10
80.73998736597571
 20
32.95543018268773
 30
0.0
 11
80.73998736597573
 21
35.47543018268773
 31
0.0
  0
POINT
  5
C8E
330
BD7
100
AcDbEntity
  8
Defpoints
 62
     0
440
 16777216
100
AcDbPoint
 10
80.91199724278874
 20
33.99259649520136
 30
0.0
  0
POINT
  5
C8F
330
BD7
100
AcDbEntity
  8
Defpoints
 62
     0
440
 16777216
100
AcDbPoint
 10
80.5679774891627
 20
34.43826387017409
 30
0.0
  0
ENDBLK
  5
BD9
330
BD7
100
AcDbEntity
  8
0
100
AcDbBlockEnd
  0
BLOCK
  5
C92
330
C91
100
AcDbEntity
  8
0
100
AcDbBlockBegin
  2
*D12
 70
     1
 10
0.0
 20
0.0
 30
0.0
  3
*D12
  1

  0
LINE
  5
D90
330
C91
100
AcDbEntity
  8
Dimension (ANSI)
440
 16777216
100
AcDbLine
 10
72.13712932741319
 20
133.5407712997134
 30
0.0
 11
72.13712932741319
 21
132.1628185750182
 31
0.0
  0
LINE
  5
D91
330
C91
100
AcDbEntity
  8
Dimension (ANSI)
440
 16777216
100
AcDbLine
 10
72.13712932741319
 20
137.1716767491039
 30
0.0
 11
72.13712932741319
 21
141.701691370117
 31
0.0
  0
LINE
  5
D92
330
C91
100
AcDbEntity
  8
Dimension (ANSI)
440
 16777216
100
AcDbLine
 10
72.13712932741319
 20
141.701691370117
 30
0.0
 11
73.5150820521084
 21
141.701691370117
 31
0.0
  0
SOLID
  5
D93
330
C91
100
AcDbEntity
  8
Dimension (ANSI)
440
 16777216
100
AcDbTrace
 10
71.907470539964
 20
133.5407712997134
 30
0.0
 11
72.36678811486239
 21
133.5407712997134
 31
0.0
 12
72.13712932741319
 22
134.9187240244086
 32
0.0
 13
72.13712932741319
 23
134.9187240244086
 33
0.0
  0
SOLID
  5
D94
330
C91
100
AcDbEntity
  8
Dimension (ANSI)
440
 16777216
100
AcDbTrace
 10
71.907470539964
 20
137.1716767491039
 30
0.0
 11
72.36678811486239
 21
137.1716767491039
 31
0.0
 12
72.13712932741319
 22
135.7937240244087
 32
0.0
 13
72.13712932741319
 23
135.7937240244087
 33
0.0
  0
MTEXT
  5
D95
330
C91
100
AcDbEntity
  8
Dimension (ANSI)
440
 16777216
100
AcDbMText
 10
76.17534198434099
 20
141.7016913701171
 30
0.0
 40
1.680000066757202
 41
0.0
 46
0.0
 71
     5
 72
     1
  1
\A1;0.88{\PTYP.}
  7
Note Text (ANSI)
 73
     1
 44
1.0
  0
POINT
  5
D96
330
C91
100
AcDbEntity
  8
Defpoints
 62
     0
440
 16777216
100
AcDbPoint
 10
76.17534198434099
 20
135.7937240244087
 30
0.0
  0
POINT
  5
D97
330
C91
100
AcDbEntity
  8
Defpoints
 62
     0
440
 16777216
100
AcDbPoint
 10
76.17170912949159
 20
134.9187240244086
 30
0.0
  0
POINT
  5
D98
330
C91
100
AcDbEntity
  8
Defpoints
 62
     0
440
 16777216
100
AcDbPoint
 10
72.13712932741319
 20
134.9187240244086
 30
0.0
  0
ENDBLK
  5
C93
330
C91
100
AcDbEntity
  8
0
100
AcDbBlockEnd
  0
BLOCK
  5
D9B
330
D9A
100
AcDbEntity
  8
0
100
AcDbBlockBegin
  2
*D13
 70
     1
 10
0.0
 20
0.0
 30
0.0
  3
*D13
  1

  0
LINE
  5
E80
330
D9A
100
AcDbEntity
  8
Dimension (ANSI)
440
 16777216
100
AcDbLine
 10
116.4959525240967
 20
107.468527901483
 30
0.0
 11
115.1179997994015
 21
107.468527901483
 31
0.0
  0
LINE
  5
E81
330
D9A
100
AcDbEntity
  8
Dimension (ANSI)
440
 16777216
100
AcDbLine
 10
120.1268579734871
 20
107.468527901483
 30
0.0
 11
122.2804698869748
 21
107.468527901483
 31
0.0
  0
SOLID
  5
E82
330
D9A
100
AcDbEntity
  8
Dimension (ANSI)
440
 16777216
100
AcDbTrace
 10
116.4959525240967
 20
107.6981866889322
 30
0.0
 11
116.4959525240967
 21
107.2388691140338
 31
0.0
 12
117.8739052487919
 22
107.468527901483
 32
0.0
 13
117.8739052487919
 23
107.468527901483
 33
0.0
  0
SOLID
  5
E83
330
D9A
100
AcDbEntity
  8
Dimension (ANSI)
440
 16777216
100
AcDbTrace
 10
120.1268579734871
 20
107.6981866889322
 30
0.0
 11
120.1268579734871
 21
107.2388691140338
 31
0.0
 12
118.7489052487919
 22
107.468527901483
 32
0.0
 13
118.7489052487919
 23
107.468527901483
 33
0.0
  0
MTEXT
  5
E84
330
D9A
100
AcDbEntity
  8
Dimension (ANSI)
440
 16777216
100
AcDbMText
 10
122.7214147688646
 20
107.468527901483
 30
0.0
 40
1.680000066757202
 41
0.0
 46
0.0
 71
     4
 72
     1
  1
\A1;0.88{\PTYP.}
  7
Note Text (ANSI)
 73
     1
 44
1.0
  0
POINT
  5
E85
330
D9A
100
AcDbEntity
  8
Defpoints
 62
     0
440
 16777216
100
AcDbPoint
 10
118.7489052487919
 20
107.468527901483
 30
0.0
  0
POINT
  5
E86
330
D9A
100
AcDbEntity
  8
Defpoints
 62
     0
440
 16777216
100
AcDbPoint
 10
117.8739052487919
 20
107.4827964000266
 30
0.0
  0
POINT
  5
E87
330
D9A
100
AcDbEntity
  8
Defpoints
 62
     0
440
 16777216
100
AcDbPoint
 10
117.8739052487919
 20
107.468527901483
 30
0.0
  0
ENDBLK
  5
D9C
330
D9A
100
AcDbEntity
  8
0
100
AcDbBlockEnd
  0
BLOCK
  5
E8D
330
E8C
100
AcDbEntity
  8
0
100
AcDbBlockBegin
  2
*D14
 70
     1
 10
0.0
 20
0.0
 30
0.0
  3
*D14
  1

  0
LINE
  5
F6B
330
E8C
100
AcDbEntity
  8
Dimension (ANSI)
440
 16777216
100
AcDbLine
 10
38.48998736597574
 20
113.3719301826877
 30
0.0
 11
38.48998736597574
 21
116.4432166021739
 31
0.0
  0
LINE
  5
F6C
330
E8C
100
AcDbEntity
  8
Dimension (ANSI)
440
 16777216
100
AcDbLine
 10
59.61498736597576
 20
113.3719301826877
 30
0.0
 11
59.61498736597576
 21
116.4432166021739
 31
0.0
  0
LINE
  5
F6D
330
E8C
100
AcDbEntity
  8
Dimension (ANSI)
440
 16777216
100
AcDbLine
 10
39.86794009067095
 20
114.6932166021739
 30
0.0
 11
45.86588759084283
 21
114.6932166021739
 31
0.0
  0
LINE
  5
F6E
330
E8C
100
AcDbEntity
  8
Dimension (ANSI)
440
 16777216
100
AcDbLine
 10
58.23703464128056
 20
114.6932166021739
 30
0.0
 11
52.23908714110868
 21
114.6932166021739
 31
0.0
  0
SOLID
  5
F6F
330
E8C
100
AcDbEntity
  8
Dimension (ANSI)
440
 16777216
100
AcDbTrace
 10
39.86794009067095
 20
114.9228753896231
 30
0.0
 11
39.86794009067095
 21
114.4635578147247
 31
0.0
 12
38.48998736597574
 22
114.6932166021739
 32
0.0
 13
38.48998736597574
 23
114.6932166021739
 33
0.0
  0
SOLID
  5
F70
330
E8C
100
AcDbEntity
  8
Dimension (ANSI)
440
 16777216
100
AcDbTrace
 10
58.23703464128056
 20
114.9228753896231
 30
0.0
 11
58.23703464128056
 21
114.4635578147247
 31
0.0
 12
59.61498736597576
 22
114.6932166021739
 32
0.0
 13
59.61498736597576
 23
114.6932166021739
 33
0.0
  0
MTEXT
  5
F71
330
E8C
100
AcDbEntity
  8
Dimension (ANSI)
440
 16777216
100
AcDbMText
 10
46.30683247273259
 20
115.5681931255806
 30
0.0
 40
1.680000066757202
 41
0.0
 46
0.0
 71
     1
 72
     1
  1
\A1;21.13
  7
Note Text (ANSI)
 73
     1
 44
1.0
  0
POINT
  5
F72
330
E8C
100
AcDbEntity
  8
Defpoints
 62
     0
440
 16777216
100
AcDbPoint
 10
38.48998736597574
 20
112.4969301826877
 30
0.0
  0
POINT
  5
F73
330
E8C
100
AcDbEntity
  8
Defpoints
 62
     0
440
 16777216
100
AcDbPoint
 10
59.61498736597576
 20
112.4969301826877
 30
0.0
  0
POINT
  5
F74
330
E8C
100
AcDbEntity
  8
Defpoints
 62
     0
440
 16777216
100
AcDbPoint
 10
59.61498736597576
 20
114.6932166021739
 30
0.0
  0
ENDBLK
  5
E8E
330
E8C
100
AcDbEntity
  8
0
100
AcDbBlockEnd
  0
ENDSEC
  0
SECTION
  2
ENTITIES
  0
CIRCLE
  5
11B
330
6C
100
AcDbEntity
  8
Visible (ANSI)
100
AcDbCircle
 10
59.61498736597582
 20
34.21543018268768
 30
0.0
 40
0.2814999999999999
  0
CIRCLE
  5
11C
330
6C
100
AcDbEntity
  8
Visible (ANSI)
100
AcDbCircle
 10
59.61498736597576
 20
110.4654301826877
 30
0.0
 40
0.2814999999999999
  0
CIRCLE
  5
11D
330
6C
100
AcDbEntity
  8
Visible (ANSI)
100
AcDbCircle
 10
80.73998736597575
 20
72.34043018268772
 30
0.0
 40
0.2814999999999999
  0
CIRCLE
  5
11E
330
6C
100
AcDbEntity
  8
Visible (ANSI)
100
AcDbCircle
 10
38.48998736597576
 20
72.34043018268771
 30
0.0
 40
0.2814999999999999
  0
CIRCLE
  5
11F
330
6C
100
AcDbEntity
  8
Visible (ANSI)
100
AcDbCircle
 10
80.73998736597571
 20
110.4654301826877
 30
0.0
 40
0.2814999999999999
  0
CIRCLE
  5
120
330
6C
100
AcDbEntity
  8
Visible (ANSI)
100
AcDbCircle
 10
38.48998736597574
 20
110.4654301826877
 30
0.0
 40
0.2814999999999999
  0
CIRCLE
  5
121
330
6C
100
AcDbEntity
  8
Visible (ANSI)
100
AcDbCircle
 10
38.48998736597574
 20
34.21543018268772
 30
0.0
 40
0.2814999999999999
  0
CIRCLE
  5
122
330
6C
100
AcDbEntity
  8
Visible (ANSI)
100
AcDbCircle
 10
80.73998736597571
 20
34.21543018268772
 30
0.0
 40
0.2814999999999999
  0
LINE
  5
123
330
6C
100
AcDbEntity
  8
Visible (ANSI)
100
AcDbLine
 10
81.61498736597572
 20
111.1270418350394
 30
0.0
 11
81.61498736597575
 21
33.55381853033603
 31
0.0
  0
LINE
  5
124
330
6C
100
AcDbEntity
  8
Visible (ANSI)
100
AcDbLine
 10
37.82837571362406
 20
111.3404301826877
 30
0.0
 11
81.40159901832742
 21
111.3404301826877
 31
0.0
  0
LINE
  5
125
330
6C
100
AcDbEntity
  8
Visible (ANSI)
100
AcDbLine
 10
37.61498736597577
 20
33.55381853033604
 30
0.0
 11
37.61498736597574
 21
111.1270418350394
 31
0.0
  0
LINE
  5
126
330
6C
100
AcDbEntity
  8
Visible (ANSI)
100
AcDbLine
 10
81.40159901832744
 20
33.34043018268772
 30
0.0
 11
37.82837571362408
 21
33.34043018268772
 31
0.0
  0
LINE
  5
127
330
6C
100
AcDbEntity
  8
Hidden (ANSI)
 48
1.072267889976501
100
AcDbLine
 10
81.48998736597576
 20
33.55381853033605
 30
0.0
 11
81.48998736597572
 21
111.1270418350394
 31
0.0
  0
LINE
  5
128
330
6C
100
AcDbEntity
  8
Hidden (ANSI)
 48
1.075531482696533
100
AcDbLine
 10
81.40159901832742
 20
111.2154301826877
 30
0.0
 11
37.82837571362406
 21
111.2154301826877
 31
0.0
  0
LINE
  5
129
330
6C
100
AcDbEntity
  8
Hidden (ANSI)
 48
1.072267889976501
100
AcDbLine
 10
37.73998736597575
 20
111.1270418350394
 30
0.0
 11
37.73998736597576
 21
33.55381853033603
 31
0.0
  0
LINE
  5
12A
330
6C
100
AcDbEntity
  8
Hidden (ANSI)
 48
1.075531482696533
100
AcDbLine
 10
37.82837571362409
 20
33.46543018268772
 30
0.0
 11
81.40159901832744
 21
33.46543018268772
 31
0.0
  0
POLYLINE
  5
12B
330
6C
100
AcDbEntity
  8
Visible (ANSI)
100
AcDb2dPolyline
 66
     1
 10
0.0
 20
0.0
 30
0.0
 70
   128
  0
VERTEX
  5
12C
330
12B
100
AcDbEntity
  8
Visible (ANSI)
100
AcDbVertex
100
AcDb2dVertex
 10
81.47438807763606
 20
111.1998311346439
 30
0.0
  0
VERTEX
  5
12D
330
12B
100
AcDbEntity
  8
Visible (ANSI)
100
AcDbVertex
100
AcDb2dVertex
 10
81.4835823991558
 20
111.1967973990232
 30
0.0
  0
VERTEX
  5
12F
330
12B
100
AcDbEntity
  8
Visible (ANSI)
100
AcDbVertex
100
AcDb2dVertex
 10
81.49274067629194
 20
111.1937636634025
 30
0.0
  0
VERTEX
  5
130
330
12B
100
AcDbEntity
  8
Visible (ANSI)
100
AcDbVertex
100
AcDb2dVertex
 10
81.50181785356496
 20
111.1907299277818
 30
0.0
  0
VERTEX
  5
131
330
12B
100
AcDbEntity
  8
Visible (ANSI)
100
AcDbVertex
100
AcDb2dVertex
 10
81.51077788659122
 20
111.1876961921611
 30
0.0
  0
VERTEX
  5
132
330
12B
100
AcDbEntity
  8
Visible (ANSI)
100
AcDbVertex
100
AcDb2dVertex
 10
81.51958172728852
 20
111.1846684639377
 30
0.0
  0
VERTEX
  5
133
330
12B
100
AcDbEntity
  8
Visible (ANSI)
100
AcDbVertex
100
AcDb2dVertex
 10
81.52819333127318
 20
111.181634728317
 30
0.0
  0
VERTEX
  5
134
330
12B
100
AcDbEntity
  8
Visible (ANSI)
100
AcDbVertex
100
AcDb2dVertex
 10
81.53657365046303
 20
111.1786009926963
 30
0.0
  0
VERTEX
  5
135
330
12B
100
AcDbEntity
  8
Visible (ANSI)
100
AcDbVertex
100
AcDb2dVertex
 10
81.5446866404744
 20
111.1755672570756
 30
0.0
  0
VERTEX
  5
136
330
12B
100
AcDbEntity
  8
Visible (ANSI)
100
AcDbVertex
100
AcDb2dVertex
 10
81.55249926062236
 20
111.1725335214549
 30
0.0
  0
VERTEX
  5
137
330
12B
100
AcDbEntity
  8
Visible (ANSI)
100
AcDbVertex
100
AcDb2dVertex
 10
81.5599784702219
 20
111.1694997858342
 30
0.0
  0
VERTEX
  5
138
330
12B
100
AcDbEntity
  8
Visible (ANSI)
100
AcDbVertex
100
AcDb2dVertex
 10
81.56709122858803
 20
111.1664660502135
 30
0.0
  0
VERTEX
  5
139
330
12B
100
AcDbEntity
  8
Visible (ANSI)
100
AcDbVertex
100
AcDb2dVertex
 10
81.57380749873443
 20
111.1634383219901
 30
0.0
  0
VERTEX
  5
13A
330
12B
100
AcDbEntity
  8
Visible (ANSI)
100
AcDbVertex
100
AcDb2dVertex
 10
81.58009724367476
 20
111.1604045863694
 30
0.0
  0
VERTEX
  5
13B
330
12B
100
AcDbEntity
  8
Visible (ANSI)
100
AcDbVertex
100
AcDb2dVertex
 10
81.5859334301213
 20
111.1573708507487
 30
0.0
  0
VERTEX
  5
13C
330
12B
100
AcDbEntity
  8
Visible (ANSI)
100
AcDbVertex
100
AcDb2dVertex
 10
81.59129202848498
 20
111.154337115128
 30
0.0
  0
VERTEX
  5
13D
330
12B
100
AcDbEntity
  8
Visible (ANSI)
100
AcDbVertex
100
AcDb2dVertex
 10
81.59615201287536
 20
111.1513033795073
 30
0.0
  0
VERTEX
  5
13E
330
12B
100
AcDbEntity
  8
Visible (ANSI)
100
AcDbVertex
100
AcDb2dVertex
 10
81.60048635000473
 20
111.1482696438866
 30
0.0
  0
VERTEX
  5
13F
330
12B
100
AcDbEntity
  8
Visible (ANSI)
100
AcDbVertex
100
AcDb2dVertex
 10
81.60428602877718
 20
111.1452419156632
 30
0.0
  0
VERTEX
  5
140
330
12B
100
AcDbEntity
  8
Visible (ANSI)
100
AcDbVertex
100
AcDb2dVertex
 10
81.60752701960365
 20
111.1422081800425
 30
0.0
  0
VERTEX
  5
141
330
12B
100
AcDbEntity
  8
Visible (ANSI)
100
AcDbVertex
100
AcDb2dVertex
 10
81.61019730768959
 20
111.1391744444218
 30
0.0
  0
VERTEX
  5
142
330
12B
100
AcDbEntity
  8
Visible (ANSI)
100
AcDbVertex
100
AcDb2dVertex
 10
81.61228487824045
 20
111.1361407088011
 30
0.0
  0
VERTEX
  5
143
330
12B
100
AcDbEntity
  8
Visible (ANSI)
100
AcDbVertex
100
AcDb2dVertex
 10
81.613783723859
 20
111.1331069731804
 30
0.0
  0
VERTEX
  5
144
330
12B
100
AcDbEntity
  8
Visible (ANSI)
100
AcDbVertex
100
AcDb2dVertex
 10
81.61468483344931
 20
111.1300732375597
 30
0.0
  0
VERTEX
  5
145
330
12B
100
AcDbEntity
  8
Visible (ANSI)
100
AcDbVertex
100
AcDb2dVertex
 10
81.61498820701138
 20
111.127039501939
 30
0.0
  0
SEQEND
  5
12E
330
12B
100
AcDbEntity
  8
Visible (ANSI)
  0
POLYLINE
  5
146
330
6C
100
AcDbEntity
  8
Visible (ANSI)
100
AcDb2dPolyline
 66
     1
 10
0.0
 20
0.0
 30
0.0
 70
   128
  0
VERTEX
  5
147
330
146
100
AcDbEntity
  8
Visible (ANSI)
100
AcDbVertex
100
AcDb2dVertex
 10
81.61498820701138
 20
33.55381851867412
 30
0.0
  0
VERTEX
  5
148
330
146
100
AcDbEntity
  8
Visible (ANSI)
100
AcDbVertex
100
AcDb2dVertex
 10
81.61468483344931
 20
33.55078567477646
 30
0.0
  0
VERTEX
  5
14A
330
146
100
AcDbEntity
  8
Visible (ANSI)
100
AcDbVertex
100
AcDb2dVertex
 10
81.613783723859
 20
33.5477528308788
 30
0.0
  0
VERTEX
  5
14B
330
146
100
AcDbEntity
  8
Visible (ANSI)
100
AcDbVertex
100
AcDb2dVertex
 10
81.61228487824045
 20
33.54471998698114
 30
0.0
  0
VERTEX
  5
14C
330
146
100
AcDbEntity
  8
Visible (ANSI)
100
AcDbVertex
100
AcDb2dVertex
 10
81.61019730768959
 20
33.54168714308347
 30
0.0
  0
VERTEX
  5
14D
330
146
100
AcDbEntity
  8
Visible (ANSI)
100
AcDbVertex
100
AcDb2dVertex
 10
81.60752701960365
 20
33.53865429918581
 30
0.0
  0
VERTEX
  5
14E
330
146
100
AcDbEntity
  8
Visible (ANSI)
100
AcDbVertex
100
AcDb2dVertex
 10
81.60428602877718
 20
33.53562144355495
 30
0.0
  0
VERTEX
  5
14F
330
146
100
AcDbEntity
  8
Visible (ANSI)
100
AcDbVertex
100
AcDb2dVertex
 10
81.60048635000473
 20
33.53258859965729
 30
0.0
  0
VERTEX
  5
150
330
146
100
AcDbEntity
  8
Visible (ANSI)
100
AcDbVertex
100
AcDb2dVertex
 10
81.59615201287536
 20
33.52955574402643
 30
0.0
  0
VERTEX
  5
151
330
146
100
AcDbEntity
  8
Visible (ANSI)
100
AcDbVertex
100
AcDb2dVertex
 10
81.59129202848498
 20
33.52652290012877
 30
0.0
  0
VERTEX
  5
152
330
146
100
AcDbEntity
  8
Visible (ANSI)
100
AcDbVertex
100
AcDb2dVertex
 10
81.5859334301213
 20
33.52349005623111
 30
0.0
  0
VERTEX
  5
153
330
146
100
AcDbEntity
  8
Visible (ANSI)
100
AcDbVertex
100
AcDb2dVertex
 10
81.58009724367476
 20
33.52045720060025
 30
0.0
  0
VERTEX
  5
154
330
146
100
AcDbEntity
  8
Visible (ANSI)
100
AcDbVertex
100
AcDb2dVertex
 10
81.57380749873443
 20
33.51742435670259
 30
0.0
  0
VERTEX
  5
155
330
146
100
AcDbEntity
  8
Visible (ANSI)
100
AcDbVertex
100
AcDb2dVertex
 10
81.56709122858803
 20
33.51439151280492
 30
0.0
  0
VERTEX
  5
156
330
146
100
AcDbEntity
  8
Visible (ANSI)
100
AcDbVertex
100
AcDb2dVertex
 10
81.5599784702219
 20
33.51135865717406
 30
0.0
  0
VERTEX
  5
157
330
146
100
AcDbEntity
  8
Visible (ANSI)
100
AcDbVertex
100
AcDb2dVertex
 10
81.55249926062236
 20
33.5083258132764
 30
0.0
  0
VERTEX
  5
158
330
146
100
AcDbEntity
  8
Visible (ANSI)
100
AcDbVertex
100
AcDb2dVertex
 10
81.5446866404744
 20
33.50529296937874
 30
0.0
  0
VERTEX
  5
159
330
146
100
AcDbEntity
  8
Visible (ANSI)
100
AcDbVertex
100
AcDb2dVertex
 10
81.53657365046303
 20
33.50226011374788
 30
0.0
  0
VERTEX
  5
15A
330
146
100
AcDbEntity
  8
Visible (ANSI)
100
AcDbVertex
100
AcDb2dVertex
 10
81.52819333127318
 20
33.49922726985022
 30
0.0
  0
VERTEX
  5
15B
330
146
100
AcDbEntity
  8
Visible (ANSI)
100
AcDbVertex
100
AcDb2dVertex
 10
81.51958172728852
 20
33.49619442595256
 30
0.0
  0
VERTEX
  5
15C
330
146
100
AcDbEntity
  8
Visible (ANSI)
100
AcDbVertex
100
AcDb2dVertex
 10
81.51077788659122
 20
33.4931615703217
 30
0.0
  0
VERTEX
  5
15D
330
146
100
AcDbEntity
  8
Visible (ANSI)
100
AcDbVertex
100
AcDb2dVertex
 10
81.50181785356496
 20
33.49012872642403
 30
0.0
  0
VERTEX
  5
15E
330
146
100
AcDbEntity
  8
Visible (ANSI)
100
AcDbVertex
100
AcDb2dVertex
 10
81.49274067629194
 20
33.48709588252638
 30
0.0
  0
VERTEX
  5
15F
330
146
100
AcDbEntity
  8
Visible (ANSI)
100
AcDbVertex
100
AcDb2dVertex
 10
81.4835823991558
 20
33.48406302689551
 30
0.0
  0
VERTEX
  5
160
330
146
100
AcDbEntity
  8
Visible (ANSI)
100
AcDbVertex
100
AcDb2dVertex
 10
81.47438807763606
 20
33.48103018299785
 30
0.0
  0
SEQEND
  5
149
330
146
100
AcDbEntity
  8
Visible (ANSI)
  0
POLYLINE
  5
161
330
6C
100
AcDbEntity
  8
Visible (ANSI)
100
AcDb2dPolyline
 66
     1
 10
0.0
 20
0.0
 30
0.0
 70
   128
  0
VERTEX
  5
162
330
161
100
AcDbEntity
  8
Visible (ANSI)
100
AcDbVertex
100
AcDb2dVertex
 10
37.75558736628589
 20
111.1998311346439
 30
0.0
  0
VERTEX
  5
163
330
161
100
AcDbEntity
  8
Visible (ANSI)
100
AcDbVertex
100
AcDb2dVertex
 10
37.75862021018357
 20
111.2090284598623
 30
0.0
  0
VERTEX
  5
165
330
161
100
AcDbEntity
  8
Visible (ANSI)
100
AcDbVertex
100
AcDb2dVertex
 10
37.76165306581442
 20
111.2181837332998
 30
0.0
  0
VERTEX
  5
166
330
161
100
AcDbEntity
  8
Visible (ANSI)
100
AcDbVertex
100
AcDb2dVertex
 10
37.76468590971208
 20
111.2272609105728
 30
0.0
  0
VERTEX
  5
167
330
161
100
AcDbEntity
  8
Visible (ANSI)
100
AcDbVertex
100
AcDb2dVertex
 10
37.76771875360974
 20
111.2362179399004
 30
0.0
  0
VERTEX
  5
168
330
161
100
AcDbEntity
  8
Visible (ANSI)
100
AcDbVertex
100
AcDb2dVertex
 10
37.77075160924061
 20
111.2450247842963
 30
0.0
  0
VERTEX
  5
169
330
161
100
AcDbEntity
  8
Visible (ANSI)
100
AcDbVertex
100
AcDb2dVertex
 10
37.77378445313826
 20
111.2536333845824
 30
0.0
  0
VERTEX
  5
16A
330
161
100
AcDbEntity
  8
Visible (ANSI)
100
AcDbVertex
100
AcDb2dVertex
 10
37.77681729703593
 20
111.2620137037722
 30
0.0
  0
VERTEX
  5
16B
330
161
100
AcDbEntity
  8
Visible (ANSI)
100
AcDbVertex
100
AcDb2dVertex
 10
37.77985015266679
 20
111.2701296974822
 30
0.0
  0
VERTEX
  5
16C
330
161
100
AcDbEntity
  8
Visible (ANSI)
100
AcDbVertex
100
AcDb2dVertex
 10
37.78288299656445
 20
111.2779453213288
 30
0.0
  0
VERTEX
  5
16D
330
161
100
AcDbEntity
  8
Visible (ANSI)
100
AcDbVertex
100
AcDb2dVertex
 10
37.78591584046211
 20
111.2854245309283
 30
0.0
  0
VERTEX
  5
16E
330
161
100
AcDbEntity
  8
Visible (ANSI)
100
AcDbVertex
100
AcDb2dVertex
 10
37.78894869609297
 20
111.2925312818972
 30
0.0
  0
VERTEX
  5
16F
330
161
100
AcDbEntity
  8
Visible (ANSI)
100
AcDbVertex
100
AcDb2dVertex
 10
37.79198153999063
 20
111.2992475520436
 30
0.0
  0
VERTEX
  5
170
330
161
100
AcDbEntity
  8
Visible (ANSI)
100
AcDbVertex
100
AcDb2dVertex
 10
37.79501438388829
 20
111.305537296984
 30
0.0
  0
VERTEX
  5
171
330
161
100
AcDbEntity
  8
Visible (ANSI)
100
AcDbVertex
100
AcDb2dVertex
 10
37.79804723951915
 20
111.3113764871291
 30
0.0
  0
VERTEX
  5
172
330
161
100
AcDbEntity
  8
Visible (ANSI)
100
AcDbVertex
100
AcDb2dVertex
 10
37.80108008341681
 20
111.3167350854928
 30
0.0
  0
VERTEX
  5
173
330
161
100
AcDbEntity
  8
Visible (ANSI)
100
AcDbVertex
100
AcDb2dVertex
 10
37.80411292731448
 20
111.3215950698832
 30
0.0
  0
VERTEX
  5
174
330
161
100
AcDbEntity
  8
Visible (ANSI)
100
AcDbVertex
100
AcDb2dVertex
 10
37.80714578294534
 20
111.3259324107112
 30
0.0
  0
VERTEX
  5
175
330
161
100
AcDbEntity
  8
Visible (ANSI)
100
AcDbVertex
100
AcDb2dVertex
 10
37.810178626843
 20
111.329729085785
 30
0.0
  0
VERTEX
  5
176
330
161
100
AcDbEntity
  8
Visible (ANSI)
100
AcDbVertex
100
AcDb2dVertex
 10
37.81321148247386
 20
111.3329670729128
 30
0.0
  0
VERTEX
  5
177
330
161
100
AcDbEntity
  8
Visible (ANSI)
100
AcDbVertex
100
AcDb2dVertex
 10
37.81624432637152
 20
111.3356403646974
 30
0.0
  0
VERTEX
  5
178
330
161
100
AcDbEntity
  8
Visible (ANSI)
100
AcDbVertex
100
AcDb2dVertex
 10
37.81927717026918
 20
111.3377309389469
 30
0.0
  0
VERTEX
  5
179
330
161
100
AcDbEntity
  8
Visible (ANSI)
100
AcDbVertex
100
AcDb2dVertex
 10
37.82231001416685
 20
111.3392267808668
 30
0.0
  0
VERTEX
  5
17A
330
161
100
AcDbEntity
  8
Visible (ANSI)
100
AcDbVertex
100
AcDb2dVertex
 10
37.82534285806451
 20
111.3401278904571
 30
0.0
  0
VERTEX
  5
17B
330
161
100
AcDbEntity
  8
Visible (ANSI)
100
AcDbVertex
100
AcDb2dVertex
 10
37.82837570196217
 20
111.3404282603205
 30
0.0
  0
SEQEND
  5
164
330
161
100
AcDbEntity
  8
Visible (ANSI)
  0
POLYLINE
  5
17C
330
6C
100
AcDbEntity
  8
Visible (ANSI)
100
AcDb2dPolyline
 66
     1
 10
0.0
 20
0.0
 30
0.0
 70
   128
  0
VERTEX
  5
17D
330
17C
100
AcDbEntity
  8
Visible (ANSI)
100
AcDbVertex
100
AcDb2dVertex
 10
81.40159944862984
 20
111.3404282603205
 30
0.0
  0
VERTEX
  5
17E
330
17C
100
AcDbEntity
  8
Visible (ANSI)
100
AcDbVertex
100
AcDb2dVertex
 10
81.40463318425053
 20
111.3401278904571
 30
0.0
  0
VERTEX
  5
180
330
17C
100
AcDbEntity
  8
Visible (ANSI)
100
AcDbVertex
100
AcDb2dVertex
 10
81.4076639161726
 20
111.3392267808668
 30
0.0
  0
VERTEX
  5
181
330
17C
100
AcDbEntity
  8
Visible (ANSI)
100
AcDbVertex
100
AcDb2dVertex
 10
81.41069765179329
 20
111.3377309389469
 30
0.0
  0
VERTEX
  5
182
330
17C
100
AcDbEntity
  8
Visible (ANSI)
100
AcDbVertex
100
AcDb2dVertex
 10
81.41373138741398
 20
111.3356403646974
 30
0.0
  0
VERTEX
  5
183
330
17C
100
AcDbEntity
  8
Visible (ANSI)
100
AcDbVertex
100
AcDb2dVertex
 10
81.41676211933605
 20
111.3329670729128
 30
0.0
  0
VERTEX
  5
184
330
17C
100
AcDbEntity
  8
Visible (ANSI)
100
AcDbVertex
100
AcDb2dVertex
 10
81.41979585495674
 20
111.329729085785
 30
0.0
  0
VERTEX
  5
185
330
17C
100
AcDbEntity
  8
Visible (ANSI)
100
AcDbVertex
100
AcDb2dVertex
 10
81.42282959057745
 20
111.3259324107112
 30
0.0
  0
VERTEX
  5
186
330
17C
100
AcDbEntity
  8
Visible (ANSI)
100
AcDbVertex
100
AcDb2dVertex
 10
81.42586032249949
 20
111.3215950698832
 30
0.0
  0
VERTEX
  5
187
330
17C
100
AcDbEntity
  8
Visible (ANSI)
100
AcDbVertex
100
AcDb2dVertex
 10
81.42889405812018
 20
111.3167350854928
 30
0.0
  0
VERTEX
  5
188
330
17C
100
AcDbEntity
  8
Visible (ANSI)
100
AcDbVertex
100
AcDb2dVertex
 10
81.43192779374087
 20
111.3113764871291
 30
0.0
  0
VERTEX
  5
189
330
17C
100
AcDbEntity
  8
Visible (ANSI)
100
AcDbVertex
100
AcDb2dVertex
 10
81.43496152936158
 20
111.305537296984
 30
0.0
  0
VERTEX
  5
18A
330
17C
100
AcDbEntity
  8
Visible (ANSI)
100
AcDbVertex
100
AcDb2dVertex
 10
81.43799226128363
 20
111.2992475520436
 30
0.0
  0
VERTEX
  5
18B
330
17C
100
AcDbEntity
  8
Visible (ANSI)
100
AcDbVertex
100
AcDb2dVertex
 10
81.44102599690432
 20
111.2925312818972
 30
0.0
  0
VERTEX
  5
18C
330
17C
100
AcDbEntity
  8
Visible (ANSI)
100
AcDbVertex
100
AcDb2dVertex
 10
81.44405973252503
 20
111.2854245309283
 30
0.0
  0
VERTEX
  5
18D
330
17C
100
AcDbEntity
  8
Visible (ANSI)
100
AcDbVertex
100
AcDb2dVertex
 10
81.4470904644471
 20
111.2779453213288
 30
0.0
  0
VERTEX
  5
18E
330
17C
100
AcDbEntity
  8
Visible (ANSI)
100
AcDbVertex
100
AcDb2dVertex
 10
81.45012420006779
 20
111.2701296974822
 30
0.0
  0
VERTEX
  5
18F
330
17C
100
AcDbEntity
  8
Visible (ANSI)
100
AcDbVertex
100
AcDb2dVertex
 10
81.45315793568846
 20
111.2620137037722
 30
0.0
  0
VERTEX
  5
190
330
17C
100
AcDbEntity
  8
Visible (ANSI)
100
AcDbVertex
100
AcDb2dVertex
 10
81.45619167130917
 20
111.2536333845824
 30
0.0
  0
VERTEX
  5
191
330
17C
100
AcDbEntity
  8
Visible (ANSI)
100
AcDbVertex
100
AcDb2dVertex
 10
81.45922240323123
 20
111.2450247842963
 30
0.0
  0
VERTEX
  5
192
330
17C
100
AcDbEntity
  8
Visible (ANSI)
100
AcDbVertex
100
AcDb2dVertex
 10
81.46225613885192
 20
111.2362179399004
 30
0.0
  0
VERTEX
  5
193
330
17C
100
AcDbEntity
  8
Visible (ANSI)
100
AcDbVertex
100
AcDb2dVertex
 10
81.46528987447261
 20
111.2272609105728
 30
0.0
  0
VERTEX
  5
194
330
17C
100
AcDbEntity
  8
Visible (ANSI)
100
AcDbVertex
100
AcDb2dVertex
 10
81.46832060639468
 20
111.2181837332998
 30
0.0
  0
VERTEX
  5
195
330
17C
100
AcDbEntity
  8
Visible (ANSI)
100
AcDbVertex
100
AcDb2dVertex
 10
81.47135434201537
 20
111.2090284598623
 30
0.0
  0
VERTEX
  5
196
330
17C
100
AcDbEntity
  8
Visible (ANSI)
100
AcDbVertex
100
AcDb2dVertex
 10
81.47438807763606
 20
111.1998311346439
 30
0.0
  0
SEQEND
  5
17F
330
17C
100
AcDbEntity
  8
Visible (ANSI)
  0
POLYLINE
  5
197
330
6C
100
AcDbEntity
  8
Visible (ANSI)
100
AcDb2dPolyline
 66
     1
 10
0.0
 20
0.0
 30
0.0
 70
   128
  0
VERTEX
  5
198
330
197
100
AcDbEntity
  8
Visible (ANSI)
100
AcDbVertex
100
AcDb2dVertex
 10
37.75558736628589
 20
33.48103018299785
 30
0.0
  0
VERTEX
  5
199
330
197
100
AcDbEntity
  8
Visible (ANSI)
100
AcDbVertex
100
AcDb2dVertex
 10
37.74639168371521
 20
33.48406302689551
 30
0.0
  0
VERTEX
  5
19B
330
197
100
AcDbEntity
  8
Visible (ANSI)
100
AcDbVertex
100
AcDb2dVertex
 10
37.7372353777563
 20
33.48709588252638
 30
0.0
  0
VERTEX
  5
19C
330
197
100
AcDbEntity
  8
Visible (ANSI)
100
AcDbVertex
100
AcDb2dVertex
 10
37.72815767248939
 20
33.49012872642403
 30
0.0
  0
VERTEX
  5
19D
330
197
100
AcDbEntity
  8
Visible (ANSI)
100
AcDbVertex
100
AcDb2dVertex
 10
37.71919740479918
 20
33.4931615703217
 30
0.0
  0
VERTEX
  5
19E
330
197
100
AcDbEntity
  8
Visible (ANSI)
100
AcDbVertex
100
AcDb2dVertex
 10
37.71039297744201
 20
33.49619442595256
 30
0.0
  0
VERTEX
  5
19F
330
197
100
AcDbEntity
  8
Visible (ANSI)
100
AcDbVertex
100
AcDb2dVertex
 10
37.70178207744919
 20
33.49922726985022
 30
0.0
  0
VERTEX
  5
1A0
330
197
100
AcDbEntity
  8
Visible (ANSI)
100
AcDbVertex
100
AcDb2dVertex
 10
37.69340157639478
 20
33.50226011374788
 30
0.0
  0
VERTEX
  5
1A1
330
197
100
AcDbEntity
  8
Visible (ANSI)
100
AcDbVertex
100
AcDb2dVertex
 10
37.68528736613084
 20
33.50529296937874
 30
0.0
  0
VERTEX
  5
1A2
330
197
100
AcDbEntity
  8
Visible (ANSI)
100
AcDbVertex
100
AcDb2dVertex
 10
37.67747418865599
 20
33.5083258132764
 30
0.0
  0
VERTEX
  5
1A3
330
197
100
AcDbEntity
  8
Visible (ANSI)
100
AcDbVertex
100
AcDb2dVertex
 10
37.66999550705036
 20
33.51135865717406
 30
0.0
  0
VERTEX
  5
1A4
330
197
100
AcDbEntity
  8
Visible (ANSI)
100
AcDbVertex
100
AcDb2dVertex
 10
37.66288334414401
 20
33.51439151280492
 30
0.0
  0
VERTEX
  5
1A5
330
197
100
AcDbEntity
  8
Visible (ANSI)
100
AcDbVertex
100
AcDb2dVertex
 10
37.65616815345179
 20
33.51742435670259
 30
0.0
  0
VERTEX
  5
1A6
330
197
100
AcDbEntity
  8
Visible (ANSI)
100
AcDbVertex
100
AcDb2dVertex
 10
37.64987869010822
 20
33.52045720060025
 30
0.0
  0
VERTEX
  5
1A7
330
197
100
AcDbEntity
  8
Visible (ANSI)
100
AcDbVertex
100
AcDb2dVertex
 10
37.64404188766879
 20
33.52349005623111
 30
0.0
  0
VERTEX
  5
1A8
330
197
100
AcDbEntity
  8
Visible (ANSI)
100
AcDbVertex
100
AcDb2dVertex
 10
37.63868273784481
 20
33.52652290012877
 30
0.0
  0
VERTEX
  5
1A9
330
197
100
AcDbEntity
  8
Visible (ANSI)
100
AcDbVertex
100
AcDb2dVertex
 10
37.63382419370446
 20
33.52955574402643
 30
0.0
  0
VERTEX
  5
1AA
330
197
100
AcDbEntity
  8
Visible (ANSI)
100
AcDbVertex
100
AcDb2dVertex
 10
37.62948705820742
 20
33.53258859965729
 30
0.0
  0
VERTEX
  5
1AB
330
197
100
AcDbEntity
  8
Visible (ANSI)
100
AcDbVertex
100
AcDb2dVertex
 10
37.62568990353914
 20
33.53562144355495
 30
0.0
  0
VERTEX
  5
1AC
330
197
100
AcDbEntity
  8
Visible (ANSI)
100
AcDbVertex
100
AcDb2dVertex
 10
37.62244898971179
 20
33.53865429918581
 30
0.0
  0
VERTEX
  5
1AD
330
197
100
AcDbEntity
  8
Visible (ANSI)
100
AcDbVertex
100
AcDb2dVertex
 10
37.61977819489838
 20
33.54168714308347
 30
0.0
  0
VERTEX
  5
1AE
330
197
100
AcDbEntity
  8
Visible (ANSI)
100
AcDbVertex
100
AcDb2dVertex
 10
37.61768895548344
 20
33.54471998698114
 30
0.0
  0
VERTEX
  5
1AF
330
197
100
AcDbEntity
  8
Visible (ANSI)
100
AcDbVertex
100
AcDb2dVertex
 10
37.61619021848865
 20
33.5477528308788
 30
0.0
  0
VERTEX
  5
1B0
330
197
100
AcDbEntity
  8
Visible (ANSI)
100
AcDbVertex
100
AcDb2dVertex
 10
37.61528840137735
 20
33.55078567477646
 30
0.0
  0
VERTEX
  5
1B1
330
197
100
AcDbEntity
  8
Visible (ANSI)
100
AcDbVertex
100
AcDb2dVertex
 10
37.61498736597577
 20
33.55381851867412
 30
0.0
  0
SEQEND
  5
19A
330
197
100
AcDbEntity
  8
Visible (ANSI)
  0
POLYLINE
  5
1B2
330
6C
100
AcDbEntity
  8
Visible (ANSI)
100
AcDb2dPolyline
 66
     1
 10
0.0
 20
0.0
 30
0.0
 70
   128
  0
VERTEX
  5
1B3
330
1B2
100
AcDbEntity
  8
Visible (ANSI)
100
AcDbVertex
100
AcDb2dVertex
 10
37.61498736597574
 20
111.127039501939
 30
0.0
  0
VERTEX
  5
1B4
330
1B2
100
AcDbEntity
  8
Visible (ANSI)
100
AcDbVertex
100
AcDb2dVertex
 10
37.61528840137735
 20
111.1300732375597
 30
0.0
  0
VERTEX
  5
1B6
330
1B2
100
AcDbEntity
  8
Visible (ANSI)
100
AcDbVertex
100
AcDb2dVertex
 10
37.61619021848865
 20
111.1331069731804
 30
0.0
  0
VERTEX
  5
1B7
330
1B2
100
AcDbEntity
  8
Visible (ANSI)
100
AcDbVertex
100
AcDb2dVertex
 10
37.61768895548344
 20
111.1361407088011
 30
0.0
  0
VERTEX
  5
1B8
330
1B2
100
AcDbEntity
  8
Visible (ANSI)
100
AcDbVertex
100
AcDb2dVertex
 10
37.61977819489838
 20
111.1391744444218
 30
0.0
  0
VERTEX
  5
1B9
330
1B2
100
AcDbEntity
  8
Visible (ANSI)
100
AcDbVertex
100
AcDb2dVertex
 10
37.62244898971179
 20
111.1422081800425
 30
0.0
  0
VERTEX
  5
1BA
330
1B2
100
AcDbEntity
  8
Visible (ANSI)
100
AcDbVertex
100
AcDb2dVertex
 10
37.62568990353914
 20
111.1452419156632
 30
0.0
  0
VERTEX
  5
1BB
330
1B2
100
AcDbEntity
  8
Visible (ANSI)
100
AcDbVertex
100
AcDb2dVertex
 10
37.62948705820742
 20
111.1482696438866
 30
0.0
  0
VERTEX
  5
1BC
330
1B2
100
AcDbEntity
  8
Visible (ANSI)
100
AcDbVertex
100
AcDb2dVertex
 10
37.63382419370446
 20
111.1513033795073
 30
0.0
  0
VERTEX
  5
1BD
330
1B2
100
AcDbEntity
  8
Visible (ANSI)
100
AcDbVertex
100
AcDb2dVertex
 10
37.63868273784481
 20
111.154337115128
 30
0.0
  0
VERTEX
  5
1BE
330
1B2
100
AcDbEntity
  8
Visible (ANSI)
100
AcDbVertex
100
AcDb2dVertex
 10
37.64404188766879
 20
111.1573708507487
 30
0.0
  0
VERTEX
  5
1BF
330
1B2
100
AcDbEntity
  8
Visible (ANSI)
100
AcDbVertex
100
AcDb2dVertex
 10
37.64987869010822
 20
111.1604045863694
 30
0.0
  0
VERTEX
  5
1C0
330
1B2
100
AcDbEntity
  8
Visible (ANSI)
100
AcDbVertex
100
AcDb2dVertex
 10
37.65616815345179
 20
111.1634383219901
 30
0.0
  0
VERTEX
  5
1C1
330
1B2
100
AcDbEntity
  8
Visible (ANSI)
100
AcDbVertex
100
AcDb2dVertex
 10
37.66288334414401
 20
111.1664660502135
 30
0.0
  0
VERTEX
  5
1C2
330
1B2
100
AcDbEntity
  8
Visible (ANSI)
100
AcDbVertex
100
AcDb2dVertex
 10
37.66999550705036
 20
111.1694997858342
 30
0.0
  0
VERTEX
  5
1C3
330
1B2
100
AcDbEntity
  8
Visible (ANSI)
100
AcDbVertex
100
AcDb2dVertex
 10
37.67747418865599
 20
111.1725335214549
 30
0.0
  0
VERTEX
  5
1C4
330
1B2
100
AcDbEntity
  8
Visible (ANSI)
100
AcDbVertex
100
AcDb2dVertex
 10
37.68528736613084
 20
111.1755672570756
 30
0.0
  0
VERTEX
  5
1C5
330
1B2
100
AcDbEntity
  8
Visible (ANSI)
100
AcDbVertex
100
AcDb2dVertex
 10
37.69340157639478
 20
111.1786009926963
 30
0.0
  0
VERTEX
  5
1C6
330
1B2
100
AcDbEntity
  8
Visible (ANSI)
100
AcDbVertex
100
AcDb2dVertex
 10
37.70178207744919
 20
111.181634728317
 30
0.0
  0
VERTEX
  5
1C7
330
1B2
100
AcDbEntity
  8
Visible (ANSI)
100
AcDbVertex
100
AcDb2dVertex
 10
37.71039297744201
 20
111.1846684639377
 30
0.0
  0
VERTEX
  5
1C8
330
1B2
100
AcDbEntity
  8
Visible (ANSI)
100
AcDbVertex
100
AcDb2dVertex
 10
37.71919740479918
 20
111.1876961921611
 30
0.0
  0
VERTEX
  5
1C9
330
1B2
100
AcDbEntity
  8
Visible (ANSI)
100
AcDbVertex
100
AcDb2dVertex
 10
37.72815767248939
 20
111.1907299277818
 30
0.0
  0
VERTEX
  5
1CA
330
1B2
100
AcDbEntity
  8
Visible (ANSI)
100
AcDbVertex
100
AcDb2dVertex
 10
37.7372353777563
 20
111.1937636634025
 30
0.0
  0
VERTEX
  5
1CB
330
1B2
100
AcDbEntity
  8
Visible (ANSI)
100
AcDbVertex
100
AcDb2dVertex
 10
37.74639168371521
 20
111.1967973990232
 30
0.0
  0
VERTEX
  5
1CC
330
1B2
100
AcDbEntity
  8
Visible (ANSI)
100
AcDbVertex
100
AcDb2dVertex
 10
37.75558736628589
 20
111.1998311346439
 30
0.0
  0
SEQEND
  5
1B5
330
1B2
100
AcDbEntity
  8
Visible (ANSI)
  0
POLYLINE
  5
1CD
330
6C
100
AcDbEntity
  8
Visible (ANSI)
100
AcDb2dPolyline
 66
     1
 10
0.0
 20
0.0
 30
0.0
 70
   128
  0
VERTEX
  5
1CE
330
1CD
100
AcDbEntity
  8
Visible (ANSI)
100
AcDbVertex
100
AcDb2dVertex
 10
81.47438807763606
 20
33.48103018299785
 30
0.0
  0
VERTEX
  5
1CF
330
1CD
100
AcDbEntity
  8
Visible (ANSI)
100
AcDbVertex
100
AcDb2dVertex
 10
81.47135434201537
 20
33.47183450042717
 30
0.0
  0
VERTEX
  5
1D1
330
1CD
100
AcDbEntity
  8
Visible (ANSI)
100
AcDbVertex
100
AcDb2dVertex
 10
81.46832060639468
 20
33.46267819446826
 30
0.0
  0
VERTEX
  5
1D2
330
1CD
100
AcDbEntity
  8
Visible (ANSI)
100
AcDbVertex
100
AcDb2dVertex
 10
81.46528987447261
 20
33.45360048920135
 30
0.0
  0
VERTEX
  5
1D3
330
1CD
100
AcDbEntity
  8
Visible (ANSI)
100
AcDbVertex
100
AcDb2dVertex
 10
81.46225613885192
 20
33.44464022151113
 30
0.0
  0
VERTEX
  5
1D4
330
1CD
100
AcDbEntity
  8
Visible (ANSI)
100
AcDbVertex
100
AcDb2dVertex
 10
81.45922240323123
 20
33.43583579415396
 30
0.0
  0
VERTEX
  5
1D5
330
1CD
100
AcDbEntity
  8
Visible (ANSI)
100
AcDbVertex
100
AcDb2dVertex
 10
81.45619167130917
 20
33.42722489416114
 30
0.0
  0
VERTEX
  5
1D6
330
1CD
100
AcDbEntity
  8
Visible (ANSI)
100
AcDbVertex
100
AcDb2dVertex
 10
81.45315793568846
 20
33.41884439310674
 30
0.0
  0
VERTEX
  5
1D7
330
1CD
100
AcDbEntity
  8
Visible (ANSI)
100
AcDbVertex
100
AcDb2dVertex
 10
81.45012420006779
 20
33.41073018284279
 30
0.0
  0
VERTEX
  5
1D8
330
1CD
100
AcDbEntity
  8
Visible (ANSI)
100
AcDbVertex
100
AcDb2dVertex
 10
81.4470904644471
 20
33.40291700536795
 30
0.0
  0
VERTEX
  5
1D9
330
1CD
100
AcDbEntity
  8
Visible (ANSI)
100
AcDbVertex
100
AcDb2dVertex
 10
81.44405973252503
 20
33.39543832376231
 30
0.0
  0
VERTEX
  5
1DA
330
1CD
100
AcDbEntity
  8
Visible (ANSI)
100
AcDbVertex
100
AcDb2dVertex
 10
81.44102599690432
 20
33.38832616085596
 30
0.0
  0
VERTEX
  5
1DB
330
1CD
100
AcDbEntity
  8
Visible (ANSI)
100
AcDbVertex
100
AcDb2dVertex
 10
81.43799226128363
 20
33.38161097016375
 30
0.0
  0
VERTEX
  5
1DC
330
1CD
100
AcDbEntity
  8
Visible (ANSI)
100
AcDbVertex
100
AcDb2dVertex
 10
81.43496152936158
 20
33.37532150682017
 30
0.0
  0
VERTEX
  5
1DD
330
1CD
100
AcDbEntity
  8
Visible (ANSI)
100
AcDbVertex
100
AcDb2dVertex
 10
81.43192779374087
 20
33.36948470438074
 30
0.0
  0
VERTEX
  5
1DE
330
1CD
100
AcDbEntity
  8
Visible (ANSI)
100
AcDbVertex
100
AcDb2dVertex
 10
81.42889405812018
 20
33.36412555455676
 30
0.0
  0
VERTEX
  5
1DF
330
1CD
100
AcDbEntity
  8
Visible (ANSI)
100
AcDbVertex
100
AcDb2dVertex
 10
81.42586032249949
 20
33.35926701041641
 30
0.0
  0
VERTEX
  5
1E0
330
1CD
100
AcDbEntity
  8
Visible (ANSI)
100
AcDbVertex
100
AcDb2dVertex
 10
81.42282959057745
 20
33.35492987491937
 30
0.0
  0
VERTEX
  5
1E1
330
1CD
100
AcDbEntity
  8
Visible (ANSI)
100
AcDbVertex
100
AcDb2dVertex
 10
81.41979585495674
 20
33.3511327202511
 30
0.0
  0
VERTEX
  5
1E2
330
1CD
100
AcDbEntity
  8
Visible (ANSI)
100
AcDbVertex
100
AcDb2dVertex
 10
81.41676211933605
 20
33.34789180642374
 30
0.0
  0
VERTEX
  5
1E3
330
1CD
100
AcDbEntity
  8
Visible (ANSI)
100
AcDbVertex
100
AcDb2dVertex
 10
81.41373138741398
 20
33.34522101161033
 30
0.0
  0
VERTEX
  5
1E4
330
1CD
100
AcDbEntity
  8
Visible (ANSI)
100
AcDbVertex
100
AcDb2dVertex
 10
81.41069765179329
 20
33.34313177219539
 30
0.0
  0
VERTEX
  5
1E5
330
1CD
100
AcDbEntity
  8
Visible (ANSI)
100
AcDbVertex
100
AcDb2dVertex
 10
81.4076639161726
 20
33.3416330352006
 30
0.0
  0
VERTEX
  5
1E6
330
1CD
100
AcDbEntity
  8
Visible (ANSI)
100
AcDbVertex
100
AcDb2dVertex
 10
81.40463318425053
 20
33.34073121808931
 30
0.0
  0
VERTEX
  5
1E7
330
1CD
100
AcDbEntity
  8
Visible (ANSI)
100
AcDbVertex
100
AcDb2dVertex
 10
81.40159944862984
 20
33.34043018268772
 30
0.0
  0
SEQEND
  5
1D0
330
1CD
100
AcDbEntity
  8
Visible (ANSI)
  0
POLYLINE
  5
1E8
330
6C
100
AcDbEntity
  8
Visible (ANSI)
100
AcDb2dPolyline
 66
     1
 10
0.0
 20
0.0
 30
0.0
 70
   128
  0
VERTEX
  5
1E9
330
1E8
100
AcDbEntity
  8
Visible (ANSI)
100
AcDbVertex
100
AcDb2dVertex
 10
37.82837570196217
 20
33.34043018268772
 30
0.0
  0
VERTEX
  5
1EA
330
1E8
100
AcDbEntity
  8
Visible (ANSI)
100
AcDbVertex
100
AcDb2dVertex
 10
37.82534285806451
 20
33.34073121808931
 30
0.0
  0
VERTEX
  5
1EC
330
1E8
100
AcDbEntity
  8
Visible (ANSI)
100
AcDbVertex
100
AcDb2dVertex
 10
37.82231001416685
 20
33.3416330352006
 30
0.0
  0
VERTEX
  5
1ED
330
1E8
100
AcDbEntity
  8
Visible (ANSI)
100
AcDbVertex
100
AcDb2dVertex
 10
37.81927717026918
 20
33.34313177219539
 30
0.0
  0
VERTEX
  5
1EE
330
1E8
100
AcDbEntity
  8
Visible (ANSI)
100
AcDbVertex
100
AcDb2dVertex
 10
37.81624432637152
 20
33.34522101161033
 30
0.0
  0
VERTEX
  5
1EF
330
1E8
100
AcDbEntity
  8
Visible (ANSI)
100
AcDbVertex
100
AcDb2dVertex
 10
37.81321148247386
 20
33.34789180642374
 30
0.0
  0
VERTEX
  5
1F0
330
1E8
100
AcDbEntity
  8
Visible (ANSI)
100
AcDbVertex
100
AcDb2dVertex
 10
37.810178626843
 20
33.3511327202511
 30
0.0
  0
VERTEX
  5
1F1
330
1E8
100
AcDbEntity
  8
Visible (ANSI)
100
AcDbVertex
100
AcDb2dVertex
 10
37.80714578294534
 20
33.35492987491937
 30
0.0
  0
VERTEX
  5
1F2
330
1E8
100
AcDbEntity
  8
Visible (ANSI)
100
AcDbVertex
100
AcDb2dVertex
 10
37.80411292731448
 20
33.35926701041641
 30
0.0
  0
VERTEX
  5
1F3
330
1E8
100
AcDbEntity
  8
Visible (ANSI)
100
AcDbVertex
100
AcDb2dVertex
 10
37.80108008341681
 20
33.36412555455676
 30
0.0
  0
VERTEX
  5
1F4
330
1E8
100
AcDbEntity
  8
Visible (ANSI)
100
AcDbVertex
100
AcDb2dVertex
 10
37.79804723951915
 20
33.36948470438074
 30
0.0
  0
VERTEX
  5
1F5
330
1E8
100
AcDbEntity
  8
Visible (ANSI)
100
AcDbVertex
100
AcDb2dVertex
 10
37.79501438388829
 20
33.37532150682017
 30
0.0
  0
VERTEX
  5
1F6
330
1E8
100
AcDbEntity
  8
Visible (ANSI)
100
AcDbVertex
100
AcDb2dVertex
 10
37.79198153999063
 20
33.38161097016375
 30
0.0
  0
VERTEX
  5
1F7
330
1E8
100
AcDbEntity
  8
Visible (ANSI)
100
AcDbVertex
100
AcDb2dVertex
 10
37.78894869609297
 20
33.38832616085596
 30
0.0
  0
VERTEX
  5
1F8
330
1E8
100
AcDbEntity
  8
Visible (ANSI)
100
AcDbVertex
100
AcDb2dVertex
 10
37.78591584046211
 20
33.39543832376231
 30
0.0
  0
VERTEX
  5
1F9
330
1E8
100
AcDbEntity
  8
Visible (ANSI)
100
AcDbVertex
100
AcDb2dVertex
 10
37.78288299656445
 20
33.40291700536795
 30
0.0
  0
VERTEX
  5
1FA
330
1E8
100
AcDbEntity
  8
Visible (ANSI)
100
AcDbVertex
100
AcDb2dVertex
 10
37.77985015266679
 20
33.41073018284279
 30
0.0
  0
VERTEX
  5
1FB
330
1E8
100
AcDbEntity
  8
Visible (ANSI)
100
AcDbVertex
100
AcDb2dVertex
 10
37.77681729703593
 20
33.41884439310674
 30
0.0
  0
VERTEX
  5
1FC
330
1E8
100
AcDbEntity
  8
Visible (ANSI)
100
AcDbVertex
100
AcDb2dVertex
 10
37.77378445313826
 20
33.42722489416114
 30
0.0
  0
VERTEX
  5
1FD
330
1E8
100
AcDbEntity
  8
Visible (ANSI)
100
AcDbVertex
100
AcDb2dVertex
 10
37.77075160924061
 20
33.43583579415396
 30
0.0
  0
VERTEX
  5
1FE
330
1E8
100
AcDbEntity
  8
Visible (ANSI)
100
AcDbVertex
100
AcDb2dVertex
 10
37.76771875360974
 20
33.44464022151113
 30
0.0
  0
VERTEX
  5
1FF
330
1E8
100
AcDbEntity
  8
Visible (ANSI)
100
AcDbVertex
100
AcDb2dVertex
 10
37.76468590971208
 20
33.45360048920135
 30
0.0
  0
VERTEX
  5
200
330
1E8
100
AcDbEntity
  8
Visible (ANSI)
100
AcDbVertex
100
AcDb2dVertex
 10
37.76165306581442
 20
33.46267819446826
 30
0.0
  0
VERTEX
  5
201
330
1E8
100
AcDbEntity
  8
Visible (ANSI)
100
AcDbVertex
100
AcDb2dVertex
 10
37.75862021018357
 20
33.47183450042717
 30
0.0
  0
VERTEX
  5
202
330
1E8
100
AcDbEntity
  8
Visible (ANSI)
100
AcDbVertex
100
AcDb2dVertex
 10
37.75558736628589
 20
33.48103018299785
 30
0.0
  0
SEQEND
  5
1EB
330
1E8
100
AcDbEntity
  8
Visible (ANSI)
  0
LINE
  5
203
330
6C
100
AcDbEntity
  8
Hidden (ANSI)
 48
0.0169062204658985
100
AcDbLine
 10
81.48998736597576
 20
33.55381853033605
 30
0.0
 11
81.61498736597575
 21
33.55381853033605
 31
0.0
  0
POLYLINE
  5
204
330
6C
100
AcDbEntity
  8
Hidden (ANSI)
 48
0.0103487307205796
100
AcDb2dPolyline
 66
     1
 10
0.0
 20
0.0
 30
0.0
 70
   128
  0
VERTEX
  5
205
330
204
100
AcDbEntity
  8
Hidden (ANSI)
 48
0.0103487307205796
100
AcDbVertex
100
AcDb2dVertex
 10
81.47438807763606
 20
33.48103018299785
 30
0.0
  0
VERTEX
  5
206
330
204
100
AcDbEntity
  8
Hidden (ANSI)
 48
0.0103487307205796
100
AcDbVertex
100
AcDb2dVertex
 10
81.47540633147311
 20
33.48406302689551
 30
0.0
  0
VERTEX
  5
208
330
204
100
AcDbEntity
  8
Hidden (ANSI)
 48
0.0103487307205796
100
AcDbVertex
100
AcDb2dVertex
 10
81.47642458531015
 20
33.48709588252638
 30
0.0
  0
VERTEX
  5
209
330
204
100
AcDbEntity
  8
Hidden (ANSI)
 48
0.0103487307205796
100
AcDbVertex
100
AcDb2dVertex
 10
81.47743082435267
 20
33.49012872642403
 30
0.0
  0
VERTEX
  5
20A
330
204
100
AcDbEntity
  8
Hidden (ANSI)
 48
0.0103487307205796
100
AcDbVertex
100
AcDb2dVertex
 10
81.47842504860063
 20
33.4931615703217
 30
0.0
  0
VERTEX
  5
20B
330
204
100
AcDbEntity
  8
Hidden (ANSI)
 48
0.0103487307205796
100
AcDbVertex
100
AcDb2dVertex
 10
81.47940125065678
 20
33.49619442595256
 30
0.0
  0
VERTEX
  5
20C
330
204
100
AcDbEntity
  8
Hidden (ANSI)
 48
0.0103487307205796
100
AcDbVertex
100
AcDb2dVertex
 10
81.48035642682252
 20
33.49922726985022
 30
0.0
  0
VERTEX
  5
20D
330
204
100
AcDbEntity
  8
Hidden (ANSI)
 48
0.0103487307205796
100
AcDbVertex
100
AcDb2dVertex
 10
81.48128757339916
 20
33.50226011374788
 30
0.0
  0
VERTEX
  5
20E
330
204
100
AcDbEntity
  8
Hidden (ANSI)
 48
0.0103487307205796
100
AcDbVertex
100
AcDb2dVertex
 10
81.48218868298947
 20
33.50529296937874
 30
0.0
  0
VERTEX
  5
20F
330
204
100
AcDbEntity
  8
Hidden (ANSI)
 48
0.0103487307205796
100
AcDbVertex
100
AcDb2dVertex
 10
81.48305374819617
 20
33.5083258132764
 30
0.0
  0
VERTEX
  5
210
330
204
100
AcDbEntity
  8
Hidden (ANSI)
 48
0.0103487307205796
100
AcDbVertex
100
AcDb2dVertex
 10
81.48388276901924
 20
33.51135865717406
 30
0.0
  0
VERTEX
  5
211
330
204
100
AcDbEntity
  8
Hidden (ANSI)
 48
0.0103487307205796
100
AcDbVertex
100
AcDb2dVertex
 10
81.48467274176008
 20
33.51439151280492
 30
0.0
  0
VERTEX
  5
212
330
204
100
AcDbEntity
  8
Hidden (ANSI)
 48
0.0103487307205796
100
AcDbVertex
100
AcDb2dVertex
 10
81.48541765902139
 20
33.51742435670259
 30
0.0
  0
VERTEX
  5
213
330
204
100
AcDbEntity
  8
Hidden (ANSI)
 48
0.0103487307205796
100
AcDbVertex
100
AcDb2dVertex
 10
81.4861175208032
 20
33.52045720060025
 30
0.0
  0
VERTEX
  5
214
330
204
100
AcDbEntity
  8
Hidden (ANSI)
 48
0.0103487307205796
100
AcDbVertex
100
AcDb2dVertex
 10
81.48676331600958
 20
33.52349005623111
 30
0.0
  0
VERTEX
  5
215
330
204
100
AcDbEntity
  8
Hidden (ANSI)
 48
0.0103487307205796
100
AcDbVertex
100
AcDb2dVertex
 10
81.48735804833918
 20
33.52652290012877
 30
0.0
  0
VERTEX
  5
216
330
204
100
AcDbEntity
  8
Hidden (ANSI)
 48
0.0103487307205796
100
AcDbVertex
100
AcDb2dVertex
 10
81.48789871409338
 20
33.52955574402643
 30
0.0
  0
VERTEX
  5
217
330
204
100
AcDbEntity
  8
Hidden (ANSI)
 48
0.0103487307205796
100
AcDbVertex
100
AcDb2dVertex
 10
81.48837930587488
 20
33.53258859965729
 30
0.0
  0
VERTEX
  5
218
330
204
100
AcDbEntity
  8
Hidden (ANSI)
 48
0.0103487307205796
100
AcDbVertex
100
AcDb2dVertex
 10
81.48879982368368
 20
33.53562144355495
 30
0.0
  0
VERTEX
  5
219
330
204
100
AcDbEntity
  8
Hidden (ANSI)
 48
0.0103487307205796
100
AcDbVertex
100
AcDb2dVertex
 10
81.48916026751981
 20
33.53865429918581
 30
0.0
  0
VERTEX
  5
21A
330
204
100
AcDbEntity
  8
Hidden (ANSI)
 48
0.0103487307205796
100
AcDbVertex
100
AcDb2dVertex
 10
81.48945462998597
 20
33.54168714308347
 30
0.0
  0
VERTEX
  5
21B
330
204
100
AcDbEntity
  8
Hidden (ANSI)
 48
0.0103487307205796
100
AcDbVertex
100
AcDb2dVertex
 10
81.48968891847946
 20
33.54471998698114
 30
0.0
  0
VERTEX
  5
21C
330
204
100
AcDbEntity
  8
Hidden (ANSI)
 48
0.0103487307205796
100
AcDbVertex
100
AcDb2dVertex
 10
81.48985412190432
 20
33.5477528308788
 30
0.0
  0
VERTEX
  5
21D
330
204
100
AcDbEntity
  8
Hidden (ANSI)
 48
0.0103487307205796
100
AcDbVertex
100
AcDb2dVertex
 10
81.48995324395926
 20
33.55078567477646
 30
0.0
  0
VERTEX
  5
21E
330
204
100
AcDbEntity
  8
Hidden (ANSI)
 48
0.0103487307205796
100
AcDbVertex
100
AcDb2dVertex
 10
81.48998628464424
 20
33.55381851867412
 30
0.0
  0
SEQEND
  5
207
330
204
100
AcDbEntity
  8
Hidden (ANSI)
 48
0.0103487307205796
  0
LINE
  5
21F
330
6C
100
AcDbEntity
  8
Hidden (ANSI)
 48
0.0169062204658985
100
AcDbLine
 10
81.48998736597572
 20
111.1270418350394
 30
0.0
 11
81.61498736597572
 21
111.1270418350394
 31
0.0
  0
POLYLINE
  5
220
330
6C
100
AcDbEntity
  8
Hidden (ANSI)
 48
0.0103491563349962
100
AcDb2dPolyline
 66
     1
 10
0.0
 20
0.0
 30
0.0
 70
   128
  0
VERTEX
  5
221
330
220
100
AcDbEntity
  8
Hidden (ANSI)
 48
0.0103491563349962
100
AcDbVertex
100
AcDb2dVertex
 10
81.47438807763606
 20
111.1998311346439
 30
0.0
  0
VERTEX
  5
222
330
220
100
AcDbEntity
  8
Hidden (ANSI)
 48
0.0103491563349962
100
AcDbVertex
100
AcDb2dVertex
 10
81.47540633147311
 20
111.1967973990232
 30
0.0
  0
VERTEX
  5
224
330
220
100
AcDbEntity
  8
Hidden (ANSI)
 48
0.0103491563349962
100
AcDbVertex
100
AcDb2dVertex
 10
81.47642458531015
 20
111.1937636634025
 30
0.0
  0
VERTEX
  5
225
330
220
100
AcDbEntity
  8
Hidden (ANSI)
 48
0.0103491563349962
100
AcDbVertex
100
AcDb2dVertex
 10
81.47743082435267
 20
111.1907299277818
 30
0.0
  0
VERTEX
  5
226
330
220
100
AcDbEntity
  8
Hidden (ANSI)
 48
0.0103491563349962
100
AcDbVertex
100
AcDb2dVertex
 10
81.47842504860063
 20
111.1876961921611
 30
0.0
  0
VERTEX
  5
227
330
220
100
AcDbEntity
  8
Hidden (ANSI)
 48
0.0103491563349962
100
AcDbVertex
100
AcDb2dVertex
 10
81.47940125065678
 20
111.1846684639377
 30
0.0
  0
VERTEX
  5
228
330
220
100
AcDbEntity
  8
Hidden (ANSI)
 48
0.0103491563349962
100
AcDbVertex
100
AcDb2dVertex
 10
81.48035642682252
 20
111.181634728317
 30
0.0
  0
VERTEX
  5
229
330
220
100
AcDbEntity
  8
Hidden (ANSI)
 48
0.0103491563349962
100
AcDbVertex
100
AcDb2dVertex
 10
81.48128757339916
 20
111.1786009926963
 30
0.0
  0
VERTEX
  5
22A
330
220
100
AcDbEntity
  8
Hidden (ANSI)
 48
0.0103491563349962
100
AcDbVertex
100
AcDb2dVertex
 10
81.48218868298947
 20
111.1755672570756
 30
0.0
  0
VERTEX
  5
22B
330
220
100
AcDbEntity
  8
Hidden (ANSI)
 48
0.0103491563349962
100
AcDbVertex
100
AcDb2dVertex
 10
81.48305374819617
 20
111.1725335214549
 30
0.0
  0
VERTEX
  5
22C
330
220
100
AcDbEntity
  8
Hidden (ANSI)
 48
0.0103491563349962
100
AcDbVertex
100
AcDb2dVertex
 10
81.48388276901924
 20
111.1694997858342
 30
0.0
  0
VERTEX
  5
22D
330
220
100
AcDbEntity
  8
Hidden (ANSI)
 48
0.0103491563349962
100
AcDbVertex
100
AcDb2dVertex
 10
81.48467274176008
 20
111.1664660502135
 30
0.0
  0
VERTEX
  5
22E
330
220
100
AcDbEntity
  8
Hidden (ANSI)
 48
0.0103491563349962
100
AcDbVertex
100
AcDb2dVertex
 10
81.48541765902139
 20
111.1634383219901
 30
0.0
  0
VERTEX
  5
22F
330
220
100
AcDbEntity
  8
Hidden (ANSI)
 48
0.0103491563349962
100
AcDbVertex
100
AcDb2dVertex
 10
81.4861175208032
 20
111.1604045863694
 30
0.0
  0
VERTEX
  5
230
330
220
100
AcDbEntity
  8
Hidden (ANSI)
 48
0.0103491563349962
100
AcDbVertex
100
AcDb2dVertex
 10
81.48676331600958
 20
111.1573708507487
 30
0.0
  0
VERTEX
  5
231
330
220
100
AcDbEntity
  8
Hidden (ANSI)
 48
0.0103491563349962
100
AcDbVertex
100
AcDb2dVertex
 10
81.48735804833918
 20
111.154337115128
 30
0.0
  0
VERTEX
  5
232
330
220
100
AcDbEntity
  8
Hidden (ANSI)
 48
0.0103491563349962
100
AcDbVertex
100
AcDb2dVertex
 10
81.48789871409338
 20
111.1513033795073
 30
0.0
  0
VERTEX
  5
233
330
220
100
AcDbEntity
  8
Hidden (ANSI)
 48
0.0103491563349962
100
AcDbVertex
100
AcDb2dVertex
 10
81.48837930587488
 20
111.1482696438866
 30
0.0
  0
VERTEX
  5
234
330
220
100
AcDbEntity
  8
Hidden (ANSI)
 48
0.0103491563349962
100
AcDbVertex
100
AcDb2dVertex
 10
81.48879982368368
 20
111.1452419156632
 30
0.0
  0
VERTEX
  5
235
330
220
100
AcDbEntity
  8
Hidden (ANSI)
 48
0.0103491563349962
100
AcDbVertex
100
AcDb2dVertex
 10
81.48916026751981
 20
111.1422081800425
 30
0.0
  0
VERTEX
  5
236
330
220
100
AcDbEntity
  8
Hidden (ANSI)
 48
0.0103491563349962
100
AcDbVertex
100
AcDb2dVertex
 10
81.48945462998597
 20
111.1391744444218
 30
0.0
  0
VERTEX
  5
237
330
220
100
AcDbEntity
  8
Hidden (ANSI)
 48
0.0103491563349962
100
AcDbVertex
100
AcDb2dVertex
 10
81.48968891847946
 20
111.1361407088011
 30
0.0
  0
VERTEX
  5
238
330
220
100
AcDbEntity
  8
Hidden (ANSI)
 48
0.0103491563349962
100
AcDbVertex
100
AcDb2dVertex
 10
81.48985412190432
 20
111.1331069731804
 30
0.0
  0
VERTEX
  5
239
330
220
100
AcDbEntity
  8
Hidden (ANSI)
 48
0.0103491563349962
100
AcDbVertex
100
AcDb2dVertex
 10
81.48995324395926
 20
111.1300732375597
 30
0.0
  0
VERTEX
  5
23A
330
220
100
AcDbEntity
  8
Hidden (ANSI)
 48
0.0103491563349962
100
AcDbVertex
100
AcDb2dVertex
 10
81.48998628464424
 20
111.127039501939
 30
0.0
  0
SEQEND
  5
223
330
220
100
AcDbEntity
  8
Hidden (ANSI)
 48
0.0103491563349962
  0
LINE
  5
23B
330
6C
100
AcDbEntity
  8
Hidden (ANSI)
 48
0.0169062204658985
100
AcDbLine
 10
81.40159901832742
 20
111.2154301826877
 30
0.0
 11
81.40159901832742
 21
111.3404301826877
 31
0.0
  0
POLYLINE
  5
23C
330
6C
100
AcDbEntity
  8
Hidden (ANSI)
 48
0.0103487661108375
100
AcDb2dPolyline
 66
     1
 10
0.0
 20
0.0
 30
0.0
 70
   128
  0
VERTEX
  5
23D
330
23C
100
AcDbEntity
  8
Hidden (ANSI)
 48
0.0103487661108375
100
AcDbVertex
100
AcDb2dVertex
 10
81.47438807763606
 20
111.1998311346439
 30
0.0
  0
VERTEX
  5
23E
330
23C
100
AcDbEntity
  8
Hidden (ANSI)
 48
0.0103487661108375
100
AcDbVertex
100
AcDb2dVertex
 10
81.47135434201537
 20
111.2008523921796
 30
0.0
  0
VERTEX
  5
240
330
23C
100
AcDbEntity
  8
Hidden (ANSI)
 48
0.0103487661108375
100
AcDbVertex
100
AcDb2dVertex
 10
81.46832060639468
 20
111.201867642318
 30
0.0
  0
VERTEX
  5
241
330
23C
100
AcDbEntity
  8
Hidden (ANSI)
 48
0.0103487661108375
100
AcDbVertex
100
AcDb2dVertex
 10
81.46528987447261
 20
111.2028708776618
 30
0.0
  0
VERTEX
  5
242
330
23C
100
AcDbEntity
  8
Hidden (ANSI)
 48
0.0103487661108375
100
AcDbVertex
100
AcDb2dVertex
 10
81.46225613885192
 20
111.2038681056084
 30
0.0
  0
VERTEX
  5
243
330
23C
100
AcDbEntity
  8
Hidden (ANSI)
 48
0.0103487661108375
100
AcDbVertex
100
AcDb2dVertex
 10
81.45922240323123
 20
111.2048473113632
 30
0.0
  0
VERTEX
  5
244
330
23C
100
AcDbEntity
  8
Hidden (ANSI)
 48
0.0103487661108375
100
AcDbVertex
100
AcDb2dVertex
 10
81.45619167130917
 20
111.205802487529
 30
0.0
  0
VERTEX
  5
245
330
23C
100
AcDbEntity
  8
Hidden (ANSI)
 48
0.0103487661108375
100
AcDbVertex
100
AcDb2dVertex
 10
81.45315793568846
 20
111.2067276267084
 30
0.0
  0
VERTEX
  5
246
330
23C
100
AcDbEntity
  8
Hidden (ANSI)
 48
0.0103487661108375
100
AcDbVertex
100
AcDb2dVertex
 10
81.45012420006779
 20
111.2076287362987
 30
0.0
  0
VERTEX
  5
247
330
23C
100
AcDbEntity
  8
Hidden (ANSI)
 48
0.0103487661108375
100
AcDbVertex
100
AcDb2dVertex
 10
81.4470904644471
 20
111.2084998089026
 30
0.0
  0
VERTEX
  5
248
330
23C
100
AcDbEntity
  8
Hidden (ANSI)
 48
0.0103487661108375
100
AcDbVertex
100
AcDb2dVertex
 10
81.44405973252503
 20
111.2093288297257
 30
0.0
  0
VERTEX
  5
249
330
23C
100
AcDbEntity
  8
Hidden (ANSI)
 48
0.0103487661108375
100
AcDbVertex
100
AcDb2dVertex
 10
81.44102599690432
 20
111.2101157987679
 30
0.0
  0
VERTEX
  5
24A
330
23C
100
AcDbEntity
  8
Hidden (ANSI)
 48
0.0103487661108375
100
AcDbVertex
100
AcDb2dVertex
 10
81.43799226128363
 20
111.2108607160292
 30
0.0
  0
VERTEX
  5
24B
330
23C
100
AcDbEntity
  8
Hidden (ANSI)
 48
0.0103487661108375
100
AcDbVertex
100
AcDb2dVertex
 10
81.43496152936158
 20
111.2115575741124
 30
0.0
  0
VERTEX
  5
24C
330
23C
100
AcDbEntity
  8
Hidden (ANSI)
 48
0.0103487661108375
100
AcDbVertex
100
AcDb2dVertex
 10
81.43192779374087
 20
111.2122063730174
 30
0.0
  0
VERTEX
  5
24D
330
23C
100
AcDbEntity
  8
Hidden (ANSI)
 48
0.0103487661108375
100
AcDbVertex
100
AcDb2dVertex
 10
81.42889405812018
 20
111.212801105347
 30
0.0
  0
VERTEX
  5
24E
330
23C
100
AcDbEntity
  8
Hidden (ANSI)
 48
0.0103487661108375
100
AcDbVertex
100
AcDb2dVertex
 10
81.42586032249949
 20
111.2133417711012
 30
0.0
  0
VERTEX
  5
24F
330
23C
100
AcDbEntity
  8
Hidden (ANSI)
 48
0.0103487661108375
100
AcDbVertex
100
AcDb2dVertex
 10
81.42282959057745
 20
111.2138223628827
 30
0.0
  0
VERTEX
  5
250
330
23C
100
AcDbEntity
  8
Hidden (ANSI)
 48
0.0103487661108375
100
AcDbVertex
100
AcDb2dVertex
 10
81.41979585495674
 20
111.2142428806915
 30
0.0
  0
VERTEX
  5
251
330
23C
100
AcDbEntity
  8
Hidden (ANSI)
 48
0.0103487661108375
100
AcDbVertex
100
AcDb2dVertex
 10
81.41676211933605
 20
111.2146033245276
 30
0.0
  0
VERTEX
  5
252
330
23C
100
AcDbEntity
  8
Hidden (ANSI)
 48
0.0103487661108375
100
AcDbVertex
100
AcDb2dVertex
 10
81.41373138741398
 20
111.2148976869938
 30
0.0
  0
VERTEX
  5
253
330
23C
100
AcDbEntity
  8
Hidden (ANSI)
 48
0.0103487661108375
100
AcDbVertex
100
AcDb2dVertex
 10
81.41069765179329
 20
111.2151319754873
 30
0.0
  0
VERTEX
  5
254
330
23C
100
AcDbEntity
  8
Hidden (ANSI)
 48
0.0103487661108375
100
AcDbVertex
100
AcDb2dVertex
 10
81.4076639161726
 20
111.2152941752135
 30
0.0
  0
VERTEX
  5
255
330
23C
100
AcDbEntity
  8
Hidden (ANSI)
 48
0.0103487661108375
100
AcDbVertex
100
AcDb2dVertex
 10
81.40463318425053
 20
111.2153963009671
 30
0.0
  0
VERTEX
  5
256
330
23C
100
AcDbEntity
  8
Hidden (ANSI)
 48
0.0103487661108375
100
AcDbVertex
100
AcDb2dVertex
 10
81.40159944862984
 20
111.2154323453507
 30
0.0
  0
SEQEND
  5
23F
330
23C
100
AcDbEntity
  8
Hidden (ANSI)
 48
0.0103487661108375
  0
LINE
  5
257
330
6C
100
AcDbEntity
  8
Hidden (ANSI)
 48
0.0169062204658985
100
AcDbLine
 10
37.82837571362406
 20
111.2154301826877
 30
0.0
 11
37.82837571362406
 21
111.3404301826877
 31
0.0
  0
POLYLINE
  5
258
330
6C
100
AcDbEntity
  8
Hidden (ANSI)
 48
0.0103487288579345
100
AcDb2dPolyline
 66
     1
 10
0.0
 20
0.0
 30
0.0
 70
   128
  0
VERTEX
  5
259
330
258
100
AcDbEntity
  8
Hidden (ANSI)
 48
0.0103487288579345
100
AcDbVertex
100
AcDb2dVertex
 10
37.75558736628589
 20
111.1998311346439
 30
0.0
  0
VERTEX
  5
25A
330
258
100
AcDbEntity
  8
Hidden (ANSI)
 48
0.0103487288579345
100
AcDbVertex
100
AcDb2dVertex
 10
37.75862021018357
 20
111.2008523921796
 30
0.0
  0
VERTEX
  5
25C
330
258
100
AcDbEntity
  8
Hidden (ANSI)
 48
0.0103487288579345
100
AcDbVertex
100
AcDb2dVertex
 10
37.76165306581442
 20
111.201867642318
 30
0.0
  0
VERTEX
  5
25D
330
258
100
AcDbEntity
  8
Hidden (ANSI)
 48
0.0103487288579345
100
AcDbVertex
100
AcDb2dVertex
 10
37.76468590971208
 20
111.2028708776618
 30
0.0
  0
VERTEX
  5
25E
330
258
100
AcDbEntity
  8
Hidden (ANSI)
 48
0.0103487288579345
100
AcDbVertex
100
AcDb2dVertex
 10
37.76771875360974
 20
111.2038681056084
 30
0.0
  0
VERTEX
  5
25F
330
258
100
AcDbEntity
  8
Hidden (ANSI)
 48
0.0103487288579345
100
AcDbVertex
100
AcDb2dVertex
 10
37.77075160924061
 20
111.2048473113632
 30
0.0
  0
VERTEX
  5
260
330
258
100
AcDbEntity
  8
Hidden (ANSI)
 48
0.0103487288579345
100
AcDbVertex
100
AcDb2dVertex
 10
37.77378445313826
 20
111.205802487529
 30
0.0
  0
VERTEX
  5
261
330
258
100
AcDbEntity
  8
Hidden (ANSI)
 48
0.0103487288579345
100
AcDbVertex
100
AcDb2dVertex
 10
37.77681729703593
 20
111.2067276267084
 30
0.0
  0
VERTEX
  5
262
330
258
100
AcDbEntity
  8
Hidden (ANSI)
 48
0.0103487288579345
100
AcDbVertex
100
AcDb2dVertex
 10
37.77985015266679
 20
111.2076287362987
 30
0.0
  0
VERTEX
  5
263
330
258
100
AcDbEntity
  8
Hidden (ANSI)
 48
0.0103487288579345
100
AcDbVertex
100
AcDb2dVertex
 10
37.78288299656445
 20
111.2084998089026
 30
0.0
  0
VERTEX
  5
264
330
258
100
AcDbEntity
  8
Hidden (ANSI)
 48
0.0103487288579345
100
AcDbVertex
100
AcDb2dVertex
 10
37.78591584046211
 20
111.2093288297257
 30
0.0
  0
VERTEX
  5
265
330
258
100
AcDbEntity
  8
Hidden (ANSI)
 48
0.0103487288579345
100
AcDbVertex
100
AcDb2dVertex
 10
37.78894869609297
 20
111.2101157987679
 30
0.0
  0
VERTEX
  5
266
330
258
100
AcDbEntity
  8
Hidden (ANSI)
 48
0.0103487288579345
100
AcDbVertex
100
AcDb2dVertex
 10
37.79198153999063
 20
111.2108607160292
 30
0.0
  0
VERTEX
  5
267
330
258
100
AcDbEntity
  8
Hidden (ANSI)
 48
0.0103487288579345
100
AcDbVertex
100
AcDb2dVertex
 10
37.79501438388829
 20
111.2115575741124
 30
0.0
  0
VERTEX
  5
268
330
258
100
AcDbEntity
  8
Hidden (ANSI)
 48
0.0103487288579345
100
AcDbVertex
100
AcDb2dVertex
 10
37.79804723951915
 20
111.2122063730174
 30
0.0
  0
VERTEX
  5
269
330
258
100
AcDbEntity
  8
Hidden (ANSI)
 48
0.0103487288579345
100
AcDbVertex
100
AcDb2dVertex
 10
37.80108008341681
 20
111.212801105347
 30
0.0
  0
VERTEX
  5
26A
330
258
100
AcDbEntity
  8
Hidden (ANSI)
 48
0.0103487288579345
100
AcDbVertex
100
AcDb2dVertex
 10
37.80411292731448
 20
111.2133417711012
 30
0.0
  0
VERTEX
  5
26B
330
258
100
AcDbEntity
  8
Hidden (ANSI)
 48
0.0103487288579345
100
AcDbVertex
100
AcDb2dVertex
 10
37.80714578294534
 20
111.2138223628827
 30
0.0
  0
VERTEX
  5
26C
330
258
100
AcDbEntity
  8
Hidden (ANSI)
 48
0.0103487288579345
100
AcDbVertex
100
AcDb2dVertex
 10
37.810178626843
 20
111.2142428806915
 30
0.0
  0
VERTEX
  5
26D
330
258
100
AcDbEntity
  8
Hidden (ANSI)
 48
0.0103487288579345
100
AcDbVertex
100
AcDb2dVertex
 10
37.81321148247386
 20
111.2146033245276
 30
0.0
  0
VERTEX
  5
26E
330
258
100
AcDbEntity
  8
Hidden (ANSI)
 48
0.0103487288579345
100
AcDbVertex
100
AcDb2dVertex
 10
37.81624432637152
 20
111.2148976869938
 30
0.0
  0
VERTEX
  5
26F
330
258
100
AcDbEntity
  8
Hidden (ANSI)
 48
0.0103487288579345
100
AcDbVertex
100
AcDb2dVertex
 10
37.81927717026918
 20
111.2151319754873
 30
0.0
  0
VERTEX
  5
270
330
258
100
AcDbEntity
  8
Hidden (ANSI)
 48
0.0103487288579345
100
AcDbVertex
100
AcDb2dVertex
 10
37.82231001416685
 20
111.2152941752135
 30
0.0
  0
VERTEX
  5
271
330
258
100
AcDbEntity
  8
Hidden (ANSI)
 48
0.0103487288579345
100
AcDbVertex
100
AcDb2dVertex
 10
37.82534285806451
 20
111.2153963009671
 30
0.0
  0
VERTEX
  5
272
330
258
100
AcDbEntity
  8
Hidden (ANSI)
 48
0.0103487288579345
100
AcDbVertex
100
AcDb2dVertex
 10
37.82837570196217
 20
111.2154323453507
 30
0.0
  0
SEQEND
  5
25B
330
258
100
AcDbEntity
  8
Hidden (ANSI)
 48
0.0103487288579345
  0
LINE
  5
273
330
6C
100
AcDbEntity
  8
Hidden (ANSI)
 48
0.0169062204658985
100
AcDbLine
 10
37.73998736597575
 20
111.1270418350394
 30
0.0
 11
37.61498736597574
 21
111.1270418350394
 31
0.0
  0
POLYLINE
  5
274
330
6C
100
AcDbEntity
  8
Hidden (ANSI)
 48
0.0103491833433509
100
AcDb2dPolyline
 66
     1
 10
0.0
 20
0.0
 30
0.0
 70
   128
  0
VERTEX
  5
275
330
274
100
AcDbEntity
  8
Hidden (ANSI)
 48
0.0103491833433509
100
AcDbVertex
100
AcDb2dVertex
 10
37.75558736628589
 20
111.1998311346439
 30
0.0
  0
VERTEX
  5
276
330
274
100
AcDbEntity
  8
Hidden (ANSI)
 48
0.0103491833433509
100
AcDbVertex
100
AcDb2dVertex
 10
37.75456708260564
 20
111.1967973990232
 30
0.0
  0
VERTEX
  5
278
330
274
100
AcDbEntity
  8
Hidden (ANSI)
 48
0.0103491833433509
100
AcDbVertex
100
AcDb2dVertex
 10
37.75355115194176
 20
111.1937636634025
 30
0.0
  0
VERTEX
  5
279
330
274
100
AcDbEntity
  8
Hidden (ANSI)
 48
0.0103491833433509
100
AcDbVertex
100
AcDb2dVertex
 10
37.75254396251023
 20
111.1907299277818
 30
0.0
  0
VERTEX
  5
27A
330
274
100
AcDbEntity
  8
Hidden (ANSI)
 48
0.0103491833433509
100
AcDbVertex
100
AcDb2dVertex
 10
37.75154978519505
 20
111.1876961921611
 30
0.0
  0
VERTEX
  5
27B
330
274
100
AcDbEntity
  8
Hidden (ANSI)
 48
0.0103491833433509
100
AcDbVertex
100
AcDb2dVertex
 10
37.75057291434661
 20
111.1846684639377
 30
0.0
  0
VERTEX
  5
27C
330
274
100
AcDbEntity
  8
Hidden (ANSI)
 48
0.0103491833433509
100
AcDbVertex
100
AcDb2dVertex
 10
37.74961750351693
 20
111.181634728317
 30
0.0
  0
VERTEX
  5
27D
330
274
100
AcDbEntity
  8
Hidden (ANSI)
 48
0.0103491833433509
100
AcDbVertex
100
AcDb2dVertex
 10
37.74868765932524
 20
111.1786009926963
 30
0.0
  0
VERTEX
  5
27E
330
274
100
AcDbEntity
  8
Hidden (ANSI)
 48
0.0103491833433509
100
AcDbVertex
100
AcDb2dVertex
 10
37.74778737105878
 20
111.1755672570756
 30
0.0
  0
VERTEX
  5
27F
330
274
100
AcDbEntity
  8
Hidden (ANSI)
 48
0.0103491833433509
100
AcDbVertex
100
AcDb2dVertex
 10
37.74692047547322
 20
111.1725335214549
 30
0.0
  0
VERTEX
  5
280
330
274
100
AcDbEntity
  8
Hidden (ANSI)
 48
0.0103491833433509
100
AcDbVertex
100
AcDb2dVertex
 10
37.74609069199229
 20
111.1694997858342
 30
0.0
  0
VERTEX
  5
281
330
274
100
AcDbEntity
  8
Hidden (ANSI)
 48
0.0103491833433509
100
AcDbVertex
100
AcDb2dVertex
 10
37.7453015757749
 20
111.1664660502135
 30
0.0
  0
VERTEX
  5
282
330
274
100
AcDbEntity
  8
Hidden (ANSI)
 48
0.0103491833433509
100
AcDbVertex
100
AcDb2dVertex
 10
37.74455650598201
 20
111.1634383219901
 30
0.0
  0
VERTEX
  5
283
330
274
100
AcDbEntity
  8
Hidden (ANSI)
 48
0.0103491833433509
100
AcDbVertex
100
AcDb2dVertex
 10
37.74385866231023
 20
111.1604045863694
 30
0.0
  0
VERTEX
  5
284
330
274
100
AcDbEntity
  8
Hidden (ANSI)
 48
0.0103491833433509
100
AcDbVertex
100
AcDb2dVertex
 10
37.74321104845818
 20
111.1573708507487
 30
0.0
  0
VERTEX
  5
285
330
274
100
AcDbEntity
  8
Hidden (ANSI)
 48
0.0103491833433509
100
AcDbVertex
100
AcDb2dVertex
 10
37.74261644519376
 20
111.154337115128
 30
0.0
  0
VERTEX
  5
286
330
274
100
AcDbEntity
  8
Hidden (ANSI)
 48
0.0103491833433509
100
AcDbVertex
100
AcDb2dVertex
 10
37.74207737515447
 20
111.1513033795073
 30
0.0
  0
VERTEX
  5
287
330
274
100
AcDbEntity
  8
Hidden (ANSI)
 48
0.0103491833433509
100
AcDbVertex
100
AcDb2dVertex
 10
37.74159614978029
 20
111.1482696438866
 30
0.0
  0
VERTEX
  5
288
330
274
100
AcDbEntity
  8
Hidden (ANSI)
 48
0.0103491833433509
100
AcDbVertex
100
AcDb2dVertex
 10
37.74117484584723
 20
111.1452419156632
 30
0.0
  0
VERTEX
  5
289
330
274
100
AcDbEntity
  8
Hidden (ANSI)
 48
0.0103491833433509
100
AcDbVertex
100
AcDb2dVertex
 10
37.74081525853455
 20
111.1422081800425
 30
0.0
  0
VERTEX
  5
28A
330
274
100
AcDbEntity
  8
Hidden (ANSI)
 48
0.0103491833433509
100
AcDbVertex
100
AcDb2dVertex
 10
37.74051892489115
 20
111.1391744444218
 30
0.0
  0
VERTEX
  5
28B
330
274
100
AcDbEntity
  8
Hidden (ANSI)
 48
0.0103491833433509
100
AcDbVertex
100
AcDb2dVertex
 10
37.74028711210241
 20
111.1361407088011
 30
0.0
  0
VERTEX
  5
28C
330
274
100
AcDbEntity
  8
Hidden (ANSI)
 48
0.0103491833433509
100
AcDbVertex
100
AcDb2dVertex
 10
37.74012082922332
 20
111.1331069731804
 30
0.0
  0
VERTEX
  5
28D
330
274
100
AcDbEntity
  8
Hidden (ANSI)
 48
0.0103491833433509
100
AcDbVertex
100
AcDb2dVertex
 10
37.74002076851257
 20
111.1300732375597
 30
0.0
  0
VERTEX
  5
28E
330
274
100
AcDbEntity
  8
Hidden (ANSI)
 48
0.0103491833433509
100
AcDbVertex
100
AcDb2dVertex
 10
37.73998736409846
 20
111.127039501939
 30
0.0
  0
SEQEND
  5
277
330
274
100
AcDbEntity
  8
Hidden (ANSI)
 48
0.0103491833433509
  0
LINE
  5
28F
330
6C
100
AcDbEntity
  8
Hidden (ANSI)
 48
0.0169062204658985
100
AcDbLine
 10
37.73998736597576
 20
33.55381853033604
 30
0.0
 11
37.61498736597577
 21
33.55381853033604
 31
0.0
  0
POLYLINE
  5
290
330
6C
100
AcDbEntity
  8
Hidden (ANSI)
 48
0.0103487577289343
100
AcDb2dPolyline
 66
     1
 10
0.0
 20
0.0
 30
0.0
 70
   128
  0
VERTEX
  5
291
330
290
100
AcDbEntity
  8
Hidden (ANSI)
 48
0.0103487577289343
100
AcDbVertex
100
AcDb2dVertex
 10
37.75558736628589
 20
33.48103018299785
 30
0.0
  0
VERTEX
  5
292
330
290
100
AcDbEntity
  8
Hidden (ANSI)
 48
0.0103487577289343
100
AcDbVertex
100
AcDb2dVertex
 10
37.75456708260564
 20
33.48406302689551
 30
0.0
  0
VERTEX
  5
294
330
290
100
AcDbEntity
  8
Hidden (ANSI)
 48
0.0103487577289343
100
AcDbVertex
100
AcDb2dVertex
 10
37.75355115194176
 20
33.48709588252638
 30
0.0
  0
VERTEX
  5
295
330
290
100
AcDbEntity
  8
Hidden (ANSI)
 48
0.0103487577289343
100
AcDbVertex
100
AcDb2dVertex
 10
37.75254396251023
 20
33.49012872642403
 30
0.0
  0
VERTEX
  5
296
330
290
100
AcDbEntity
  8
Hidden (ANSI)
 48
0.0103487577289343
100
AcDbVertex
100
AcDb2dVertex
 10
37.75154978519505
 20
33.4931615703217
 30
0.0
  0
VERTEX
  5
297
330
290
100
AcDbEntity
  8
Hidden (ANSI)
 48
0.0103487577289343
100
AcDbVertex
100
AcDb2dVertex
 10
37.75057291434661
 20
33.49619442595256
 30
0.0
  0
VERTEX
  5
298
330
290
100
AcDbEntity
  8
Hidden (ANSI)
 48
0.0103487577289343
100
AcDbVertex
100
AcDb2dVertex
 10
37.74961750351693
 20
33.49922726985022
 30
0.0
  0
VERTEX
  5
299
330
290
100
AcDbEntity
  8
Hidden (ANSI)
 48
0.0103487577289343
100
AcDbVertex
100
AcDb2dVertex
 10
37.74868765932524
 20
33.50226011374788
 30
0.0
  0
VERTEX
  5
29A
330
290
100
AcDbEntity
  8
Hidden (ANSI)
 48
0.0103487577289343
100
AcDbVertex
100
AcDb2dVertex
 10
37.74778737105878
 20
33.50529296937874
 30
0.0
  0
VERTEX
  5
29B
330
290
100
AcDbEntity
  8
Hidden (ANSI)
 48
0.0103487577289343
100
AcDbVertex
100
AcDb2dVertex
 10
37.74692047547322
 20
33.5083258132764
 30
0.0
  0
VERTEX
  5
29C
330
290
100
AcDbEntity
  8
Hidden (ANSI)
 48
0.0103487577289343
100
AcDbVertex
100
AcDb2dVertex
 10
37.74609069199229
 20
33.51135865717406
 30
0.0
  0
VERTEX
  5
29D
330
290
100
AcDbEntity
  8
Hidden (ANSI)
 48
0.0103487577289343
100
AcDbVertex
100
AcDb2dVertex
 10
37.7453015757749
 20
33.51439151280492
 30
0.0
  0
VERTEX
  5
29E
330
290
100
AcDbEntity
  8
Hidden (ANSI)
 48
0.0103487577289343
100
AcDbVertex
100
AcDb2dVertex
 10
37.74455650598201
 20
33.51742435670259
 30
0.0
  0
VERTEX
  5
29F
330
290
100
AcDbEntity
  8
Hidden (ANSI)
 48
0.0103487577289343
100
AcDbVertex
100
AcDb2dVertex
 10
37.74385866231023
 20
33.52045720060025
 30
0.0
  0
VERTEX
  5
2A0
330
290
100
AcDbEntity
  8
Hidden (ANSI)
 48
0.0103487577289343
100
AcDbVertex
100
AcDb2dVertex
 10
37.74321104845818
 20
33.52349005623111
 30
0.0
  0
VERTEX
  5
2A1
330
290
100
AcDbEntity
  8
Hidden (ANSI)
 48
0.0103487577289343
100
AcDbVertex
100
AcDb2dVertex
 10
37.74261644519376
 20
33.52652290012877
 30
0.0
  0
VERTEX
  5
2A2
330
290
100
AcDbEntity
  8
Hidden (ANSI)
 48
0.0103487577289343
100
AcDbVertex
100
AcDb2dVertex
 10
37.74207737515447
 20
33.52955574402643
 30
0.0
  0
VERTEX
  5
2A3
330
290
100
AcDbEntity
  8
Hidden (ANSI)
 48
0.0103487577289343
100
AcDbVertex
100
AcDb2dVertex
 10
37.74159614978029
 20
33.53258859965729
 30
0.0
  0
VERTEX
  5
2A4
330
290
100
AcDbEntity
  8
Hidden (ANSI)
 48
0.0103487577289343
100
AcDbVertex
100
AcDb2dVertex
 10
37.74117484584723
 20
33.53562144355495
 30
0.0
  0
VERTEX
  5
2A5
330
290
100
AcDbEntity
  8
Hidden (ANSI)
 48
0.0103487577289343
100
AcDbVertex
100
AcDb2dVertex
 10
37.74081525853455
 20
33.53865429918581
 30
0.0
  0
VERTEX
  5
2A6
330
290
100
AcDbEntity
  8
Hidden (ANSI)
 48
0.0103487577289343
100
AcDbVertex
100
AcDb2dVertex
 10
37.74051892489115
 20
33.54168714308347
 30
0.0
  0
VERTEX
  5
2A7
330
290
100
AcDbEntity
  8
Hidden (ANSI)
 48
0.0103487577289343
100
AcDbVertex
100
AcDb2dVertex
 10
37.74028711210241
 20
33.54471998698114
 30
0.0
  0
VERTEX
  5
2A8
330
290
100
AcDbEntity
  8
Hidden (ANSI)
 48
0.0103487577289343
100
AcDbVertex
100
AcDb2dVertex
 10
37.74012082922332
 20
33.5477528308788
 30
0.0
  0
VERTEX
  5
2A9
330
290
100
AcDbEntity
  8
Hidden (ANSI)
 48
0.0103487577289343
100
AcDbVertex
100
AcDb2dVertex
 10
37.74002076851257
 20
33.55078567477646
 30
0.0
  0
VERTEX
  5
2AA
330
290
100
AcDbEntity
  8
Hidden (ANSI)
 48
0.0103487577289343
100
AcDbVertex
100
AcDb2dVertex
 10
37.73998736409846
 20
33.55381851867412
 30
0.0
  0
SEQEND
  5
293
330
290
100
AcDbEntity
  8
Hidden (ANSI)
 48
0.0103487577289343
  0
LINE
  5
2AB
330
6C
100
AcDbEntity
  8
Hidden (ANSI)
 48
0.0169062204658985
100
AcDbLine
 10
37.82837571362409
 20
33.46543018268772
 30
0.0
 11
37.82837571362409
 21
33.34043018268772
 31
0.0
  0
POLYLINE
  5
2AC
330
6C
100
AcDbEntity
  8
Hidden (ANSI)
 48
0.0103487577289343
100
AcDb2dPolyline
 66
     1
 10
0.0
 20
0.0
 30
0.0
 70
   128
  0
VERTEX
  5
2AD
330
2AC
100
AcDbEntity
  8
Hidden (ANSI)
 48
0.0103487577289343
100
AcDbVertex
100
AcDb2dVertex
 10
37.75558736628589
 20
33.48103018299785
 30
0.0
  0
VERTEX
  5
2AE
330
2AC
100
AcDbEntity
  8
Hidden (ANSI)
 48
0.0103487577289343
100
AcDbVertex
100
AcDb2dVertex
 10
37.75862021018357
 20
33.48000989931759
 30
0.0
  0
VERTEX
  5
2B0
330
2AC
100
AcDbEntity
  8
Hidden (ANSI)
 48
0.0103487577289343
100
AcDbVertex
100
AcDb2dVertex
 10
37.76165306581442
 20
33.47899396865371
 30
0.0
  0
VERTEX
  5
2B1
330
2AC
100
AcDbEntity
  8
Hidden (ANSI)
 48
0.0103487577289343
100
AcDbVertex
100
AcDb2dVertex
 10
37.76468590971208
 20
33.47798677922218
 30
0.0
  0
VERTEX
  5
2B2
330
2AC
100
AcDbEntity
  8
Hidden (ANSI)
 48
0.0103487577289343
100
AcDbVertex
100
AcDb2dVertex
 10
37.76771875360974
 20
33.476992601907
 30
0.0
  0
VERTEX
  5
2B3
330
2AC
100
AcDbEntity
  8
Hidden (ANSI)
 48
0.0103487577289343
100
AcDbVertex
100
AcDb2dVertex
 10
37.77075160924061
 20
33.47601573105856
 30
0.0
  0
VERTEX
  5
2B4
330
2AC
100
AcDbEntity
  8
Hidden (ANSI)
 48
0.0103487577289343
100
AcDbVertex
100
AcDb2dVertex
 10
37.77378445313826
 20
33.47506032022888
 30
0.0
  0
VERTEX
  5
2B5
330
2AC
100
AcDbEntity
  8
Hidden (ANSI)
 48
0.0103487577289343
100
AcDbVertex
100
AcDb2dVertex
 10
37.77681729703593
 20
33.47413047603719
 30
0.0
  0
VERTEX
  5
2B6
330
2AC
100
AcDbEntity
  8
Hidden (ANSI)
 48
0.0103487577289343
100
AcDbVertex
100
AcDb2dVertex
 10
37.77985015266679
 20
33.47323018777073
 30
0.0
  0
VERTEX
  5
2B7
330
2AC
100
AcDbEntity
  8
Hidden (ANSI)
 48
0.0103487577289343
100
AcDbVertex
100
AcDb2dVertex
 10
37.78288299656445
 20
33.47236329218518
 30
0.0
  0
VERTEX
  5
2B8
330
2AC
100
AcDbEntity
  8
Hidden (ANSI)
 48
0.0103487577289343
100
AcDbVertex
100
AcDb2dVertex
 10
37.78591584046211
 20
33.47153350870424
 30
0.0
  0
VERTEX
  5
2B9
330
2AC
100
AcDbEntity
  8
Hidden (ANSI)
 48
0.0103487577289343
100
AcDbVertex
100
AcDb2dVertex
 10
37.78894869609297
 20
33.47074439248685
 30
0.0
  0
VERTEX
  5
2BA
330
2AC
100
AcDbEntity
  8
Hidden (ANSI)
 48
0.0103487577289343
100
AcDbVertex
100
AcDb2dVertex
 10
37.79198153999063
 20
33.46999932269396
 30
0.0
  0
VERTEX
  5
2BB
330
2AC
100
AcDbEntity
  8
Hidden (ANSI)
 48
0.0103487577289343
100
AcDbVertex
100
AcDb2dVertex
 10
37.79501438388829
 20
33.46930147902217
 30
0.0
  0
VERTEX
  5
2BC
330
2AC
100
AcDbEntity
  8
Hidden (ANSI)
 48
0.0103487577289343
100
AcDbVertex
100
AcDb2dVertex
 10
37.79804723951915
 20
33.46865386517013
 30
0.0
  0
VERTEX
  5
2BD
330
2AC
100
AcDbEntity
  8
Hidden (ANSI)
 48
0.0103487577289343
100
AcDbVertex
100
AcDb2dVertex
 10
37.80108008341681
 20
33.4680592619057
 30
0.0
  0
VERTEX
  5
2BE
330
2AC
100
AcDbEntity
  8
Hidden (ANSI)
 48
0.0103487577289343
100
AcDbVertex
100
AcDb2dVertex
 10
37.80411292731448
 20
33.46752019186642
 30
0.0
  0
VERTEX
  5
2BF
330
2AC
100
AcDbEntity
  8
Hidden (ANSI)
 48
0.0103487577289343
100
AcDbVertex
100
AcDb2dVertex
 10
37.80714578294534
 20
33.46703896649225
 30
0.0
  0
VERTEX
  5
2C0
330
2AC
100
AcDbEntity
  8
Hidden (ANSI)
 48
0.0103487577289343
100
AcDbVertex
100
AcDb2dVertex
 10
37.810178626843
 20
33.46661766255918
 30
0.0
  0
VERTEX
  5
2C1
330
2AC
100
AcDbEntity
  8
Hidden (ANSI)
 48
0.0103487577289343
100
AcDbVertex
100
AcDb2dVertex
 10
37.81321148247386
 20
33.4662580752465
 30
0.0
  0
VERTEX
  5
2C2
330
2AC
100
AcDbEntity
  8
Hidden (ANSI)
 48
0.0103487577289343
100
AcDbVertex
100
AcDb2dVertex
 10
37.81624432637152
 20
33.4659617416031
 30
0.0
  0
VERTEX
  5
2C3
330
2AC
100
AcDbEntity
  8
Hidden (ANSI)
 48
0.0103487577289343
100
AcDbVertex
100
AcDb2dVertex
 10
37.81927717026918
 20
33.46572992881436
 30
0.0
  0
VERTEX
  5
2C4
330
2AC
100
AcDbEntity
  8
Hidden (ANSI)
 48
0.0103487577289343
100
AcDbVertex
100
AcDb2dVertex
 10
37.82231001416685
 20
33.46556364593528
 30
0.0
  0
VERTEX
  5
2C5
330
2AC
100
AcDbEntity
  8
Hidden (ANSI)
 48
0.0103487577289343
100
AcDbVertex
100
AcDb2dVertex
 10
37.82534285806451
 20
33.46546358522452
 30
0.0
  0
VERTEX
  5
2C6
330
2AC
100
AcDbEntity
  8
Hidden (ANSI)
 48
0.0103487577289343
100
AcDbVertex
100
AcDb2dVertex
 10
37.82837570196217
 20
33.46543018081041
 30
0.0
  0
SEQEND
  5
2AF
330
2AC
100
AcDbEntity
  8
Hidden (ANSI)
 48
0.0103487577289343
  0
LINE
  5
2C7
330
6C
100
AcDbEntity
  8
Hidden (ANSI)
 48
0.0169062204658985
100
AcDbLine
 10
81.40159901832744
 20
33.46543018268772
 30
0.0
 11
81.40159901832744
 21
33.34043018268772
 31
0.0
  0
POLYLINE
  5
2C8
330
6C
100
AcDbEntity
  8
Hidden (ANSI)
 48
0.0103487959131599
100
AcDb2dPolyline
 66
     1
 10
0.0
 20
0.0
 30
0.0
 70
   128
  0
VERTEX
  5
2C9
330
2C8
100
AcDbEntity
  8
Hidden (ANSI)
 48
0.0103487959131599
100
AcDbVertex
100
AcDb2dVertex
 10
81.47438807763606
 20
33.48103018299785
 30
0.0
  0
VERTEX
  5
2CA
330
2C8
100
AcDbEntity
  8
Hidden (ANSI)
 48
0.0103487959131599
100
AcDbVertex
100
AcDb2dVertex
 10
81.47135434201537
 20
33.48000989931759
 30
0.0
  0
VERTEX
  5
2CC
330
2C8
100
AcDbEntity
  8
Hidden (ANSI)
 48
0.0103487959131599
100
AcDbVertex
100
AcDb2dVertex
 10
81.46832060639468
 20
33.47899396865371
 30
0.0
  0
VERTEX
  5
2CD
330
2C8
100
AcDbEntity
  8
Hidden (ANSI)
 48
0.0103487959131599
100
AcDbVertex
100
AcDb2dVertex
 10
81.46528987447261
 20
33.47798677922218
 30
0.0
  0
VERTEX
  5
2CE
330
2C8
100
AcDbEntity
  8
Hidden (ANSI)
 48
0.0103487959131599
100
AcDbVertex
100
AcDb2dVertex
 10
81.46225613885192
 20
33.476992601907
 30
0.0
  0
VERTEX
  5
2CF
330
2C8
100
AcDbEntity
  8
Hidden (ANSI)
 48
0.0103487959131599
100
AcDbVertex
100
AcDb2dVertex
 10
81.45922240323123
 20
33.47601573105856
 30
0.0
  0
VERTEX
  5
2D0
330
2C8
100
AcDbEntity
  8
Hidden (ANSI)
 48
0.0103487959131599
100
AcDbVertex
100
AcDb2dVertex
 10
81.45619167130917
 20
33.47506032022888
 30
0.0
  0
VERTEX
  5
2D1
330
2C8
100
AcDbEntity
  8
Hidden (ANSI)
 48
0.0103487959131599
100
AcDbVertex
100
AcDb2dVertex
 10
81.45315793568846
 20
33.47413047603719
 30
0.0
  0
VERTEX
  5
2D2
330
2C8
100
AcDbEntity
  8
Hidden (ANSI)
 48
0.0103487959131599
100
AcDbVertex
100
AcDb2dVertex
 10
81.45012420006779
 20
33.47323018777073
 30
0.0
  0
VERTEX
  5
2D3
330
2C8
100
AcDbEntity
  8
Hidden (ANSI)
 48
0.0103487959131599
100
AcDbVertex
100
AcDb2dVertex
 10
81.4470904644471
 20
33.47236329218518
 30
0.0
  0
VERTEX
  5
2D4
330
2C8
100
AcDbEntity
  8
Hidden (ANSI)
 48
0.0103487959131599
100
AcDbVertex
100
AcDb2dVertex
 10
81.44405973252503
 20
33.47153350870424
 30
0.0
  0
VERTEX
  5
2D5
330
2C8
100
AcDbEntity
  8
Hidden (ANSI)
 48
0.0103487959131599
100
AcDbVertex
100
AcDb2dVertex
 10
81.44102599690432
 20
33.47074439248685
 30
0.0
  0
VERTEX
  5
2D6
330
2C8
100
AcDbEntity
  8
Hidden (ANSI)
 48
0.0103487959131599
100
AcDbVertex
100
AcDb2dVertex
 10
81.43799226128363
 20
33.46999932269396
 30
0.0
  0
VERTEX
  5
2D7
330
2C8
100
AcDbEntity
  8
Hidden (ANSI)
 48
0.0103487959131599
100
AcDbVertex
100
AcDb2dVertex
 10
81.43496152936158
 20
33.46930147902217
 30
0.0
  0
VERTEX
  5
2D8
330
2C8
100
AcDbEntity
  8
Hidden (ANSI)
 48
0.0103487959131599
100
AcDbVertex
100
AcDb2dVertex
 10
81.43192779374087
 20
33.46865386517013
 30
0.0
  0
VERTEX
  5
2D9
330
2C8
100
AcDbEntity
  8
Hidden (ANSI)
 48
0.0103487959131599
100
AcDbVertex
100
AcDb2dVertex
 10
81.42889405812018
 20
33.4680592619057
 30
0.0
  0
VERTEX
  5
2DA
330
2C8
100
AcDbEntity
  8
Hidden (ANSI)
 48
0.0103487959131599
100
AcDbVertex
100
AcDb2dVertex
 10
81.42586032249949
 20
33.46752019186642
 30
0.0
  0
VERTEX
  5
2DB
330
2C8
100
AcDbEntity
  8
Hidden (ANSI)
 48
0.0103487959131599
100
AcDbVertex
100
AcDb2dVertex
 10
81.42282959057745
 20
33.46703896649225
 30
0.0
  0
VERTEX
  5
2DC
330
2C8
100
AcDbEntity
  8
Hidden (ANSI)
 48
0.0103487959131599
100
AcDbVertex
100
AcDb2dVertex
 10
81.41979585495674
 20
33.46661766255918
 30
0.0
  0
VERTEX
  5
2DD
330
2C8
100
AcDbEntity
  8
Hidden (ANSI)
 48
0.0103487959131599
100
AcDbVertex
100
AcDb2dVertex
 10
81.41676211933605
 20
33.4662580752465
 30
0.0
  0
VERTEX
  5
2DE
330
2C8
100
AcDbEntity
  8
Hidden (ANSI)
 48
0.0103487959131599
100
AcDbVertex
100
AcDb2dVertex
 10
81.41373138741398
 20
33.4659617416031
 30
0.0
  0
VERTEX
  5
2DF
330
2C8
100
AcDbEntity
  8
Hidden (ANSI)
 48
0.0103487959131599
100
AcDbVertex
100
AcDb2dVertex
 10
81.41069765179329
 20
33.46572992881436
 30
0.0
  0
VERTEX
  5
2E0
330
2C8
100
AcDbEntity
  8
Hidden (ANSI)
 48
0.0103487959131599
100
AcDbVertex
100
AcDb2dVertex
 10
81.4076639161726
 20
33.46556364593528
 30
0.0
  0
VERTEX
  5
2E1
330
2C8
100
AcDbEntity
  8
Hidden (ANSI)
 48
0.0103487959131599
100
AcDbVertex
100
AcDb2dVertex
 10
81.40463318425053
 20
33.46546358522452
 30
0.0
  0
VERTEX
  5
2E2
330
2C8
100
AcDbEntity
  8
Hidden (ANSI)
 48
0.0103487959131599
100
AcDbVertex
100
AcDb2dVertex
 10
81.40159944862984
 20
33.46543018081041
 30
0.0
  0
SEQEND
  5
2CB
330
2C8
100
AcDbEntity
  8
Hidden (ANSI)
 48
0.0103487959131599
  0
MTEXT
  5
2E4
330
6C
100
AcDbEntity
  8
Symbol (ANSI)
100
AcDbMText
 10
53.37284485781416
 20
27.06609666407667
 30
0.0
 40
1.680000020763066
 41
0.0
 46
0.0
 71
     7
 72
     1
  1
FRONT VIEW
  7
Text Style153
 73
     1
 44
1.0
  0
LINE
  5
2E6
330
6C
100
AcDbEntity
  8
Symbol (ANSI)
370
    30
100
AcDbLine
 10
53.20484442565674
 20
26.7234937408282
 30
0.0
 11
66.71155448565622
 21
26.7234937408282
 31
0.0
  0
POLYLINE
  5
2E7
330
6C
100
AcDbEntity
  8
Visible (ANSI)
100
AcDb2dPolyline
 66
     1
 10
0.0
 20
0.0
 30
0.0
 70
   128
  0
VERTEX
  5
2E8
330
2E7
100
AcDbEntity
  8
Visible (ANSI)
100
AcDbVertex
100
AcDb2dVertex
 10
117.8739052506692
 20
111.1998311346439
 30
0.0
  0
VERTEX
  5
2E9
330
2E7
100
AcDbEntity
  8
Visible (ANSI)
100
AcDbVertex
100
AcDb2dVertex
 10
117.8742062893249
 20
111.1967973990232
 30
0.0
  0
VERTEX
  5
2EB
330
2E7
100
AcDbEntity
  8
Visible (ANSI)
100
AcDbVertex
100
AcDb2dVertex
 10
117.8751081029071
 20
111.1937636634025
 30
0.0
  0
VERTEX
  5
2EC
330
2E7
100
AcDbEntity
  8
Visible (ANSI)
100
AcDbVertex
100
AcDb2dVertex
 10
117.8766068429268
 20
111.1907299277818
 30
0.0
  0
VERTEX
  5
2ED
330
2E7
100
AcDbEntity
  8
Visible (ANSI)
100
AcDbVertex
100
AcDb2dVertex
 10
117.8786960795918
 20
111.1876961921611
 30
0.0
  0
VERTEX
  5
2EE
330
2E7
100
AcDbEntity
  8
Visible (ANSI)
100
AcDbVertex
100
AcDb2dVertex
 10
117.8813668722052
 20
111.1846684639377
 30
0.0
  0
VERTEX
  5
2EF
330
2E7
100
AcDbEntity
  8
Visible (ANSI)
100
AcDbVertex
100
AcDb2dVertex
 10
117.8846077808993
 20
111.181634728317
 30
0.0
  0
VERTEX
  5
2F0
330
2E7
100
AcDbEntity
  8
Visible (ANSI)
100
AcDbVertex
100
AcDb2dVertex
 10
117.8884049370342
 20
111.1786009926963
 30
0.0
  0
VERTEX
  5
2F1
330
2E7
100
AcDbEntity
  8
Visible (ANSI)
100
AcDbVertex
100
AcDb2dVertex
 10
117.8927420783979
 20
111.1755672570756
 30
0.0
  0
VERTEX
  5
2F2
330
2E7
100
AcDbEntity
  8
Visible (ANSI)
100
AcDbVertex
100
AcDb2dVertex
 10
117.897600619605
 20
111.1725335214549
 30
0.0
  0
VERTEX
  5
2F3
330
2E7
100
AcDbEntity
  8
Visible (ANSI)
100
AcDbVertex
100
AcDb2dVertex
 10
117.9029597694289
 20
111.1694997858342
 30
0.0
  0
VERTEX
  5
2F4
330
2E7
100
AcDbEntity
  8
Visible (ANSI)
100
AcDbVertex
100
AcDb2dVertex
 10
117.9087965718684
 20
111.1664660502135
 30
0.0
  0
VERTEX
  5
2F5
330
2E7
100
AcDbEntity
  8
Visible (ANSI)
100
AcDbVertex
100
AcDb2dVertex
 10
117.9150860352119
 20
111.1634383219901
 30
0.0
  0
VERTEX
  5
2F6
330
2E7
100
AcDbEntity
  8
Visible (ANSI)
100
AcDbVertex
100
AcDb2dVertex
 10
117.9218012259042
 20
111.1604045863694
 30
0.0
  0
VERTEX
  5
2F7
330
2E7
100
AcDbEntity
  8
Visible (ANSI)
100
AcDbVertex
100
AcDb2dVertex
 10
117.9289133917438
 20
111.1573708507487
 30
0.0
  0
VERTEX
  5
2F8
330
2E7
100
AcDbEntity
  8
Visible (ANSI)
100
AcDbVertex
100
AcDb2dVertex
 10
117.9363920733494
 20
111.154337115128
 30
0.0
  0
VERTEX
  5
2F9
330
2E7
100
AcDbEntity
  8
Visible (ANSI)
100
AcDbVertex
100
AcDb2dVertex
 10
117.9442052508243
 20
111.1513033795073
 30
0.0
  0
VERTEX
  5
2FA
330
2E7
100
AcDbEntity
  8
Visible (ANSI)
100
AcDbVertex
100
AcDb2dVertex
 10
117.952319458155
 20
111.1482696438866
 30
0.0
  0
VERTEX
  5
2FB
330
2E7
100
AcDbEntity
  8
Visible (ANSI)
100
AcDbVertex
100
AcDb2dVertex
 10
117.9606999592094
 20
111.1452419156632
 30
0.0
  0
VERTEX
  5
2FC
330
2E7
100
AcDbEntity
  8
Visible (ANSI)
100
AcDbVertex
100
AcDb2dVertex
 10
117.9693108592022
 20
111.1422081800425
 30
0.0
  0
VERTEX
  5
2FD
330
2E7
100
AcDbEntity
  8
Visible (ANSI)
100
AcDbVertex
100
AcDb2dVertex
 10
117.9781152909593
 20
111.1391744444218
 30
0.0
  0
VERTEX
  5
2FE
330
2E7
100
AcDbEntity
  8
Visible (ANSI)
100
AcDbVertex
100
AcDb2dVertex
 10
117.9870755498496
 20
111.1361407088011
 30
0.0
  0
VERTEX
  5
2FF
330
2E7
100
AcDbEntity
  8
Visible (ANSI)
100
AcDbVertex
100
AcDb2dVertex
 10
117.9961532661164
 20
111.1331069731804
 30
0.0
  0
VERTEX
  5
300
330
2E7
100
AcDbEntity
  8
Visible (ANSI)
100
AcDbVertex
100
AcDb2dVertex
 10
118.005309569142
 20
111.1300732375597
 30
0.0
  0
VERTEX
  5
301
330
2E7
100
AcDbEntity
  8
Visible (ANSI)
100
AcDbVertex
100
AcDb2dVertex
 10
118.0145052495127
 20
111.127039501939
 30
0.0
  0
SEQEND
  5
2EA
330
2E7
100
AcDbEntity
  8
Visible (ANSI)
  0
POLYLINE
  5
302
330
6C
100
AcDbEntity
  8
Visible (ANSI)
100
AcDb2dPolyline
 66
     1
 10
0.0
 20
0.0
 30
0.0
 70
   128
  0
VERTEX
  5
303
330
302
100
AcDbEntity
  8
Visible (ANSI)
100
AcDbVertex
100
AcDb2dVertex
 10
118.0145052495127
 20
33.55381851867412
 30
0.0
  0
VERTEX
  5
304
330
302
100
AcDbEntity
  8
Visible (ANSI)
100
AcDbVertex
100
AcDb2dVertex
 10
118.005309569142
 20
33.55078567477646
 30
0.0
  0
VERTEX
  5
306
330
302
100
AcDbEntity
  8
Visible (ANSI)
100
AcDbVertex
100
AcDb2dVertex
 10
117.9961532661164
 20
33.5477528308788
 30
0.0
  0
VERTEX
  5
307
330
302
100
AcDbEntity
  8
Visible (ANSI)
100
AcDbVertex
100
AcDb2dVertex
 10
117.9870755498496
 20
33.54471998698114
 30
0.0
  0
VERTEX
  5
308
330
302
100
AcDbEntity
  8
Visible (ANSI)
100
AcDbVertex
100
AcDb2dVertex
 10
117.9781152909593
 20
33.54168714308347
 30
0.0
  0
VERTEX
  5
309
330
302
100
AcDbEntity
  8
Visible (ANSI)
100
AcDbVertex
100
AcDb2dVertex
 10
117.9693108592022
 20
33.53865429918581
 30
0.0
  0
VERTEX
  5
30A
330
302
100
AcDbEntity
  8
Visible (ANSI)
100
AcDbVertex
100
AcDb2dVertex
 10
117.9606999592094
 20
33.53562144355495
 30
0.0
  0
VERTEX
  5
30B
330
302
100
AcDbEntity
  8
Visible (ANSI)
100
AcDbVertex
100
AcDb2dVertex
 10
117.952319458155
 20
33.53258859965729
 30
0.0
  0
VERTEX
  5
30C
330
302
100
AcDbEntity
  8
Visible (ANSI)
100
AcDbVertex
100
AcDb2dVertex
 10
117.9442052508243
 20
33.52955574402643
 30
0.0
  0
VERTEX
  5
30D
330
302
100
AcDbEntity
  8
Visible (ANSI)
100
AcDbVertex
100
AcDb2dVertex
 10
117.9363920733494
 20
33.52652290012877
 30
0.0
  0
VERTEX
  5
30E
330
302
100
AcDbEntity
  8
Visible (ANSI)
100
AcDbVertex
100
AcDb2dVertex
 10
117.9289133917438
 20
33.52349005623111
 30
0.0
  0
VERTEX
  5
30F
330
302
100
AcDbEntity
  8
Visible (ANSI)
100
AcDbVertex
100
AcDb2dVertex
 10
117.9218012259042
 20
33.52045720060025
 30
0.0
  0
VERTEX
  5
310
330
302
100
AcDbEntity
  8
Visible (ANSI)
100
AcDbVertex
100
AcDb2dVertex
 10
117.9150860352119
 20
33.51742435670259
 30
0.0
  0
VERTEX
  5
311
330
302
100
AcDbEntity
  8
Visible (ANSI)
100
AcDbVertex
100
AcDb2dVertex
 10
117.9087965718684
 20
33.51439151280492
 30
0.0
  0
VERTEX
  5
312
330
302
100
AcDbEntity
  8
Visible (ANSI)
100
AcDbVertex
100
AcDb2dVertex
 10
117.9029597694289
 20
33.51135865717406
 30
0.0
  0
VERTEX
  5
313
330
302
100
AcDbEntity
  8
Visible (ANSI)
100
AcDbVertex
100
AcDb2dVertex
 10
117.897600619605
 20
33.5083258132764
 30
0.0
  0
VERTEX
  5
314
330
302
100
AcDbEntity
  8
Visible (ANSI)
100
AcDbVertex
100
AcDb2dVertex
 10
117.8927420783979
 20
33.50529296937874
 30
0.0
  0
VERTEX
  5
315
330
302
100
AcDbEntity
  8
Visible (ANSI)
100
AcDbVertex
100
AcDb2dVertex
 10
117.8884049370342
 20
33.50226011374788
 30
0.0
  0
VERTEX
  5
316
330
302
100
AcDbEntity
  8
Visible (ANSI)
100
AcDbVertex
100
AcDb2dVertex
 10
117.8846077808993
 20
33.49922726985022
 30
0.0
  0
VERTEX
  5
317
330
302
100
AcDbEntity
  8
Visible (ANSI)
100
AcDbVertex
100
AcDb2dVertex
 10
117.8813668722052
 20
33.49619442595256
 30
0.0
  0
VERTEX
  5
318
330
302
100
AcDbEntity
  8
Visible (ANSI)
100
AcDbVertex
100
AcDb2dVertex
 10
117.8786960795918
 20
33.4931615703217
 30
0.0
  0
VERTEX
  5
319
330
302
100
AcDbEntity
  8
Visible (ANSI)
100
AcDbVertex
100
AcDb2dVertex
 10
117.8766068429268
 20
33.49012872642403
 30
0.0
  0
VERTEX
  5
31A
330
302
100
AcDbEntity
  8
Visible (ANSI)
100
AcDbVertex
100
AcDb2dVertex
 10
117.8751081029071
 20
33.48709588252638
 30
0.0
  0
VERTEX
  5
31B
330
302
100
AcDbEntity
  8
Visible (ANSI)
100
AcDbVertex
100
AcDb2dVertex
 10
117.8742062893249
 20
33.48406302689551
 30
0.0
  0
VERTEX
  5
31C
330
302
100
AcDbEntity
  8
Visible (ANSI)
100
AcDbVertex
100
AcDb2dVertex
 10
117.8739052506692
 20
33.48103018299785
 30
0.0
  0
SEQEND
  5
305
330
302
100
AcDbEntity
  8
Visible (ANSI)
  0
LINE
  5
31D
330
6C
100
AcDbEntity
  8
Visible (ANSI)
100
AcDbLine
 10
118.7489052487919
 20
33.55381853033605
 30
0.0
 11
118.0145052487919
 21
33.55381853033605
 31
0.0
  0
LINE
  5
31E
330
6C
100
AcDbEntity
  8
Visible (ANSI)
100
AcDbLine
 10
117.968166747481
 20
33.48103018268773
 30
0.0
 11
117.8739052487919
 21
33.48103018268773
 31
0.0
  0
LINE
  5
31F
330
6C
100
AcDbEntity
  8
Visible (ANSI)
100
AcDbLine
 10
117.9989052487919
 20
33.48103018268773
 30
0.0
 11
117.968166747481
 21
33.48103018268773
 31
0.0
  0
POLYLINE
  5
320
330
6C
100
AcDbEntity
  8
Visible (ANSI)
100
AcDb2dPolyline
 66
     1
 10
0.0
 20
0.0
 30
0.0
 70
   128
  0
VERTEX
  5
321
330
320
100
AcDbEntity
  8
Visible (ANSI)
100
AcDbVertex
100
AcDb2dVertex
 10
117.9989052487919
 20
33.48103018299785
 30
0.0
  0
VERTEX
  5
322
330
320
100
AcDbEntity
  8
Visible (ANSI)
100
AcDbVertex
100
AcDb2dVertex
 10
117.9989386495881
 20
33.48406302689551
 30
0.0
  0
VERTEX
  5
324
330
320
100
AcDbEntity
  8
Visible (ANSI)
100
AcDbVertex
100
AcDb2dVertex
 10
117.9990387089553
 20
33.48709588252638
 30
0.0
  0
VERTEX
  5
325
330
320
100
AcDbEntity
  8
Visible (ANSI)
100
AcDbVertex
100
AcDb2dVertex
 10
117.9992049984229
 20
33.49012872642403
 30
0.0
  0
VERTEX
  5
326
330
320
100
AcDbEntity
  8
Visible (ANSI)
100
AcDbVertex
100
AcDb2dVertex
 10
117.999436805918
 20
33.4931615703217
 30
0.0
  0
VERTEX
  5
327
330
320
100
AcDbEntity
  8
Visible (ANSI)
100
AcDbVertex
100
AcDb2dVertex
 10
117.9997331387364
 20
33.49619442595256
 30
0.0
  0
VERTEX
  5
328
330
320
100
AcDbEntity
  8
Visible (ANSI)
100
AcDbVertex
100
AcDb2dVertex
 10
118.0000927280657
 20
33.49922726985022
 30
0.0
  0
VERTEX
  5
329
330
320
100
AcDbEntity
  8
Visible (ANSI)
100
AcDbVertex
100
AcDb2dVertex
 10
118.0005140341071
 20
33.50226011374788
 30
0.0
  0
VERTEX
  5
32A
330
320
100
AcDbEntity
  8
Visible (ANSI)
100
AcDbVertex
100
AcDb2dVertex
 10
118.0009952525146
 20
33.50529296937874
 30
0.0
  0
VERTEX
  5
32B
330
320
100
AcDbEntity
  8
Visible (ANSI)
100
AcDbVertex
100
AcDb2dVertex
 10
118.0015343229206
 20
33.5083258132764
 30
0.0
  0
VERTEX
  5
32C
330
320
100
AcDbEntity
  8
Visible (ANSI)
100
AcDbVertex
100
AcDb2dVertex
 10
118.0021289368182
 20
33.51135865717406
 30
0.0
  0
VERTEX
  5
32D
330
320
100
AcDbEntity
  8
Visible (ANSI)
100
AcDbVertex
100
AcDb2dVertex
 10
118.002776547737
 20
33.51439151280492
 30
0.0
  0
VERTEX
  5
32E
330
320
100
AcDbEntity
  8
Visible (ANSI)
100
AcDbVertex
100
AcDb2dVertex
 10
118.0034743829755
 20
33.51742435670259
 30
0.0
  0
VERTEX
  5
32F
330
320
100
AcDbEntity
  8
Visible (ANSI)
100
AcDbVertex
100
AcDb2dVertex
 10
118.0042194542351
 20
33.52045720060025
 30
0.0
  0
VERTEX
  5
330
330
320
100
AcDbEntity
  8
Visible (ANSI)
100
AcDbVertex
100
AcDb2dVertex
 10
118.0050085704525
 20
33.52349005623111
 30
0.0
  0
VERTEX
  5
331
330
320
100
AcDbEntity
  8
Visible (ANSI)
100
AcDbVertex
100
AcDb2dVertex
 10
118.0058383528334
 20
33.52652290012877
 30
0.0
  0
VERTEX
  5
332
330
320
100
AcDbEntity
  8
Visible (ANSI)
100
AcDbVertex
100
AcDb2dVertex
 10
118.0067052491523
 20
33.52955574402643
 30
0.0
  0
VERTEX
  5
333
330
320
100
AcDbEntity
  8
Visible (ANSI)
100
AcDbVertex
100
AcDb2dVertex
 10
118.0076055454853
 20
33.53258859965729
 30
0.0
  0
VERTEX
  5
334
330
320
100
AcDbEntity
  8
Visible (ANSI)
100
AcDbVertex
100
AcDb2dVertex
 10
118.008535387477
 20
33.53562144355495
 30
0.0
  0
VERTEX
  5
335
330
320
100
AcDbEntity
  8
Visible (ANSI)
100
AcDbVertex
100
AcDb2dVertex
 10
118.0094907931734
 20
33.53865429918581
 30
0.0
  0
VERTEX
  5
336
330
320
100
AcDbEntity
  8
Visible (ANSI)
100
AcDbVertex
100
AcDb2dVertex
 10
118.0104676713551
 20
33.54168714308347
 30
0.0
  0
VERTEX
  5
337
330
320
100
AcDbEntity
  8
Visible (ANSI)
100
AcDbVertex
100
AcDb2dVertex
 10
118.0114618398704
 20
33.54471998698114
 30
0.0
  0
VERTEX
  5
338
330
320
100
AcDbEntity
  8
Visible (ANSI)
100
AcDbVertex
100
AcDb2dVertex
 10
118.0124690395685
 20
33.5477528308788
 30
0.0
  0
VERTEX
  5
339
330
320
100
AcDbEntity
  8
Visible (ANSI)
100
AcDbVertex
100
AcDb2dVertex
 10
118.0134849599658
 20
33.55078567477646
 30
0.0
  0
VERTEX
  5
33A
330
320
100
AcDbEntity
  8
Visible (ANSI)
100
AcDbVertex
100
AcDb2dVertex
 10
118.0145052495127
 20
33.55381851867412
 30
0.0
  0
SEQEND
  5
323
330
320
100
AcDbEntity
  8
Visible (ANSI)
  0
POLYLINE
  5
33B
330
6C
100
AcDbEntity
  8
Visible (ANSI)
100
AcDb2dPolyline
 66
     1
 10
0.0
 20
0.0
 30
0.0
 70
   128
  0
VERTEX
  5
33C
330
33B
100
AcDbEntity
  8
Visible (ANSI)
100
AcDbVertex
100
AcDb2dVertex
 10
117.9989052487919
 20
111.1998311346439
 30
0.0
  0
VERTEX
  5
33D
330
33B
100
AcDbEntity
  8
Visible (ANSI)
100
AcDbVertex
100
AcDb2dVertex
 10
117.9989386495881
 20
111.1967973990232
 30
0.0
  0
VERTEX
  5
33F
330
33B
100
AcDbEntity
  8
Visible (ANSI)
100
AcDbVertex
100
AcDb2dVertex
 10
117.9990387089553
 20
111.1937636634025
 30
0.0
  0
VERTEX
  5
340
330
33B
100
AcDbEntity
  8
Visible (ANSI)
100
AcDbVertex
100
AcDb2dVertex
 10
117.9992049984229
 20
111.1907299277818
 30
0.0
  0
VERTEX
  5
341
330
33B
100
AcDbEntity
  8
Visible (ANSI)
100
AcDbVertex
100
AcDb2dVertex
 10
117.999436805918
 20
111.1876961921611
 30
0.0
  0
VERTEX
  5
342
330
33B
100
AcDbEntity
  8
Visible (ANSI)
100
AcDbVertex
100
AcDb2dVertex
 10
117.9997331387364
 20
111.1846684639377
 30
0.0
  0
VERTEX
  5
343
330
33B
100
AcDbEntity
  8
Visible (ANSI)
100
AcDbVertex
100
AcDb2dVertex
 10
118.0000927280657
 20
111.181634728317
 30
0.0
  0
VERTEX
  5
344
330
33B
100
AcDbEntity
  8
Visible (ANSI)
100
AcDbVertex
100
AcDb2dVertex
 10
118.0005140341071
 20
111.1786009926963
 30
0.0
  0
VERTEX
  5
345
330
33B
100
AcDbEntity
  8
Visible (ANSI)
100
AcDbVertex
100
AcDb2dVertex
 10
118.0009952525146
 20
111.1755672570756
 30
0.0
  0
VERTEX
  5
346
330
33B
100
AcDbEntity
  8
Visible (ANSI)
100
AcDbVertex
100
AcDb2dVertex
 10
118.0015343229206
 20
111.1725335214549
 30
0.0
  0
VERTEX
  5
347
330
33B
100
AcDbEntity
  8
Visible (ANSI)
100
AcDbVertex
100
AcDb2dVertex
 10
118.0021289368182
 20
111.1694997858342
 30
0.0
  0
VERTEX
  5
348
330
33B
100
AcDbEntity
  8
Visible (ANSI)
100
AcDbVertex
100
AcDb2dVertex
 10
118.002776547737
 20
111.1664660502135
 30
0.0
  0
VERTEX
  5
349
330
33B
100
AcDbEntity
  8
Visible (ANSI)
100
AcDbVertex
100
AcDb2dVertex
 10
118.0034743829755
 20
111.1634383219901
 30
0.0
  0
VERTEX
  5
34A
330
33B
100
AcDbEntity
  8
Visible (ANSI)
100
AcDbVertex
100
AcDb2dVertex
 10
118.0042194542351
 20
111.1604045863694
 30
0.0
  0
VERTEX
  5
34B
330
33B
100
AcDbEntity
  8
Visible (ANSI)
100
AcDbVertex
100
AcDb2dVertex
 10
118.0050085704525
 20
111.1573708507487
 30
0.0
  0
VERTEX
  5
34C
330
33B
100
AcDbEntity
  8
Visible (ANSI)
100
AcDbVertex
100
AcDb2dVertex
 10
118.0058383528334
 20
111.154337115128
 30
0.0
  0
VERTEX
  5
34D
330
33B
100
AcDbEntity
  8
Visible (ANSI)
100
AcDbVertex
100
AcDb2dVertex
 10
118.0067052491523
 20
111.1513033795073
 30
0.0
  0
VERTEX
  5
34E
330
33B
100
AcDbEntity
  8
Visible (ANSI)
100
AcDbVertex
100
AcDb2dVertex
 10
118.0076055454853
 20
111.1482696438866
 30
0.0
  0
VERTEX
  5
34F
330
33B
100
AcDbEntity
  8
Visible (ANSI)
100
AcDbVertex
100
AcDb2dVertex
 10
118.008535387477
 20
111.1452419156632
 30
0.0
  0
VERTEX
  5
350
330
33B
100
AcDbEntity
  8
Visible (ANSI)
100
AcDbVertex
100
AcDb2dVertex
 10
118.0094907931734
 20
111.1422081800425
 30
0.0
  0
VERTEX
  5
351
330
33B
100
AcDbEntity
  8
Visible (ANSI)
100
AcDbVertex
100
AcDb2dVertex
 10
118.0104676713551
 20
111.1391744444218
 30
0.0
  0
VERTEX
  5
352
330
33B
100
AcDbEntity
  8
Visible (ANSI)
100
AcDbVertex
100
AcDb2dVertex
 10
118.0114618398704
 20
111.1361407088011
 30
0.0
  0
VERTEX
  5
353
330
33B
100
AcDbEntity
  8
Visible (ANSI)
100
AcDbVertex
100
AcDb2dVertex
 10
118.0124690395685
 20
111.1331069731804
 30
0.0
  0
VERTEX
  5
354
330
33B
100
AcDbEntity
  8
Visible (ANSI)
100
AcDbVertex
100
AcDb2dVertex
 10
118.0134849599658
 20
111.1300732375597
 30
0.0
  0
VERTEX
  5
355
330
33B
100
AcDbEntity
  8
Visible (ANSI)
100
AcDbVertex
100
AcDb2dVertex
 10
118.0145052495127
 20
111.127039501939
 30
0.0
  0
SEQEND
  5
33E
330
33B
100
AcDbEntity
  8
Visible (ANSI)
  0
LINE
  5
356
330
6C
100
AcDbEntity
  8
Visible (ANSI)
100
AcDbLine
 10
117.9989052487919
 20
111.1998301826877
 30
0.0
 11
117.968166747481
 21
111.1998301826877
 31
0.0
  0
LINE
  5
357
330
6C
100
AcDbEntity
  8
Visible (ANSI)
100
AcDbLine
 10
117.968166747481
 20
111.1998301826877
 30
0.0
 11
117.8739052487919
 21
111.1998301826877
 31
0.0
  0
LINE
  5
358
330
6C
100
AcDbEntity
  8
Visible (ANSI)
100
AcDbLine
 10
118.0145052487919
 20
111.1270418350394
 30
0.0
 11
118.7489052487919
 21
111.1270418350394
 31
0.0
  0
POLYLINE
  5
359
330
6C
100
AcDbEntity
  8
Visible (ANSI)
100
AcDb2dPolyline
 66
     1
 10
0.0
 20
0.0
 30
0.0
 70
   128
  0
VERTEX
  5
35A
330
359
100
AcDbEntity
  8
Visible (ANSI)
100
AcDbVertex
100
AcDb2dVertex
 10
118.0145052495127
 20
111.3404282603205
 30
0.0
  0
VERTEX
  5
35B
330
359
100
AcDbEntity
  8
Visible (ANSI)
100
AcDbVertex
100
AcDb2dVertex
 10
118.0053095691419
 20
111.3401278904571
 30
0.0
  0
VERTEX
  5
35D
330
359
100
AcDbEntity
  8
Visible (ANSI)
100
AcDbVertex
100
AcDb2dVertex
 10
117.9961532661163
 20
111.3392267808668
 30
0.0
  0
VERTEX
  5
35E
330
359
100
AcDbEntity
  8
Visible (ANSI)
100
AcDbVertex
100
AcDb2dVertex
 10
117.9870755498495
 20
111.3377309389469
 30
0.0
  0
VERTEX
  5
35F
330
359
100
AcDbEntity
  8
Visible (ANSI)
100
AcDbVertex
100
AcDb2dVertex
 10
117.9781152909592
 20
111.3356403646974
 30
0.0
  0
VERTEX
  5
360
330
359
100
AcDbEntity
  8
Visible (ANSI)
100
AcDbVertex
100
AcDb2dVertex
 10
117.9693108592021
 20
111.3329670729128
 30
0.0
  0
VERTEX
  5
361
330
359
100
AcDbEntity
  8
Visible (ANSI)
100
AcDbVertex
100
AcDb2dVertex
 10
117.9606999592093
 20
111.329729085785
 30
0.0
  0
VERTEX
  5
362
330
359
100
AcDbEntity
  8
Visible (ANSI)
100
AcDbVertex
100
AcDb2dVertex
 10
117.9523194581549
 20
111.3259324107112
 30
0.0
  0
VERTEX
  5
363
330
359
100
AcDbEntity
  8
Visible (ANSI)
100
AcDbVertex
100
AcDb2dVertex
 10
117.9442052508242
 20
111.3215950698832
 30
0.0
  0
VERTEX
  5
364
330
359
100
AcDbEntity
  8
Visible (ANSI)
100
AcDbVertex
100
AcDb2dVertex
 10
117.9363920733494
 20
111.3167350854928
 30
0.0
  0
VERTEX
  5
365
330
359
100
AcDbEntity
  8
Visible (ANSI)
100
AcDbVertex
100
AcDb2dVertex
 10
117.9289133917438
 20
111.3113764871291
 30
0.0
  0
VERTEX
  5
366
330
359
100
AcDbEntity
  8
Visible (ANSI)
100
AcDbVertex
100
AcDb2dVertex
 10
117.9218012259041
 20
111.305537296984
 30
0.0
  0
VERTEX
  5
367
330
359
100
AcDbEntity
  8
Visible (ANSI)
100
AcDbVertex
100
AcDb2dVertex
 10
117.9150860352119
 20
111.2992475520436
 30
0.0
  0
VERTEX
  5
368
330
359
100
AcDbEntity
  8
Visible (ANSI)
100
AcDbVertex
100
AcDb2dVertex
 10
117.9087965718683
 20
111.2925312818972
 30
0.0
  0
VERTEX
  5
369
330
359
100
AcDbEntity
  8
Visible (ANSI)
100
AcDbVertex
100
AcDb2dVertex
 10
117.9029597694289
 20
111.2854245309283
 30
0.0
  0
VERTEX
  5
36A
330
359
100
AcDbEntity
  8
Visible (ANSI)
100
AcDbVertex
100
AcDb2dVertex
 10
117.8976006196049
 20
111.2779453213288
 30
0.0
  0
VERTEX
  5
36B
330
359
100
AcDbEntity
  8
Visible (ANSI)
100
AcDbVertex
100
AcDb2dVertex
 10
117.8927420783979
 20
111.2701296974822
 30
0.0
  0
VERTEX
  5
36C
330
359
100
AcDbEntity
  8
Visible (ANSI)
100
AcDbVertex
100
AcDb2dVertex
 10
117.8884049370342
 20
111.2620137037722
 30
0.0
  0
VERTEX
  5
36D
330
359
100
AcDbEntity
  8
Visible (ANSI)
100
AcDbVertex
100
AcDb2dVertex
 10
117.8846077808993
 20
111.2536333845824
 30
0.0
  0
VERTEX
  5
36E
330
359
100
AcDbEntity
  8
Visible (ANSI)
100
AcDbVertex
100
AcDb2dVertex
 10
117.8813668722052
 20
111.2450247842963
 30
0.0
  0
VERTEX
  5
36F
330
359
100
AcDbEntity
  8
Visible (ANSI)
100
AcDbVertex
100
AcDb2dVertex
 10
117.8786960795918
 20
111.2362179399004
 30
0.0
  0
VERTEX
  5
370
330
359
100
AcDbEntity
  8
Visible (ANSI)
100
AcDbVertex
100
AcDb2dVertex
 10
117.8766068429268
 20
111.2272609105728
 30
0.0
  0
VERTEX
  5
371
330
359
100
AcDbEntity
  8
Visible (ANSI)
100
AcDbVertex
100
AcDb2dVertex
 10
117.8751081029071
 20
111.2181837332998
 30
0.0
  0
VERTEX
  5
372
330
359
100
AcDbEntity
  8
Visible (ANSI)
100
AcDbVertex
100
AcDb2dVertex
 10
117.8742062893249
 20
111.2090284598623
 30
0.0
  0
VERTEX
  5
373
330
359
100
AcDbEntity
  8
Visible (ANSI)
100
AcDbVertex
100
AcDb2dVertex
 10
117.8739052506692
 20
111.1998311346439
 30
0.0
  0
SEQEND
  5
35C
330
359
100
AcDbEntity
  8
Visible (ANSI)
  0
LINE
  5
374
330
6C
100
AcDbEntity
  8
Visible (ANSI)
100
AcDbLine
 10
118.0145052487919
 20
111.2154301826877
 30
0.0
 11
118.7489052487918
 21
111.2154301826877
 31
0.0
  0
LINE
  5
375
330
6C
100
AcDbEntity
  8
Visible (ANSI)
100
AcDbLine
 10
118.7489052487918
 20
111.3404301826877
 30
0.0
 11
118.0145052487918
 21
111.3404301826877
 31
0.0
  0
LINE
  5
376
330
6C
100
AcDbEntity
  8
Visible (ANSI)
100
AcDbLine
 10
118.0145052487919
 20
111.2154301826877
 30
0.0
 11
118.0145052487918
 21
111.3404301826877
 31
0.0
  0
LINE
  5
377
330
6C
100
AcDbEntity
  8
Visible (ANSI)
100
AcDbLine
 10
118.7489052487918
 20
111.2154301826877
 30
0.0
 11
118.7489052487918
 21
111.3404301826877
 31
0.0
  0
POLYLINE
  5
378
330
6C
100
AcDbEntity
  8
Visible (ANSI)
100
AcDb2dPolyline
 66
     1
 10
0.0
 20
0.0
 30
0.0
 70
   128
  0
VERTEX
  5
379
330
378
100
AcDbEntity
  8
Visible (ANSI)
100
AcDbVertex
100
AcDb2dVertex
 10
117.9989052487919
 20
111.1998311346439
 30
0.0
  0
VERTEX
  5
37A
330
378
100
AcDbEntity
  8
Visible (ANSI)
100
AcDbVertex
100
AcDb2dVertex
 10
117.9989386495881
 20
111.2008523921796
 30
0.0
  0
VERTEX
  5
37C
330
378
100
AcDbEntity
  8
Visible (ANSI)
100
AcDbVertex
100
AcDb2dVertex
 10
117.9990387089553
 20
111.201867642318
 30
0.0
  0
VERTEX
  5
37D
330
378
100
AcDbEntity
  8
Visible (ANSI)
100
AcDbVertex
100
AcDb2dVertex
 10
117.9992049984229
 20
111.2028708776618
 30
0.0
  0
VERTEX
  5
37E
330
378
100
AcDbEntity
  8
Visible (ANSI)
100
AcDbVertex
100
AcDb2dVertex
 10
117.999436805918
 20
111.2038681056084
 30
0.0
  0
VERTEX
  5
37F
330
378
100
AcDbEntity
  8
Visible (ANSI)
100
AcDbVertex
100
AcDb2dVertex
 10
117.9997331387363
 20
111.2048473113632
 30
0.0
  0
VERTEX
  5
380
330
378
100
AcDbEntity
  8
Visible (ANSI)
100
AcDbVertex
100
AcDb2dVertex
 10
118.0000927280657
 20
111.205802487529
 30
0.0
  0
VERTEX
  5
381
330
378
100
AcDbEntity
  8
Visible (ANSI)
100
AcDbVertex
100
AcDb2dVertex
 10
118.000514034107
 20
111.2067276267084
 30
0.0
  0
VERTEX
  5
382
330
378
100
AcDbEntity
  8
Visible (ANSI)
100
AcDbVertex
100
AcDb2dVertex
 10
118.0009952525146
 20
111.2076287362987
 30
0.0
  0
VERTEX
  5
383
330
378
100
AcDbEntity
  8
Visible (ANSI)
100
AcDbVertex
100
AcDb2dVertex
 10
118.0015343229206
 20
111.2084998089026
 30
0.0
  0
VERTEX
  5
384
330
378
100
AcDbEntity
  8
Visible (ANSI)
100
AcDbVertex
100
AcDb2dVertex
 10
118.0021289368182
 20
111.2093288297257
 30
0.0
  0
VERTEX
  5
385
330
378
100
AcDbEntity
  8
Visible (ANSI)
100
AcDbVertex
100
AcDb2dVertex
 10
118.002776547737
 20
111.2101157987679
 30
0.0
  0
VERTEX
  5
386
330
378
100
AcDbEntity
  8
Visible (ANSI)
100
AcDbVertex
100
AcDb2dVertex
 10
118.0034743829755
 20
111.2108607160292
 30
0.0
  0
VERTEX
  5
387
330
378
100
AcDbEntity
  8
Visible (ANSI)
100
AcDbVertex
100
AcDb2dVertex
 10
118.004219454235
 20
111.2115575741124
 30
0.0
  0
VERTEX
  5
388
330
378
100
AcDbEntity
  8
Visible (ANSI)
100
AcDbVertex
100
AcDb2dVertex
 10
118.0050085704524
 20
111.2122063730174
 30
0.0
  0
VERTEX
  5
389
330
378
100
AcDbEntity
  8
Visible (ANSI)
100
AcDbVertex
100
AcDb2dVertex
 10
118.0058383528334
 20
111.212801105347
 30
0.0
  0
VERTEX
  5
38A
330
378
100
AcDbEntity
  8
Visible (ANSI)
100
AcDbVertex
100
AcDb2dVertex
 10
118.0067052491523
 20
111.2133417711012
 30
0.0
  0
VERTEX
  5
38B
330
378
100
AcDbEntity
  8
Visible (ANSI)
100
AcDbVertex
100
AcDb2dVertex
 10
118.0076055454853
 20
111.2138223628827
 30
0.0
  0
VERTEX
  5
38C
330
378
100
AcDbEntity
  8
Visible (ANSI)
100
AcDbVertex
100
AcDb2dVertex
 10
118.008535387477
 20
111.2142428806915
 30
0.0
  0
VERTEX
  5
38D
330
378
100
AcDbEntity
  8
Visible (ANSI)
100
AcDbVertex
100
AcDb2dVertex
 10
118.0094907931734
 20
111.2146033245276
 30
0.0
  0
VERTEX
  5
38E
330
378
100
AcDbEntity
  8
Visible (ANSI)
100
AcDbVertex
100
AcDb2dVertex
 10
118.0104676713551
 20
111.2148976869938
 30
0.0
  0
VERTEX
  5
38F
330
378
100
AcDbEntity
  8
Visible (ANSI)
100
AcDbVertex
100
AcDb2dVertex
 10
118.0114618398704
 20
111.2151319754873
 30
0.0
  0
VERTEX
  5
390
330
378
100
AcDbEntity
  8
Visible (ANSI)
100
AcDbVertex
100
AcDb2dVertex
 10
118.0124690395685
 20
111.2152941752135
 30
0.0
  0
VERTEX
  5
391
330
378
100
AcDbEntity
  8
Visible (ANSI)
100
AcDbVertex
100
AcDb2dVertex
 10
118.0134849599658
 20
111.2153963009671
 30
0.0
  0
VERTEX
  5
392
330
378
100
AcDbEntity
  8
Visible (ANSI)
100
AcDbVertex
100
AcDb2dVertex
 10
118.0145052495127
 20
111.2154323453507
 30
0.0
  0
SEQEND
  5
37B
330
378
100
AcDbEntity
  8
Visible (ANSI)
  0
POLYLINE
  5
393
330
6C
100
AcDbEntity
  8
Visible (ANSI)
100
AcDb2dPolyline
 66
     1
 10
0.0
 20
0.0
 30
0.0
 70
   128
  0
VERTEX
  5
394
330
393
100
AcDbEntity
  8
Visible (ANSI)
100
AcDbVertex
100
AcDb2dVertex
 10
117.8739052506692
 20
33.48103018299785
 30
0.0
  0
VERTEX
  5
395
330
393
100
AcDbEntity
  8
Visible (ANSI)
100
AcDbVertex
100
AcDb2dVertex
 10
117.8742062893249
 20
33.47183450042717
 30
0.0
  0
VERTEX
  5
397
330
393
100
AcDbEntity
  8
Visible (ANSI)
100
AcDbVertex
100
AcDb2dVertex
 10
117.8751081029071
 20
33.46267819446826
 30
0.0
  0
VERTEX
  5
398
330
393
100
AcDbEntity
  8
Visible (ANSI)
100
AcDbVertex
100
AcDb2dVertex
 10
117.8766068429268
 20
33.45360048920135
 30
0.0
  0
VERTEX
  5
399
330
393
100
AcDbEntity
  8
Visible (ANSI)
100
AcDbVertex
100
AcDb2dVertex
 10
117.8786960795918
 20
33.44464022151113
 30
0.0
  0
VERTEX
  5
39A
330
393
100
AcDbEntity
  8
Visible (ANSI)
100
AcDbVertex
100
AcDb2dVertex
 10
117.8813668722052
 20
33.43583579415396
 30
0.0
  0
VERTEX
  5
39B
330
393
100
AcDbEntity
  8
Visible (ANSI)
100
AcDbVertex
100
AcDb2dVertex
 10
117.8846077808993
 20
33.42722489416114
 30
0.0
  0
VERTEX
  5
39C
330
393
100
AcDbEntity
  8
Visible (ANSI)
100
AcDbVertex
100
AcDb2dVertex
 10
117.8884049370342
 20
33.41884439310674
 30
0.0
  0
VERTEX
  5
39D
330
393
100
AcDbEntity
  8
Visible (ANSI)
100
AcDbVertex
100
AcDb2dVertex
 10
117.8927420783979
 20
33.41073018284279
 30
0.0
  0
VERTEX
  5
39E
330
393
100
AcDbEntity
  8
Visible (ANSI)
100
AcDbVertex
100
AcDb2dVertex
 10
117.8976006196049
 20
33.40291700536795
 30
0.0
  0
VERTEX
  5
39F
330
393
100
AcDbEntity
  8
Visible (ANSI)
100
AcDbVertex
100
AcDb2dVertex
 10
117.9029597694289
 20
33.39543832376231
 30
0.0
  0
VERTEX
  5
3A0
330
393
100
AcDbEntity
  8
Visible (ANSI)
100
AcDbVertex
100
AcDb2dVertex
 10
117.9087965718683
 20
33.38832616085596
 30
0.0
  0
VERTEX
  5
3A1
330
393
100
AcDbEntity
  8
Visible (ANSI)
100
AcDbVertex
100
AcDb2dVertex
 10
117.9150860352119
 20
33.38161097016375
 30
0.0
  0
VERTEX
  5
3A2
330
393
100
AcDbEntity
  8
Visible (ANSI)
100
AcDbVertex
100
AcDb2dVertex
 10
117.9218012259041
 20
33.37532150682017
 30
0.0
  0
VERTEX
  5
3A3
330
393
100
AcDbEntity
  8
Visible (ANSI)
100
AcDbVertex
100
AcDb2dVertex
 10
117.9289133917438
 20
33.36948470438074
 30
0.0
  0
VERTEX
  5
3A4
330
393
100
AcDbEntity
  8
Visible (ANSI)
100
AcDbVertex
100
AcDb2dVertex
 10
117.9363920733494
 20
33.36412555455676
 30
0.0
  0
VERTEX
  5
3A5
330
393
100
AcDbEntity
  8
Visible (ANSI)
100
AcDbVertex
100
AcDb2dVertex
 10
117.9442052508242
 20
33.35926701041641
 30
0.0
  0
VERTEX
  5
3A6
330
393
100
AcDbEntity
  8
Visible (ANSI)
100
AcDbVertex
100
AcDb2dVertex
 10
117.9523194581549
 20
33.35492987491937
 30
0.0
  0
VERTEX
  5
3A7
330
393
100
AcDbEntity
  8
Visible (ANSI)
100
AcDbVertex
100
AcDb2dVertex
 10
117.9606999592093
 20
33.3511327202511
 30
0.0
  0
VERTEX
  5
3A8
330
393
100
AcDbEntity
  8
Visible (ANSI)
100
AcDbVertex
100
AcDb2dVertex
 10
117.9693108592021
 20
33.34789180642374
 30
0.0
  0
VERTEX
  5
3A9
330
393
100
AcDbEntity
  8
Visible (ANSI)
100
AcDbVertex
100
AcDb2dVertex
 10
117.9781152909592
 20
33.34522101161033
 30
0.0
  0
VERTEX
  5
3AA
330
393
100
AcDbEntity
  8
Visible (ANSI)
100
AcDbVertex
100
AcDb2dVertex
 10
117.9870755498495
 20
33.34313177219539
 30
0.0
  0
VERTEX
  5
3AB
330
393
100
AcDbEntity
  8
Visible (ANSI)
100
AcDbVertex
100
AcDb2dVertex
 10
117.9961532661163
 20
33.3416330352006
 30
0.0
  0
VERTEX
  5
3AC
330
393
100
AcDbEntity
  8
Visible (ANSI)
100
AcDbVertex
100
AcDb2dVertex
 10
118.0053095691419
 20
33.34073121808931
 30
0.0
  0
VERTEX
  5
3AD
330
393
100
AcDbEntity
  8
Visible (ANSI)
100
AcDbVertex
100
AcDb2dVertex
 10
118.0145052495127
 20
33.34043018268772
 30
0.0
  0
SEQEND
  5
396
330
393
100
AcDbEntity
  8
Visible (ANSI)
  0
LINE
  5
3AE
330
6C
100
AcDbEntity
  8
Visible (ANSI)
100
AcDbLine
 10
118.0145052487919
 20
33.46543018268772
 30
0.0
 11
118.7489052487918
 21
33.46543018268772
 31
0.0
  0
LINE
  5
3AF
330
6C
100
AcDbEntity
  8
Visible (ANSI)
100
AcDbLine
 10
118.0145052487919
 20
33.46543018268772
 30
0.0
 11
118.0145052487919
 21
33.34043018268772
 31
0.0
  0
POLYLINE
  5
3B0
330
6C
100
AcDbEntity
  8
Visible (ANSI)
100
AcDb2dPolyline
 66
     1
 10
0.0
 20
0.0
 30
0.0
 70
   128
  0
VERTEX
  5
3B1
330
3B0
100
AcDbEntity
  8
Visible (ANSI)
100
AcDbVertex
100
AcDb2dVertex
 10
117.9989052487919
 20
33.48103018299785
 30
0.0
  0
VERTEX
  5
3B2
330
3B0
100
AcDbEntity
  8
Visible (ANSI)
100
AcDbVertex
100
AcDb2dVertex
 10
117.9989386495881
 20
33.48000989931759
 30
0.0
  0
VERTEX
  5
3B4
330
3B0
100
AcDbEntity
  8
Visible (ANSI)
100
AcDbVertex
100
AcDb2dVertex
 10
117.9990387089553
 20
33.47899396865371
 30
0.0
  0
VERTEX
  5
3B5
330
3B0
100
AcDbEntity
  8
Visible (ANSI)
100
AcDbVertex
100
AcDb2dVertex
 10
117.9992049984229
 20
33.47798677922218
 30
0.0
  0
VERTEX
  5
3B6
330
3B0
100
AcDbEntity
  8
Visible (ANSI)
100
AcDbVertex
100
AcDb2dVertex
 10
117.999436805918
 20
33.476992601907
 30
0.0
  0
VERTEX
  5
3B7
330
3B0
100
AcDbEntity
  8
Visible (ANSI)
100
AcDbVertex
100
AcDb2dVertex
 10
117.9997331387363
 20
33.47601573105856
 30
0.0
  0
VERTEX
  5
3B8
330
3B0
100
AcDbEntity
  8
Visible (ANSI)
100
AcDbVertex
100
AcDb2dVertex
 10
118.0000927280657
 20
33.47506032022888
 30
0.0
  0
VERTEX
  5
3B9
330
3B0
100
AcDbEntity
  8
Visible (ANSI)
100
AcDbVertex
100
AcDb2dVertex
 10
118.000514034107
 20
33.47413047603719
 30
0.0
  0
VERTEX
  5
3BA
330
3B0
100
AcDbEntity
  8
Visible (ANSI)
100
AcDbVertex
100
AcDb2dVertex
 10
118.0009952525146
 20
33.47323018777073
 30
0.0
  0
VERTEX
  5
3BB
330
3B0
100
AcDbEntity
  8
Visible (ANSI)
100
AcDbVertex
100
AcDb2dVertex
 10
118.0015343229206
 20
33.47236329218518
 30
0.0
  0
VERTEX
  5
3BC
330
3B0
100
AcDbEntity
  8
Visible (ANSI)
100
AcDbVertex
100
AcDb2dVertex
 10
118.0021289368182
 20
33.47153350870424
 30
0.0
  0
VERTEX
  5
3BD
330
3B0
100
AcDbEntity
  8
Visible (ANSI)
100
AcDbVertex
100
AcDb2dVertex
 10
118.002776547737
 20
33.47074439248685
 30
0.0
  0
VERTEX
  5
3BE
330
3B0
100
AcDbEntity
  8
Visible (ANSI)
100
AcDbVertex
100
AcDb2dVertex
 10
118.0034743829755
 20
33.46999932269396
 30
0.0
  0
VERTEX
  5
3BF
330
3B0
100
AcDbEntity
  8
Visible (ANSI)
100
AcDbVertex
100
AcDb2dVertex
 10
118.004219454235
 20
33.46930147902217
 30
0.0
  0
VERTEX
  5
3C0
330
3B0
100
AcDbEntity
  8
Visible (ANSI)
100
AcDbVertex
100
AcDb2dVertex
 10
118.0050085704524
 20
33.46865386517013
 30
0.0
  0
VERTEX
  5
3C1
330
3B0
100
AcDbEntity
  8
Visible (ANSI)
100
AcDbVertex
100
AcDb2dVertex
 10
118.0058383528334
 20
33.4680592619057
 30
0.0
  0
VERTEX
  5
3C2
330
3B0
100
AcDbEntity
  8
Visible (ANSI)
100
AcDbVertex
100
AcDb2dVertex
 10
118.0067052491523
 20
33.46752019186642
 30
0.0
  0
VERTEX
  5
3C3
330
3B0
100
AcDbEntity
  8
Visible (ANSI)
100
AcDbVertex
100
AcDb2dVertex
 10
118.0076055454853
 20
33.46703896649225
 30
0.0
  0
VERTEX
  5
3C4
330
3B0
100
AcDbEntity
  8
Visible (ANSI)
100
AcDbVertex
100
AcDb2dVertex
 10
118.008535387477
 20
33.46661766255918
 30
0.0
  0
VERTEX
  5
3C5
330
3B0
100
AcDbEntity
  8
Visible (ANSI)
100
AcDbVertex
100
AcDb2dVertex
 10
118.0094907931734
 20
33.4662580752465
 30
0.0
  0
VERTEX
  5
3C6
330
3B0
100
AcDbEntity
  8
Visible (ANSI)
100
AcDbVertex
100
AcDb2dVertex
 10
118.0104676713551
 20
33.4659617416031
 30
0.0
  0
VERTEX
  5
3C7
330
3B0
100
AcDbEntity
  8
Visible (ANSI)
100
AcDbVertex
100
AcDb2dVertex
 10
118.0114618398704
 20
33.46572992881436
 30
0.0
  0
VERTEX
  5
3C8
330
3B0
100
AcDbEntity
  8
Visible (ANSI)
100
AcDbVertex
100
AcDb2dVertex
 10
118.0124690395685
 20
33.46556364593528
 30
0.0
  0
VERTEX
  5
3C9
330
3B0
100
AcDbEntity
  8
Visible (ANSI)
100
AcDbVertex
100
AcDb2dVertex
 10
118.0134849599658
 20
33.46546358522452
 30
0.0
  0
VERTEX
  5
3CA
330
3B0
100
AcDbEntity
  8
Visible (ANSI)
100
AcDbVertex
100
AcDb2dVertex
 10
118.0145052495127
 20
33.46543018081041
 30
0.0
  0
SEQEND
  5
3B3
330
3B0
100
AcDbEntity
  8
Visible (ANSI)
  0
LINE
  5
3CB
330
6C
100
AcDbEntity
  8
Visible (ANSI)
100
AcDbLine
 10
118.0145052487919
 20
33.34043018268772
 30
0.0
 11
118.7489052487918
 21
33.34043018268772
 31
0.0
  0
LINE
  5
3CC
330
6C
100
AcDbEntity
  8
Visible (ANSI)
100
AcDbLine
 10
118.7489052487918
 20
33.46543018268772
 30
0.0
 11
118.7489052487918
 21
33.34043018268772
 31
0.0
  0
LINE
  5
3CD
330
6C
100
AcDbEntity
  8
Visible (ANSI)
100
AcDbLine
 10
117.8739052487919
 20
33.48103018268773
 30
0.0
 11
117.8739052487919
 21
111.1998301826877
 31
0.0
  0
LINE
  5
3CE
330
6C
100
AcDbEntity
  8
Hidden (ANSI)
 48
1.074280142784118
100
AcDbLine
 10
117.9989052487919
 20
111.1998301826877
 30
0.0
 11
117.9989052487919
 21
33.48103018268773
 31
0.0
  0
LINE
  5
3CF
330
6C
100
AcDbEntity
  8
Visible (ANSI)
100
AcDbLine
 10
118.7489052487919
 20
111.1270418350394
 30
0.0
 11
118.7489052487919
 21
33.55381853033605
 31
0.0
  0
LINE
  5
3D0
330
6C
100
AcDbEntity
  8
Hidden (ANSI)
 48
0.0169062204658985
100
AcDbLine
 10
117.9989052487917
 20
72.05893018268771
 30
0.0
 11
117.8739052487916
 21
72.05893018268771
 31
0.0
  0
LINE
  5
3D1
330
6C
100
AcDbEntity
  8
Hidden (ANSI)
 48
0.0169062204658985
100
AcDbLine
 10
117.9989052487917
 20
72.62193018268772
 30
0.0
 11
117.8739052487916
 21
72.62193018268772
 31
0.0
  0
LINE
  5
3D2
330
6C
100
AcDbEntity
  8
Hidden (ANSI)
 48
0.0169062204658985
100
AcDbLine
 10
117.9989052487917
 20
110.1839301826877
 30
0.0
 11
117.8739052487916
 21
110.1839301826877
 31
0.0
  0
LINE
  5
3D3
330
6C
100
AcDbEntity
  8
Hidden (ANSI)
 48
0.0169062204658985
100
AcDbLine
 10
117.9989052487917
 20
110.7469301826877
 30
0.0
 11
117.8739052487916
 21
110.7469301826877
 31
0.0
  0
LINE
  5
3D4
330
6C
100
AcDbEntity
  8
Hidden (ANSI)
 48
0.0169062204658985
100
AcDbLine
 10
117.9989052487917
 20
33.93393018268772
 30
0.0
 11
117.8739052487916
 21
33.93393018268772
 31
0.0
  0
LINE
  5
3D5
330
6C
100
AcDbEntity
  8
Hidden (ANSI)
 48
0.0169062204658985
100
AcDbLine
 10
117.9989052487917
 20
34.49693018268772
 30
0.0
 11
117.8739052487916
 21
34.49693018268772
 31
0.0
  0
MTEXT
  5
3D6
330
6C
100
AcDbEntity
  8
Symbol (ANSI)
100
AcDbMText
 10
113.0641587884114
 20
27.07698807275818
 30
0.0
 40
1.680000020763066
 41
0.0
 46
0.0
 71
     7
 72
     1
  1
SIDE VIEW
  7
Text Style153
 73
     1
 44
1.0
  0
LINE
  5
3D7
330
6C
100
AcDbEntity
  8
Symbol (ANSI)
370
    30
100
AcDbLine
 10
112.9781425671468
 20
26.72893944645228
 30
0.0
 11
124.3310760528237
 21
26.72893944645228
 31
0.0
  0
ELLIPSE
  5
3D8
330
6C
100
AcDbEntity
  8
Visible (ANSI)
100
AcDbEllipse
 10
181.3489021311136
 20
35.76881025516889
 30
0.0
 11
-0.1638904954878451
 21
0.2846004434873442
 31
0.0
210
0.0
220
0.0
230
0.9999999999999998
 40
0.578093115915809
 41
0.0
 42
6.283185307179586
  0
ELLIPSE
  5
3D9
330
6C
100
AcDbEntity
  8
Visible (ANSI)
100
AcDbEllipse
 10
181.4520218700367
 20
35.82819296343027
 30
0.0
 11
-0.1638904954878452
 21
0.2846004434873444
 31
0.0
210
0.0
220
0.0
230
1.0
 40
0.578093115915809
 41
0.318755683958937
 42
2.822836969631009
  0
ELLIPSE
  5
3DA
330
6C
100
AcDbEntity
  8
Visible (ANSI)
100
AcDbEllipse
 10
181.3489021311138
 20
108.4964399026196
 30
0.0
 11
-0.1638904954878451
 21
0.2846004434873442
 31
0.0
210
0.0
220
0.0
230
0.9999999999999998
 40
0.578093115915809
 41
0.0
 42
6.283185307179586
  0
ELLIPSE
  5
3DB
330
6C
100
AcDbEntity
  8
Visible (ANSI)
100
AcDbEllipse
 10
181.4520218700368
 20
108.555822610881
 30
0.0
 11
-0.1638904954878452
 21
0.2846004434873443
 31
0.0
210
0.0
220
0.0
230
0.9999999999999998
 40
0.5780931159158092
 41
0.3187556839589046
 42
2.822836969631026
  0
ELLIPSE
  5
3DC
330
6C
100
AcDbEntity
  8
Visible (ANSI)
100
AcDbEllipse
 10
198.7761380091097
 20
62.09694738272212
 30
0.0
 11
-0.1638904954878451
 21
0.2846004434873442
 31
0.0
210
0.0
220
0.0
230
0.9999999999999998
 40
0.578093115915809
 41
0.0
 42
6.283185307179586
  0
ELLIPSE
  5
3DD
330
6C
100
AcDbEntity
  8
Visible (ANSI)
100
AcDbEllipse
 10
198.8792577480327
 20
62.15633009098351
 30
0.0
 11
-0.1638904954878422
 21
0.2846004434873391
 31
0.0
210
0.0
220
0.0
230
1.0
 40
0.5780931159158089
 41
0.3187556839589698
 42
2.822836969631026
  0
ELLIPSE
  5
3DE
330
6C
100
AcDbEntity
  8
Visible (ANSI)
100
AcDbEllipse
 10
163.9216662531176
 20
82.16830277506648
 30
0.0
 11
-0.1638904954878451
 21
0.2846004434873442
 31
0.0
210
0.0
220
0.0
230
0.9999999999999998
 40
0.578093115915809
 41
0.0
 42
6.283185307179586
  0
ELLIPSE
  5
3DF
330
6C
100
AcDbEntity
  8
Visible (ANSI)
100
AcDbEllipse
 10
164.0247859920407
 20
82.22768548332787
 30
0.0
 11
-0.1638904954878451
 21
0.2846004434873443
 31
0.0
210
0.0
220
0.0
230
0.9999999999999998
 40
0.5780931159158089
 41
0.3187556839589369
 42
2.822836969630821
  0
ELLIPSE
  5
3E0
330
6C
100
AcDbEntity
  8
Visible (ANSI)
100
AcDbEllipse
 10
198.7761380091097
 20
98.46076220644748
 30
0.0
 11
-0.1638904954878451
 21
0.2846004434873442
 31
0.0
210
0.0
220
0.0
230
0.9999999999999998
 40
0.578093115915809
 41
0.0
 42
6.283185307179586
  0
ELLIPSE
  5
3E1
330
6C
100
AcDbEntity
  8
Visible (ANSI)
100
AcDbEllipse
 10
198.8792577480328
 20
98.52014491470887
 30
0.0
 11
-0.1638904954878452
 21
0.2846004434873443
 31
0.0
210
0.0
220
0.0
230
0.9999999999999998
 40
0.5780931159158092
 41
0.3187556839589046
 42
2.822836969631026
  0
ELLIPSE
  5
3E2
330
6C
100
AcDbEntity
  8
Visible (ANSI)
100
AcDbEllipse
 10
163.9216662531177
 20
118.5321175987918
 30
0.0
 11
-0.1638904954878451
 21
0.2846004434873442
 31
0.0
210
0.0
220
0.0
230
0.9999999999999998
 40
0.578093115915809
 41
0.0
 42
6.283185307179586
  0
ELLIPSE
  5
3E3
330
6C
100
AcDbEntity
  8
Visible (ANSI)
100
AcDbEllipse
 10
164.0247859920407
 20
118.5915003070532
 30
0.0
 11
-0.1638904954878443
 21
0.2846004434873428
 31
0.0
210
0.0
220
0.0
230
0.9999999999999998
 40
0.578093115915809
 41
0.318755683958905
 42
2.822836969630838
  0
ELLIPSE
  5
3E4
330
6C
100
AcDbEntity
  8
Visible (ANSI)
100
AcDbEllipse
 10
163.9216662531175
 20
45.80448795134115
 30
0.0
 11
-0.1638904954878451
 21
0.2846004434873442
 31
0.0
210
0.0
220
0.0
230
0.9999999999999998
 40
0.578093115915809
 41
0.0
 42
6.283185307179586
  0
ELLIPSE
  5
3E5
330
6C
100
AcDbEntity
  8
Visible (ANSI)
100
AcDbEllipse
 10
164.0247859920406
 20
45.86387065960253
 30
0.0
 11
-0.163890495487845
 21
0.284600443487344
 31
0.0
210
0.0
220
0.0
230
0.9999999999999998
 40
0.578093115915809
 41
0.318755683958937
 42
2.822836969630821
  0
ELLIPSE
  5
3E6
330
6C
100
AcDbEntity
  8
Visible (ANSI)
100
AcDbEllipse
 10
198.7761380091095
 20
25.73313255899679
 30
0.0
 11
-0.1638904954878451
 21
0.2846004434873442
 31
0.0
210
0.0
220
0.0
230
0.9999999999999998
 40
0.578093115915809
 41
0.0
 42
6.283185307179586
  0
ELLIPSE
  5
3E7
330
6C
100
AcDbEntity
  8
Visible (ANSI)
100
AcDbEllipse
 10
198.8792577480326
 20
25.79251526725818
 30
0.0
 11
-0.1638904954878452
 21
0.2846004434873444
 31
0.0
210
0.0
220
0.0
230
1.0
 40
0.578093115915809
 41
0.318755683958937
 42
2.822836969631009
  0
LINE
  5
3E8
330
6C
100
AcDbEntity
  8
Visible Narrow (ANSI)
100
AcDbLine
 10
199.6139652639117
 20
98.74292540703642
 30
0.0
 11
199.6139652639116
 21
24.7531987832534
 31
0.0
  0
LINE
  5
3E9
330
6C
100
AcDbEntity
  8
Visible Narrow (ANSI)
100
AcDbLine
 10
199.3819870992303
 20
24.68377289485446
 30
0.0
 11
199.3819870992305
 21
98.81235129543533
 31
0.0
  0
LINE
  5
3EA
330
6C
100
AcDbEntity
  8
Visible Narrow (ANSI)
100
AcDbLine
 10
163.4918535685867
 20
119.7477969595257
 30
0.0
 11
199.437928858322
 21
99.04782889943854
 31
0.0
  0
LINE
  5
3EB
330
6C
100
AcDbEntity
  8
Visible Narrow (ANSI)
100
AcDbLine
 10
199.3819870992305
 20
98.81235129543533
 30
0.0
 11
163.315817162997
 21
119.5814772629341
 31
0.0
  0
LINE
  5
3EC
330
6C
100
AcDbEntity
  8
Visible Narrow (ANSI)
100
AcDbLine
 10
163.315817162997
 20
119.5814772629341
 30
0.0
 11
163.3158171629968
 21
45.45289886235327
 31
0.0
  0
LINE
  5
3ED
330
6C
100
AcDbEntity
  8
Visible Narrow (ANSI)
100
AcDbLine
 10
163.3158171629968
 20
45.45289886235327
 30
0.0
 11
199.3819870992303
 21
24.68377289485446
 31
0.0
  0
LINE
  5
3EE
330
6C
100
AcDbEntity
  8
Visible (ANSI)
100
AcDbLine
 10
163.2677729120043
 20
119.613557988987
 30
0.0
 11
163.2677729120041
 21
45.55440547680515
 31
0.0
  0
LINE
  5
3EF
330
6C
100
AcDbEntity
  8
Visible (ANSI)
100
AcDbLine
 10
163.3800459103328
 20
45.36021191813842
 30
0.0
 11
199.3860206823619
 21
24.62575004028941
 31
0.0
  0
POLYLINE
  5
3F0
330
6C
100
AcDbEntity
  8
Visible (ANSI)
100
AcDb2dPolyline
 66
     1
 10
0.0
 20
0.0
 30
0.0
 70
   128
  0
VERTEX
  5
3F1
330
3F0
100
AcDbEntity
  8
Visible (ANSI)
100
AcDbVertex
100
AcDb2dVertex
 10
199.381987687869
 20
98.81235186622518
 30
0.0
  0
VERTEX
  5
3F2
330
3F0
100
AcDbEntity
  8
Visible (ANSI)
100
AcDbVertex
100
AcDb2dVertex
 10
199.3898209603672
 20
98.80523341631084
 30
0.0
  0
VERTEX
  5
3F4
330
3F0
100
AcDbEntity
  8
Visible (ANSI)
100
AcDbVertex
100
AcDb2dVertex
 10
199.3981201117945
 20
98.79841749483894
 30
0.0
  0
VERTEX
  5
3F5
330
3F0
100
AcDbEntity
  8
Visible (ANSI)
100
AcDbVertex
100
AcDb2dVertex
 10
199.4068447984353
 20
98.7919236776711
 30
0.0
  0
VERTEX
  5
3F6
330
3F0
100
AcDbEntity
  8
Visible (ANSI)
100
AcDbVertex
100
AcDb2dVertex
 10
199.4159599808821
 20
98.78576603356441
 30
0.0
  0
VERTEX
  5
3F7
330
3F0
100
AcDbEntity
  8
Visible (ANSI)
100
AcDbVertex
100
AcDb2dVertex
 10
199.425426070412
 20
98.77996459526897
 30
0.0
  0
VERTEX
  5
3F8
330
3F0
100
AcDbEntity
  8
Visible (ANSI)
100
AcDbVertex
100
AcDb2dVertex
 10
199.4352038945162
 20
98.77451959167618
 30
0.0
  0
VERTEX
  5
3F9
330
3F0
100
AcDbEntity
  8
Visible (ANSI)
100
AcDbVertex
100
AcDb2dVertex
 10
199.445249799126
 20
98.76944871445942
 30
0.0
  0
VERTEX
  5
3FA
330
3F0
100
AcDbEntity
  8
Visible (ANSI)
100
AcDbVertex
100
AcDb2dVertex
 10
199.4555206335016
 20
98.76476136137
 30
0.0
  0
VERTEX
  5
3FB
330
3F0
100
AcDbEntity
  8
Visible (ANSI)
100
AcDbVertex
100
AcDb2dVertex
 10
199.4659738083079
 20
98.76046439956663
 30
0.0
  0
VERTEX
  5
3FC
330
3F0
100
AcDbEntity
  8
Visible (ANSI)
100
AcDbVertex
100
AcDb2dVertex
 10
199.4765649144835
 20
98.75656364829751
 30
0.0
  0
VERTEX
  5
3FD
330
3F0
100
AcDbEntity
  8
Visible (ANSI)
100
AcDbVertex
100
AcDb2dVertex
 10
199.487247757119
 20
98.75306389840917
 30
0.0
  0
VERTEX
  5
3FE
330
3F0
100
AcDbEntity
  8
Visible (ANSI)
100
AcDbVertex
100
AcDb2dVertex
 10
199.4979769398549
 20
98.74997327660381
 30
0.0
  0
VERTEX
  5
3FF
330
3F0
100
AcDbEntity
  8
Visible (ANSI)
100
AcDbVertex
100
AcDb2dVertex
 10
199.508705464392
 20
98.74728179743158
 30
0.0
  0
VERTEX
  5
400
330
3F0
100
AcDbEntity
  8
Visible (ANSI)
100
AcDbVertex
100
AcDb2dVertex
 10
199.5193873100499
 20
98.74499437418805
 30
0.0
  0
VERTEX
  5
401
330
3F0
100
AcDbEntity
  8
Visible (ANSI)
100
AcDbVertex
100
AcDb2dVertex
 10
199.5299775257212
 20
98.74310795232528
 30
0.0
  0
VERTEX
  5
402
330
3F0
100
AcDbEntity
  8
Visible (ANSI)
100
AcDbVertex
100
AcDb2dVertex
 10
199.5404323508642
 20
98.74161730901235
 30
0.0
  0
VERTEX
  5
403
330
3F0
100
AcDbEntity
  8
Visible (ANSI)
100
AcDbVertex
100
AcDb2dVertex
 10
199.5507018761017
 20
98.74051938830785
 30
0.0
  0
VERTEX
  5
404
330
3F0
100
AcDbEntity
  8
Visible (ANSI)
100
AcDbVertex
100
AcDb2dVertex
 10
199.560750011812
 20
98.73980769911868
 30
0.0
  0
VERTEX
  5
405
330
3F0
100
AcDbEntity
  8
Visible (ANSI)
100
AcDbVertex
100
AcDb2dVertex
 10
199.5705273229082
 20
98.73946514497406
 30
0.0
  0
VERTEX
  5
406
330
3F0
100
AcDbEntity
  8
Visible (ANSI)
100
AcDbVertex
100
AcDb2dVertex
 10
199.5799934838236
 20
98.73948564934661
 30
0.0
  0
VERTEX
  5
407
330
3F0
100
AcDbEntity
  8
Visible (ANSI)
100
AcDbVertex
100
AcDb2dVertex
 10
199.5891074781248
 20
98.73985700797973
 30
0.0
  0
VERTEX
  5
408
330
3F0
100
AcDbEntity
  8
Visible (ANSI)
100
AcDbVertex
100
AcDb2dVertex
 10
199.5978326965273
 20
98.74056384675704
 30
0.0
  0
VERTEX
  5
409
330
3F0
100
AcDbEntity
  8
Visible (ANSI)
100
AcDbVertex
100
AcDb2dVertex
 10
199.6061296386329
 20
98.74159198056439
 30
0.0
  0
VERTEX
  5
40A
330
3F0
100
AcDbEntity
  8
Visible (ANSI)
100
AcDbVertex
100
AcDb2dVertex
 10
199.6139659583254
 20
98.74292278251234
 30
0.0
  0
SEQEND
  5
3F3
330
3F0
100
AcDbEntity
  8
Visible (ANSI)
  0
POLYLINE
  5
40B
330
6C
100
AcDbEntity
  8
Visible (ANSI)
100
AcDb2dPolyline
 66
     1
 10
0.0
 20
0.0
 30
0.0
 70
   128
  0
VERTEX
  5
40C
330
40B
100
AcDbEntity
  8
Visible (ANSI)
100
AcDbVertex
100
AcDb2dVertex
 10
199.6139659583252
 20
24.75319837292884
 30
0.0
  0
VERTEX
  5
40D
330
40B
100
AcDbEntity
  8
Visible (ANSI)
100
AcDbVertex
100
AcDb2dVertex
 10
199.6061296386327
 20
24.74608123723086
 30
0.0
  0
VERTEX
  5
40F
330
40B
100
AcDbEntity
  8
Visible (ANSI)
100
AcDbVertex
100
AcDb2dVertex
 10
199.5978326965271
 20
24.73926676967351
 30
0.0
  0
VERTEX
  5
410
330
40B
100
AcDbEntity
  8
Visible (ANSI)
100
AcDbVertex
100
AcDb2dVertex
 10
199.5891074781246
 20
24.7327735971462
 30
0.0
  0
VERTEX
  5
411
330
40B
100
AcDbEntity
  8
Visible (ANSI)
100
AcDbVertex
100
AcDb2dVertex
 10
199.5799934838234
 20
24.72661590476307
 30
0.0
  0
VERTEX
  5
412
330
40B
100
AcDbEntity
  8
Visible (ANSI)
100
AcDbVertex
100
AcDb2dVertex
 10
199.570527322908
 20
24.72080906664053
 30
0.0
  0
VERTEX
  5
413
330
40B
100
AcDbEntity
  8
Visible (ANSI)
100
AcDbVertex
100
AcDb2dVertex
 10
199.5607500118118
 20
24.71536527584396
 30
0.0
  0
VERTEX
  5
414
330
40B
100
AcDbEntity
  8
Visible (ANSI)
100
AcDbVertex
100
AcDb2dVertex
 10
199.5507018761015
 20
24.71029636116855
 30
0.0
  0
VERTEX
  5
415
330
40B
100
AcDbEntity
  8
Visible (ANSI)
100
AcDbVertex
100
AcDb2dVertex
 10
199.540432350864
 20
24.70560793693187
 30
0.0
  0
VERTEX
  5
416
330
40B
100
AcDbEntity
  8
Visible (ANSI)
100
AcDbVertex
100
AcDb2dVertex
 10
199.529977525721
 20
24.70131224649481
 30
0.0
  0
VERTEX
  5
417
330
40B
100
AcDbEntity
  8
Visible (ANSI)
100
AcDbVertex
100
AcDb2dVertex
 10
199.5193873100497
 20
24.69741233460757
 30
0.0
  0
VERTEX
  5
418
330
40B
100
AcDbEntity
  8
Visible (ANSI)
100
AcDbVertex
100
AcDb2dVertex
 10
199.5087054643918
 20
24.69391341290993
 30
0.0
  0
VERTEX
  5
419
330
40B
100
AcDbEntity
  8
Visible (ANSI)
100
AcDbVertex
100
AcDb2dVertex
 10
199.4979769398547
 20
24.69081855833214
 30
0.0
  0
VERTEX
  5
41A
330
40B
100
AcDbEntity
  8
Visible (ANSI)
100
AcDbVertex
100
AcDb2dVertex
 10
199.4872477571188
 20
24.68812857627292
 30
0.0
  0
VERTEX
  5
41B
330
40B
100
AcDbEntity
  8
Visible (ANSI)
100
AcDbVertex
100
AcDb2dVertex
 10
199.4765649144833
 20
24.68584198122007
 30
0.0
  0
VERTEX
  5
41C
330
40B
100
AcDbEntity
  8
Visible (ANSI)
100
AcDbVertex
100
AcDb2dVertex
 10
199.4659738083076
 20
24.68395639873919
 30
0.0
  0
VERTEX
  5
41D
330
40B
100
AcDbEntity
  8
Visible (ANSI)
100
AcDbVertex
100
AcDb2dVertex
 10
199.4555206335014
 20
24.68246702679254
 30
0.0
  0
VERTEX
  5
41E
330
40B
100
AcDbEntity
  8
Visible (ANSI)
100
AcDbVertex
100
AcDb2dVertex
 10
199.4452497991258
 20
24.6813680349408
 30
0.0
  0
VERTEX
  5
41F
330
40B
100
AcDbEntity
  8
Visible (ANSI)
100
AcDbVertex
100
AcDb2dVertex
 10
199.435203894516
 20
24.68065257840756
 30
0.0
  0
VERTEX
  5
420
330
40B
100
AcDbEntity
  8
Visible (ANSI)
100
AcDbVertex
100
AcDb2dVertex
 10
199.4254260704118
 20
24.68031124825032
 30
0.0
  0
VERTEX
  5
421
330
40B
100
AcDbEntity
  8
Visible (ANSI)
100
AcDbVertex
100
AcDb2dVertex
 10
199.4159599808819
 20
24.68033207148999
 30
0.0
  0
VERTEX
  5
422
330
40B
100
AcDbEntity
  8
Visible (ANSI)
100
AcDbVertex
100
AcDb2dVertex
 10
199.4068447984351
 20
24.6807033818467
 30
0.0
  0
VERTEX
  5
423
330
40B
100
AcDbEntity
  8
Visible (ANSI)
100
AcDbVertex
100
AcDb2dVertex
 10
199.3981201117943
 20
24.68141086526452
 30
0.0
  0
VERTEX
  5
424
330
40B
100
AcDbEntity
  8
Visible (ANSI)
100
AcDbVertex
100
AcDb2dVertex
 10
199.389820960367
 20
24.68244044179523
 30
0.0
  0
VERTEX
  5
425
330
40B
100
AcDbEntity
  8
Visible (ANSI)
100
AcDbVertex
100
AcDb2dVertex
 10
199.3819876878688
 20
24.68377255795958
 30
0.0
  0
SEQEND
  5
40E
330
40B
100
AcDbEntity
  8
Visible (ANSI)
  0
LINE
  5
426
330
6C
100
AcDbEntity
  8
Visible (ANSI)
100
AcDbLine
 10
199.5148180612643
 20
98.80459574679472
 30
0.0
 11
200.1166946151093
 21
99.1511934028751
 31
0.0
  0
LINE
  5
427
330
6C
100
AcDbEntity
  8
Visible (ANSI)
100
AcDbLine
 10
200.2198143540322
 20
25.10208407083071
 30
0.0
 11
199.6139652639116
 21
24.7531987832534
 31
0.0
  0
LINE
  5
428
330
6C
100
AcDbEntity
  8
Visible (ANSI)
100
AcDbLine
 10
199.5363516224046
 20
98.78762013065434
 30
0.0
 11
199.6139652639117
 21
98.74292540703642
 31
0.0
  0
POLYLINE
  5
429
330
6C
100
AcDbEntity
  8
Visible (ANSI)
100
AcDb2dPolyline
 66
     1
 10
0.0
 20
0.0
 30
0.0
 70
   128
  0
VERTEX
  5
42A
330
429
100
AcDbEntity
  8
Visible (ANSI)
100
AcDbVertex
100
AcDb2dVertex
 10
199.4851074252433
 20
98.87173457359473
 30
0.0
  0
VERTEX
  5
42B
330
429
100
AcDbEntity
  8
Visible (ANSI)
100
AcDbVertex
100
AcDb2dVertex
 10
199.4856667773664
 20
98.86953511247101
 30
0.0
  0
VERTEX
  5
42D
330
429
100
AcDbEntity
  8
Visible (ANSI)
100
AcDbVertex
100
AcDb2dVertex
 10
199.4862520474456
 20
98.86735345250679
 30
0.0
  0
VERTEX
  5
42E
330
429
100
AcDbEntity
  8
Visible (ANSI)
100
AcDbVertex
100
AcDb2dVertex
 10
199.4868557375835
 20
98.86518810771729
 30
0.0
  0
VERTEX
  5
42F
330
429
100
AcDbEntity
  8
Visible (ANSI)
100
AcDbVertex
100
AcDb2dVertex
 10
199.4874826969098
 20
98.86303043287675
 30
0.0
  0
VERTEX
  5
430
330
429
100
AcDbEntity
  8
Visible (ANSI)
100
AcDbVertex
100
AcDb2dVertex
 10
199.4881253424886
 20
98.86089608268616
 30
0.0
  0
VERTEX
  5
431
330
429
100
AcDbEntity
  8
Visible (ANSI)
100
AcDbVertex
100
AcDb2dVertex
 10
199.4887884388317
 20
98.85877636319165
 30
0.0
  0
VERTEX
  5
432
330
429
100
AcDbEntity
  8
Visible (ANSI)
100
AcDbVertex
100
AcDb2dVertex
 10
199.4894667970653
 20
98.85666826420239
 30
0.0
  0
VERTEX
  5
433
330
429
100
AcDbEntity
  8
Visible (ANSI)
100
AcDbVertex
100
AcDb2dVertex
 10
199.4901626205939
 20
98.85458166046129
 30
0.0
  0
VERTEX
  5
434
330
429
100
AcDbEntity
  8
Visible (ANSI)
100
AcDbVertex
100
AcDb2dVertex
 10
199.4908706381932
 20
98.8525077644698
 30
0.0
  0
VERTEX
  5
435
330
429
100
AcDbEntity
  8
Visible (ANSI)
100
AcDbVertex
100
AcDb2dVertex
 10
199.4915929721461
 20
98.85045640425587
 30
0.0
  0
VERTEX
  5
436
330
429
100
AcDbEntity
  8
Visible (ANSI)
100
AcDbVertex
100
AcDb2dVertex
 10
199.4923267491849
 20
98.84842304921347
 30
0.0
  0
VERTEX
  5
437
330
429
100
AcDbEntity
  8
Visible (ANSI)
100
AcDbVertex
100
AcDb2dVertex
 10
199.4930690572486
 20
98.84640314639694
 30
0.0
  0
VERTEX
  5
438
330
429
100
AcDbEntity
  8
Visible (ANSI)
100
AcDbVertex
100
AcDb2dVertex
 10
199.4938219017868
 20
98.84440645655457
 30
0.0
  0
VERTEX
  5
439
330
429
100
AcDbEntity
  8
Visible (ANSI)
100
AcDbVertex
100
AcDb2dVertex
 10
199.4945822953451
 20
98.84242838332454
 30
0.0
  0
VERTEX
  5
43A
330
429
100
AcDbEntity
  8
Visible (ANSI)
100
AcDbVertex
100
AcDb2dVertex
 10
199.495347213869
 20
98.84046430926845
 30
0.0
  0
VERTEX
  5
43B
330
429
100
AcDbEntity
  8
Visible (ANSI)
100
AcDbVertex
100
AcDb2dVertex
 10
199.4961185539149
 20
98.8385239324271
 30
0.0
  0
VERTEX
  5
43C
330
429
100
AcDbEntity
  8
Visible (ANSI)
100
AcDbVertex
100
AcDb2dVertex
 10
199.49689322216
 20
98.83660259547317
 30
0.0
  0
VERTEX
  5
43D
330
429
100
AcDbEntity
  8
Visible (ANSI)
100
AcDbVertex
100
AcDb2dVertex
 10
199.49767056948
 20
98.83469419471534
 30
0.0
  0
VERTEX
  5
43E
330
429
100
AcDbEntity
  8
Visible (ANSI)
100
AcDbVertex
100
AcDb2dVertex
 10
199.4984474373675
 20
98.83281122494523
 30
0.0
  0
VERTEX
  5
43F
330
429
100
AcDbEntity
  8
Visible (ANSI)
100
AcDbVertex
100
AcDb2dVertex
 10
199.4992231140845
 20
98.83094181652928
 30
0.0
  0
VERTEX
  5
440
330
429
100
AcDbEntity
  8
Visible (ANSI)
100
AcDbVertex
100
AcDb2dVertex
 10
199.4999968585524
 20
98.82909700247964
 30
0.0
  0
VERTEX
  5
441
330
429
100
AcDbEntity
  8
Visible (ANSI)
100
AcDbVertex
100
AcDb2dVertex
 10
199.5007679018644
 20
98.8272706101268
 30
0.0
  0
VERTEX
  5
442
330
429
100
AcDbEntity
  8
Visible (ANSI)
100
AcDbVertex
100
AcDb2dVertex
 10
199.5015329702677
 20
98.82545787824071
 30
0.0
  0
VERTEX
  5
443
330
429
100
AcDbEntity
  8
Visible (ANSI)
100
AcDbVertex
100
AcDb2dVertex
 10
199.5022912425263
 20
98.82366979367382
 30
0.0
  0
SEQEND
  5
42C
330
429
100
AcDbEntity
  8
Visible (ANSI)
  0
LINE
  5
444
330
6C
100
AcDbEntity
  8
Visible (ANSI)
100
AcDbLine
 10
199.4851068381535
 20
98.8717340036967
 30
0.0
 11
199.459748868313
 21
98.85713132005081
 31
0.0
  0
LINE
  5
445
330
6C
100
AcDbEntity
  8
Visible (ANSI)
100
AcDbLine
 10
199.459748868313
 20
98.85713132005081
 30
0.0
 11
199.3819870992305
 21
98.81235129543533
 31
0.0
  0
LINE
  5
446
330
6C
100
AcDbEntity
  8
Visible (ANSI)
100
AcDbLine
 10
199.6139652639117
 20
98.74292540703642
 30
0.0
 11
200.2198143540323
 21
99.09181069461373
 31
0.0
  0
LINE
  5
447
330
6C
100
AcDbEntity
  8
Visible (ANSI)
100
AcDbLine
 10
200.1166946151093
 20
99.1511934028751
 30
0.0
 11
200.2198143540323
 21
99.09181069461373
 31
0.0
  0
POLYLINE
  5
448
330
6C
100
AcDbEntity
  8
Visible (ANSI)
100
AcDb2dPolyline
 66
     1
 10
0.0
 20
0.0
 30
0.0
 70
   128
  0
VERTEX
  5
449
330
448
100
AcDbEntity
  8
Visible (ANSI)
100
AcDbVertex
100
AcDb2dVertex
 10
163.3158171648016
 20
119.5814781716592
 30
0.0
  0
VERTEX
  5
44A
330
448
100
AcDbEntity
  8
Visible (ANSI)
100
AcDbVertex
100
AcDb2dVertex
 10
163.3185674775896
 20
119.5889528502961
 30
0.0
  0
VERTEX
  5
44C
330
448
100
AcDbEntity
  8
Visible (ANSI)
100
AcDbVertex
100
AcDb2dVertex
 10
163.3218134140856
 20
119.5966728192986
 30
0.0
  0
VERTEX
  5
44D
330
448
100
AcDbEntity
  8
Visible (ANSI)
100
AcDbVertex
100
AcDb2dVertex
 10
163.3255517800894
 20
119.6046018822325
 30
0.0
  0
VERTEX
  5
44E
330
448
100
AcDbEntity
  8
Visible (ANSI)
100
AcDbVertex
100
AcDb2dVertex
 10
163.3297772809722
 20
119.612696869778
 30
0.0
  0
VERTEX
  5
44F
330
448
100
AcDbEntity
  8
Visible (ANSI)
100
AcDbVertex
100
AcDb2dVertex
 10
163.3344825507151
 20
119.6209248795516
 30
0.0
  0
VERTEX
  5
450
330
448
100
AcDbEntity
  8
Visible (ANSI)
100
AcDbVertex
100
AcDb2dVertex
 10
163.3396581325498
 20
119.6292346489754
 30
0.0
  0
VERTEX
  5
451
330
448
100
AcDbEntity
  8
Visible (ANSI)
100
AcDbVertex
100
AcDb2dVertex
 10
163.3452925951114
 20
119.637590934589
 30
0.0
  0
VERTEX
  5
452
330
448
100
AcDbEntity
  8
Visible (ANSI)
100
AcDbVertex
100
AcDb2dVertex
 10
163.3513725324389
 20
119.6459516259523
 30
0.0
  0
VERTEX
  5
453
330
448
100
AcDbEntity
  8
Visible (ANSI)
100
AcDbVertex
100
AcDb2dVertex
 10
163.3578825930128
 20
119.6542735256966
 30
0.0
  0
VERTEX
  5
454
330
448
100
AcDbEntity
  8
Visible (ANSI)
100
AcDbVertex
100
AcDb2dVertex
 10
163.3648056346257
 20
119.6625123718206
 30
0.0
  0
VERTEX
  5
455
330
448
100
AcDbEntity
  8
Visible (ANSI)
100
AcDbVertex
100
AcDb2dVertex
 10
163.3721227292221
 20
119.6706228739217
 30
0.0
  0
VERTEX
  5
456
330
448
100
AcDbEntity
  8
Visible (ANSI)
100
AcDbVertex
100
AcDb2dVertex
 10
163.3798132403331
 20
119.6785759808873
 30
0.0
  0
VERTEX
  5
457
330
448
100
AcDbEntity
  8
Visible (ANSI)
100
AcDbVertex
100
AcDb2dVertex
 10
163.3878549585885
 20
119.6863245127313
 30
0.0
  0
VERTEX
  5
458
330
448
100
AcDbEntity
  8
Visible (ANSI)
100
AcDbVertex
100
AcDb2dVertex
 10
163.3962241743117
 20
119.6938318852693
 30
0.0
  0
VERTEX
  5
459
330
448
100
AcDbEntity
  8
Visible (ANSI)
100
AcDbVertex
100
AcDb2dVertex
 10
163.4048957404364
 20
119.7010549901376
 30
0.0
  0
VERTEX
  5
45A
330
448
100
AcDbEntity
  8
Visible (ANSI)
100
AcDbVertex
100
AcDb2dVertex
 10
163.4138432515747
 20
119.7079614206806
 30
0.0
  0
VERTEX
  5
45B
330
448
100
AcDbEntity
  8
Visible (ANSI)
100
AcDbVertex
100
AcDb2dVertex
 10
163.4230391093535
 20
119.7145123533624
 30
0.0
  0
VERTEX
  5
45C
330
448
100
AcDbEntity
  8
Visible (ANSI)
100
AcDbVertex
100
AcDb2dVertex
 10
163.432454638567
 20
119.7206741078699
 30
0.0
  0
VERTEX
  5
45D
330
448
100
AcDbEntity
  8
Visible (ANSI)
100
AcDbVertex
100
AcDb2dVertex
 10
163.442060246887
 20
119.7264124311625
 30
0.0
  0
VERTEX
  5
45E
330
448
100
AcDbEntity
  8
Visible (ANSI)
100
AcDbVertex
100
AcDb2dVertex
 10
163.4518255010877
 20
119.7317040903214
 30
0.0
  0
VERTEX
  5
45F
330
448
100
AcDbEntity
  8
Visible (ANSI)
100
AcDbVertex
100
AcDb2dVertex
 10
163.4617193061147
 20
119.7365139780915
 30
0.0
  0
VERTEX
  5
460
330
448
100
AcDbEntity
  8
Visible (ANSI)
100
AcDbVertex
100
AcDb2dVertex
 10
163.4717100085336
 20
119.7408124067015
 30
0.0
  0
VERTEX
  5
461
330
448
100
AcDbEntity
  8
Visible (ANSI)
100
AcDbVertex
100
AcDb2dVertex
 10
163.481765541721
 20
119.7445809102109
 30
0.0
  0
VERTEX
  5
462
330
448
100
AcDbEntity
  8
Visible (ANSI)
100
AcDbVertex
100
AcDb2dVertex
 10
163.4918535595607
 20
119.7477951318449
 30
0.0
  0
SEQEND
  5
44B
330
448
100
AcDbEntity
  8
Visible (ANSI)
  0
POLYLINE
  5
463
330
6C
100
AcDbEntity
  8
Visible (ANSI)
100
AcDb2dPolyline
 66
     1
 10
0.0
 20
0.0
 30
0.0
 70
   128
  0
VERTEX
  5
464
330
463
100
AcDbEntity
  8
Visible (ANSI)
100
AcDbVertex
100
AcDb2dVertex
 10
199.437929213898
 20
99.04782686179746
 30
0.0
  0
VERTEX
  5
465
330
463
100
AcDbEntity
  8
Visible (ANSI)
100
AcDbVertex
100
AcDb2dVertex
 10
199.432845868827
 20
99.04173064078996
 30
0.0
  0
VERTEX
  5
467
330
463
100
AcDbEntity
  8
Visible (ANSI)
100
AcDbVertex
100
AcDb2dVertex
 10
199.4277925304834
 20
99.03508156484917
 30
0.0
  0
VERTEX
  5
468
330
463
100
AcDbEntity
  8
Visible (ANSI)
100
AcDbVertex
100
AcDb2dVertex
 10
199.4228065008332
 20
99.02790113686576
 30
0.0
  0
VERTEX
  5
469
330
463
100
AcDbEntity
  8
Visible (ANSI)
100
AcDbVertex
100
AcDb2dVertex
 10
199.4179173685749
 20
99.02020924972214
 30
0.0
  0
VERTEX
  5
46A
330
463
100
AcDbEntity
  8
Visible (ANSI)
100
AcDbVertex
100
AcDb2dVertex
 10
199.413154309218
 20
99.01203701813187
 30
0.0
  0
VERTEX
  5
46B
330
463
100
AcDbEntity
  8
Visible (ANSI)
100
AcDbVertex
100
AcDb2dVertex
 10
199.4085533833461
 20
99.00341668989186
 30
0.0
  0
VERTEX
  5
46C
330
463
100
AcDbEntity
  8
Visible (ANSI)
100
AcDbVertex
100
AcDb2dVertex
 10
199.4041425269012
 20
98.99437293601085
 30
0.0
  0
VERTEX
  5
46D
330
463
100
AcDbEntity
  8
Visible (ANSI)
100
AcDbVertex
100
AcDb2dVertex
 10
199.3999488736456
 20
98.98494142532367
 30
0.0
  0
VERTEX
  5
46E
330
463
100
AcDbEntity
  8
Visible (ANSI)
100
AcDbVertex
100
AcDb2dVertex
 10
199.396006035276
 20
98.97515299540724
 30
0.0
  0
VERTEX
  5
46F
330
463
100
AcDbEntity
  8
Visible (ANSI)
100
AcDbVertex
100
AcDb2dVertex
 10
199.3923391419201
 20
98.96504789116542
 30
0.0
  0
VERTEX
  5
470
330
463
100
AcDbEntity
  8
Visible (ANSI)
100
AcDbVertex
100
AcDb2dVertex
 10
199.3889746086449
 20
98.95465851367996
 30
0.0
  0
VERTEX
  5
471
330
463
100
AcDbEntity
  8
Visible (ANSI)
100
AcDbVertex
100
AcDb2dVertex
 10
199.3859350852333
 20
98.94402940940462
 30
0.0
  0
VERTEX
  5
472
330
463
100
AcDbEntity
  8
Visible (ANSI)
100
AcDbVertex
100
AcDb2dVertex
 10
199.383249246891
 20
98.93319430306553
 30
0.0
  0
VERTEX
  5
473
330
463
100
AcDbEntity
  8
Visible (ANSI)
100
AcDbVertex
100
AcDb2dVertex
 10
199.3809368347427
 20
98.92220179601704
 30
0.0
  0
VERTEX
  5
474
330
463
100
AcDbEntity
  8
Visible (ANSI)
100
AcDbVertex
100
AcDb2dVertex
 10
199.3790159879736
 20
98.91108237746157
 30
0.0
  0
VERTEX
  5
475
330
463
100
AcDbEntity
  8
Visible (ANSI)
100
AcDbVertex
100
AcDb2dVertex
 10
199.3775106001684
 20
98.8998784783438
 30
0.0
  0
VERTEX
  5
476
330
463
100
AcDbEntity
  8
Visible (ANSI)
100
AcDbVertex
100
AcDb2dVertex
 10
199.376435345289
 20
98.88863578203308
 30
0.0
  0
VERTEX
  5
477
330
463
100
AcDbEntity
  8
Visible (ANSI)
100
AcDbVertex
100
AcDb2dVertex
 10
199.375805555496
 20
98.87739749704602
 30
0.0
  0
VERTEX
  5
478
330
463
100
AcDbEntity
  8
Visible (ANSI)
100
AcDbVertex
100
AcDb2dVertex
 10
199.3756321685052
 20
98.86620715519088
 30
0.0
  0
VERTEX
  5
479
330
463
100
AcDbEntity
  8
Visible (ANSI)
100
AcDbVertex
100
AcDb2dVertex
 10
199.3759315812104
 20
98.85509714046976
 30
0.0
  0
VERTEX
  5
47A
330
463
100
AcDbEntity
  8
Visible (ANSI)
100
AcDbVertex
100
AcDb2dVertex
 10
199.3767107530962
 20
98.84412015355081
 30
0.0
  0
VERTEX
  5
47B
330
463
100
AcDbEntity
  8
Visible (ANSI)
100
AcDbVertex
100
AcDb2dVertex
 10
199.3779745819362
 20
98.83331051818551
 30
0.0
  0
VERTEX
  5
47C
330
463
100
AcDbEntity
  8
Visible (ANSI)
100
AcDbVertex
100
AcDb2dVertex
 10
199.3797333278883
 20
98.82270854423559
 30
0.0
  0
VERTEX
  5
47D
330
463
100
AcDbEntity
  8
Visible (ANSI)
100
AcDbVertex
100
AcDb2dVertex
 10
199.381987687869
 20
98.81235186622518
 30
0.0
  0
SEQEND
  5
466
330
463
100
AcDbEntity
  8
Visible (ANSI)
  0
LINE
  5
47E
330
6C
100
AcDbEntity
  8
Visible (ANSI)
100
AcDbLine
 10
199.4418858901223
 20
98.93088198012906
 30
0.0
 11
200.0437779484426
 21
99.27748856464305
 31
0.0
  0
LINE
  5
47F
330
6C
100
AcDbEntity
  8
Visible (ANSI)
100
AcDbLine
 10
200.0437779484426
 20
99.39671418701591
 30
0.0
 11
199.437928858322
 21
99.04782889943854
 31
0.0
  0
LINE
  5
480
330
6C
100
AcDbEntity
  8
Visible (ANSI)
100
AcDbLine
 10
199.437928858322
 20
98.95792181266248
 30
0.0
 11
199.437928858322
 21
99.04782889943854
 31
0.0
  0
LINE
  5
481
330
6C
100
AcDbEntity
  8
Visible (ANSI)
100
AcDbLine
 10
200.0437779484426
 20
99.27748856464305
 30
0.0
 11
200.0437779484426
 21
99.39671418701591
 31
0.0
  0
POLYLINE
  5
482
330
6C
100
AcDbEntity
  8
Visible (ANSI)
100
AcDb2dPolyline
 66
     1
 10
0.0
 20
0.0
 30
0.0
 70
   128
  0
VERTEX
  5
483
330
482
100
AcDbEntity
  8
Visible (ANSI)
100
AcDbVertex
100
AcDb2dVertex
 10
199.4851074252433
 20
98.87173457359473
 30
0.0
  0
VERTEX
  5
484
330
482
100
AcDbEntity
  8
Visible (ANSI)
100
AcDbVertex
100
AcDb2dVertex
 10
199.4834861916404
 20
98.87331769419507
 30
0.0
  0
VERTEX
  5
486
330
482
100
AcDbEntity
  8
Visible (ANSI)
100
AcDbVertex
100
AcDb2dVertex
 10
199.4818908524993
 20
98.87490714265464
 30
0.0
  0
VERTEX
  5
487
330
482
100
AcDbEntity
  8
Visible (ANSI)
100
AcDbVertex
100
AcDb2dVertex
 10
199.4803188659096
 20
98.8765100389542
 30
0.0
  0
VERTEX
  5
488
330
482
100
AcDbEntity
  8
Visible (ANSI)
100
AcDbVertex
100
AcDb2dVertex
 10
199.4787676474104
 20
98.87812774868587
 30
0.0
  0
VERTEX
  5
489
330
482
100
AcDbEntity
  8
Visible (ANSI)
100
AcDbVertex
100
AcDb2dVertex
 10
199.4772420040358
 20
98.87975160238264
 30
0.0
  0
VERTEX
  5
48A
330
482
100
AcDbEntity
  8
Visible (ANSI)
100
AcDbVertex
100
AcDb2dVertex
 10
199.4757367889473
 20
98.88138434394578
 30
0.0
  0
VERTEX
  5
48B
330
482
100
AcDbEntity
  8
Visible (ANSI)
100
AcDbVertex
100
AcDb2dVertex
 10
199.4742567254247
 20
98.88301725567743
 30
0.0
  0
VERTEX
  5
48C
330
482
100
AcDbEntity
  8
Visible (ANSI)
100
AcDbVertex
100
AcDb2dVertex
 10
199.4727965836458
 20
98.88465876357706
 30
0.0
  0
VERTEX
  5
48D
330
482
100
AcDbEntity
  8
Visible (ANSI)
100
AcDbVertex
100
AcDb2dVertex
 10
199.471361004767
 20
98.88630583254045
 30
0.0
  0
VERTEX
  5
48E
330
482
100
AcDbEntity
  8
Visible (ANSI)
100
AcDbVertex
100
AcDb2dVertex
 10
199.4699471559015
 20
98.88795395521546
 30
0.0
  0
VERTEX
  5
48F
330
482
100
AcDbEntity
  8
Visible (ANSI)
100
AcDbVertex
100
AcDb2dVertex
 10
199.468552164538
 20
98.88960433131693
 30
0.0
  0
VERTEX
  5
490
330
482
100
AcDbEntity
  8
Visible (ANSI)
100
AcDbVertex
100
AcDb2dVertex
 10
199.4671805533734
 20
98.89124812763908
 30
0.0
  0
VERTEX
  5
491
330
482
100
AcDbEntity
  8
Visible (ANSI)
100
AcDbVertex
100
AcDb2dVertex
 10
199.465826894763
 20
98.89289938614837
 30
0.0
  0
VERTEX
  5
492
330
482
100
AcDbEntity
  8
Visible (ANSI)
100
AcDbVertex
100
AcDb2dVertex
 10
199.4644956362371
 20
98.89454350046804
 30
0.0
  0
VERTEX
  5
493
330
482
100
AcDbEntity
  8
Visible (ANSI)
100
AcDbVertex
100
AcDb2dVertex
 10
199.4631837546489
 20
98.89618158356768
 30
0.0
  0
VERTEX
  5
494
330
482
100
AcDbEntity
  8
Visible (ANSI)
100
AcDbVertex
100
AcDb2dVertex
 10
199.4618881919146
 20
98.89781472829817
 30
0.0
  0
VERTEX
  5
495
330
482
100
AcDbEntity
  8
Visible (ANSI)
100
AcDbVertex
100
AcDb2dVertex
 10
199.460613289545
 20
98.89944545688639
 30
0.0
  0
VERTEX
  5
496
330
482
100
AcDbEntity
  8
Visible (ANSI)
100
AcDbVertex
100
AcDb2dVertex
 10
199.4593534443808
 20
98.90106479068499
 30
0.0
  0
VERTEX
  5
497
330
482
100
AcDbEntity
  8
Visible (ANSI)
100
AcDbVertex
100
AcDb2dVertex
 10
199.4581129319918
 20
98.902675213948
 30
0.0
  0
VERTEX
  5
498
330
482
100
AcDbEntity
  8
Visible (ANSI)
100
AcDbVertex
100
AcDb2dVertex
 10
199.4568860869078
 20
98.9042791719163
 30
0.0
  0
VERTEX
  5
499
330
482
100
AcDbEntity
  8
Visible (ANSI)
100
AcDbVertex
100
AcDb2dVertex
 10
199.4556771254121
 20
98.90586765493246
 30
0.0
  0
VERTEX
  5
49A
330
482
100
AcDbEntity
  8
Visible (ANSI)
100
AcDbVertex
100
AcDb2dVertex
 10
199.4544828015806
 20
98.90744164767705
 30
0.0
  0
VERTEX
  5
49B
330
482
100
AcDbEntity
  8
Visible (ANSI)
100
AcDbVertex
100
AcDb2dVertex
 10
199.4532998434754
 20
98.90900784973597
 30
0.0
  0
VERTEX
  5
49C
330
482
100
AcDbEntity
  8
Visible (ANSI)
100
AcDbVertex
100
AcDb2dVertex
 10
199.4521323869202
 20
98.91055147523262
 30
0.0
  0
SEQEND
  5
485
330
482
100
AcDbEntity
  8
Visible (ANSI)
  0
LINE
  5
49D
330
6C
100
AcDbEntity
  8
Visible (ANSI)
100
AcDbLine
 10
163.4918535685867
 20
119.7477969595257
 30
0.0
 11
164.0977026587072
 21
120.0966822471031
 31
0.0
  0
POLYLINE
  5
49E
330
6C
100
AcDbEntity
  8
Visible (ANSI)
100
AcDb2dPolyline
 66
     1
 10
0.0
 20
0.0
 30
0.0
 70
   128
  0
VERTEX
  5
49F
330
49E
100
AcDbEntity
  8
Visible (ANSI)
100
AcDbVertex
100
AcDb2dVertex
 10
163.3158171648014
 20
45.45289886339358
 30
0.0
  0
VERTEX
  5
4A0
330
49E
100
AcDbEntity
  8
Visible (ANSI)
100
AcDbVertex
100
AcDb2dVertex
 10
163.312084209579
 20
45.4565664256143
 30
0.0
  0
VERTEX
  5
4A2
330
49E
100
AcDbEntity
  8
Visible (ANSI)
100
AcDbVertex
100
AcDb2dVertex
 10
163.3084794579347
 20
45.46030313321187
 30
0.0
  0
VERTEX
  5
4A3
330
49E
100
AcDbEntity
  8
Visible (ANSI)
100
AcDbVertex
100
AcDb2dVertex
 10
163.3050067622675
 20
45.46410653362958
 30
0.0
  0
VERTEX
  5
4A4
330
49E
100
AcDbEntity
  8
Visible (ANSI)
100
AcDbVertex
100
AcDb2dVertex
 10
163.3016698491441
 20
45.46797411304004
 30
0.0
  0
VERTEX
  5
4A5
330
49E
100
AcDbEntity
  8
Visible (ANSI)
100
AcDbVertex
100
AcDb2dVertex
 10
163.2984722902611
 20
45.47190325715437
 30
0.0
  0
VERTEX
  5
4A6
330
49E
100
AcDbEntity
  8
Visible (ANSI)
100
AcDbVertex
100
AcDb2dVertex
 10
163.2954175218034
 20
45.47589131836931
 30
0.0
  0
VERTEX
  5
4A7
330
49E
100
AcDbEntity
  8
Visible (ANSI)
100
AcDbVertex
100
AcDb2dVertex
 10
163.2925087766887
 20
45.47993557657656
 30
0.0
  0
VERTEX
  5
4A8
330
49E
100
AcDbEntity
  8
Visible (ANSI)
100
AcDbVertex
100
AcDb2dVertex
 10
163.2897492103997
 20
45.48403325592783
 30
0.0
  0
VERTEX
  5
4A9
330
49E
100
AcDbEntity
  8
Visible (ANSI)
100
AcDbVertex
100
AcDb2dVertex
 10
163.2871417654722
 20
45.48818150253899
 30
0.0
  0
VERTEX
  5
4AA
330
49E
100
AcDbEntity
  8
Visible (ANSI)
100
AcDbVertex
100
AcDb2dVertex
 10
163.2846892198923
 20
45.4923774458471
 30
0.0
  0
VERTEX
  5
4AB
330
49E
100
AcDbEntity
  8
Visible (ANSI)
100
AcDbVertex
100
AcDb2dVertex
 10
163.2823942161348
 20
45.49661811482773
 30
0.0
  0
VERTEX
  5
4AC
330
49E
100
AcDbEntity
  8
Visible (ANSI)
100
AcDbVertex
100
AcDb2dVertex
 10
163.2802592030864
 20
45.50090052743814
 30
0.0
  0
VERTEX
  5
4AD
330
49E
100
AcDbEntity
  8
Visible (ANSI)
100
AcDbVertex
100
AcDb2dVertex
 10
163.2782864796032
 20
45.5052216542134
 30
0.0
  0
VERTEX
  5
4AE
330
49E
100
AcDbEntity
  8
Visible (ANSI)
100
AcDbVertex
100
AcDb2dVertex
 10
163.2764781364344
 20
45.50957840716167
 30
0.0
  0
VERTEX
  5
4AF
330
49E
100
AcDbEntity
  8
Visible (ANSI)
100
AcDbVertex
100
AcDb2dVertex
 10
163.2748361288178
 20
45.51396767599512
 30
0.0
  0
VERTEX
  5
4B0
330
49E
100
AcDbEntity
  8
Visible (ANSI)
100
AcDbVertex
100
AcDb2dVertex
 10
163.2733622135633
 20
45.5183863198122
 30
0.0
  0
VERTEX
  5
4B1
330
49E
100
AcDbEntity
  8
Visible (ANSI)
100
AcDbVertex
100
AcDb2dVertex
 10
163.2720579587328
 20
45.52283112790684
 30
0.0
  0
VERTEX
  5
4B2
330
49E
100
AcDbEntity
  8
Visible (ANSI)
100
AcDbVertex
100
AcDb2dVertex
 10
163.2709247629989
 20
45.52729890921153
 30
0.0
  0
VERTEX
  5
4B3
330
49E
100
AcDbEntity
  8
Visible (ANSI)
100
AcDbVertex
100
AcDb2dVertex
 10
163.2699638459652
 20
45.53178641966264
 30
0.0
  0
VERTEX
  5
4B4
330
49E
100
AcDbEntity
  8
Visible (ANSI)
100
AcDbVertex
100
AcDb2dVertex
 10
163.2691762384872
 20
45.53629041240954
 30
0.0
  0
VERTEX
  5
4B5
330
49E
100
AcDbEntity
  8
Visible (ANSI)
100
AcDbVertex
100
AcDb2dVertex
 10
163.2685627778325
 20
45.54080760158366
 30
0.0
  0
VERTEX
  5
4B6
330
49E
100
AcDbEntity
  8
Visible (ANSI)
100
AcDbVertex
100
AcDb2dVertex
 10
163.2681241197802
 20
45.54533472226211
 30
0.0
  0
VERTEX
  5
4B7
330
49E
100
AcDbEntity
  8
Visible (ANSI)
100
AcDbVertex
100
AcDb2dVertex
 10
163.2678607386204
 20
45.54986844668497
 30
0.0
  0
VERTEX
  5
4B8
330
49E
100
AcDbEntity
  8
Visible (ANSI)
100
AcDbVertex
100
AcDb2dVertex
 10
163.2677729126358
 20
45.55440547648536
 30
0.0
  0
SEQEND
  5
4A1
330
49E
100
AcDbEntity
  8
Visible (ANSI)
  0
POLYLINE
  5
4B9
330
6C
100
AcDbEntity
  8
Visible (ANSI)
100
AcDb2dPolyline
 66
     1
 10
0.0
 20
0.0
 30
0.0
 70
   128
  0
VERTEX
  5
4BA
330
4B9
100
AcDbEntity
  8
Visible (ANSI)
100
AcDbVertex
100
AcDb2dVertex
 10
163.3158171635916
 20
119.6456364900597
 30
0.0
  0
VERTEX
  5
4BB
330
4B9
100
AcDbEntity
  8
Visible (ANSI)
100
AcDbVertex
100
AcDb2dVertex
 10
163.3084794558554
 20
119.6440185565824
 30
0.0
  0
VERTEX
  5
4BD
330
4B9
100
AcDbEntity
  8
Visible (ANSI)
100
AcDbVertex
100
AcDb2dVertex
 10
163.301669852396
 20
119.6421339214124
 30
0.0
  0
VERTEX
  5
4BE
330
4B9
100
AcDbEntity
  8
Visible (ANSI)
100
AcDbVertex
100
AcDb2dVertex
 10
163.2954175134853
 20
119.6400030460446
 30
0.0
  0
VERTEX
  5
4BF
330
4B9
100
AcDbEntity
  8
Visible (ANSI)
100
AcDbVertex
100
AcDb2dVertex
 10
163.2897492116098
 20
119.6376474451101
 30
0.0
  0
VERTEX
  5
4C0
330
4B9
100
AcDbEntity
  8
Visible (ANSI)
100
AcDbVertex
100
AcDb2dVertex
 10
163.2846892192875
 20
119.6350895969967
 30
0.0
  0
VERTEX
  5
4C1
330
4B9
100
AcDbEntity
  8
Visible (ANSI)
100
AcDbVertex
100
AcDb2dVertex
 10
163.2802592067163
 20
119.632352846717
 30
0.0
  0
VERTEX
  5
4C2
330
4B9
100
AcDbEntity
  8
Visible (ANSI)
100
AcDbVertex
100
AcDb2dVertex
 10
163.2764781388545
 20
119.6294555715548
 30
0.0
  0
VERTEX
  5
4C3
330
4B9
100
AcDbEntity
  8
Visible (ANSI)
100
AcDbVertex
100
AcDb2dVertex
 10
163.2733622135635
 20
119.626434008026
 30
0.0
  0
VERTEX
  5
4C4
330
4B9
100
AcDbEntity
  8
Visible (ANSI)
100
AcDbVertex
100
AcDb2dVertex
 10
163.2709247654189
 20
119.6233077509831
 30
0.0
  0
VERTEX
  5
4C5
330
4B9
100
AcDbEntity
  8
Visible (ANSI)
100
AcDbVertex
100
AcDb2dVertex
 10
163.2691762409072
 20
119.6201025815351
 30
0.0
  0
VERTEX
  5
4C6
330
4B9
100
AcDbEntity
  8
Visible (ANSI)
100
AcDbVertex
100
AcDb2dVertex
 10
163.2681241197803
 20
119.6168446152303
 30
0.0
  0
VERTEX
  5
4C7
330
4B9
100
AcDbEntity
  8
Visible (ANSI)
100
AcDbVertex
100
AcDb2dVertex
 10
163.267772912636
 20
119.613560194757
 30
0.0
  0
VERTEX
  5
4C8
330
4B9
100
AcDbEntity
  8
Visible (ANSI)
100
AcDbVertex
100
AcDb2dVertex
 10
163.2681241197803
 20
119.6102700443983
 30
0.0
  0
VERTEX
  5
4C9
330
4B9
100
AcDbEntity
  8
Visible (ANSI)
100
AcDbVertex
100
AcDb2dVertex
 10
163.2691762384874
 20
119.607012079487
 30
0.0
  0
VERTEX
  5
4CA
330
4B9
100
AcDbEntity
  8
Visible (ANSI)
100
AcDbVertex
100
AcDb2dVertex
 10
163.2709247629991
 20
119.603806910039
 30
0.0
  0
VERTEX
  5
4CB
330
4B9
100
AcDbEntity
  8
Visible (ANSI)
100
AcDbVertex
100
AcDb2dVertex
 10
163.2733622135635
 20
119.6006806543896
 30
0.0
  0
VERTEX
  5
4CC
330
4B9
100
AcDbEntity
  8
Visible (ANSI)
100
AcDbVertex
100
AcDb2dVertex
 10
163.2764781364346
 20
119.5976590866803
 30
0.0
  0
VERTEX
  5
4CD
330
4B9
100
AcDbEntity
  8
Visible (ANSI)
100
AcDbVertex
100
AcDb2dVertex
 10
163.2802592030866
 20
119.5947675407068
 30
0.0
  0
VERTEX
  5
4CE
330
4B9
100
AcDbEntity
  8
Visible (ANSI)
100
AcDbVertex
100
AcDb2dVertex
 10
163.2846892198925
 20
119.5920307928657
 30
0.0
  0
VERTEX
  5
4CF
330
4B9
100
AcDbEntity
  8
Visible (ANSI)
100
AcDbVertex
100
AcDb2dVertex
 10
163.2897492103999
 20
119.5894672180022
 30
0.0
  0
VERTEX
  5
4D0
330
4B9
100
AcDbEntity
  8
Visible (ANSI)
100
AcDbVertex
100
AcDb2dVertex
 10
163.2954175218036
 20
119.5871116141937
 30
0.0
  0
VERTEX
  5
4D1
330
4B9
100
AcDbEntity
  8
Visible (ANSI)
100
AcDbVertex
100
AcDb2dVertex
 10
163.3016698491443
 20
119.5849807426144
 30
0.0
  0
VERTEX
  5
4D2
330
4B9
100
AcDbEntity
  8
Visible (ANSI)
100
AcDbVertex
100
AcDb2dVertex
 10
163.3084794579349
 20
119.5830961077274
 30
0.0
  0
VERTEX
  5
4D3
330
4B9
100
AcDbEntity
  8
Visible (ANSI)
100
AcDbVertex
100
AcDb2dVertex
 10
163.3158171648016
 20
119.5814781716592
 30
0.0
  0
SEQEND
  5
4BC
330
4B9
100
AcDbEntity
  8
Visible (ANSI)
  0
LINE
  5
4D4
330
6C
100
AcDbEntity
  8
Visible (ANSI)
100
AcDbLine
 10
163.8288501453479
 20
45.83258272061256
 30
0.0
 11
164.0247859920404
 21
45.94541467057294
 31
0.0
  0
LINE
  5
4D5
330
6C
100
AcDbEntity
  8
Visible (ANSI)
100
AcDbLine
 10
163.3901663154969
 20
119.6884535444655
 30
0.0
 11
163.315817162997
 21
119.64563871504
 31
0.0
  0
LINE
  5
4D6
330
6C
100
AcDbEntity
  8
Visible (ANSI)
100
AcDbLine
 10
163.3409283623452
 20
119.6311781370696
 30
0.0
 11
163.315817162997
 21
119.64563871504
 31
0.0
  0
POLYLINE
  5
4D7
330
6C
100
AcDbEntity
  8
Visible (ANSI)
100
AcDb2dPolyline
 66
     1
 10
0.0
 20
0.0
 30
0.0
 70
   128
  0
VERTEX
  5
4D8
330
4D7
100
AcDbEntity
  8
Visible (ANSI)
100
AcDbVertex
100
AcDb2dVertex
 10
199.3819876878688
 20
24.68377255795958
 30
0.0
  0
VERTEX
  5
4D9
330
4D7
100
AcDbEntity
  8
Visible (ANSI)
100
AcDbVertex
100
AcDb2dVertex
 10
199.3797333278881
 20
24.67658589356229
 30
0.0
  0
VERTEX
  5
4DB
330
4D7
100
AcDbEntity
  8
Visible (ANSI)
100
AcDbVertex
100
AcDb2dVertex
 10
199.377974581936
 20
24.66972219191089
 30
0.0
  0
VERTEX
  5
4DC
330
4D7
100
AcDbEntity
  8
Visible (ANSI)
100
AcDbVertex
100
AcDb2dVertex
 10
199.376710753096
 20
24.66321560991677
 30
0.0
  0
VERTEX
  5
4DD
330
4D7
100
AcDbEntity
  8
Visible (ANSI)
100
AcDbVertex
100
AcDb2dVertex
 10
199.3759315812102
 20
24.65710298973017
 30
0.0
  0
VERTEX
  5
4DE
330
4D7
100
AcDbEntity
  8
Visible (ANSI)
100
AcDbVertex
100
AcDb2dVertex
 10
199.375632168505
 20
24.65141528576698
 30
0.0
  0
VERTEX
  5
4DF
330
4D7
100
AcDbEntity
  8
Visible (ANSI)
100
AcDbVertex
100
AcDb2dVertex
 10
199.3758055554958
 20
24.64618158252054
 30
0.0
  0
VERTEX
  5
4E0
330
4D7
100
AcDbEntity
  8
Visible (ANSI)
100
AcDbVertex
100
AcDb2dVertex
 10
199.3764353452888
 20
24.64143331370679
 30
0.0
  0
VERTEX
  5
4E1
330
4D7
100
AcDbEntity
  8
Visible (ANSI)
100
AcDbVertex
100
AcDb2dVertex
 10
199.3775106001681
 20
24.63719556065725
 30
0.0
  0
VERTEX
  5
4E2
330
4D7
100
AcDbEntity
  8
Visible (ANSI)
100
AcDbVertex
100
AcDb2dVertex
 10
199.3790159879734
 20
24.63349263125911
 30
0.0
  0
VERTEX
  5
4E3
330
4D7
100
AcDbEntity
  8
Visible (ANSI)
100
AcDbVertex
100
AcDb2dVertex
 10
199.3809368347426
 20
24.63034513870801
 30
0.0
  0
VERTEX
  5
4E4
330
4D7
100
AcDbEntity
  8
Visible (ANSI)
100
AcDbVertex
100
AcDb2dVertex
 10
199.3832492468908
 20
24.62777557490655
 30
0.0
  0
VERTEX
  5
4E5
330
4D7
100
AcDbEntity
  8
Visible (ANSI)
100
AcDbVertex
100
AcDb2dVertex
 10
199.3859350852331
 20
24.62579968702277
 30
0.0
  0
VERTEX
  5
4E6
330
4D7
100
AcDbEntity
  8
Visible (ANSI)
100
AcDbVertex
100
AcDb2dVertex
 10
199.3889746086447
 20
24.62443067980526
 30
0.0
  0
VERTEX
  5
4E7
330
4D7
100
AcDbEntity
  8
Visible (ANSI)
100
AcDbVertex
100
AcDb2dVertex
 10
199.3923391419199
 20
24.62368343742895
 30
0.0
  0
VERTEX
  5
4E8
330
4D7
100
AcDbEntity
  8
Visible (ANSI)
100
AcDbVertex
100
AcDb2dVertex
 10
199.3960060352758
 20
24.62356590008591
 30
0.0
  0
VERTEX
  5
4E9
330
4D7
100
AcDbEntity
  8
Visible (ANSI)
100
AcDbVertex
100
AcDb2dVertex
 10
199.3999488736454
 20
24.62408474910134
 30
0.0
  0
VERTEX
  5
4EA
330
4D7
100
AcDbEntity
  8
Visible (ANSI)
100
AcDbVertex
100
AcDb2dVertex
 10
199.404142526901
 20
24.62524250107962
 30
0.0
  0
VERTEX
  5
4EB
330
4D7
100
AcDbEntity
  8
Visible (ANSI)
100
AcDbVertex
100
AcDb2dVertex
 10
199.4085533833459
 20
24.62704322234307
 30
0.0
  0
VERTEX
  5
4EC
330
4D7
100
AcDbEntity
  8
Visible (ANSI)
100
AcDbVertex
100
AcDb2dVertex
 10
199.4131543092178
 20
24.62948394259367
 30
0.0
  0
VERTEX
  5
4ED
330
4D7
100
AcDbEntity
  8
Visible (ANSI)
100
AcDbVertex
100
AcDb2dVertex
 10
199.4179173685747
 20
24.63255895777868
 30
0.0
  0
VERTEX
  5
4EE
330
4D7
100
AcDbEntity
  8
Visible (ANSI)
100
AcDbVertex
100
AcDb2dVertex
 10
199.4228065008329
 20
24.63626411783793
 30
0.0
  0
VERTEX
  5
4EF
330
4D7
100
AcDbEntity
  8
Visible (ANSI)
100
AcDbVertex
100
AcDb2dVertex
 10
199.4277925304832
 20
24.64058830154255
 30
0.0
  0
VERTEX
  5
4F0
330
4D7
100
AcDbEntity
  8
Visible (ANSI)
100
AcDbVertex
100
AcDb2dVertex
 10
199.4328458688268
 20
24.64551773701861
 30
0.0
  0
VERTEX
  5
4F1
330
4D7
100
AcDbEntity
  8
Visible (ANSI)
100
AcDbVertex
100
AcDb2dVertex
 10
199.4379292138978
 20
24.65104033468993
 30
0.0
  0
SEQEND
  5
4DA
330
4D7
100
AcDbEntity
  8
Visible (ANSI)
  0
POLYLINE
  5
4F2
330
6C
100
AcDbEntity
  8
Visible (ANSI)
100
AcDb2dPolyline
 66
     1
 10
0.0
 20
0.0
 30
0.0
 70
   128
  0
VERTEX
  5
4F3
330
4F2
100
AcDbEntity
  8
Visible (ANSI)
100
AcDbVertex
100
AcDb2dVertex
 10
163.3800459136141
 20
45.360211917712
 30
0.0
  0
VERTEX
  5
4F4
330
4F2
100
AcDbEntity
  8
Visible (ANSI)
100
AcDbVertex
100
AcDb2dVertex
 10
163.3761405828976
 20
45.36256269373945
 30
0.0
  0
VERTEX
  5
4F6
330
4F2
100
AcDbEntity
  8
Visible (ANSI)
100
AcDbVertex
100
AcDb2dVertex
 10
163.3723261804116
 20
45.36506468911952
 30
0.0
  0
VERTEX
  5
4F7
330
4F2
100
AcDbEntity
  8
Visible (ANSI)
100
AcDbVertex
100
AcDb2dVertex
 10
163.3686054889819
 20
45.36771597844119
 30
0.0
  0
VERTEX
  5
4F8
330
4F2
100
AcDbEntity
  8
Visible (ANSI)
100
AcDbVertex
100
AcDb2dVertex
 10
163.3649811365641
 20
45.37051449657641
 30
0.0
  0
VERTEX
  5
4F9
330
4F2
100
AcDbEntity
  8
Visible (ANSI)
100
AcDbVertex
100
AcDb2dVertex
 10
163.3614556930374
 20
45.37345799684284
 30
0.0
  0
VERTEX
  5
4FA
330
4F2
100
AcDbEntity
  8
Visible (ANSI)
100
AcDbVertex
100
AcDb2dVertex
 10
163.3580315976091
 20
45.37654409562811
 30
0.0
  0
VERTEX
  5
4FB
330
4F2
100
AcDbEntity
  8
Visible (ANSI)
100
AcDbVertex
100
AcDb2dVertex
 10
163.3547111684943
 20
45.37977025571109
 30
0.0
  0
VERTEX
  5
4FC
330
4F2
100
AcDbEntity
  8
Visible (ANSI)
100
AcDbVertex
100
AcDb2dVertex
 10
163.3514966513123
 20
45.38313376390111
 30
0.0
  0
VERTEX
  5
4FD
330
4F2
100
AcDbEntity
  8
Visible (ANSI)
100
AcDbVertex
100
AcDb2dVertex
 10
163.3483901561713
 20
45.38663180086405
 30
0.0
  0
VERTEX
  5
4FE
330
4F2
100
AcDbEntity
  8
Visible (ANSI)
100
AcDbVertex
100
AcDb2dVertex
 10
163.3453936576675
 20
45.39026136850926
 30
0.0
  0
VERTEX
  5
4FF
330
4F2
100
AcDbEntity
  8
Visible (ANSI)
100
AcDbVertex
100
AcDb2dVertex
 10
163.342509043283
 20
45.39401932918028
 30
0.0
  0
VERTEX
  5
500
330
4F2
100
AcDbEntity
  8
Visible (ANSI)
100
AcDbVertex
100
AcDb2dVertex
 10
163.3397380553086
 20
45.39790242786446
 30
0.0
  0
VERTEX
  5
501
330
4F2
100
AcDbEntity
  8
Visible (ANSI)
100
AcDbVertex
100
AcDb2dVertex
 10
163.3370823586003
 20
45.4019072644093
 30
0.0
  0
VERTEX
  5
502
330
4F2
100
AcDbEntity
  8
Visible (ANSI)
100
AcDbVertex
100
AcDb2dVertex
 10
163.3345434244259
 20
45.40603028788376
 30
0.0
  0
VERTEX
  5
503
330
4F2
100
AcDbEntity
  8
Visible (ANSI)
100
AcDbVertex
100
AcDb2dVertex
 10
163.3321226466183
 20
45.41026786359572
 30
0.0
  0
VERTEX
  5
504
330
4F2
100
AcDbEntity
  8
Visible (ANSI)
100
AcDbVertex
100
AcDb2dVertex
 10
163.3298212931781
 20
45.41461619499126
 30
0.0
  0
VERTEX
  5
505
330
4F2
100
AcDbEntity
  8
Visible (ANSI)
100
AcDbVertex
100
AcDb2dVertex
 10
163.3276404869151
 20
45.41907139058585
 30
0.0
  0
VERTEX
  5
506
330
4F2
100
AcDbEntity
  8
Visible (ANSI)
100
AcDbVertex
100
AcDb2dVertex
 10
163.3255812054479
 20
45.4236294137335
 30
0.0
  0
VERTEX
  5
507
330
4F2
100
AcDbEntity
  8
Visible (ANSI)
100
AcDbVertex
100
AcDb2dVertex
 10
163.3236443392811
 20
45.4282861553696
 30
0.0
  0
VERTEX
  5
508
330
4F2
100
AcDbEntity
  8
Visible (ANSI)
100
AcDbVertex
100
AcDb2dVertex
 10
163.3218306143691
 20
45.43303737792524
 30
0.0
  0
VERTEX
  5
509
330
4F2
100
AcDbEntity
  8
Visible (ANSI)
100
AcDbVertex
100
AcDb2dVertex
 10
163.3201406308344
 20
45.43787872677773
 30
0.0
  0
VERTEX
  5
50A
330
4F2
100
AcDbEntity
  8
Visible (ANSI)
100
AcDbVertex
100
AcDb2dVertex
 10
163.3185748629673
 20
45.44280578590405
 30
0.0
  0
VERTEX
  5
50B
330
4F2
100
AcDbEntity
  8
Visible (ANSI)
100
AcDbVertex
100
AcDb2dVertex
 10
163.3171336301878
 20
45.44781403890612
 30
0.0
  0
VERTEX
  5
50C
330
4F2
100
AcDbEntity
  8
Visible (ANSI)
100
AcDbVertex
100
AcDb2dVertex
 10
163.3158171648014
 20
45.45289886339358
 30
0.0
  0
SEQEND
  5
4F5
330
4F2
100
AcDbEntity
  8
Visible (ANSI)
  0
LINE
  5
50D
330
6C
100
AcDbEntity
  8
Visible (ANSI)
100
AcDbLine
 10
163.9021393058361
 20
45.70650206377037
 30
0.0
 11
164.0977026587071
 21
45.81911950880505
 31
0.0
  0
LINE
  5
50E
330
6C
100
AcDbEntity
  8
Visible (ANSI)
100
AcDbLine
 10
199.4379288583219
 20
24.68081118477169
 30
0.0
 11
199.4379288583219
 21
24.6510405387677
 31
0.0
  0
LINE
  5
50F
330
6C
100
AcDbEntity
  8
Visible (ANSI)
100
AcDbLine
 10
199.4379288583219
 20
24.6510405387677
 30
0.0
 11
199.5170811583177
 21
24.6966213168802
 31
0.0
  0
LINE
  5
510
330
6C
100
AcDbEntity
  8
Visible (ANSI)
100
AcDbLine
 10
199.6118257168552
 20
24.75118107951876
 30
0.0
 11
200.0437779484424
 21
24.99992582634502
 31
0.0
  0
LINE
  5
511
330
6C
100
AcDbEntity
  8
Visible (ANSI)
100
AcDbLine
 10
200.0437779484424
 20
25.00071144687242
 30
0.0
 11
200.0437779484424
 21
24.99992582634502
 31
0.0
  0
POLYLINE
  5
512
330
6C
100
AcDbEntity
  8
Visible (ANSI)
100
AcDb2dPolyline
 66
     1
 10
0.0
 20
0.0
 30
0.0
 70
   128
  0
VERTEX
  5
513
330
512
100
AcDbEntity
  8
Visible (ANSI)
100
AcDbVertex
100
AcDb2dVertex
 10
199.5022912425263
 20
98.82366979367382
 30
0.0
  0
VERTEX
  5
514
330
512
100
AcDbEntity
  8
Visible (ANSI)
100
AcDbVertex
100
AcDb2dVertex
 10
199.5083316467874
 20
98.81271565860682
 30
0.0
  0
VERTEX
  5
516
330
512
100
AcDbEntity
  8
Visible (ANSI)
100
AcDbVertex
100
AcDb2dVertex
 10
199.5164341159465
 20
98.80289193217349
 30
0.0
  0
VERTEX
  5
517
330
512
100
AcDbEntity
  8
Visible (ANSI)
100
AcDbVertex
100
AcDb2dVertex
 10
199.5260159704278
 20
98.79446236507778
 30
0.0
  0
VERTEX
  5
518
330
512
100
AcDbEntity
  8
Visible (ANSI)
100
AcDbVertex
100
AcDb2dVertex
 10
199.5363523929844
 20
98.78761746226912
 30
0.0
  0
SEQEND
  5
515
330
512
100
AcDbEntity
  8
Visible (ANSI)
  0
POLYLINE
  5
519
330
6C
100
AcDbEntity
  8
Visible (ANSI)
100
AcDb2dPolyline
 66
     1
 10
0.0
 20
0.0
 30
0.0
 70
   128
  0
VERTEX
  5
51A
330
519
100
AcDbEntity
  8
Visible (ANSI)
100
AcDbVertex
100
AcDb2dVertex
 10
199.437929213898
 20
98.95791922958411
 30
0.0
  0
VERTEX
  5
51B
330
519
100
AcDbEntity
  8
Visible (ANSI)
100
AcDbVertex
100
AcDb2dVertex
 10
199.4387045835968
 20
98.94557704504229
 30
0.0
  0
VERTEX
  5
51D
330
519
100
AcDbEntity
  8
Visible (ANSI)
100
AcDbVertex
100
AcDb2dVertex
 10
199.4412204088221
 20
98.93311689640414
 30
0.0
  0
VERTEX
  5
51E
330
519
100
AcDbEntity
  8
Visible (ANSI)
100
AcDbVertex
100
AcDb2dVertex
 10
199.445677906941
 20
98.92121623005079
 30
0.0
  0
VERTEX
  5
51F
330
519
100
AcDbEntity
  8
Visible (ANSI)
100
AcDbVertex
100
AcDb2dVertex
 10
199.4521323869202
 20
98.91055147523262
 30
0.0
  0
SEQEND
  5
51C
330
519
100
AcDbEntity
  8
Visible (ANSI)
  0
LINE
  5
520
330
6C
100
AcDbEntity
  8
Visible (ANSI)
100
AcDbLine
 10
200.2198143540323
 20
99.09181069461373
 30
0.0
 11
200.2198143540322
 21
25.10208407083071
 31
0.0
  0
LINE
  5
521
330
6C
100
AcDbEntity
  8
Visible (ANSI)
100
AcDbLine
 10
164.0977026587072
 20
120.0966822471031
 30
0.0
 11
200.0437779484426
 21
99.39671418701591
 31
0.0
  0
LINE
  5
522
330
6C
100
AcDbEntity
  8
Visible (ANSI)
100
AcDbLine
 10
164.0247859920404
 20
45.94541467057294
 30
0.0
 11
164.0247859920404
 21
45.98567832456553
 31
0.0
  0
LINE
  5
523
330
6C
100
AcDbEntity
  8
Visible (ANSI)
100
AcDbLine
 10
164.0247859920405
 20
81.95918938174427
 30
0.0
 11
164.0247859920405
 21
82.34949314829091
 31
0.0
  0
LINE
  5
524
330
6C
100
AcDbEntity
  8
Visible (ANSI)
100
AcDbLine
 10
164.0247859920406
 20
118.3230042054696
 30
0.0
 11
164.0247859920406
 21
118.7133079720162
 31
0.0
  0
LINE
  5
525
330
6C
100
AcDbEntity
  8
Visible (ANSI)
100
AcDbLine
 10
198.9855704503266
 20
25.72853261857812
 30
0.0
 11
198.6470443766598
 21
25.92347681918771
 31
0.0
  0
LINE
  5
526
330
6C
100
AcDbEntity
  8
Visible (ANSI)
100
AcDbLine
 10
181.5583345723306
 20
35.76421031475026
 30
0.0
 11
181.2198084986638
 21
35.95915451535985
 31
0.0
  0
LINE
  5
527
330
6C
100
AcDbEntity
  8
Visible (ANSI)
100
AcDbLine
 10
164.1310986943345
 20
45.79988801092246
 30
0.0
 11
164.0977026587071
 21
45.81911950880505
 31
0.0
  0
SPLINE
  5
528
330
6C
100
AcDbEntity
  8
Visible (ANSI)
100
AcDbSpline
210
0.0
220
0.0
230
1.0
 70
     8
 71
     3
 72
    11
 73
     7
 74
     0
 42
0.0000000001
 43
0.0000000001
 40
0.0
 40
0.0
 40
0.0
 40
0.0
 40
1.018582815488479
 40
1.018582815488479
 40
1.018582815488479
 40
1.57079632679492
 40
1.57079632679492
 40
1.57079632679492
 40
1.57079632679492
 10
81.4743873659941
 20
134.9187240244086
 30
0.0
 10
81.52212494728001
 20
134.9187240244086
 30
0.0
 10
81.5690475025622
 20
134.9449269299877
 30
0.0
 10
81.59408934972438
 20
134.9855690578569
 30
0.0
 10
81.60766551274297
 20
135.0076027421055
 30
0.0
 10
81.61498736599412
 20
135.0334436178454
 30
0.0
 10
81.61498736599412
 20
135.0593240244086
 30
0.0
  0
LINE
  5
529
330
6C
100
AcDbEntity
  8
Visible (ANSI)
100
AcDbLine
 10
81.48998736599411
 20
135.0593240244086
 30
0.0
 11
81.48998736599414
 21
135.7937240244086
 31
0.0
  0
LINE
  5
52A
330
6C
100
AcDbEntity
  8
Visible (ANSI)
100
AcDbLine
 10
81.48998736599411
 20
135.0593240244086
 30
0.0
 11
81.6149873659941
 21
135.0593240244086
 31
0.0
  0
SPLINE
  5
52B
330
6C
100
AcDbEntity
  8
Visible (ANSI)
100
AcDbSpline
210
0.0
220
0.0
230
1.0
 70
     8
 71
     3
 72
     8
 73
     4
 74
     0
 42
0.0000000001
 43
0.0000000001
 40
0.0
 40
0.0
 40
0.0
 40
0.0
 40
1.57079632679492
 40
1.57079632679492
 40
1.57079632679492
 40
1.57079632679492
 10
81.47438736599411
 20
135.0437240244086
 30
0.0
 10
81.48255550689345
 20
135.0437240244086
 30
0.0
 10
81.48998736599413
 20
135.0511558835093
 30
0.0
 10
81.48998736599413
 20
135.0593240244086
 30
0.0
  0
LINE
  5
52C
330
6C
100
AcDbEntity
  8
Visible (ANSI)
100
AcDbLine
 10
81.47438736599413
 20
135.0437240244086
 30
0.0
 11
81.47438736599411
 21
135.0129855230977
 31
0.0
  0
LINE
  5
52D
330
6C
100
AcDbEntity
  8
Visible (ANSI)
100
AcDbLine
 10
81.47438736599411
 20
135.0129855230977
 30
0.0
 11
81.47438736599413
 21
134.9187240244086
 31
0.0
  0
LINE
  5
52E
330
6C
100
AcDbEntity
  8
Visible (ANSI)
100
AcDbLine
 10
81.6149873659941
 20
135.0593240244086
 30
0.0
 11
81.61498736599416
 21
135.7937240244086
 31
0.0
  0
LINE
  5
52F
330
6C
100
AcDbEntity
  8
Visible (ANSI)
100
AcDbLine
 10
81.48998736599414
 20
135.7937240244086
 30
0.0
 11
81.61498736599416
 21
135.7937240244086
 31
0.0
  0
SPLINE
  5
530
330
6C
100
AcDbEntity
  8
Visible (ANSI)
100
AcDbSpline
210
0.0
220
0.0
230
1.0
 70
     8
 71
     3
 72
    11
 73
     7
 74
     0
 42
0.0000000001
 43
0.0000000001
 40
0.0
 40
0.0
 40
0.0
 40
0.0
 40
1.018582815488258
 40
1.018582815488258
 40
1.018582815488258
 40
1.57079632679492
 40
1.57079632679492
 40
1.57079632679492
 40
1.57079632679492
 10
37.75558736599413
 20
134.9187240244086
 30
0.0
 10
37.77132056637105
 20
134.9187240244086
 30
0.0
 10
37.78705376674796
 20
134.9449269299878
 30
0.0
 10
37.80278696712488
 20
134.9855690578569
 30
0.0
 10
37.8113165492974
 20
135.0076027421056
 30
0.0
 10
37.81984613146993
 20
135.0334436178454
 30
0.0
 10
37.82837571364245
 20
135.0593240244087
 30
0.0
  0
SPLINE
  5
531
330
6C
100
AcDbEntity
  8
Visible (ANSI)
100
AcDbSpline
210
0.0
220
0.0
230
1.0
 70
     8
 71
     3
 72
    11
 73
     7
 74
     0
 42
0.0000000001
 43
0.0000000001
 40
0.0
 40
0.0
 40
0.0
 40
0.0
 40
1.018582815488722
 40
1.018582815488722
 40
1.018582815488722
 40
1.57079632679492
 40
1.57079632679492
 40
1.57079632679492
 40
1.57079632679492
 10
81.4015990183458
 20
135.0593240244087
 30
0.0
 10
81.41733221872273
 20
135.0115864431228
 30
0.0
 10
81.43306541909966
 20
134.9646638878405
 30
0.0
 10
81.44879861947657
 20
134.9396220406784
 30
0.0
 10
81.45732820164909
 20
134.9260458776598
 30
0.0
 10
81.46585778382162
 20
134.9187240244086
 30
0.0
 10
81.47438736599413
 20
134.9187240244086
 30
0.0
  0
LINE
  5
532
330
6C
100
AcDbEntity
  8
Visible (ANSI)
100
AcDbLine
 10
81.4015990183458
 20
135.7937240244087
 30
0.0
 11
81.4015990183458
 21
135.0593240244086
 31
0.0
  0
SPLINE
  5
533
330
6C
100
AcDbEntity
  8
Visible (ANSI)
100
AcDbSpline
210
0.0
220
0.0
230
1.0
 70
     8
 71
     3
 72
     8
 73
     4
 74
     0
 42
0.0000000001
 43
0.0000000001
 40
0.0
 40
0.0
 40
0.0
 40
0.0
 40
1.57079632679492
 40
1.57079632679492
 40
1.57079632679492
 40
1.57079632679492
 10
81.47438736599413
 20
135.0437240244086
 30
0.0
 10
81.45012458344469
 20
135.0437240244086
 30
0.0
 10
81.42586180089525
 20
135.0511558835093
 30
0.0
 10
81.4015990183458
 20
135.0593240244086
 30
0.0
  0
SPLINE
  5
534
330
6C
100
AcDbEntity
  8
Visible (ANSI)
100
AcDbSpline
210
0.0
220
0.0
230
1.0
 70
     8
 71
     3
 72
     8
 73
     4
 74
     0
 42
0.0000000001
 43
0.0000000001
 40
0.0
 40
0.0
 40
0.0
 40
0.0
 40
1.57079632679492
 40
1.57079632679492
 40
1.57079632679492
 40
1.57079632679492
 10
37.75558736599413
 20
135.0437240244086
 30
0.0
 10
37.77985014854357
 20
135.0437240244086
 30
0.0
 10
37.80411293109301
 20
135.0511558835093
 30
0.0
 10
37.82837571364245
 20
135.0593240244086
 30
0.0
  0
LINE
  5
535
330
6C
100
AcDbEntity
  8
Visible (ANSI)
100
AcDbLine
 10
37.75558736599413
 20
135.0437240244086
 30
0.0
 11
37.75558736599413
 21
135.0129855230977
 31
0.0
  0
LINE
  5
536
330
6C
100
AcDbEntity
  8
Visible (ANSI)
100
AcDbLine
 10
37.75558736599413
 20
135.0129855230977
 30
0.0
 11
37.75558736599413
 21
134.9187240244086
 31
0.0
  0
LINE
  5
537
330
6C
100
AcDbEntity
  8
Visible (ANSI)
100
AcDbLine
 10
37.82837571364245
 20
135.0593240244086
 30
0.0
 11
37.82837571364245
 21
135.7937240244087
 31
0.0
  0
SPLINE
  5
538
330
6C
100
AcDbEntity
  8
Visible (ANSI)
100
AcDbSpline
210
0.0
220
0.0
230
1.0
 70
     8
 71
     3
 72
    11
 73
     7
 74
     0
 42
0.0000000001
 43
0.0000000001
 40
0.0
 40
0.0
 40
0.0
 40
0.0
 40
1.018582815488561
 40
1.018582815488561
 40
1.018582815488561
 40
1.57079632679477
 40
1.57079632679477
 40
1.57079632679477
 40
1.57079632679477
 10
37.61498736599413
 20
135.0593240244086
 30
0.0
 10
37.61498736599413
 20
135.0115864431227
 30
0.0
 10
37.64119027157327
 20
134.9646638878405
 30
0.0
 10
37.68183239944245
 20
134.9396220406784
 30
0.0
 10
37.70386608369113
 20
134.9260458776598
 30
0.0
 10
37.72970695943091
 20
134.9187240244086
 30
0.0
 10
37.75558736599413
 20
134.9187240244086
 30
0.0
  0
LINE
  5
539
330
6C
100
AcDbEntity
  8
Visible (ANSI)
100
AcDbLine
 10
37.73998736599413
 20
135.0593240244086
 30
0.0
 11
37.73998736599413
 21
135.7937240244086
 31
0.0
  0
LINE
  5
53A
330
6C
100
AcDbEntity
  8
Visible (ANSI)
100
AcDbLine
 10
37.61498736599413
 20
135.7937240244086
 30
0.0
 11
37.61498736599413
 21
135.0593240244086
 31
0.0
  0
LINE
  5
53B
330
6C
100
AcDbEntity
  8
Visible (ANSI)
100
AcDbLine
 10
37.73998736599413
 20
135.0593240244086
 30
0.0
 11
37.61498736599413
 21
135.0593240244086
 31
0.0
  0
LINE
  5
53C
330
6C
100
AcDbEntity
  8
Visible (ANSI)
100
AcDbLine
 10
37.73998736599413
 20
135.7937240244086
 30
0.0
 11
37.61498736599413
 21
135.7937240244086
 31
0.0
  0
SPLINE
  5
53D
330
6C
100
AcDbEntity
  8
Visible (ANSI)
100
AcDbSpline
210
0.0
220
0.0
230
1.0
 70
     8
 71
     3
 72
     8
 73
     4
 74
     0
 42
0.0000000001
 43
0.0000000001
 40
0.0
 40
0.0
 40
0.0
 40
0.0
 40
1.57079632679477
 40
1.57079632679477
 40
1.57079632679477
 40
1.57079632679477
 10
37.75558736599413
 20
135.0437240244086
 30
0.0
 10
37.7474192250948
 20
135.0437240244086
 30
0.0
 10
37.73998736599413
 20
135.0511558835093
 30
0.0
 10
37.73998736599413
 20
135.0593240244086
 30
0.0
  0
LINE
  5
53E
330
6C
100
AcDbEntity
  8
Visible (ANSI)
100
AcDbLine
 10
81.47438736599413
 20
134.9187240244086
 30
0.0
 11
37.75558736599413
 21
134.9187240244086
 31
0.0
  0
LINE
  5
53F
330
6C
100
AcDbEntity
  8
Hidden (ANSI)
 48
1.079124808311462
100
AcDbLine
 10
37.75558736599413
 20
135.0437240244086
 30
0.0
 11
81.47438736599413
 21
135.0437240244086
 31
0.0
  0
LINE
  5
540
330
6C
100
AcDbEntity
  8
Visible (ANSI)
100
AcDbLine
 10
37.82837571364245
 20
135.7937240244087
 30
0.0
 11
81.4015990183458
 21
135.7937240244087
 31
0.0
  0
LINE
  5
541
330
6C
100
AcDbEntity
  8
Hidden (ANSI)
 48
0.0169062204658985
100
AcDbLine
 10
59.89648736599415
 20
135.0437240244084
 30
0.0
 11
59.89648736599415
 21
134.9187240244084
 31
0.0
  0
LINE
  5
542
330
6C
100
AcDbEntity
  8
Hidden (ANSI)
 48
0.0169062204658985
100
AcDbLine
 10
59.33348736599415
 20
135.0437240244084
 30
0.0
 11
59.33348736599415
 21
134.9187240244084
 31
0.0
  0
LINE
  5
543
330
6C
100
AcDbEntity
  8
Hidden (ANSI)
 48
0.0169062204658985
100
AcDbLine
 10
81.0214873659941
 20
135.0437240244084
 30
0.0
 11
81.0214873659941
 21
134.9187240244084
 31
0.0
  0
LINE
  5
544
330
6C
100
AcDbEntity
  8
Hidden (ANSI)
 48
0.0169062204658985
100
AcDbLine
 10
80.4584873659941
 20
135.0437240244084
 30
0.0
 11
80.4584873659941
 21
134.9187240244084
 31
0.0
  0
LINE
  5
545
330
6C
100
AcDbEntity
  8
Hidden (ANSI)
 48
0.0169062204658985
100
AcDbLine
 10
38.77148736599414
 20
135.0437240244084
 30
0.0
 11
38.77148736599414
 21
134.9187240244084
 31
0.0
  0
LINE
  5
546
330
6C
100
AcDbEntity
  8
Hidden (ANSI)
 48
0.0169062204658985
100
AcDbLine
 10
38.20848736599413
 20
135.0437240244084
 30
0.0
 11
38.20848736599413
 21
134.9187240244084
 31
0.0
  0
MTEXT
  5
547
330
6C
100
AcDbEntity
  8
Symbol (ANSI)
100
AcDbMText
 10
54.19108119185959
 20
128.8651203030886
 30
0.0
 40
1.680000020763066
 41
0.0
 46
0.0
 71
     7
 72
     1
  1
TOP VIEW
  7
Text Style153
 73
     1
 44
1.0
  0
LINE
  5
548
330
6C
100
AcDbEntity
  8
Symbol (ANSI)
370
    30
100
AcDbLine
 10
54.19242519531685
 20
128.5225173798401
 30
0.0
 11
64.79248987846509
 21
128.5225173798401
 31
0.0
  0
LINE
  5
549
330
6C
100
AcDbEntity
  8
Center Mark (ANSI)
  6
CHAIN
 48
0.1611213833093643
100
AcDbLine
 10
38.48998736597574
 20
112.4969301826877
 30
0.0
 11
38.48998736597574
 21
108.4339301826877
 31
0.0
  0
LINE
  5
54A
330
6C
100
AcDbEntity
  8
Center Mark (ANSI)
  6
CHAIN
 48
0.1611213833093643
100
AcDbLine
 10
80.73998736597571
 20
112.4969301826877
 30
0.0
 11
80.73998736597571
 21
108.4339301826877
 31
0.0
  0
LINE
  5
54B
330
6C
100
AcDbEntity
  8
Centerline (ANSI)
  6
CHAIN
 48
0.9524481296539306
100
AcDbLine
 10
36.45848736597575
 20
110.4654301826877
 30
0.0
 11
82.77148736597572
 21
110.4654301826877
 31
0.0
  0
LINE
  5
54C
330
6C
100
AcDbEntity
  8
Center Mark (ANSI)
  6
CHAIN
 48
0.1611213833093643
100
AcDbLine
 10
82.77148736597572
 20
110.4654301826877
 30
0.0
 11
78.70848736597571
 21
110.4654301826877
 31
0.0
  0
LINE
  5
54D
330
6C
100
AcDbEntity
  8
Center Mark (ANSI)
  6
CHAIN
 48
0.1611213833093643
100
AcDbLine
 10
82.77148736597572
 20
34.21543018268772
 30
0.0
 11
78.70848736597571
 21
34.21543018268772
 31
0.0
  0
LINE
  5
54E
330
6C
100
AcDbEntity
  8
Centerline (ANSI)
  6
CHAIN
 48
0.9524481296539306
100
AcDbLine
 10
80.73998736597571
 20
112.4969301826877
 30
0.0
 11
80.73998736597571
 21
32.18393018268772
 31
0.0
  0
LINE
  5
54F
330
6C
100
AcDbEntity
  8
Center Mark (ANSI)
  6
CHAIN
 48
0.1611213833093643
100
AcDbLine
 10
80.73998736597571
 20
32.18393018268772
 30
0.0
 11
80.73998736597571
 21
36.24693018268771
 31
0.0
  0
LINE
  5
550
330
6C
100
AcDbEntity
  8
Center Mark (ANSI)
  6
CHAIN
 48
0.1611213833093643
100
AcDbLine
 10
38.48998736597574
 20
32.18393018268772
 30
0.0
 11
38.48998736597574
 21
36.24693018268771
 31
0.0
  0
LINE
  5
551
330
6C
100
AcDbEntity
  8
Centerline (ANSI)
  6
CHAIN
 48
0.9524481296539306
100
AcDbLine
 10
82.77148736597572
 20
34.21543018268772
 30
0.0
 11
36.45848736597574
 21
34.21543018268772
 31
0.0
  0
LINE
  5
552
330
6C
100
AcDbEntity
  8
Center Mark (ANSI)
  6
CHAIN
 48
0.1611213833093643
100
AcDbLine
 10
36.45848736597575
 20
34.21543018268772
 30
0.0
 11
40.52148736597574
 21
34.21543018268772
 31
0.0
  0
LINE
  5
553
330
6C
100
AcDbEntity
  8
Center Mark (ANSI)
  6
CHAIN
 48
0.1611213833093643
100
AcDbLine
 10
36.45848736597575
 20
110.4654301826877
 30
0.0
 11
40.52148736597574
 21
110.4654301826877
 31
0.0
  0
LINE
  5
554
330
6C
100
AcDbEntity
  8
Centerline (ANSI)
  6
CHAIN
 48
0.9524481296539306
100
AcDbLine
 10
38.48998736597574
 20
32.18393018268772
 30
0.0
 11
38.48998736597574
 21
112.4969301826877
 31
0.0
  0
LINE
  5
555
330
6C
100
AcDbEntity
  8
Center Mark (ANSI)
  6
CHAIN
 48
0.1611213833093643
100
AcDbLine
 10
38.48998736597576
 20
74.37193018268771
 30
0.0
 11
38.48998736597576
 21
70.30893018268772
 31
0.0
  0
LINE
  5
556
330
6C
100
AcDbEntity
  8
Center Mark (ANSI)
  6
CHAIN
 48
0.1611213833093643
100
AcDbLine
 10
80.73998736597577
 20
74.37193018268771
 30
0.0
 11
80.73998736597577
 21
70.30893018268772
 31
0.0
  0
LINE
  5
557
330
6C
100
AcDbEntity
  8
Centerline (ANSI)
  6
CHAIN
 48
0.9524481296539306
100
AcDbLine
 10
36.45848736597576
 20
72.34043018268771
 30
0.0
 11
82.77148736597574
 21
72.34043018268772
 31
0.0
  0
DIMENSION
  5
558
330
6C
100
AcDbEntity
  8
Dimension (ANSI)
100
AcDbDimension
280
     0
  2
*D4
 10
81.61498736597572
 20
123.3565474654911
 30
0.0
 11
59.61498736597572
 21
123.3565474654911
 31
0.0
 70
   160
  1
<>
 42
43.99999999999997
 73
     0
 74
     0
 75
     0
  3
Default (ANSI)
100
AcDbAlignedDimension
 13
37.61498736597574
 23
111.1270418350394
 33
0.0
 14
81.61498736597572
 24
111.1270418350394
 34
0.0
100
AcDbRotatedDimension
1001
ACAD
1000
DSTYLE
1002
{
1070
   289
1070
     1
1070
    73
1070
     0
1070
    74
1070
     0
1070
   271
1070
     2
1070
   272
1070
     2
1070
    48
1040
0.0
1070
    47
1040
0.0
1002
}
  0
DIMENSION
  5
644
330
6C
100
AcDbEntity
  8
Dimension (ANSI)
100
AcDbDimension
280
     0
  2
*D5
 10
38.48998736597574
 20
114.6932166021739
 30
0.0
 11
29.90735080567354
 21
114.6932166021739
 31
0.0
 70
   160
  1
<>
 42
0.875
 73
     0
 74
     0
 75
     0
  3
Default (ANSI)
100
AcDbAlignedDimension
 13
37.61498736597574
 23
111.1270418350394
 33
0.0
 14
38.48998736597574
 24
112.4969301826877
 34
0.0
100
AcDbRotatedDimension
1001
ACAD
1000
DSTYLE
1002
{
1070
   289
1070
     1
1070
    73
1070
     0
1070
    74
1070
     0
1070
   271
1070
     2
1070
   272
1070
     2
1070
    48
1040
0.0
1070
    47
1040
0.0
1002
}
  0
DIMENSION
  5
72E
330
6C
100
AcDbEntity
  8
Dimension (ANSI)
100
AcDbDimension
280
     0
  2
*D6
 10
80.73998736597571
 20
119.5693492074076
 30
0.0
 11
59.61498736597572
 21
119.5693492074076
 31
0.0
 70
   160
  1
<>
 42
42.24999999999997
 73
     0
 74
     0
 75
     0
  3
Default (ANSI)
100
AcDbAlignedDimension
 13
38.48998736597574
 23
112.4969301826877
 33
0.0
 14
80.73998736597571
 24
112.4969301826877
 34
0.0
 50
180.0
100
AcDbRotatedDimension
1001
ACAD
1000
DSTYLE
1002
{
1070
   289
1070
     1
1070
    73
1070
     0
1070
    74
1070
     0
1070
   271
1070
     2
1070
   272
1070
     2
1070
    48
1040
0.0
1070
    47
1040
0.0
1002
}
  0
DIMENSION
  5
818
330
6C
100
AcDbEntity
  8
Dimension (ANSI)
100
AcDbDimension
280
     0
  2
*D7
 10
34.91888496753516
 20
34.21543018268772
 30
0.0
 11
30.94667634235369
 21
29.32246286033776
 31
0.0
 70
   160
  1
<>
 42
0.875
 73
     0
 74
     0
 75
     0
  3
Default (ANSI)
100
AcDbAlignedDimension
 13
37.82837571362408
 23
33.34043018268772
 33
0.0
 14
36.45848736597574
 24
34.21543018268772
 34
0.0
 50
90.0
100
AcDbRotatedDimension
1001
ACAD
1000
DSTYLE
1002
{
1070
   289
1070
     1
1070
   271
1070
     2
1070
   272
1070
     2
1070
    48
1040
0.0
1070
    47
1040
0.0
1002
}
  0
DIMENSION
  5
918
330
6C
100
AcDbEntity
  8
Dimension (ANSI)
100
AcDbDimension
280
     0
  2
*D8
 10
30.94667634235371
 20
72.34043018268772
 30
0.0
 11
30.94667634235369
 21
53.27793018268771
 31
0.0
 70
   160
  1
<>
 42
38.125
 73
     0
 74
     0
 75
     0
  3
Default (ANSI)
100
AcDbAlignedDimension
 13
36.45848736597574
 23
34.21543018268772
 33
0.0
 14
36.45848736597576
 24
72.34043018268771
 34
0.0
 50
90.0
100
AcDbRotatedDimension
1001
ACAD
1000
DSTYLE
1002
{
1070
   289
1070
     1
1070
   271
1070
     2
1070
   272
1070
     2
1070
    48
1040
0.0
1070
    47
1040
0.0
1002
}
  0
DIMENSION
  5
A02
330
6C
100
AcDbEntity
  8
Dimension (ANSI)
100
AcDbDimension
280
     0
  2
*D9
 10
23.23014090928286
 20
110.4654301826877
 30
0.0
 11
23.23014090928284
 21
72.3404301826877
 31
0.0
 70
   160
  1
<>
 42
76.25000000000001
 73
     0
 74
     0
 75
     0
  3
Default (ANSI)
100
AcDbAlignedDimension
 13
36.45848736597574
 23
34.21543018268772
 33
0.0
 14
36.45848736597575
 24
110.4654301826877
 34
0.0
 50
90.0
100
AcDbRotatedDimension
1001
ACAD
1000
DSTYLE
1002
{
1070
   289
1070
     1
1070
   271
1070
     2
1070
   272
1070
     2
1070
    48
1040
0.0
1070
    47
1040
0.0
1002
}
  0
DIMENSION
  5
AEC
330
6C
100
AcDbEntity
  8
Dimension (ANSI)
100
AcDbDimension
280
     0
  2
*D10
 10
13.33157732888116
 20
111.3404301826877
 30
0.0
 11
13.33157732888114
 21
72.34043018268771
 31
0.0
 70
   160
  1
<>
 42
78.0
 73
     0
 74
     0
 75
     0
  3
Default (ANSI)
100
AcDbAlignedDimension
 13
37.82837571362408
 23
33.34043018268772
 33
0.0
 14
37.82837571362408
 24
111.3404301826877
 34
0.0
 50
90.0
100
AcDbRotatedDimension
1001
ACAD
1000
DSTYLE
1002
{
1070
   289
1070
     1
1070
   271
1070
     2
1070
   272
1070
     2
1070
    48
1040
0.0
1070
    47
1040
0.0
1002
}
  0
DIMENSION
  5
BD6
330
6C
100
AcDbEntity
  8
Dimension (ANSI)
100
AcDbDimension
280
     0
  2
*D11
 10
80.5679774891627
 20
34.43826387017409
 30
0.0
 11
88.95304852702164
 21
31.22810981253952
 31
0.0
 70
   163
  1
<>{\P(8 PL.)}
 71
     4
 42
0.5630000000000035
 73
     0
 74
     0
 75
     0
  3
Default (ANSI)
100
AcDbDiametricDimension
 15
80.91199724278874
 25
33.99259649520136
 35
0.0
 40
0.0
1001
ACAD
1000
DSTYLE
1002
{
1070
   144
1040
0.9999999999999829
1070
   271
1070
     3
1070
   272
1070
     3
1070
    48
1040
0.0
1070
    47
1040
0.0
1002
}
1001
ACAD_DSTYLE_DIMRADIAL_EXTENSION
1070
   387
1070
     1
1070
   388
1040
0.0
1070
   390
1040
0.0
  0
DIMENSION
  5
C90
330
6C
100
AcDbEntity
  8
Dimension (ANSI)
100
AcDbDimension
280
     0
  2
*D12
 10
72.13712932741319
 20
134.9187240244086
 30
0.0
 11
76.17534198434099
 21
141.7016913701171
 31
0.0
 70
   160
  1
<>{\PTYP.}
 71
     5
 42
0.8750000000000284
 73
     0
 74
     0
 75
     0
  3
Default (ANSI)
100
AcDbAlignedDimension
 13
76.17534198434099
 23
135.7937240244087
 33
0.0
 14
76.17170912949159
 24
134.9187240244086
 34
0.0
 50
270.0
100
AcDbRotatedDimension
1001
ACAD
1000
DSTYLE
1002
{
1070
   289
1070
     1
1070
   271
1070
     2
1070
    76
1070
     1
1070
    75
1070
     1
1070
   272
1070
     2
1070
    48
1040
0.0
1070
    47
1040
0.0
1002
}
  0
DIMENSION
  5
D99
330
6C
100
AcDbEntity
  8
Dimension (ANSI)
100
AcDbDimension
280
     0
  2
*D13
 10
117.8739052487919
 20
107.468527901483
 30
0.0
 11
124.9407298192074
 21
107.468527901483
 31
0.0
 70
   160
  1
<>{\PTYP.}
 71
     4
 42
0.8750000000000284
 73
     0
 74
     0
 75
     0
  3
Default (ANSI)
100
AcDbAlignedDimension
 13
118.7489052487919
 23
107.468527901483
 33
0.0
 14
117.8739052487919
 24
107.4827964000266
 34
0.0
 50
180.0
100
AcDbRotatedDimension
1001
ACAD
1000
DSTYLE
1002
{
1070
   289
1070
     1
1070
    73
1070
     0
1070
    74
1070
     0
1070
   271
1070
     2
1070
    76
1070
     1
1070
    75
1070
     1
1070
   272
1070
     2
1070
    48
1040
0.0
1070
    47
1040
0.0
1002
}
  0
LINE
  5
E88
330
6C
100
AcDbEntity
  8
Center Mark (ANSI)
  6
CHAIN
 48
0.1611213833093643
100
AcDbLine
 10
61.64648736597577
 20
110.4654301826877
 30
0.0
 11
57.58348736597575
 21
110.4654301826877
 31
0.0
  0
LINE
  5
E89
330
6C
100
AcDbEntity
  8
Center Mark (ANSI)
  6
CHAIN
 48
0.1611213833093643
100
AcDbLine
 10
61.64648736597582
 20
34.21543018268768
 30
0.0
 11
57.58348736597582
 21
34.21543018268768
 31
0.0
  0
LINE
  5
E8A
330
6C
100
AcDbEntity
  8
Centerline (ANSI)
  6
CHAIN
 48
0.9524481296539306
100
AcDbLine
 10
59.61498736597576
 20
112.4969301826877
 30
0.0
 11
59.61498736597582
 21
32.18393018268768
 31
0.0
  0
DIMENSION
  5
E8B
330
6C
100
AcDbEntity
  8
Dimension (ANSI)
100
AcDbDimension
280
     0
  2
*D14
 10
59.61498736597576
 20
114.6932166021739
 30
0.0
 11
49.05248736597576
 21
114.6932166021739
 31
0.0
 70
   160
  1
<>
 42
21.12500000000002
 73
     0
 74
     0
 75
     0
  3
Default (ANSI)
100
AcDbAlignedDimension
 13
38.48998736597574
 23
112.4969301826877
 33
0.0
 14
59.61498736597576
 24
112.4969301826877
 34
0.0
 50
180.0
100
AcDbRotatedDimension
1001
ACAD
1000
DSTYLE
1002
{
1070
   289
1070
     1
1070
    73
1070
     0
1070
    74
1070
     0
1070
   271
1070
     2
1070
   272
1070
     2
1070
    48
1040
0.0
1070
    47
1040
0.0
1002
}
  0
MTEXT
  5
F75
102
{ACAD_XDICTIONARY
360
F7C
102
}
330
6C
100
AcDbEntity
  8
Symbol (ANSI)
100
AcDbMText
 10
127.1512884446079
 20
13.82951489392499
 30
0.0
 40
1.400000044680016
 41
103.3674195056825
 46
0.0
 71
     4
 72
     1
  3
{\fRomanS|b0|i0|c0|p2;\H2x;PART#: WA90P48F1G\P(DATA SUBJECT TO CHANGE WITHOUT NOTICE)\H1.6157x; \H0.61894x;\P \H1.352x; \H0.73963x;\P\H0.6x;THIS DRAWING IS PROPERTY OF HUBBELL INC. WIEGMANN\H1.5633x; \H0.63966x;\PALL INFORMATION IS PROPRIETARY AND NO
  1
T TO BE DUPLICATED\H1.234x; \H0.81039x;\P\H1.2571x; }
  7
Note Text (ANSI)
 73
     1
 44
0.8026435375213623
  0
ENDSEC
  0
SECTION
  2
OBJECTS
  0
DICTIONARY
  5
C
330
0
100
AcDbDictionary
281
     1
  3
ACAD_CIP_PREVIOUS_PRODUCT_INFO
350
F77
  3
ACAD_COLOR
350
63
  3
ACAD_GROUP
350
D
  3
ACAD_LAYOUT
350
62
  3
ACAD_MATERIAL
350
10
  3
ACAD_MLEADERSTYLE
350
66
  3
ACAD_MLINESTYLE
350
5F
  3
ACAD_PLOTSETTINGS
350
61
  3
ACAD_PLOTSTYLENAME
350
E
  3
ACAD_SCALELIST
350
42
  3
ACAD_TABLESTYLE
350
64
  3
ACAD_VISUALSTYLE
350
29
  3
ACDB_RECOMPOSE_DATA
350
F7E
  3
AcDbVariableDictionary
350
76
  0
DICTIONARY
  5
F7C
330
F75
100
AcDbDictionary
280
     1
281
     1
  3
ACAD_MTEXT_2008_RT
360
F7D
  0
XRECORD
  5
F77
102
{ACAD_REACTORS
330
C
102
}
330
C
100
AcDbXrecord
280
     1
300
INVNTOR
300
2012
300
PDSP_F_S
  0
DICTIONARY
  5
63
102
{ACAD_REACTORS
330
C
102
}
330
C
100
AcDbDictionary
281
     1
  0
DICTIONARY
  5
D
102
{ACAD_REACTORS
330
C
102
}
330
C
100
AcDbDictionary
281
     1
  0
DICTIONARY
  5
62
102
{ACAD_REACTORS
330
C
102
}
330
C
100
AcDbDictionary
281
     1
  3
Layout1
350
6B
  3
Layout2
350
73
  3
Model
350
6F
  0
DICTIONARY
  5
10
102
{ACAD_REACTORS
330
C
102
}
330
C
100
AcDbDictionary
281
     1
  3
ByBlock
350
19
  3
ByLayer
350
11
  3
Global
350
21
  0
DICTIONARY
  5
66
102
{ACAD_REACTORS
330
C
102
}
330
C
100
AcDbDictionary
281
     1
  3
Standard
350
67
  0
DICTIONARY
  5
5F
102
{ACAD_REACTORS
330
C
102
}
330
C
100
AcDbDictionary
281
     1
  3
Standard
350
60
  0
DICTIONARY
  5
61
102
{ACAD_REACTORS
330
C
102
}
330
C
100
AcDbDictionary
281
     1
  0
ACDBDICTIONARYWDFLT
  5
E
102
{ACAD_REACTORS
330
C
102
}
330
C
100
AcDbDictionary
281
     1
  3
Normal
350
F
100
AcDbDictionaryWithDefault
340
F
  0
DICTIONARY
  5
42
102
{ACAD_REACTORS
330
C
102
}
330
C
100
AcDbDictionary
281
     1
  3
A0
350
43
  3
A1
350
44
  3
A2
350
45
  3
A3
350
46
  3
A4
350
47
  3
A5
350
48
  3
A6
350
49
  3
A7
350
4A
  3
A8
350
4B
  3
A9
350
4C
  3
B0
350
4D
  3
B1
350
4E
  3
B2
350
4F
  3
B3
350
50
  3
B4
350
51
  3
B5
350
52
  3
B6
350
53
  0
DICTIONARY
  5
64
102
{ACAD_REACTORS
330
C
102
}
330
C
100
AcDbDictionary
281
     1
  3
Standard
350
65
  0
DICTIONARY
  5
29
102
{ACAD_REACTORS
330
C
102
}
330
C
100
AcDbDictionary
281
     1
  3
2dWireframe
350
2F
  3
Basic
350
2E
  3
Brighten
350
35
  3
ColorChange
350
39
  3
Conceptual
350
32
  3
Dim
350
34
  3
EdgeColorOff
350
41
  3
Facepattern
350
38
  3
Flat
350
2A
  3
FlatWithEdges
350
2B
  3
Gouraud
350
2C
  3
GouraudWithEdges
350
2D
  3
Hidden
350
31
  3
JitterOff
350
3F
  3
Linepattern
350
37
  3
OverhangOff
350
40
  3
Realistic
350
33
  3
Shaded
350
3E
  3
Shaded with edges
350
3D
  3
Shades of Gray
350
3A
  3
Sketchy
350
3B
  3
Thicken
350
36
  3
Wireframe
350
30
  3
X-Ray
350
3C
  0
XRECORD
  5
F7E
102
{ACAD_REACTORS
330
C
102
}
330
C
100
AcDbXrecord
280
     1
 90
        1
330
65
330
F75
  0
DICTIONARY
  5
76
102
{ACAD_REACTORS
330
C
102
}
330
C
100
AcDbDictionary
281
     1
  3
CANNOSCALE
350
79
  3
CMLEADERSTYLE
350
78
  3
CTABLESTYLE
350
77
  0
XRECORD
  5
F7D
102
{ACAD_REACTORS
330
F7C
102
}
330
F7C
100
AcDbXrecord
280
     1
 40
3109314.0
  1
\pxsm0.94;{\fRomanS|b0|i0;\H2.8000;PART#: WA90P48F1G\P(DATA SUBJECT TO CHANGE WITHOUT NOTICE)\P \P\fRomanS|b0|i0;\H1.6800;THIS DRAWING IS PROPERTY OF HUBBELL INC. WIEGMANN\PALL INFORMATION IS PROPRIETARY AND NOT TO BE DUPLICATED\P}
  0
LAYOUT
  5
6B
102
{ACAD_REACTORS
330
62
102
}
330
62
100
AcDbPlotSettings
  1

  2

  4

  6

 40
0.0
 41
0.0
 42
0.0
 43
0.0
 44
0.0
 45
0.0
 46
0.0
 47
0.0
 48
0.0
 49
0.0
140
0.0
141
0.0
142
1.0
143
1.0
 70
   688
 72
     0
 73
     0
 74
     5
  7

 75
    16
147
1.0
 76
     0
 77
     2
 78
   300
148
0.0
149
0.0
100
AcDbLayout
  1
Layout1
 70
     1
 71
     1
 10
0.0
 20
0.0
 11
12.0
 21
9.0
 12
0.0
 22
0.0
 32
0.0
 14
0.0
 24
0.0
 34
0.0
 15
0.0
 25
0.0
 35
0.0
146
0.0
 13
0.0
 23
0.0
 33
0.0
 16
1.0
 26
0.0
 36
0.0
 17
0.0
 27
1.0
 37
0.0
 76
     0
330
68
  0
LAYOUT
  5
73
102
{ACAD_REACTORS
330
62
102
}
330
62
100
AcDbPlotSettings
  1

  2

  4

  6

 40
0.0
 41
0.0
 42
0.0
 43
0.0
 44
0.0
 45
0.0
 46
0.0
 47
0.0
 48
0.0
 49
0.0
140
0.0
141
0.0
142
1.0
143
1.0
 70
   688
 72
     0
 73
     0
 74
     5
  7

 75
    16
147
1.0
 76
     0
 77
     2
 78
   300
148
0.0
149
0.0
100
AcDbLayout
  1
Layout2
 70
     1
 71
     2
 10
0.0
 20
0.0
 11
12.0
 21
9.0
 12
0.0
 22
0.0
 32
0.0
 14
0.0
 24
0.0
 34
0.0
 15
0.0
 25
0.0
 35
0.0
146
0.0
 13
0.0
 23
0.0
 33
0.0
 16
1.0
 26
0.0
 36
0.0
 17
0.0
 27
1.0
 37
0.0
 76
     0
330
70
  0
LAYOUT
  5
6F
102
{ACAD_REACTORS
330
62
102
}
330
62
100
AcDbPlotSettings
  1

  2

  4

  6

 40
0.0
 41
0.0
 42
0.0
 43
0.0
 44
0.0
 45
0.0
 46
0.0
 47
0.0
 48
0.0
 49
0.0
140
0.0
141
0.0
142
1.0
143
1.0
 70
  1712
 72
     0
 73
     0
 74
     0
  7

 75
     0
147
1.0
 76
     0
 77
     2
 78
   300
148
0.0
149
0.0
100
AcDbLayout
  1
Model
 70
     1
 71
     0
 10
0.0
 20
0.0
 11
12.0
 21
9.0
 12
0.0
 22
0.0
 32
0.0
 14
0.0
 24
0.0
 34
0.0
 15
0.0
 25
0.0
 35
0.0
146
0.0
 13
0.0
 23
0.0
 33
0.0
 16
1.0
 26
0.0
 36
0.0
 17
0.0
 27
1.0
 37
0.0
 76
     0
330
6C
  0
MATERIAL
  5
19
102
{ACAD_XDICTIONARY
360
1A
102
}
102
{ACAD_REACTORS
330
10
102
}
330
10
100
AcDbMaterial
  1
ByBlock
 72
     0
 43
0.0208333333333333
 43
0.0
 43
0.0
 43
0.0
 43
0.0
 43
0.0208333333333333
 43
0.0
 43
0.0
 43
0.0
 43
0.0
 43
1.0
 43
0.0
 43
0.0
 43
0.0
 43
0.0
 43
1.0
 77
     0
 47
0.0208333333333333
 47
0.0
 47
0.0
 47
0.0
 47
0.0
 47
0.0208333333333333
 47
0.0
 47
0.0
 47
0.0
 47
0.0
 47
1.0
 47
0.0
 47
0.0
 47
0.0
 47
0.0
 47
1.0
171
     0
 49
0.0208333333333333
 49
0.0
 49
0.0
 49
0.0
 49
0.0
 49
0.0208333333333333
 49
0.0
 49
0.0
 49
0.0
 49
0.0
 49
1.0
 49
0.0
 49
0.0
 49
0.0
 49
0.0
 49
1.0
175
     0
142
0.0208333333333333
142
0.0
142
0.0
142
0.0
142
0.0
142
0.0208333333333333
142
0.0
142
0.0
142
0.0
142
0.0
142
1.0
142
0.0
142
0.0
142
0.0
142
0.0
142
1.0
179
     0
144
0.0208333333333333
144
0.0
144
0.0
144
0.0
144
0.0
144
0.0208333333333333
144
0.0
144
0.0
144
0.0
144
0.0
144
1.0
144
0.0
144
0.0
144
0.0
144
0.0
144
1.0
147
0.0208333333333333
147
0.0
147
0.0
147
0.0
147
0.0
147
0.0208333333333333
147
0.0
147
0.0
147
0.0
147
0.0
147
1.0
147
0.0
147
0.0
147
0.0
147
0.0
147
1.0
  0
MATERIAL
  5
11
102
{ACAD_XDICTIONARY
360
12
102
}
102
{ACAD_REACTORS
330
10
102
}
330
10
100
AcDbMaterial
  1
ByLayer
 72
     0
 43
0.0208333333333333
 43
0.0
 43
0.0
 43
0.0
 43
0.0
 43
0.0208333333333333
 43
0.0
 43
0.0
 43
0.0
 43
0.0
 43
1.0
 43
0.0
 43
0.0
 43
0.0
 43
0.0
 43
1.0
 77
     0
 47
0.0208333333333333
 47
0.0
 47
0.0
 47
0.0
 47
0.0
 47
0.0208333333333333
 47
0.0
 47
0.0
 47
0.0
 47
0.0
 47
1.0
 47
0.0
 47
0.0
 47
0.0
 47
0.0
 47
1.0
171
     0
 49
0.0208333333333333
 49
0.0
 49
0.0
 49
0.0
 49
0.0
 49
0.0208333333333333
 49
0.0
 49
0.0
 49
0.0
 49
0.0
 49
1.0
 49
0.0
 49
0.0
 49
0.0
 49
0.0
 49
1.0
175
     0
142
0.0208333333333333
142
0.0
142
0.0
142
0.0
142
0.0
142
0.0208333333333333
142
0.0
142
0.0
142
0.0
142
0.0
142
1.0
142
0.0
142
0.0
142
0.0
142
0.0
142
1.0
179
     0
144
0.0208333333333333
144
0.0
144
0.0
144
0.0
144
0.0
144
0.0208333333333333
144
0.0
144
0.0
144
0.0
144
0.0
144
1.0
144
0.0
144
0.0
144
0.0
144
0.0
144
1.0
147
0.0208333333333333
147
0.0
147
0.0
147
0.0
147
0.0
147
0.0208333333333333
147
0.0
147
0.0
147
0.0
147
0.0
147
1.0
147
0.0
147
0.0
147
0.0
147
0.0
147
1.0
  0
MATERIAL
  5
21
102
{ACAD_XDICTIONARY
360
22
102
}
102
{ACAD_REACTORS
330
10
102
}
330
10
100
AcDbMaterial
  1
Global
 72
     0
 43
0.0208333333333333
 43
0.0
 43
0.0
 43
0.0
 43
0.0
 43
0.0208333333333333
 43
0.0
 43
0.0
 43
0.0
 43
0.0
 43
1.0
 43
0.0
 43
0.0
 43
0.0
 43
0.0
 43
1.0
 77
     0
 47
0.0208333333333333
 47
0.0
 47
0.0
 47
0.0
 47
0.0
 47
0.0208333333333333
 47
0.0
 47
0.0
 47
0.0
 47
0.0
 47
1.0
 47
0.0
 47
0.0
 47
0.0
 47
0.0
 47
1.0
171
     0
 49
0.0208333333333333
 49
0.0
 49
0.0
 49
0.0
 49
0.0
 49
0.0208333333333333
 49
0.0
 49
0.0
 49
0.0
 49
0.0
 49
1.0
 49
0.0
 49
0.0
 49
0.0
 49
0.0
 49
1.0
175
     0
142
0.0208333333333333
142
0.0
142
0.0
142
0.0
142
0.0
142
0.0208333333333333
142
0.0
142
0.0
142
0.0
142
0.0
142
1.0
142
0.0
142
0.0
142
0.0
142
0.0
142
1.0
179
     0
144
0.0208333333333333
144
0.0
144
0.0
144
0.0
144
0.0
144
0.0208333333333333
144
0.0
144
0.0
144
0.0
144
0.0
144
1.0
144
0.0
144
0.0
144
0.0
144
0.0
144
1.0
147
0.0208333333333333
147
0.0
147
0.0
147
0.0
147
0.0
147
0.0208333333333333
147
0.0
147
0.0
147
0.0
147
0.0
147
1.0
147
0.0
147
0.0
147
0.0
147
0.0
147
1.0
  0
MLEADERSTYLE
  5
67
102
{ACAD_XDICTIONARY
360
F7A
102
}
102
{ACAD_REACTORS
330
66
102
}
330
66
100
AcDbMLeaderStyle
179
     2
170
     2
171
     1
172
     0
 90
        2
 40
0.0
 41
0.0
173
     1
 91
-1056964608
340
5B
 92
       -2
290
     1
 42
0.09
291
     1
 43
0.36
  3
Standard
 44
0.18
300

342
55
174
     1
178
     6
175
     1
176
     0
 93
-1056964608
 45
0.18
292
     0
297
     0
 46
0.18
 94
-1056964608
 47
1.0
 49
1.0
140
1.0
293
     1
141
0.0
294
     1
177
     0
142
1.0
295
     0
296
     0
143
0.125
271
     0
272
     9
273
     9
  0
MLINESTYLE
  5
60
102
{ACAD_REACTORS
330
5F
102
}
330
5F
100
AcDbMlineStyle
  2
STANDARD
 70
     0
  3

 62
   256
 51
90.0
 52
90.0
 71
     2
 49
0.5
 62
   256
  6
BYLAYER
 49
-0.5
 62
   256
  6
BYLAYER
  0
ACDBPLACEHOLDER
  5
F
102
{ACAD_REACTORS
330
E
102
}
330
E
  0
SCALE
  5
43
102
{ACAD_REACTORS
330
42
102
}
330
42
100
AcDbScale
 70
     0
300
1:1
140
1.0
141
1.0
290
     1
  0
SCALE
  5
44
102
{ACAD_REACTORS
330
42
102
}
330
42
100
AcDbScale
 70
     0
300
1/128" = 1'-0"
140
0.0078125
141
12.0
290
     0
  0
SCALE
  5
45
102
{ACAD_REACTORS
330
42
102
}
330
42
100
AcDbScale
 70
     0
300
1/64" = 1'-0"
140
0.015625
141
12.0
290
     0
  0
SCALE
  5
46
102
{ACAD_REACTORS
330
42
102
}
330
42
100
AcDbScale
 70
     0
300
1/32" = 1'-0"
140
0.03125
141
12.0
290
     0
  0
SCALE
  5
47
102
{ACAD_REACTORS
330
42
102
}
330
42
100
AcDbScale
 70
     0
300
1/16" = 1'-0"
140
0.0625
141
12.0
290
     0
  0
SCALE
  5
48
102
{ACAD_REACTORS
330
42
102
}
330
42
100
AcDbScale
 70
     0
300
3/32" = 1'-0"
140
0.09375
141
12.0
290
     0
  0
SCALE
  5
49
102
{ACAD_REACTORS
330
42
102
}
330
42
100
AcDbScale
 70
     0
300
1/8" = 1'-0"
140
0.125
141
12.0
290
     0
  0
SCALE
  5
4A
102
{ACAD_REACTORS
330
42
102
}
330
42
100
AcDbScale
 70
     0
300
3/16" = 1'-0"
140
0.1875
141
12.0
290
     0
  0
SCALE
  5
4B
102
{ACAD_REACTORS
330
42
102
}
330
42
100
AcDbScale
 70
     0
300
1/4" = 1'-0"
140
0.25
141
12.0
290
     0
  0
SCALE
  5
4C
102
{ACAD_REACTORS
330
42
102
}
330
42
100
AcDbScale
 70
     0
300
3/8" = 1'-0"
140
0.375
141
12.0
290
     0
  0
SCALE
  5
4D
102
{ACAD_REACTORS
330
42
102
}
330
42
100
AcDbScale
 70
     0
300
1/2" = 1'-0"
140
0.5
141
12.0
290
     0
  0
SCALE
  5
4E
102
{ACAD_REACTORS
330
42
102
}
330
42
100
AcDbScale
 70
     0
300
3/4" = 1'-0"
140
0.75
141
12.0
290
     0
  0
SCALE
  5
4F
102
{ACAD_REACTORS
330
42
102
}
330
42
100
AcDbScale
 70
     0
300
1" = 1'-0"
140
1.0
141
12.0
290
     0
  0
SCALE
  5
50
102
{ACAD_REACTORS
330
42
102
}
330
42
100
AcDbScale
 70
     0
300
1-1/2" = 1'-0"
140
1.5
141
12.0
290
     0
  0
SCALE
  5
51
102
{ACAD_REACTORS
330
42
102
}
330
42
100
AcDbScale
 70
     0
300
3" = 1'-0"
140
3.0
141
12.0
290
     0
  0
SCALE
  5
52
102
{ACAD_REACTORS
330
42
102
}
330
42
100
AcDbScale
 70
     0
300
6" = 1'-0"
140
6.0
141
12.0
290
     0
  0
SCALE
  5
53
102
{ACAD_REACTORS
330
42
102
}
330
42
100
AcDbScale
 70
     0
300
1'-0" = 1'-0"
140
12.0
141
12.0
290
     0
  0
TABLESTYLE
  5
65
102
{ACAD_XDICTIONARY
360
F78
102
}
102
{ACAD_REACTORS
330
64
102
}
330
64
100
AcDbTableStyle
280
     0
  3
Standard
 70
     0
 71
     0
 40
0.06
 41
0.06
280
     0
281
     0
  7
Standard
140
0.18
170
     2
 62
     0
 63
     7
283
     0
 90
      512
 91
        0
  1

274
    -2
284
     1
 64
     0
275
    -2
285
     1
 65
     0
276
    -2
286
     1
 66
     0
277
    -2
287
     1
 67
     0
278
    -2
288
     1
 68
     0
279
    -2
289
     1
 69
     0
  7
Standard
140
0.25
170
     5
 62
     0
 63
     7
283
     0
 90
      512
 91
        0
  1

274
    -2
284
     1
 64
     0
275
    -2
285
     1
 65
     0
276
    -2
286
     1
 66
     0
277
    -2
287
     1
 67
     0
278
    -2
288
     1
 68
     0
279
    -2
289
     1
 69
     0
  7
Standard
140
0.18
170
     5
 62
     0
 63
     7
283
     0
 90
      512
 91
        0
  1

274
    -2
284
     1
 64
     0
275
    -2
285
     1
 65
     0
276
    -2
286
     1
 66
     0
277
    -2
287
     1
 67
     0
278
    -2
288
     1
 68
     0
279
    -2
289
     1
 69
     0
  0
VISUALSTYLE
  5
2F
102
{ACAD_REACTORS
330
29
102
}
330
29
100
AcDbVisualStyle
  2
2dWireframe
 70
     4
177
     2
291
     0
 71
     0
176
     1
 72
     2
176
     1
 73
     0
176
     1
 90
        0
176
     1
 40
0.6
176
     1
 41
30.0
176
     1
 63
     7
421
 16777215
176
     1
 74
     1
176
     1
 91
        4
176
     1
 64
     7
176
     1
 65
   257
176
     1
 75
     1
176
     1
175
     1
176
     1
 42
1.0
176
     1
 92
        0
176
     1
 66
   257
176
     1
 43
1.0
176
     1
 76
     1
176
     1
 77
     6
176
     1
 78
     2
176
     1
 67
     7
176
     1
 79
     5
176
     1
170
     0
176
     1
171
     0
176
     1
290
     0
176
     1
 93
        1
176
     1
 44
0.0
176
     1
173
     0
176
     1
  0
VISUALSTYLE
  5
2E
102
{ACAD_REACTORS
330
29
102
}
330
29
100
AcDbVisualStyle
  2
Basic
 70
     7
177
     2
291
     1
 71
     1
176
     1
 72
     0
176
     1
 73
     1
176
     1
 90
        0
176
     1
 40
0.6
176
     1
 41
30.0
176
     1
 63
     7
421
 16777215
176
     1
 74
     0
176
     1
 91
        4
176
     1
 64
     7
176
     1
 65
   257
176
     1
 75
     1
176
     1
175
     1
176
     1
 42
1.0
176
     1
 92
        8
176
     1
 66
     7
176
     1
 43
1.0
176
     1
 76
     1
176
     1
 77
     6
176
     1
 78
     2
176
     1
 67
     7
176
     1
 79
     5
176
     1
170
     0
176
     1
171
     0
176
     1
290
     0
176
     1
 93
        1
176
     1
 44
0.0
176
     1
173
     0
176
     1
  0
VISUALSTYLE
  5
35
102
{ACAD_REACTORS
330
29
102
}
330
29
100
AcDbVisualStyle
  2
Brighten
 70
    12
177
     2
291
     1
 71
     2
176
     1
 72
     2
176
     1
 73
     0
176
     1
 90
        0
176
     1
 40
0.6
176
     1
 41
30.0
176
     1
 63
     7
421
 16777215
176
     1
 74
     1
176
     1
 91
        4
176
     1
 64
     7
176
     1
 65
   257
176
     1
 75
     1
176
     1
175
     1
176
     1
 42
1.0
176
     1
 92
        8
176
     1
 66
     7
176
     1
 43
1.0
176
     1
 76
     1
176
     1
 77
     6
176
     1
 78
     2
176
     1
 67
     7
176
     1
 79
     5
176
     1
170
     0
176
     1
171
     0
176
     1
290
     0
176
     1
 93
        1
176
     1
 44
50.0
176
     1
173
     0
176
     1
  0
VISUALSTYLE
  5
39
102
{ACAD_REACTORS
330
29
102
}
330
29
100
AcDbVisualStyle
  2
ColorChange
 70
    16
177
     2
291
     1
 71
     2
176
     1
 72
     2
176
     1
 73
     3
176
     1
 90
        0
176
     1
 40
0.6
176
     1
 41
30.0
176
     1
 63
     8
421
  8421504
176
     1
 74
     1
176
     1
 91
        4
176
     1
 64
     7
176
     1
 65
   257
176
     1
 75
     1
176
     1
175
     1
176
     1
 42
1.0
176
     1
 92
        8
176
     1
 66
     8
424
  8421504
176
     1
 43
1.0
176
     1
 76
     1
176
     1
 77
     6
176
     1
 78
     2
176
     1
 67
     7
176
     1
 79
     5
176
     1
170
     0
176
     1
171
     0
176
     1
290
     0
176
     1
 93
        1
176
     1
 44
0.0
176
     1
173
     0
176
     1
  0
VISUALSTYLE
  5
32
102
{ACAD_REACTORS
330
29
102
}
330
29
100
AcDbVisualStyle
  2
Conceptual
 70
     9
177
     2
291
     0
 71
     3
176
     1
 72
     2
176
     1
 73
     0
176
     1
 90
        0
176
     1
 40
0.6
176
     1
 41
30.0
176
     1
 63
     7
421
 16777215
176
     1
 74
     2
176
     1
 91
        2
176
     1
 64
     7
176
     1
 65
   257
176
     1
 75
     1
176
     1
175
     1
176
     1
 42
179.0
176
     1
 92
        8
176
     1
 66
     7
176
     1
 43
1.0
176
     1
 76
     1
176
     1
 77
     6
176
     1
 78
     2
176
     1
 67
     7
176
     1
 79
     3
176
     1
170
     0
176
     1
171
     0
176
     1
290
     0
176
     1
 93
        1
176
     1
 44
0.0
176
     1
173
     0
176
     1
  0
VISUALSTYLE
  5
34
102
{ACAD_REACTORS
330
29
102
}
330
29
100
AcDbVisualStyle
  2
Dim
 70
    11
177
     2
291
     1
 71
     2
176
     1
 72
     2
176
     1
 73
     0
176
     1
 90
        0
176
     1
 40
0.6
176
     1
 41
30.0
176
     1
 63
     7
421
 16777215
176
     1
 74
     1
176
     1
 91
        4
176
     1
 64
     7
176
     1
 65
   257
176
     1
 75
     1
176
     1
175
     1
176
     1
 42
1.0
176
     1
 92
        8
176
     1
 66
     7
176
     1
 43
1.0
176
     1
 76
     1
176
     1
 77
     6
176
     1
 78
     2
176
     1
 67
     7
176
     1
 79
     5
176
     1
170
     0
176
     1
171
     0
176
     1
290
     0
176
     1
 93
        1
176
     1
 44
-50.0
176
     1
173
     0
176
     1
  0
VISUALSTYLE
  5
41
102
{ACAD_REACTORS
330
29
102
}
330
29
100
AcDbVisualStyle
  2
EdgeColorOff
 70
    22
177
     2
291
     1
 71
     2
176
     0
 72
     2
176
     0
 73
     0
176
     0
 90
        0
176
     0
 40
0.6
176
     0
 41
30.0
176
     0
 63
     7
421
 16777215
176
     0
 74
     1
176
     0
 91
        4
176
     0
 64
     7
176
     0
 65
   257
176
     0
 75
     1
176
     0
175
     1
176
     0
 42
1.0
176
     0
 92
        8
176
     2
 66
     7
176
     0
 43
1.0
176
     0
 76
     1
176
     0
 77
     6
176
     0
 78
     2
176
     0
 67
     7
176
     0
 79
     5
176
     0
170
     0
176
     0
171
     0
176
     0
290
     0
176
     0
 93
        1
176
     0
 44
0.0
176
     0
173
     0
176
     0
  0
VISUALSTYLE
  5
38
102
{ACAD_REACTORS
330
29
102
}
330
29
100
AcDbVisualStyle
  2
Facepattern
 70
    15
177
     2
291
     1
 71
     2
176
     1
 72
     2
176
     1
 73
     0
176
     1
 90
        0
176
     1
 40
0.6
176
     1
 41
30.0
176
     1
 63
     7
421
 16777215
176
     1
 74
     1
176
     1
 91
        4
176
     1
 64
     7
176
     1
 65
   257
176
     1
 75
     1
176
     1
175
     1
176
     1
 42
1.0
176
     1
 92
        8
176
     1
 66
     7
176
     1
 43
1.0
176
     1
 76
     1
176
     1
 77
     6
176
     1
 78
     2
176
     1
 67
     7
176
     1
 79
     5
176
     1
170
     0
176
     1
171
     0
176
     1
290
     0
176
     1
 93
        1
176
     1
 44
0.0
176
     1
173
     0
176
     1
  0
VISUALSTYLE
  5
2A
102
{ACAD_REACTORS
330
29
102
}
330
29
100
AcDbVisualStyle
  2
Flat
 70
     0
177
     2
291
     1
 71
     2
176
     1
 72
     1
176
     1
 73
     1
176
     1
 90
        2
176
     1
 40
0.6
176
     1
 41
30.0
176
     1
 63
     7
421
 16777215
176
     1
 74
     0
176
     1
 91
        0
176
     1
 64
     7
176
     1
 65
   257
176
     1
 75
     1
176
     1
175
     1
176
     1
 42
1.0
176
     1
 92
        8
176
     1
 66
     7
176
     1
 43
1.0
176
     1
 76
     1
176
     1
 77
     6
176
     1
 78
     2
176
     1
 67
     7
176
     1
 79
     5
176
     1
170
     0
176
     1
171
     0
176
     1
290
     0
176
     1
 93
       13
176
     1
 44
0.0
176
     1
173
     0
176
     1
  0
VISUALSTYLE
  5
2B
102
{ACAD_REACTORS
330
29
102
}
330
29
100
AcDbVisualStyle
  2
FlatWithEdges
 70
     1
177
     2
291
     1
 71
     2
176
     1
 72
     1
176
     1
 73
     1
176
     1
 90
        2
176
     1
 40
0.6
176
     1
 41
30.0
176
     1
 63
     7
421
 16777215
176
     1
 74
     1
176
     1
 91
        0
176
     1
 64
     7
176
     1
 65
   257
176
     1
 75
     1
176
     1
175
     1
176
     1
 42
1.0
176
     1
 92
        0
176
     1
 66
   257
176
     1
 43
1.0
176
     1
 76
     1
176
     1
 77
     6
176
     1
 78
     2
176
     1
 67
     7
176
     1
 79
     5
176
     1
170
     0
176
     1
171
     0
176
     1
290
     0
176
     1
 93
       13
176
     1
 44
0.0
176
     1
173
     0
176
     1
  0
VISUALSTYLE
  5
2C
102
{ACAD_REACTORS
330
29
102
}
330
29
100
AcDbVisualStyle
  2
Gouraud
 70
     2
177
     2
291
     1
 71
     2
176
     1
 72
     2
176
     1
 73
     1
176
     1
 90
        2
176
     1
 40
0.6
176
     1
 41
30.0
176
     1
 63
     7
421
 16777215
176
     1
 74
     0
176
     1
 91
        0
176
     1
 64
     7
176
     1
 65
   257
176
     1
 75
     1
176
     1
175
     1
176
     1
 42
1.0
176
     1
 92
        0
176
     1
 66
     7
176
     1
 43
1.0
176
     1
 76
     1
176
     1
 77
     6
176
     1
 78
     2
176
     1
 67
     7
176
     1
 79
     5
176
     1
170
     0
176
     1
171
     0
176
     1
290
     0
176
     1
 93
       13
176
     1
 44
0.0
176
     1
173
     0
176
     1
  0
VISUALSTYLE
  5
2D
102
{ACAD_REACTORS
330
29
102
}
330
29
100
AcDbVisualStyle
  2
GouraudWithEdges
 70
     3
177
     2
291
     1
 71
     2
176
     1
 72
     2
176
     1
 73
     1
176
     1
 90
        2
176
     1
 40
0.6
176
     1
 41
30.0
176
     1
 63
     7
421
 16777215
176
     1
 74
     1
176
     1
 91
        0
176
     1
 64
     7
176
     1
 65
   257
176
     1
 75
     1
176
     1
175
     1
176
     1
 42
1.0
176
     1
 92
        0
176
     1
 66
   257
176
     1
 43
1.0
176
     1
 76
     1
176
     1
 77
     6
176
     1
 78
     2
176
     1
 67
     7
176
     1
 79
     5
176
     1
170
     0
176
     1
171
     0
176
     1
290
     0
176
     1
 93
       13
176
     1
 44
0.0
176
     1
173
     0
176
     1
  0
VISUALSTYLE
  5
31
102
{ACAD_REACTORS
330
29
102
}
330
29
100
AcDbVisualStyle
  2
Hidden
 70
     6
177
     2
291
     0
 71
     1
176
     1
 72
     2
176
     1
 73
     2
176
     1
 90
        0
176
     1
 40
0.6
176
     1
 41
30.0
176
     1
 63
     7
421
 16777215
176
     1
 74
     2
176
     1
 91
        2
176
     1
 64
     7
176
     1
 65
   257
176
     1
 75
     2
176
     1
175
     1
176
     1
 42
40.0
176
     1
 92
        0
176
     1
 66
   257
176
     1
 43
1.0
176
     1
 76
     1
176
     1
 77
     6
176
     1
 78
     2
176
     1
 67
     7
176
     1
 79
     3
176
     1
170
     0
176
     1
171
     0
176
     1
290
     0
176
     1
 93
        1
176
     1
 44
0.0
176
     1
173
     0
176
     1
  0
VISUALSTYLE
  5
3F
102
{ACAD_REACTORS
330
29
102
}
330
29
100
AcDbVisualStyle
  2
JitterOff
 70
    20
177
     2
291
     1
 71
     2
176
     0
 72
     2
176
     0
 73
     0
176
     0
 90
        0
176
     0
 40
0.6
176
     0
 41
30.0
176
     0
 63
     7
421
 16777215
176
     0
 74
     1
176
     0
 91
        4
176
     0
 64
     7
176
     0
 65
   257
176
     0
 75
     1
176
     0
175
     1
176
     0
 42
1.0
176
     0
 92
       10
176
     2
 66
     7
176
     0
 43
1.0
176
     0
 76
     1
176
     0
 77
     6
176
     0
 78
     2
176
     0
 67
     7
176
     0
 79
     5
176
     0
170
     0
176
     0
171
     0
176
     0
290
     0
176
     0
 93
        1
176
     0
 44
0.0
176
     0
173
     0
176
     0
  0
VISUALSTYLE
  5
37
102
{ACAD_REACTORS
330
29
102
}
330
29
100
AcDbVisualStyle
  2
Linepattern
 70
    14
177
     2
291
     1
 71
     2
176
     1
 72
     2
176
     1
 73
     0
176
     1
 90
        0
176
     1
 40
0.6
176
     1
 41
30.0
176
     1
 63
     7
421
 16777215
176
     1
 74
     1
176
     1
 91
        4
176
     1
 64
     7
176
     1
 65
   257
176
     1
 75
     7
176
     1
175
     7
176
     1
 42
1.0
176
     1
 92
        8
176
     1
 66
     7
176
     1
 43
1.0
176
     1
 76
     1
176
     1
 77
     6
176
     1
 78
     2
176
     1
 67
     7
176
     1
 79
     5
176
     1
170
     0
176
     1
171
     0
176
     1
290
     0
176
     1
 93
        1
176
     1
 44
0.0
176
     1
173
     0
176
     1
  0
VISUALSTYLE
  5
40
102
{ACAD_REACTORS
330
29
102
}
330
29
100
AcDbVisualStyle
  2
OverhangOff
 70
    21
177
     2
291
     1
 71
     2
176
     0
 72
     2
176
     0
 73
     0
176
     0
 90
        0
176
     0
 40
0.6
176
     0
 41
30.0
176
     0
 63
     7
421
 16777215
176
     0
 74
     1
176
     0
 91
        4
176
     0
 64
     7
176
     0
 65
   257
176
     0
 75
     1
176
     0
175
     1
176
     0
 42
1.0
176
     0
 92
        9
176
     2
 66
     7
176
     0
 43
1.0
176
     0
 76
     1
176
     0
 77
     6
176
     0
 78
     2
176
     0
 67
     7
176
     0
 79
     5
176
     0
170
     0
176
     0
171
     0
176
     0
290
     0
176
     0
 93
        1
176
     0
 44
0.0
176
     0
173
     0
176
     0
  0
VISUALSTYLE
  5
33
102
{ACAD_REACTORS
330
29
102
}
330
29
100
AcDbVisualStyle
  2
Realistic
 70
     8
177
     2
291
     0
 71
     2
176
     1
 72
     3
176
     1
 73
     0
176
     1
 90
        2
176
     1
 40
0.6
176
     1
 41
30.0
176
     1
 63
     7
421
 16777215
176
     1
 74
     0
176
     1
 91
        0
176
     1
 64
     7
176
     1
 65
   257
176
     1
 75
     1
176
     1
175
     1
176
     1
 42
1.0
176
     1
 92
        8
176
     1
 66
   257
176
     1
 43
1.0
176
     1
 76
     1
176
     1
 77
     6
176
     1
 78
     2
176
     1
 67
     7
176
     1
 79
     3
176
     1
170
     0
176
     1
171
     0
176
     1
290
     0
176
     1
 93
       13
176
     1
 44
0.0
176
     1
173
     0
176
     1
  0
VISUALSTYLE
  5
3E
102
{ACAD_REACTORS
330
29
102
}
330
29
100
AcDbVisualStyle
  2
Shaded
 70
    27
177
     2
291
     0
 71
     2
176
     1
 72
     2
176
     1
 73
     1
176
     1
 90
        2
176
     1
 40
0.6
176
     1
 41
30.0
176
     1
 63
     7
421
 16777215
176
     1
 74
     0
176
     1
 91
        4
176
     1
 64
     7
176
     1
 65
   257
176
     1
 75
     1
176
     1
175
     1
176
     1
 42
1.0
176
     1
 92
        8
176
     1
 66
   257
176
     1
 43
1.0
176
     1
 76
     1
176
     1
 77
     6
176
     1
 78
     2
176
     1
 67
     8
425
  7895160
176
     1
 79
     3
176
     1
170
     0
176
     1
171
     0
176
     1
290
     0
176
     1
 93
        5
176
     1
 44
0.0
176
     1
173
     0
176
     1
  0
VISUALSTYLE
  5
3D
102
{ACAD_REACTORS
330
29
102
}
330
29
100
AcDbVisualStyle
  2
Shaded with edges
 70
    26
177
     2
291
     0
 71
     2
176
     1
 72
     2
176
     1
 73
     1
176
     1
 90
        2
176
     1
 40
0.6
176
     1
 41
30.0
176
     1
 63
     7
421
 16777215
176
     1
 74
     1
176
     1
 91
       10
176
     1
 64
     7
176
     1
 65
   257
176
     1
 75
     2
176
     1
175
     1
176
     1
 42
1.0
176
     1
 92
        8
176
     1
 66
   257
176
     1
 43
1.0
176
     1
 76
     1
176
     1
 77
     6
176
     1
 78
     2
176
     1
 67
     7
176
     1
 79
     3
176
     1
170
     0
176
     1
171
     0
176
     1
290
     0
176
     1
 93
        5
176
     1
 44
0.0
176
     1
173
     0
176
     1
  0
VISUALSTYLE
  5
3A
102
{ACAD_REACTORS
330
29
102
}
330
29
100
AcDbVisualStyle
  2
Shades of Gray
 70
    23
177
     2
291
     0
 71
     2
176
     1
 72
     2
176
     1
 73
     3
176
     1
 90
        0
176
     1
 40
0.6
176
     1
 41
30.0
176
     1
 63
     7
421
 16777215
176
     1
 74
     2
176
     1
 91
        2
176
     1
 64
     7
176
     1
 65
     7
176
     1
 75
     1
176
     1
175
     1
176
     1
 42
40.0
176
     1
 92
        8
176
     1
 66
     7
176
     1
 43
1.0
176
     1
 76
     1
176
     1
 77
     6
176
     1
 78
     2
176
     1
 67
     7
176
     1
 79
     3
176
     1
170
     0
176
     1
171
     0
176
     1
290
     0
176
     1
 93
        1
176
     1
 44
0.0
176
     1
173
     0
176
     1
  0
VISUALSTYLE
  5
3B
102
{ACAD_REACTORS
330
29
102
}
330
29
100
AcDbVisualStyle
  2
Sketchy
 70
    24
177
     2
291
     0
 71
     1
176
     1
 72
     2
176
     1
 73
     2
176
     1
 90
        0
176
     1
 40
0.6
176
     1
 41
30.0
176
     1
 63
     7
421
 16777215
176
     1
 74
     2
176
     1
 91
        2
176
     1
 64
     7
176
     1
 65
     7
176
     1
 75
     1
176
     1
175
     1
176
     1
 42
40.0
176
     1
 92
       11
176
     1
 66
     7
176
     1
 43
1.0
176
     1
 76
     1
176
     1
 77
     6
176
     1
 78
     2
176
     1
 67
     7
176
     1
 79
     6
176
     1
170
     0
176
     1
171
     0
176
     1
290
     0
176
     1
 93
        1
176
     1
 44
0.0
176
     1
173
     0
176
     1
  0
VISUALSTYLE
  5
36
102
{ACAD_REACTORS
330
29
102
}
330
29
100
AcDbVisualStyle
  2
Thicken
 70
    13
177
     2
291
     1
 71
     2
176
     1
 72
     2
176
     1
 73
     0
176
     1
 90
        0
176
     1
 40
0.6
176
     1
 41
30.0
176
     1
 63
     7
421
 16777215
176
     1
 74
     1
176
     1
 91
        4
176
     1
 64
     7
176
     1
 65
   257
176
     1
 75
     1
176
     1
175
     1
176
     1
 42
1.0
176
     1
 92
       12
176
     1
 66
     7
176
     1
 43
1.0
176
     1
 76
     1
176
     1
 77
     6
176
     1
 78
     2
176
     1
 67
     7
176
     1
 79
     5
176
     1
170
     0
176
     1
171
     0
176
     1
290
     0
176
     1
 93
        1
176
     1
 44
0.0
176
     1
173
     0
176
     1
  0
VISUALSTYLE
  5
30
102
{ACAD_REACTORS
330
29
102
}
330
29
100
AcDbVisualStyle
  2
Wireframe
 70
     5
177
     2
291
     0
 71
     0
176
     1
 72
     2
176
     1
 73
     0
176
     1
 90
        0
176
     1
 40
0.6
176
     1
 41
30.0
176
     1
 63
     7
421
 16777215
176
     1
 74
     1
176
     1
 91
        4
176
     1
 64
     7
176
     1
 65
   257
176
     1
 75
     1
176
     1
175
     1
176
     1
 42
1.0
176
     1
 92
        0
176
     1
 66
   257
176
     1
 43
1.0
176
     1
 76
     1
176
     1
 77
     6
176
     1
 78
     2
176
     1
 67
     7
176
     1
 79
     3
176
     1
170
     0
176
     1
171
     0
176
     1
290
     0
176
     1
 93
        1
176
     1
 44
0.0
176
     1
173
     0
176
     1
  0
VISUALSTYLE
  5
3C
102
{ACAD_REACTORS
330
29
102
}
330
29
100
AcDbVisualStyle
  2
X-Ray
 70
    25
177
     2
291
     0
 71
     2
176
     1
 72
     2
176
     1
 73
     1
176
     1
 90
        1
176
     1
 40
0.5
176
     1
 41
30.0
176
     1
 63
     7
421
 16777215
176
     1
 74
     1
176
     1
 91
        0
176
     1
 64
     7
176
     1
 65
   257
176
     1
 75
     1
176
     1
175
     1
176
     1
 42
1.0
176
     1
 92
        8
176
     1
 66
     7
176
     1
 43
1.0
176
     1
 76
     1
176
     1
 77
     6
176
     1
 78
     2
176
     1
 67
     7
176
     1
 79
     3
176
     1
170
     0
176
     1
171
     0
176
     1
290
     0
176
     1
 93
       13
176
     1
 44
0.0
176
     1
173
     0
176
     1
  0
DICTIONARYVAR
  5
79
102
{ACAD_REACTORS
330
76
102
}
330
76
100
DictionaryVariables
280
     0
  1
1:1
  0
DICTIONARYVAR
  5
78
102
{ACAD_REACTORS
330
76
102
}
330
76
100
DictionaryVariables
280
     0
  1
STANDARD
  0
DICTIONARYVAR
  5
77
102
{ACAD_REACTORS
330
76
102
}
330
76
100
DictionaryVariables
280
     0
  1
STANDARD
  0
DICTIONARY
  5
1A
330
19
100
AcDbDictionary
280
     1
281
     1
  3
BUMPTILE
360
1C
  3
DIFFUSETILE
360
1B
  3
OPACITYTILE
360
1F
  3
REFLECTIONTILE
360
1E
  3
REFRACTIONTILE
360
20
  3
SPECULARTILE
360
1D
  0
DICTIONARY
  5
12
330
11
100
AcDbDictionary
280
     1
281
     1
  3
BUMPTILE
360
14
  3
DIFFUSETILE
360
13
  3
FBXASSET
360
109
  3
OPACITYTILE
360
17
  3
REFLECTIONTILE
360
16
  3
REFRACTIONTILE
360
18
  3
SPECULARTILE
360
15
  0
DICTIONARY
  5
22
330
21
100
AcDbDictionary
280
     1
281
     1
  3
BUMPTILE
360
24
  3
DIFFUSETILE
360
23
  3
FBXASSET
360
BA
  3
OPACITYTILE
360
27
  3
REFLECTIONTILE
360
26
  3
REFRACTIONTILE
360
28
  3
SPECULARTILE
360
25
  0
DICTIONARY
  5
F7A
330
67
100
AcDbDictionary
280
     1
281
     1
  3
ACAD_XREC_ROUNDTRIP
360
F7B
  0
DICTIONARY
  5
F78
330
65
100
AcDbDictionary
280
     1
281
     1
  3
ACAD_ROUNDTRIP_2008_TABLESTYLE_CELLSTYLEMAP
360
F79
  0
XRECORD
  5
1C
102
{ACAD_REACTORS
330
1A
102
}
330
1A
100
AcDbXrecord
280
     1
270
     1
271
     1
  0
XRECORD
  5
1B
102
{ACAD_REACTORS
330
1A
102
}
330
1A
100
AcDbXrecord
280
     1
270
     1
271
     1
  0
XRECORD
  5
1F
102
{ACAD_REACTORS
330
1A
102
}
330
1A
100
AcDbXrecord
280
     1
270
     1
271
     1
  0
XRECORD
  5
1E
102
{ACAD_REACTORS
330
1A
102
}
330
1A
100
AcDbXrecord
280
     1
270
     1
271
     1
  0
XRECORD
  5
20
102
{ACAD_REACTORS
330
1A
102
}
330
1A
100
AcDbXrecord
280
     1
270
     1
271
     1
  0
XRECORD
  5
1D
102
{ACAD_REACTORS
330
1A
102
}
330
1A
100
AcDbXrecord
280
     1
270
     1
271
     1
  0
XRECORD
  5
14
102
{ACAD_REACTORS
330
12
102
}
330
12
100
AcDbXrecord
280
     1
270
     1
271
     1
  0
XRECORD
  5
13
102
{ACAD_REACTORS
330
12
102
}
330
12
100
AcDbXrecord
280
     1
270
     1
271
     1
  0
XRECORD
  5
109
102
{ACAD_REACTORS
330
12
102
}
330
12
100
AcDbXrecord
280
     1
 70
     1
 90
1959938040
 71
     1
  1
33093293-FDA7-46D0-B09D-CBABE3FA7B44
311
504B03040A0000080000F49AD5423DEE336E79000000790000001B0000006175746F6465736B2D64657369676E2D7061636B6167652E786D6C3C3F786D6C2076657273696F6E3D22312E302220656E636F64696E673D227574662D3822203F3E3C666F726D6174733E3C666F726D61743E687474703A2F2F736368656D612E
311
6175746F6465736B2E636F6D2F64657369676E2D7061636B6167652F323030393C2F666F726D61743E3C2F666F726D6174733E504B0304140006080800F49AD542D486FD9CA0000000F4000000130000005B436F6E74656E745F54797065735D2E786D6C7D8EC10E82300C865F65E91D8A1E8C310C0EEA1BF002731658846E
311
D98AC1B77784ABF1D8FE5FBFBF75BBCE937A534CCEB38643598122B6FEE978D0B0485F9C41B54DDD7D022595594E1A469170414C76A4D9A4D207E29CF43ECE46F218070CC6BECC4078ACAA135ACF422C856C0E68EA1BF5669944DDD7BCDE7B1F8E415D77AECB980613C2E4AC91FC167A2B244592486606FC29C8FD7F045B9A
311
EF7053A7E60B504B0304140006080800F49AD54224A58CC7EA0000007C01000008000000636F72652E786D6C8D905B6EC3201045B762CD6F85CDC38FD8C24449D51D7403088883128365A0EAF28B13476AFFFA35A33BF7CC8C2E3F7ECFF7E2CBACC17A3702293114C629AFAD9B4648F1820E501C055FBD8FBF6C5038399B11
311
3619049F569F965D52DE45E362569DD7661765082642A1EEB91921A8AB99652953CC8E702B17A96E7232257975194EC9EAE279C4EABCCF5EAC5941F40C776DDF62C4CE8777549F4E049D71C350D3315A63DA35B8FFE0D5060B1EEDFCBAAF5623A3D12028260CE11651F249FA81B2A1266FB81918E6D566FF03A545FF134AD6
311
4546F7779F580041F2238F81E0D596452E8FA072DD72133F504B0304140006080800F49AD54255019EA25F0000007C00000007000000636E782E786D6C4DCB3B0E80201045D1AD90E915ED2CF8AC45050C11660C8261F98AB1B07AC9C97D42D718D865D3E909258CFD00CCE24AC6E326A164D74DC0B4128928FF326038472B
311
A13128B1252AC747C6BAB984FC68F0B87FE8960A5C09FE86CFB69FBA01504B0304140006080800F49AD542410F16D067010000020300000C0000006662782F636F72652E786D6C8D52ED8E8320107C15C2DF8B027EB4B5419AF6726F702F40957AA60A06C1F4F16FFD68BC5E9AA6314132B3B33B3BCA0FB7B64183B27D6D74
311
8E59483152BA3065ADAB1C7B770976181D04B7C6B83F651869D9AA1C8F3016BCB2C6770B5418ED9476806A53AA05947DAF1C464503971CF7C58F6A6528BD838AFE1A76B2B8CA4A852C041AEA04EF9D0503681E329E585CCE374E665C70EFEB7261EB12A6D5975A592CB2986E37D98606F169F71924C7230B4E348D83741B47
311
098DB629CDBE3819C582BBBABDBB2BAC924E95584494C501DD0411FB66D93E8AF709FBA0E93EA69C8CE50F22DF956F8A7CAD5D1C2D7667598F05032313F16F5B88C8A15E0EE087084EC610E13525FC18340402213B796EEE7B5C011A54E18C4D80298D5FA941365EC1548AA687939985CE5303D8EC699FE8459FD73DE0034A
311
5D8135E9E07AF66E9CCEE7A94B149DB2C1E06E481BDBCA6635375B5CCF75D05379611A63DF51936555B28449C6BF57FC02504B0304140006080800F49AD542B0B133EB7E0000009D0000000B0000006662782F636E782E786D6C4DCCDF0A83201C86E15B91DFB9EB8F950ED4A09CF711CB42663A9C8E5DFE6A74B0A30F1E3E
311
5EDE7F3687DE26BE6CF002AA4B09C8F87B98AD5F05E4B46006A8973C8690FE6E80FCB419010783E46B0CF979D26C9629BBB4ABB3FE71A26A5B46D9A831A323C1CD6DD0F84A6B86BBA6D38A0C55AD4A0285E4C5AFB4EF11965F504B0304140006080800F49AD5427CF40A1F2C01000014020000310000006662782F44353538
311
373843462D383743332D344542462D393732382D3634364644334231324430332F636F72652E786D6C8D515B6EC32010BC0AE22B55850DC6769C0813294973825EC00192A2C460F1A872FC42ED48ED5F7E58343B333BDA65BBC77807DFCA796D4D0F498121504658A9CDB587315C5007C18E33676DF84383C00CA3EA618621
311
675767E3B440C29AA04C48A8B1522DE0E0BD0A10887BFAF4D08B2F350EC5104362F85B310DE2365C55418AD44E3CCE7C7029009887E417F263D374EBEE7042DDFA4051FDB13FA1CDBAEA505BB7A723DD93EA88292B672167316AB9C8B54C71F4452BF7AA49167316F4F88C2F9C1A829290579850845B54914FB2D956745B93
311
77DC6C296665A6FF13C549BE288ADA045A2D716799879CB0726E70266D3CDF9F61D463B22E803C6FE59578831C179890AEA63449666A5A40F26CEBC5D307EBD28257B773629366366E6BCECA7CA3547E0F986ABE27FF01504B0304140006080800F49AD542ED5563E44F01000033030000300000006662782F443535383738
311
43462D383743332D344542462D393732382D3634364644334231324430332F636E782E786D6CD593CD6EC32010845F0571ADFC43EC466D8489D4439FA0875E316C1A1A0C16E0AA79FB2E094973C9A1C75E90353BCCAC3E61BEFD9E2CF982108D770365754B0938E5B5711F035DD2AE7AA2642B78F03EDDD828717282816699
311
0AFE11FC321749C34E2E36A16A8D3B143140F44B501051CE3789F54A5A0C00572D28C23482D6A0C9D5885F3B08B80A8AE391A43D90D79777E2C74F5029F226A708DEE40EC1F3599A6E4C94282B631C68547B98642D97E435C443AD659235AB2F5D7776FA4D22F9C2A5720986E4F281E6938AB2518D1C798343C1630A48AF98
311
D271062AE43C5BA36442C8CDC978F608BE1897D67DF11A041FD0CDD65DDF63D8692678321314870A2013682A562DEBAA765DADD81B7BDEACBA4DCF1EDAC74DD7F226DB051FBDB7E512C640F03351DE2570890AC69B3CBE87AFF888360159FB70FC034804505ACF74AE19FF994F737ADF882BE05F207E00504B030414000608
311
0800F49AD5426EC8A5C6A205000081100000340000006662782F44353538373843462D383743332D344542462D393732382D3634364644334231324430332F6F626A656374732E786D6CAD57D98EDB3614FD15417D691FBCCA49C6854685974C60A493043112F4C180414994861D6A01494D3CFDFA1E8A942C39F6C42DF2A2
311
85CBE5BDE79EBBD0FFE39071E7890AC98AFCD69D0CC7AE43F3A888599EDEBA954A0637AEF347E08BA2509D65AE93938CDEBA7AD80DFC5414556987629A908AAB93D1BBE55F8E8C684E5D27E244CA5B57460F34234352A922A6F271181345866972184E8666615F6C2A48F97022B42482E60A9A623C8714C72835E9FF8EDD51
311
E08FF47CE0EBA75DE55D5E35AAEDE99FCF72A9481E7D77D889186F325BBF9DBE9A0F5ECD66DE60F67A3A192CEF96EBC1E48D375EBD5EADE68BB7731C2C958024AB89A0891BBC03368245FEC84C057EC572E54DED12EBA091A04F4C7BCA0DA6CEC41F9935AD75D6C873EA47459ED3A8C60A68D4F659D1312D691EC3E78C4A68
311
D64168DCFF9D681C3BD39EFEB7477687AF43A0BBA323A8D1BD7977352DC2BF6182BC86414252CD4083A535D470757C44382C0A6EE7987432A2A860843B9C8582886737C052BD24F07B623493858E066D811BC00B66BA4F1784D18F797E4ECBA4E25CD3D80DEA28D82356A892B566EC1F2A8EDA7791814EF09566C38D35483D
311
97D40DE6862237276C32403A0927295C0E33F54E6F7A62E84AC7E966ED06EFEFC2C356C7EEF9C34B519454284D1F50AB715CF3D628599D2657794E6F704F543982F219C87F40A81F5581DF043BCC0E337B8A122497492132F8C6193B83311E6367523FF577E7CB1FB59BFBDEBB84279CADA1FA0978F66DE8FAB20367E03F81
311
F085F0AC69DB8870A48D7B9603204D12871718421E4EC2831B6C90E59095B18BF0600293A1EE133EFD91158344519FD479E7C0F2242D5E91A0015BCD48A861C86F153CFAE9BB74561F6C975D82F7D54FA1EB62BD7DBFAD4442227A6F637A4D139633851277E44D57A11EE63D8B1EE9F3B742C430F47BBCB75DBC337B9404DA
311
1A730D7CDAE474FD733CB97740847D69A1D38DFF831360842EAC1DF9F74C46947392D3A26ACE7DB17EA06C188875B06B26B705E65858401A3373128328D29160A506B1AD566DD21C5EB0EECBE60318E906CBE73FC973377B85C7DC1B15BC10FBF0796FD2D259A8BFF6B96D31186929A07B1D244DFC5BD0F7314B924A22099E
311
C1F5EB66D5F59D4E0B48118D54132D33D88FE022C292B6918B6A2D082A6991EF19EA26E2EEEC015DF980D432A0167849634979B2679C57D93E611CD5689F91F2021CFF5FFFB0CACA3DC98A2A571764F7544775E8EBDE63AFFC4654F4E006DBFA3D5822F7C634BE40065D4BCE60D573ADE78DE7DE74EE0DEED68B37E89FD6E3
311
C1723C5F0F56CBC5F2AD77B778B39CCD1A3F194D02BF2935DD88869750DAFC4A30EBBE2F1BC48F4D026E704F94DCBD33E1D9BCBF6C86E885FD11F6A05EB61B17F113FA3E1AFF58C071E559419BACE434A3B9223A86EEF507FF4CD067F49431E39B8CA4F40A291FDF6D4F8CC1C815FB3EE978A7DF4EF6DAD1950EC8B342D443
311
95853961FC64636A901C96796AF16B7CD2BE4DA1697EF59F750C3A53597016230FC64E4A8B8C2A64C32B8A90C8A804F5BA3D7D6CEF1E57EC7E321DA22221A78D260F044D3297080B50AB8A547FDCF9054D9DEEAB6E5D94DBE1231E3653B80E3873EBA249572CA27218A240EB56A8160E2E753B7934FE244F397A6DB3A9FD6F
311
77696C7A25B95D724DFF64ED3229DC1A803452A26F404304EFD4CA047EAD9B9D8FFE93E18D3A0E51F80C2BD5DA721C688DA98F41881AA3EC6D014DCCA33DFA80407DD9ACC9B05ED343E4AA5BD68B243052078A88B4BE2968FDAC4A8BF5A7113A1467F3D1297995C297D74B1A080A32573AC0C122B0C2CA2C89025557BFEF3E
311
890237D9CCB963A080F3EBE1E6F56FBB559165456E86760B7B1F76B60FB8DDC63B2407AAAF2572371D4FA6BBFA3A606F28FB90483A24B17CC4003C2B580B74CFFDE0A5B933A20E998976DD48BBE284A19BB5630B1B326DB3BE9B5B3538683C72EA2086F49552474C7741F9E28D60542F850A02BD7CF02F504B030414000608
311
0000F49AD542000000000000000000000000350000006662782F44353538373843462D383743332D344542462D393732382D3634364644334231324430332F76657274696365732E62696E504B0304140006080800F49AD542F270F1330600000004000000360000006662782F44353538373843462D383743332D34454246
311
2D393732382D3634364644334231324430332F747269616E676C65732E62696E636660600000504B0304140006080000F49AD542000000000000000000000000370000006662782F44353538373843462D383743332D344542462D393732382D3634364644334231324430332F617474726962757465732E62696E504B0304
311
140006080800F49AD542D5987DFC8F00000041010000360000006662782F44353538373843462D383743332D344542462D393732382D3634364644334231324430332F6469726563746F72792E786D6C858F410EC2201045AF4266AF15DDB800BA74E7C21B903225242D6328188F2FA5C4183471359997F9FF81E89FF3C41E
311
1816475E02DF1F80A11FC8386F25A438EECEC07A250251FC3803E6F58C12560C4AD840E95E91C151A72936F496F35732D860FE635F62C8F2DA16B505C545B74125BAA2FA9E05D7CC053D063734D5C7665FD55B6B8D15D5E9BFEAFD8490FFA45E504B0304140006080800F49AD54255932CA7FE000000A00100003B00000066
311
62782F44353538373843462D383743332D344542462D393732382D3634364644334231324430332F7265736F75726365732F636F72652E786D6C8D50596AC33010BD8A99DF225B4B9CC44656484A7B825E40C8134724968296D2E3574E5C68FFFA3333BC85793C79F89A6FD5278668BD1B80D5142A74C68FD64D03E474267B
311
A80E4A06EFD32F19544ECF38C002839253F0F9BE42C6BB842E15D4F9115750C788092A732BC700D15C70D6B5CEA928E2B5BE6B73D513D6AC2E74D12919532801AAE79365820A187D0E06A36C9EAC9239DB71D5D8B1FCB4678B015427E86EDBB5EF449CF6AF64733C3272A2AD20ED4EF00DE5BB96766FB259CC4A263BFF6434
311
0175C21114A74C10BA259C7DB0AEE7A2DFB017DAF682CA6691FF31E5FBF84F53B62E09BEC67DDA222856823C08259BA5AFB21E6596BD74ABBE01504B010214000A0000080000F49AD5423DEE336E79000000790000001B00000000000000000000000000000000006175746F6465736B2D64657369676E2D7061636B616765
311
2E786D6C504B01021400140006080800F49AD542D486FD9CA0000000F40000001300000000000000000000000000B20000005B436F6E74656E745F54797065735D2E786D6C504B01021400140006080800F49AD54224A58CC7EA0000007C010000080000000000000000000000000083010000636F72652E786D6C504B0102
311
1400140006080800F49AD54255019EA25F0000007C000000070000000000000000000000000093020000636E782E786D6C504B01021400140006080800F49AD542410F16D067010000020300000C00000000000000000000000000170300006662782F636F72652E786D6C504B01021400140006080800F49AD542B0B133EB
311
7E0000009D0000000B00000000000000000000000000A80400006662782F636E782E786D6C504B01021400140006080800F49AD5427CF40A1F2C0100001402000031000000000000000000000000004F0500006662782F44353538373843462D383743332D344542462D393732382D3634364644334231324430332F636F72
311
652E786D6C504B01021400140006080800F49AD542ED5563E44F010000330300003000000000000000000000000000CA0600006662782F44353538373843462D383743332D344542462D393732382D3634364644334231324430332F636E782E786D6C504B01021400140006080800F49AD5426EC8A5C6A205000081100000
311
3400000000000000000000000000670800006662782F44353538373843462D383743332D344542462D393732382D3634364644334231324430332F6F626A656374732E786D6C504B01021400140006080000F49AD54200000000000000000000000035000000000000000000000000005B0E00006662782F44353538373843
311
462D383743332D344542462D393732382D3634364644334231324430332F76657274696365732E62696E504B01021400140006080800F49AD542F270F13306000000040000003600000000000000000000000000AE0E00006662782F44353538373843462D383743332D344542462D393732382D3634364644334231324430
311
332F747269616E676C65732E62696E504B01021400140006080000F49AD5420000000000000000000000003700000000000000000000000000080F00006662782F44353538373843462D383743332D344542462D393732382D3634364644334231324430332F617474726962757465732E62696E504B010214001400060808
311
00F49AD542D5987DFC8F0000004101000036000000000000000000000000005D0F00006662782F44353538373843462D383743332D344542462D393732382D3634364644334231324430332F6469726563746F72792E786D6C504B01021400140006080800F49AD54255932CA7FE000000A00100003B000000000000000000
311
00000000401000006662782F44353538373843462D383743332D344542462D393732382D3634364644334231324430332F7265736F75726365732F636F72652E786D6C504B0506000000000E000E0080040000971100000000
310
504B03040A0000080000F49AD5423DEE336E79000000790000001B0000006175746F6465736B2D64657369676E2D7061636B6167652E786D6C3C3F786D6C2076657273696F6E3D22312E302220656E636F64696E673D227574662D3822203F3E3C666F726D6174733E3C666F726D61743E687474703A2F2F736368656D612E
310
6175746F6465736B2E636F6D2F64657369676E2D7061636B6167652F323030393C2F666F726D61743E3C2F666F726D6174733E504B0304140006080800F49AD542D486FD9CA0000000F4000000130000005B436F6E74656E745F54797065735D2E786D6C7D8EC10E82300C865F65E91D8A1E8C310C0EEA1BF002731658846E
310
D98AC1B77784ABF1D8FE5FBFBF75BBCE937A534CCEB38643598122B6FEE978D0B0485F9C41B54DDD7D022595594E1A469170414C76A4D9A4D207E29CF43ECE46F218070CC6BECC4078ACAA135ACF422C856C0E68EA1BF5669944DDD7BCDE7B1F8E415D77AECB980613C2E4AC91FC167A2B244592486606FC29C8FD7F045B9A
310
EF7053A7E60B504B0304140006080800F49AD5426A032944EB0000007C01000008000000636F72652E786D6C8D904D6EC3201085AF82665B611B6C5ADBC244E98F4FD00B20200E4A0C9681AAC72F4E1CA9DD7535A337EF9B193D7EF89EAFE8CBACC17A3700292A40C629AFAD9B0648F1845B4007C157EFE32F1B20276733C0
310
2683E0D3EAD3B24BCABB685CCCAAF3DAECA20CC14440EA9A9B01823A9B591632C5EC08976291EA222753904797E194AC46F72356E77DF664CD0AA26D46F6F27A2498B5ACC34DF731E296D2774C4646EA373636F4D8F27283058F767EDC57AB91D16810B42235AE9E31259FA4EB69DD37E4A9627D5DF172B3FF81D2A2FF0925
310
EB624DF777EF580041F223B781E0E596452EB7A072DD72133F504B0304140006080800F49AD54255019EA25F0000007C00000007000000636E782E786D6C4DCB3B0E80201045D1AD90E915ED2CF8AC45050C11660C8261F98AB1B07AC9C97D42D718D865D3E909258CFD00CCE24AC6E326A164D74DC0B4128928FF32603847
310
2BA13128B1252AC747C6BAB984FC68F0B87FE8960A5C09FE86CFB69FBA01504B0304140006080800F49AD54254AD751D68010000020300000C0000006662782F636F72652E786D6C8D525B6E833010BC8AE5DF0A8C0DB424328ED20727E8051C70280AD8C8D828C7EFF288D254511421196B6667777680EFCE5D8B466587C6
310
E81CD330C248E9D2548DAE73ECDD31C830DA096E8D717FCA30D2B253399E602C786D8DEF57A834DA29ED00D5A6522B288741398CCA162E391ECA1FD5C9507A0715C329EC657992B50A690834D4093E380B06D032643AB1381ECE9C2CB8E0DE37D5CA36154C6B8E8DB258644991BEBDEF699066E92648365F459031F619D022
310
A5F1475A246C9F71328905774D7771575A259DAAB060118D83E83560F49B6EB62CDE26F4254AB771C4C9547E23F27DF5A4C837DAC56CB5BBC8062C281899897FDB42440E0D72043F4470328508AF39E1DBA0211008D9C9437BD9E304D0A84A676C024C65FC951A65EB154C8DD0FC70B2B0D0796E009BDDEDC31EF479DC033E
310
A0D43558930EAE07EFA6E97C99BA46D12B1B8CEE8CB4B19D6CAFE6168BD7F33AE8AEBC34ADB1CFA8C9BA2A59C324D3DF2B7E01504B0304140006080800F49AD542EB12DE537D0000009D0000000B0000006662782F636E782E786D6C4DCCD10A83201886E15B91FFDCA5AEA9076638F2426259C84CC3E9D8E5AF46073BFAE0
310
E1E355FD670DE8EDF2CBA7D801BD10402E3ED2E4E3D2412D3396807AAD724AE5EF06288EABEBE060D06AC9A96E274D6E1E6B28BB061F9F27B6E2769786736C07CE70CB06828D15065346D955C8817069A1D1AAF995F63DC2FA0B504B0304140006080800F49AD5421BFED8DD2B01000014020000310000006662782F343735
310
42384136362D454436322D343244302D414537412D3132313233373844303638452F636F72652E786D6C8D515B6EC32010BC0AE22B55850DD8C14E8489522537E8051C202E4A0C168F2AC72FAE1DA9FDCB0F8B66676647BBFCF018EFE05BFB609CED20293004DA4AA78C1D3A98E215B5101C04F7CEC53F34086C3FEA0ECE30
310
147CF02E4D2B249D8DDAC68C5AA7F40AF621E80881BCE74F0783FCD2635FF4296646B815532F6FFDA00B52E476E6091EA2CF01C032647EA1A89BED477B640C9D4F8CA29A9E303A9E9B232294D0AA694F98B5675E2E42C153326A951B95E398ABD1FE5593592C7834E333BEF4BA8F5A414131A9106688924FB2DBD36A5F9377
310
BCDD57989733FD9F284DEA4551323656748DBBC8021484974B4370E5D2E5FE0CA31F93F311CCF33641CB3728708109D9E16D53F372A1E605644F56AF9E213A9F17BCB95D32BB5A8D592D7839DF2897DF03E63ADF53FC00504B0304140006080800F49AD5428BF2ACF35601000033030000300000006662782F343735423841
310
36362D454436322D343244302D414537412D3132313233373844303638452F636E782E786D6CBD93CD6EC32010845F0571ADFC83ED46698489D4439FA0875E316C1A1A1B2CC055F3F65D1292E69243A5AA1764CD0E33AB4F986FBFA6917C820FC6D99EB2B2A604AC72DAD8F79E2E7157AC29D90AEE9D8B37364AAC9CA0A749
310
A682BF7BB7CC59D2B093CB18511D8D3D64D143708B5710504E37C9E8941C31006CB1A008D3005A832657237EEDC0E32A280E4712F7405E9EDF881B3E40C5C0AB942278953A044F676EBA3151A24619424F83DAC3244BB944A7211C4A2DA32C5979E9BAB3D34F1249172E958B372495F7349D54E48D4AE4C82B1C0A1EA2477A
310
D9148F335021E779344A46845C9D8C678FE08BB171D565AF41F01EDD6DB35AAF31EC34133C9A09B24379901134154DCDDAA25E150D7B654F9BA6DD74ECA17EDCB435AF925DF0C1B9315FC218F06E26CAD9083652C17895C6F7F0651FD1C6236BE78FBF00890072EB99CE35E32FF9B055DB75FFC8A73ABD6FC4E5F12F10DF50
310
4B0304140006080800F49AD54225FA2A14630700009A1B0000340000006662782F34373542384136362D454436322D343244302D414537412D3132313233373844303638452F6F626A656374732E786D6CED59DD73A33610FF5718FAD23E189BE0DC5D3A844E6C5F6E3C6DDA9BBAD7E98367181964A246084612B9B87F7D57
310
1F602026C16DFAD6071B10D26AF7B79F5AC21F9E72EA3C622E48C1AE5DDF9BB90E66499112965DBB95DC4F3EB8CE0F51C88B42B6A6B90E4339BE76D5B01B85192FAAD20EA5788F2A2A7BA3B78B3F1C9160865D27A148886B5724F738471EAA649162F1E0A548222FDB3F79BE672676C9661C95F73DA225E29849E014C61950
310
710C537EF771E64EA370AADE47A1FAB7B38251B3E6C3B3A65AEA2E9784098958F28CA51E9960144B813F5F7DBCB8BC9A5CCEE7C164FEEEC29F2C6E17AB89FF3E982DDF2D9757371FAF80BD5D51502B538A4BCC52D0DFC18DFC70AADE34A25B044E719D148CE14403095069B1FA040916B0550BBE59F7D15712B55E6B095BCF
310
73F5DEB2D01A0EBA5486668D03A2431704B1DBD512D7D7B67CC5EE4F105C8C314A2EB0046E85E4A05D0B0F07AF70A3593835A351B83BEA82082747127382A843C98E230E4A81A96A4A149A05968C720E0EA41C2581D69C79DDB52DF0CCD75DE71497FB8A52E5196EA41D2B06F7C35268CEC85F981FB96F23033C81B41561F2
310
83E5521E4AEC4657E1540F46A1BA0417F6A501D2D95394098D8879DB1374A95C7FBD72A31F6F774F1B150E4E6F5EF2A2C45C2AA3537AD47C8121DBAB42C96EEB8FD29C5A00C21850EDCA2328BF02F23F43F438B2027AE3E469FE34B77325474CEC0B9E836E9C993399C1DFCCF1F5BFBA6FDD85D36671577B4378829B2AA83E
310
FC7B3CBB3268AC2CFF2D38A3F0110CBEE0817DB54910057BBE230C005246E2D0028620B4EF774F6EB486C009811E56211AF92032B0FB08B7E1D492396AA5762FEB750C10B57B04639404B0698B043606F4F409B20727C9514D6D1187E0BD7C1373BD596D7EDC547C8F127C677D7A85F784110959F334431DCC3B123DE0C3D7
310
82A720E873BC376DBC73BB9500B415E60AF8AC06413D1C77EE6C90C0BAAC50E1267C65071042E5EA16FD3B22124C2962B8A8EA7D9BE8A60CB5F1785B33B8D1858138B8E89930C78F445515E034C7191D4621EF279C940A4437FA64246B82A63720DD97F5CF6091CDFC81596B06A19721FA9B0E5A2770E858768DB405A21178
310
770CE749410B1EEF0EB189742ED412C046D75B7EEF1085586F94A4A8800769BFAB434A66A48D53B2DF5702E2EA09167F5F2FDBE630F302FFD269FFF79C710ED1167C1771EB77BD3D6292A30CC77B940E6DD7DEADA12D34C901D21CEF29C8451E893CC448C6B31467E7407316F1AB37A59ED14208C2B0807C7512FC361A330F
310
0289D166CDB2D26A0F6822E21C4B44CF414091190057A71D5DE326503ABCCE6363BD2F69AC4DF43FB2088EA0962C584CA014851CF22AE3BE770931A48BAE41B9872F585B4D5B8B412B28219243FC1593EC5E9E83BA213F807B0247924AC645891230EB11649FF98A526A8FF71D4A1E54FE88938ABE9581084CF731A1B4CA63
310
F81106278F31AEDD04A61751681137B14FE21C8A32242B3E66937797B367FB989AA11F025B1BED0985B01DE7A81C40BD1310753DE234E05BEA034ADD557919A3BCA8D82843F182BE3759F27DB52AB223F955A522948D35614B300A09934D56AD633698BA0EACE0463A501D6281F2929A53D82B89C76FBC49531EDC805B3F7D
310
DB0D7228FC06B4D78EA8F31A06CB63A730105F914CEEDD68A3AF9305D4DF294E8FA9BEAE35DB152020A62279C58955D197359437B64673A33B24C5F693C9BAF5F5CBDA83EE4738853550BB340BD70AE81C3389546572A76EE8AF0842708786195FAB9C7A0E959B34D55523A2B764489D9D32A2B3694EBCF21EB322871FDB12
310
96D02AC55B948A87F84ED2784314EB564A2F2735C62F0AF8CBA74D0F1E181921D26755E0E1AFBDB57674A9CAA59344E47D95EF182210043BA26546375EC932AB915ACBCD559D29A0EE0203B32A9EFF7FB268B723FE3F5964D630FED5C96271F8091DDA7D91563A4F945D9F750C68F293A2F216C700DD7668A83659C424732B
310
BF75A61882621DE547576375D030048738FEC7597B280B9AED7AFC9F97B5FD6715C75959A5335975A94E54AEEB760E0B82D9557071154C6E5737EFA141BB9A4D16B3ABD564B9B8597C0C6E6FDE2FE6F3064DEDA851D804339DBBE0D904B57A583D590CA02B2B0A4A5238CDA74E8621E64B38D38F689FF31C0B489EED66776A
310
9BF223563F9A3EA7443B8A6B4EEE113488A980B40E185589EC8E3BDF406B52C241FBDA85A691F7007FD62A5D0732CFB50BAD0249122CBC1DB49954434F138794AB73BF2506F82096A994681635CFCD2A854D27FC3753C6A4012B57A78701855B09DDAF4E8742F366794ACE12BC66C741126E7795846ACDC8721C6884D1DB1C
310
D56F64A3843DD8AD9FC0755F16CBF7F49C0E22A33E19BC680486EA44229EE97EB762CCB274B3FA3C853E9BB3FEC5296995812EC7539A700CC65CA9820AAC08ACC2D22C9104535D7EBFFDCC0BF8C4933BBA2A72BE7DFAF0EEBBEDB2C8F38299A1ED0D9CCA52F850E46CEEE1B34FBA85E201ABE6BAD85ECCFC8BAD6E6ADB3E7B
310
BC43027BAA2A8281BA985082F44C0EECF25983CAB62FA74A15BDE9EB9563832834038C1D3DEBF19A8F5C0EF890FA9CA23C46FB792DED8B7DEDA99E0A36C1A1231DFD0D504B0304140006080000F49AD542000000000000000000000000350000006662782F34373542384136362D454436322D343244302D414537412D3132
310
313233373844303638452F76657274696365732E62696E504B0304140006080800F49AD542F270F1330600000004000000360000006662782F34373542384136362D454436322D343244302D414537412D3132313233373844303638452F747269616E676C65732E62696E636660600000504B0304140006080000F49AD542
310
000000000000000000000000370000006662782F34373542384136362D454436322D343244302D414537412D3132313233373844303638452F617474726962757465732E62696E504B0304140006080800F49AD542D5987DFC8F00000041010000360000006662782F34373542384136362D454436322D343244302D414537
310
412D3132313233373844303638452F6469726563746F72792E786D6C858F410EC2201045AF4266AF15DDB800BA74E7C21B903225242D6328188F2FA5C4183471359997F9FF81E89FF3C41E1816475E02DF1F80A11FC8386F25A438EECEC07A250251FC3803E6F58C12560C4AD840E95E91C151A72936F496F35732D860FE63
310
5F62C8F2DA16B505C545B74125BAA2FA9E05D7CC053D063734D5C7665FD55B6B8D15D5E9BFEAFD8490FFA45E504B0304140006080800F49AD54279A807DCFD000000A00100003B0000006662782F34373542384136362D454436322D343244302D414537412D3132313233373844303638452F7265736F75726365732F636F
310
72652E786D6C8D50496E843010FC0AEA6B64C0061240C6A3C9C20BF201CBF4106B061B7989F2FC988148C92D97EE562DEA52F1D3D772CB3ED1796DCD00342F2143A3ECA4CD3C400C17D2427612DC591B7EC9203372C1013618049F9D8DEB01296B029A905063273C40E93D06C8D42D1D0378F5818BCC650C49E1AFF92AD555
310
CE98D33CD14927B80F2E05C8F627DB04E1D0DBE8147A5EECACE031EAE9D0E829FDD4178D0E445B8FCDD3F3B9244DDB74A4EEDE46D232F64AE8D8D0EAA5196B766E79B199050F7AF9C9A81CCA80130856D28A948F84D177DAF5ACEA6BFA50367D55F26293FF31C575FAA7296A132A76C4DD6D1E044D41EE84E0C5D6575AF732
310
D3DEBA15DF504B010214000A0000080000F49AD5423DEE336E79000000790000001B00000000000000000000000000000000006175746F6465736B2D64657369676E2D7061636B6167652E786D6C504B01021400140006080800F49AD542D486FD9CA0000000F40000001300000000000000000000000000B20000005B436F
310
6E74656E745F54797065735D2E786D6C504B01021400140006080800F49AD5426A032944EB0000007C010000080000000000000000000000000083010000636F72652E786D6C504B01021400140006080800F49AD54255019EA25F0000007C000000070000000000000000000000000094020000636E782E786D6C504B0102
310
1400140006080800F49AD54254AD751D68010000020300000C00000000000000000000000000180300006662782F636F72652E786D6C504B01021400140006080800F49AD542EB12DE537D0000009D0000000B00000000000000000000000000AA0400006662782F636E782E786D6C504B01021400140006080800F49AD542
310
1BFED8DD2B010000140200003100000000000000000000000000500500006662782F34373542384136362D454436322D343244302D414537412D3132313233373844303638452F636F72652E786D6C504B01021400140006080800F49AD5428BF2ACF356010000330300003000000000000000000000000000CA0600006662
310
782F34373542384136362D454436322D343244302D414537412D3132313233373844303638452F636E782E786D6C504B01021400140006080800F49AD54225FA2A14630700009A1B000034000000000000000000000000006E0800006662782F34373542384136362D454436322D343244302D414537412D31323132333738
310
44303638452F6F626A656374732E786D6C504B01021400140006080000F49AD5420000000000000000000000003500000000000000000000000000231000006662782F34373542384136362D454436322D343244302D414537412D3132313233373844303638452F76657274696365732E62696E504B010214001400060808
310
00F49AD542F270F13306000000040000003600000000000000000000000000761000006662782F34373542384136362D454436322D343244302D414537412D3132313233373844303638452F747269616E676C65732E62696E504B01021400140006080000F49AD54200000000000000000000000037000000000000000000
310
00000000D01000006662782F34373542384136362D454436322D343244302D414537412D3132313233373844303638452F617474726962757465732E62696E504B01021400140006080800F49AD542D5987DFC8F000000410100003600000000000000000000000000251100006662782F34373542384136362D454436322D
310
343244302D414537412D3132313233373844303638452F6469726563746F72792E786D6C504B01021400140006080800F49AD54279A807DCFD000000A00100003B00000000000000000000000000081200006662782F34373542384136362D454436322D343244302D414537412D3132313233373844303638452F7265736F
310
75726365732F636F72652E786D6C504B0506000000000E000E00800400005E1300000000
  0
XRECORD
  5
17
102
{ACAD_REACTORS
330
12
102
}
330
12
100
AcDbXrecord
280
     1
270
     1
271
     1
  0
XRECORD
  5
16
102
{ACAD_REACTORS
330
12
102
}
330
12
100
AcDbXrecord
280
     1
270
     1
271
     1
  0
XRECORD
  5
18
102
{ACAD_REACTORS
330
12
102
}
330
12
100
AcDbXrecord
280
     1
270
     1
271
     1
  0
XRECORD
  5
15
102
{ACAD_REACTORS
330
12
102
}
330
12
100
AcDbXrecord
280
     1
270
     1
271
     1
  0
XRECORD
  5
24
102
{ACAD_REACTORS
330
22
102
}
330
22
100
AcDbXrecord
280
     1
270
     1
271
     1
  0
XRECORD
  5
23
102
{ACAD_REACTORS
330
22
102
}
330
22
100
AcDbXrecord
280
     1
270
     1
271
     1
  0
XRECORD
  5
BA
102
{ACAD_REACTORS
330
22
102
}
330
22
100
AcDbXrecord
280
     1
 70
     1
 90
1959938040
 71
     1
  1
D7634FA8-A550-4A8B-B2F1-8A79AA003578
311
504B03040A0000080000F39AD5423DEE336E79000000790000001B0000006175746F6465736B2D64657369676E2D7061636B6167652E786D6C3C3F786D6C2076657273696F6E3D22312E302220656E636F64696E673D227574662D3822203F3E3C666F726D6174733E3C666F726D61743E687474703A2F2F736368656D612E
311
6175746F6465736B2E636F6D2F64657369676E2D7061636B6167652F323030393C2F666F726D61743E3C2F666F726D6174733E504B0304140006080800F39AD542D486FD9CA0000000F4000000130000005B436F6E74656E745F54797065735D2E786D6C7D8EC10E82300C865F65E91D8A1E8C310C0EEA1BF002731658846E
311
D98AC1B77784ABF1D8FE5FBFBF75BBCE937A534CCEB38643598122B6FEE978D0B0485F9C41B54DDD7D022595594E1A469170414C76A4D9A4D207E29CF43ECE46F218070CC6BECC4078ACAA135ACF422C856C0E68EA1BF5669944DDD7BCDE7B1F8E415D77AECB980613C2E4AC91FC167A2B244592486606FC29C8FD7F045B9A
311
EF7053A7E60B504B0304140006080800F39AD542E841018DEA0000007C01000008000000636F72652E786D6C8D904D6E83301085AF62CDB632F8870041C6112247E8052CE32456828DB05DF5F8350991DA5D57337AF3BE99D113A7EFF981BECC1AAC773DD08200324EFBC9BA6B0F295E700BE824C5EA7DFC6503E4D46C7AD8
311
6490E2BAFAB4EC92F62E1A17B3EAFC64765185602220FDC84D0F41DFCCAC0A956276847BB1287D575753D07797E194EC845E47EC94F7D98B352BC88A527E20F588196F18AE8EBCC54353333C0E635D0DC3F94CEA46941B2C45B4F3FBBE5E8D8A6602C908E598D498D14F7AEC18EF78FB410E1D27A2DCEC7FA0B44CFF849275
311
91B3FDDD171640D2FCC8732045B96591CB33A85CB7DCE40F504B0304140006080800F39AD54255019EA25F0000007C00000007000000636E782E786D6C4DCB3B0E80201045D1AD90E915ED2CF8AC45050C11660C8261F98AB1B07AC9C97D42D718D865D3E909258CFD00CCE24AC6E326A164D74DC0B4128928FF326038472B
311
A13128B1252AC747C6BAB984FC68F0B87FE8960A5C09FE86CFB69FBA01504B0304140006080800F39AD54287AB51E866010000020300000C0000006662782F636F72652E786D6C8D52ED8A8330107C9590BF8746A3B51FC414691FE15E20D5D4936A22F9903EFEAD1FC5EB514A116298D9D99D1D65C77BD7A2411ADB6895E3
311
388C3092AAD455A3EA1C7B770D76181D39335ABB3F651829D1C91C8F30E6AC36DAF70B546AE5A472802A5DC90514D64A8751D9C225C7B6FC919D08857750616F612FCA9BA865188740431D67D6193080E621E389F9F5726764C639F3BEA916B6A9605A736DA4C13C8DE3641365A780265B1AA4FB641714DB8C06A7E294A545
311
713E47D9969151CC996BBA87BBD248E16485398DE22488B280C6DFF1FE409343B2FB8A36872462642C7F12F9BEFA50E41BE512BAD89D6516F3188C4CC4BF6D212287AC18C00FE18C8C21C26B4AF8396808044276E2D23EF6B80134C8D26993025369BF528368BD84A9119A1E4666163A4F0D60B3977DE89B3EEF7BC00714AA
311
066BC2C1F5E2DD389DCD5397287A6982C1DD91D2A613ED6A6EB6B89EEBA097F252B7DA7CA226CBAA6409938C7F2FFF05504B0304140006080800F39AD542EAC76E177D0000009D0000000B0000006662782F636E782E786D6C4DCCD10AC2201886E15B91FFDCD69C340575243FDDC7686E484EC334BAFCB6D841471F3C7CBC
311
6AF8AC81BC5D7EF91435B4A7331017EF69F271D150CB4C0590C1A89C52F9BB0189E3EA34EC0C462D39D5E741939BC71ACAA6C1C7C7811D17527281145130CA2D22B5DC4A8AEC6A5BD6B57D7FB9416354F32B6DBB87CD17504B0304140006080800F39AD542C3423A332C01000014020000310000006662782F333438393934
311
38442D444438322D344244442D423442392D4432414231323331373736462F636F72652E786D6C8D515B6EC32010BC8AC557AA0A9B87E3D81126AA65F504BD0031244589C1E251E5F885DA95DABFFCB068766676B4CB4E8FF95E7C29E7B5353DC0250285329395DA5C7B10C305B6A03871E6AC0D7F68A03062563DC830E0EC
311
EA6C5C3668B2262813126AAC541B28BC570114D33D7D7AE0A74F358B52C49018FE562E62BA89AB2A7199DA89C7990F2E0528D621F9059CD66DD7D5ED08C7B125B01EC6110EF5D0C191BC0D98507C3834EFAC5A859CC5A8E526D732C5D117ADDCB32659CC59D0F36FFCC9291194049C204C216A20C11FB83B127AA4ED2BDA1F
311
296255A6FF13C5453E298ADA044AB6B8ABCC038E59B5363893369EEFBF61D463B12E1479DECEABE9057054228C9B036A5A56ADD4B480E4D9D49BA70FD6A505EF6EE7C4C6FBD5B8A939ABF28D52F93960AAF99EFC1B504B0304140006080800F39AD542AEED15304E01000033030000300000006662782F3334383939343844
311
2D444438322D344244442D423442392D4432414231323331373736462F636E782E786D6CD593CD6E022114855F85B06DE6CFB1C61A06932EFA045D74CBC055A90C4CF869EADBF7A268DDB8E8B21B3239F770CECD17866DBF2743BEC007EDEC40BBBAA504AC744ADBFD4053DC556B4AB69C79E7E29D8D122B2618689629677B
311
EFD25C24053B914C44D5687B2CA287E092971050CE37897152180C005B2514611A412950E466C4AF1D785C05C5F144E201C8DBEB0771E327C818589353386B720767F92C4D77264AA411210C34C8034CA216293A05E1582B1145DDD5D7AE073BFD26917CE15A99BC26B97CA0F9A4BC6C542347D6E090B3103DD22BA6789A81
311
7231CF464B11117273365E3C9C256DE36A59BC1AC17B7477AB7EB9C4B0F38CB3A827280EE9414450942FDAAEAFDA55B5E8DEBB97CDA2DFF4EBA7F679D3B7ACC976CE46E74CB98431E0DD4CA4B3116CA4BC634D1E3FC2577C44698FAC9D3FFD01240228AD173AB78CFFCCA739BF6FC4E5F12FE03F504B0304140006080800F3
311
9AD54283893542A505000080100000340000006662782F33343839393438442D444438322D344244442D423442392D4432414231323331373736462F6F626A656374732E786D6CAD57DB6EDB3810FD1541FBB2FBE08B6C2771168A0AC76E0AA3485BD468B10F010C4AA2146D285120A9C4D9AFDF43919225D74EBD8BBE5816
311
351CCE9C3973A1FF6E9733E7990A99F1E2C6F58663D7A145C4E3AC486FDC4A2583B9EBBC0B7CC1B9EA88B94E41727AE3EA6537F053C1ABD22EC53421155307AB77B77F3932A205759D8811296F5C193DD29C0C49A5784CE5D330268A0CD36437F48646B0AF3615A47C3C505A12410B054BB15E408B638CF2FAAF637714F823
311
FD3DF0F5AF959A9E961AD5FEF4CFCF0AA94811FD70D8819AA9375BBD9F5C5C0F2E66B3E9607639F106B777B7AB8177351D2F2F97CBEBC5FB6B1C2C9580266B89A0891B7C0036228BFC91F914F85556A8E9C48AD8008D047DCE74A4DC60E278FEC8C8B4DE59278F991FF1A2A0518D15D0A8FDB3AA635AD22246CC332A615907
311
A171FFD5D338763E4FF5BB3DB2BB7C1E02DD1D1D458DEDCDB36B290FFF860BF21C06094935030D96D651C3D5F11EE1907366BF65D2C989A22223CC61592888787503886A91C0EFA9D14C163A1BB4076E802898CF7DBA208D7ECEF363562615639AC66E5067C116B94295AC2DCBFEA1626F7D1719D884586936CCAD43EAB5A4
311
6E706D28323F609301D24918491172B8A9774E27078E2E759EAE576EF0F12EDC6D74EE1E3FBC14BCA44269FA805A4DE09AA746C9DAE49D1539BDC13D30650FCA5720FF09A9BE37057113D96EB69BD9539420854CB8C8111B67EC0CC6F8193B5EFDABFF77FEF9A376733F7AA7F044B03554BF00CFBE0FDD5876E00CFC67109E
311
8BA9756D131186B2719F15004893C4611C4BA8C349B8738335AA1CAA32761116787019E63EE3AF3FB26A5028EA933ACF02581E94C5330A3460AB1909330CF9AD81FB38FD50CEEA83ADD829782F7E095D17ABCDC74D251212D17B9BD32B9A6445A6D0E2F6BCE91AD4C3BCE7D1137D7DE12286A33FE2BDE9E29DDBA324D0D698
311
6BE0D3A6A6EB97FDC9BD0322EC4BB92E37FE4F4E8013BAB176F4DF6732A28C9182F2AA39F7CDFE81B66120D6C9AE99DC36987D630169CC97831C44938E44566A10DB6ED516CDE109EFBEAD3F819190673C246C2F14EE4B6FC41917DBF0756BAAD251A4BFF7A96D2118692D607B9D234DFA5BCCB771962495440D3C02EBF7F5
311
B21B3A5D1550211AAD265966701FB94584E56CA317CD5A1034525E6C33B44DA4DDD103BAFA81A82540ADF094C592B2649B3156E5DB24636846DB9C9427E0F8FFF687555E6E49CEAB429DD0DD331DCDA16F7B8FBCF285A8E8D10D36F573708BD21BD3781FE69EB06E2547B0EA85767575399DDD2DE683C5C5C578305BCC6F07
311
B7933B6F305F5C5D2F16E3F1F4E26ADEC4C9280FFCA6D374131A514267F32B91D9F07D5B237D6C0D70837BA2E4C307939DCDF3DB7A8851D81F610FDA65BB71113F63ECA3F1CF15EC258F2A5AE725A3392D14D12974AFFFB0AF046346CF18B3BECE494ACFD0F2F9C3E6C019AC9CB1EF8B4E77FA72B0D7AE2E75421E55A21EAB
311
3C2C48C60E36A606C96159A416BF2626EDD3F499E655BFD9C06030959C6531CA60ECA494E754A1189ED183444E25A8D71DE9637BF53863F7B319101509196D2C7924989199445A805A55A4FAEBCE6F98E9F45875E3A2DB0E9FF0632B85EB8033372E66749545540E43F4673D09D5CAC1A5EE208FB99F1429C3A86D36B5EFED
311
2E8D4DAF23B722E78C4FD62F53C1AD03282325C606CC43884E6D4CE0D7B6D9EFD17F72BC31C7210A7FC34AB5BEEC175A67EA6390A2C6297B59C00CF3648FDE2151DF76CB1BD6323D44CEBA64BD4902A375A08848EB8B82B6CF9AB4587D19614071D69F9D9255296279BEA681A02073A5131C2C022BACCE92285075F9E7C317
311
C17191CD9DBB0C14707EDFCD2FFF7858F23CE785597A58D8EBB0B379C4E5367E4071A0FA56221F26636FF250DF06EC05651B12498724964F58406445D602DD0B3F7869AE8CE843E6432B37D2A13860E87AE5D8C63683524B976E6DD5E060EE28A8831CD2374A9D315D81F2CD0BC1A816850902A37CF02F504B030414000608
311
0000F39AD542000000000000000000000000350000006662782F33343839393438442D444438322D344244442D423442392D4432414231323331373736462F76657274696365732E62696E504B0304140006080800F39AD542F270F1330600000004000000360000006662782F33343839393438442D444438322D34424444
311
2D423442392D4432414231323331373736462F747269616E676C65732E62696E636660600000504B0304140006080000F39AD542000000000000000000000000370000006662782F33343839393438442D444438322D344244442D423442392D4432414231323331373736462F617474726962757465732E62696E504B0304
311
140006080800F39AD542D5987DFC8F00000041010000360000006662782F33343839393438442D444438322D344244442D423442392D4432414231323331373736462F6469726563746F72792E786D6C858F410EC2201045AF4266AF15DDB800BA74E7C21B903225242D6328188F2FA5C4183471359997F9FF81E89FF3C41E
311
1816475E02DF1F80A11FC8386F25A438EECEC07A250251FC3803E6F58C12560C4AD840E95E91C151A72936F496F35732D860FE635F62C8F2DA16B505C545B74125BAA2FA9E05D7CC053D063734D5C7665FD55B6B8D15D5E9BFEAFD8490FFA45E504B0304140006080800F39AD542FBEA2F15FD000000A00100003B00000066
311
62782F33343839393438442D444438322D344244442D423442392D4432414231323331373736462F7265736F75726365732F636F72652E786D6C8D50596AC33010BD8A99DF225B8BE32CC80A6E72845E40C8934424968C96D2E3574E5C68FFFA3333BC85793C79FC9A1ED5278668BDEB81D5142A74C68FD65D7BC8E9427650
311
1D950CDEA75F32A89C9EB087050625AFC1E779858C77095D2AA8F323AEA08E111354E6518E1EA2B9E1A46B9D5351C47B3D6B73D757AC595DE8A25332A6500254AF27CB041530FA1C0C46D9BC582573B6E3AAB163F9692F1603A89631B1A1DD3BE162CB49BB173B326C3B4E4EC3A96B87E17CA6DD56368B59C964A79F8C26A0
311
4E3882E29409423BC2D907DB1FB83888DD1BDD1C0495CD22FF63CAF3F84F53B62E09BEC67DD9222856823C09259BA5AFB29E6596BD74ABBE01504B010214000A0000080000F39AD5423DEE336E79000000790000001B00000000000000000000000000000000006175746F6465736B2D64657369676E2D7061636B6167652E
311
786D6C504B01021400140006080800F39AD542D486FD9CA0000000F40000001300000000000000000000000000B20000005B436F6E74656E745F54797065735D2E786D6C504B01021400140006080800F39AD542E841018DEA0000007C010000080000000000000000000000000083010000636F72652E786D6C504B010214
311
00140006080800F39AD54255019EA25F0000007C000000070000000000000000000000000093020000636E782E786D6C504B01021400140006080800F39AD54287AB51E866010000020300000C00000000000000000000000000170300006662782F636F72652E786D6C504B01021400140006080800F39AD542EAC76E177D
311
0000009D0000000B00000000000000000000000000A70400006662782F636E782E786D6C504B01021400140006080800F39AD542C3423A332C0100001402000031000000000000000000000000004D0500006662782F33343839393438442D444438322D344244442D423442392D4432414231323331373736462F636F7265
311
2E786D6C504B01021400140006080800F39AD542AEED15304E010000330300003000000000000000000000000000C80600006662782F33343839393438442D444438322D344244442D423442392D4432414231323331373736462F636E782E786D6C504B01021400140006080800F39AD54283893542A50500008010000034
311
00000000000000000000000000640800006662782F33343839393438442D444438322D344244442D423442392D4432414231323331373736462F6F626A656374732E786D6C504B01021400140006080000F39AD54200000000000000000000000035000000000000000000000000005B0E00006662782F3334383939343844
311
2D444438322D344244442D423442392D4432414231323331373736462F76657274696365732E62696E504B01021400140006080800F39AD542F270F13306000000040000003600000000000000000000000000AE0E00006662782F33343839393438442D444438322D344244442D423442392D443241423132333137373646
311
2F747269616E676C65732E62696E504B01021400140006080000F39AD5420000000000000000000000003700000000000000000000000000080F00006662782F33343839393438442D444438322D344244442D423442392D4432414231323331373736462F617474726962757465732E62696E504B01021400140006080800
311
F39AD542D5987DFC8F0000004101000036000000000000000000000000005D0F00006662782F33343839393438442D444438322D344244442D423442392D4432414231323331373736462F6469726563746F72792E786D6C504B01021400140006080800F39AD542FBEA2F15FD000000A00100003B00000000000000000000
311
000000401000006662782F33343839393438442D444438322D344244442D423442392D4432414231323331373736462F7265736F75726365732F636F72652E786D6C504B0506000000000E000E0080040000961100000000
310
504B03040A0000080000F39AD5423DEE336E79000000790000001B0000006175746F6465736B2D64657369676E2D7061636B6167652E786D6C3C3F786D6C2076657273696F6E3D22312E302220656E636F64696E673D227574662D3822203F3E3C666F726D6174733E3C666F726D61743E687474703A2F2F736368656D612E
310
6175746F6465736B2E636F6D2F64657369676E2D7061636B6167652F323030393C2F666F726D61743E3C2F666F726D6174733E504B0304140006080800F39AD542D486FD9CA0000000F4000000130000005B436F6E74656E745F54797065735D2E786D6C7D8EC10E82300C865F65E91D8A1E8C310C0EEA1BF002731658846E
310
D98AC1B77784ABF1D8FE5FBFBF75BBCE937A534CCEB38643598122B6FEE978D0B0485F9C41B54DDD7D022595594E1A469170414C76A4D9A4D207E29CF43ECE46F218070CC6BECC4078ACAA135ACF422C856C0E68EA1BF5669944DDD7BCDE7B1F8E415D77AECB980613C2E4AC91FC167A2B244592486606FC29C8FD7F045B9A
310
EF7053A7E60B504B0304140006080800F39AD54284370AB3EC0000007C01000008000000636F72652E786D6C8D90416E83301045AF62CDB632609B10828C2368B8412F6019875A0936C276D5E3D724446A775DCDE8CF7F33A3CFCFDFF31D7DE9D51B675B205901485BE54663A71662B8E21AD059F0D5B9F0CB06C8CA59B7B0
310
C920F8B4BAB8EC927236681B926ADDA877517AAF0320754F4D0B5E7DEA59663286E4F0B76C91EA26279D915797E018CD889E47CC98F699ABD12B88D370EC862363B8A77D854B4207DC777D87DFCBF2529343DF5D48C5F30D163C98F9755FAD5A063D82A00561B8A830251FE4D450D6B0FAAD3834ACE0F966FF03C565FC2714
310
8D0D8CEEEF3E310F82A4471E03C1F32D8B541E41A5BAE5267E00504B0304140006080800F39AD54255019EA25F0000007C00000007000000636E782E786D6C4DCB3B0E80201045D1AD90E915ED2CF8AC45050C11660C8261F98AB1B07AC9C97D42D718D865D3E909258CFD00CCE24AC6E326A164D74DC0B4128928FF326038
310
472BA13128B1252AC747C6BAB984FC68F0B87FE8960A5C09FE86CFB69FBA01504B0304140006080800F39AD542911AAA3167010000020300000C0000006662782F636F72652E786D6C8D52ED8E8320107C15C2DF0B226A3F83347AED1BDC0B50A59EA98241307DFC5B3F9A5E2F4D73314132B3B33B3BCA0FB7B64183B27D6D
310
748A591062A47461CA5A5729F6EE42B6181D04B7C6B85F651869D9AA148F3016BCB2C6770B5418ED9476806A53AA05947DAF1C4645039714F7C5B76A6520BD838AFE1A74B2B8CA4A052C001AEA04EF9D0503681E329E585CCE374E675C70EFEB7261EB12A6D5975A592C76A74D76DAC431C9A37C4D12169D489EE519F94C92
310
E396ADF2ECC8D69C8E62C15DDDDEDD155649A74A2CA290C5245C93887DB1DD3E8AF7F1F6235CEDE390D3B1FC49E4BBF29F225F6B17478BDD59D663C1C0C844FCD9162272A89703F8A182D33144784D093F070D8140C84E9E9BFB1E57800655386313604AE31FD4201BAF606A88A687D39985CE5303D8EC659FE84D9FF73DE0
310
034A5D8135E9E07AF66E9CCEE7A94B149DB2647037A48D6D65F330375B7C9C8F412FE585698CFD8F9A2EABD2254C3AFEBDE207504B0304140006080800F39AD542137DC9BE7E0000009D0000000B0000006662782F636E782E786D6C4DCCD10E82201886E15B61FF391A91C401E030F43E5CA263213482D6E5A7CD838EBEED
310
D9B757B49FD5A3B74D2F178304529D00D9708F930B8B849267CC01B54AA418F3DF0D5018572B6167506249B13C0F9AEC3C169F37F52E3C0E34A43F33DD73AC19D3F872A314F3C150DC5C0D69868E1AA329D44AD4BFD2B67B587D01504B0304140006080800F39AD542EB663A7F2C01000014020000310000006662782F4431
310
4532364145382D413636412D344333332D384644332D3537443135464233444441332F636F72652E786D6C8D515B6EC32010BC0AE2AB55850DC671DD0813B97572825EC00192A2C460F1A872FC42ED48ED5F7E58343B333BDA65BBDB7405DFCA796D4D07498121504658A9CDB983319C500BC18E33676DF84383C08C93EA60
310
8621676767E3BC42C29AA04C48A8B152ADE0E8BD0A10886BFA74D08B2F358DC5184362F84B318FE2329E55418AD44E3CCE7C7029005886E417F281ECABA6DFB7A86F9A1ED51F94A2F63050B4791DC8E6F04E87A1A7AC5C849CC5A8E52AD732C5D127ADDCA32659CC59D0D33DBE706A0C4A425E6142116E50453EC9DBB6A25B
310
DABEE0CD96625666FA3F519CE583A2A84DA0D51A779179C8092B970667D2C6E3F51E46DD66EB02C8F39EBC12CF90E30293AAAD6B9A16B050D302926753AF9E3E589716FC743926365D8D9B9AB332DF2895DF03A69AEFC97F00504B0304140006080800F39AD542C84ADA275501000033030000300000006662782F44314532
310
364145382D413636412D344333332D384644332D3537443135464233444441332F636E782E786D6CBD93CD6EC32010845F0571ADFC9F5A698489D4439FA0875E316C1A1A0C16E0AA79FB2E094973C9A152D50BB2668799D527CCB65F93219FE0837676A04D595302563AA5EDFB4097B82BD6946C39F3CEC51B1B25564C30D0
310
2453CEDEBD5BE62C29D889C544548DB6872C7A086EF11202CAE926314E0A8301608B05459846500A14B91AF16B071E5741713C92B807F2F2FC46DCF801320656A514CEAAD4C1593A73D38D8912694408030D720F9328C5129D8270289588A26CCA4BD79D9D7E9248BA70A95CBC26A97CA0E9A43C6F54224756E190B3103DD2
310
CBA6789C817231CF464B11117275329E3D9C2DDAC67E95BD1AC17B74776DBF5E63D869C659D4136487F4202228CADBBAE98ABA2FDAE6B579DAB4DDA65B3FD48F9BAE6655B273363A67F2258C01EF66229D8D6023E50DABD2F81EBEEC234A7B64EDFCF1172011406E3DD3B966FC259FA6EF56AB7FE4539DDE37E2F2F817F06F
310
504B0304140006080800F39AD5429D2FFC3962070000991B0000340000006662782F44314532364145382D413636412D344333332D384644332D3537443135464233444441332F6F626A656374732E786D6CED595B73A33614FE2B0C7D691F8C4D6CE7D221EC384993F1EC647767DDDDE98367181964A246084612B9F4D7F7
310
E802066212DC4DDFF6C106847474CE77AE3A041F9E32EA3C602E48CECE5DDF9BB80E66719E10969EBBA5DC8E4E5DE74318F03C978D69AEC35086CF5D35EC8641CAF3B2B04309DEA292CACEE8F5C55F8E8831C3AE135324C4B92BE23B9C210F95324FB0B8F7122491976E9F3CDF3313DB64538E8ABB0ED10271CC24700AE30C
310
A8388629BFFD3871C7613056EFC340FDDB59D341B366FDB3C65AEA369784098958FC82A50E99E92096A6FEECEA8FA3F9D9683E9B4D47B3E3237F74717D7135F24FA693CBE3CBCBB3C51F67C0DE26CFA99529C1056609E8EFD90DFD60ACDED4A25B04F6711DE78CE15803095069B1BA040916B05503BE49FBD15712355E6B09
310
1BCF33F5DEB2D0189EB6A9F4CD1A06448B2E0862B7AB24AEAE4DF9F2CDDF20B81862945C6009DC0AC941BB161E0E5EE18693606C46C360B3D305114E8624E6045187920D471C940253D59430300B2C19E51C1C48394A02AD39F3BA6D5BE0996FBBCE3E2EB725A5CA33DC503B5604EE87A5D09C917F30DF71DF44067802694B
310
C2E4A9E5523E17D80DCF82B11E0C0375991ED9970648674B512A3422E66D47D04BE5FACB2B37FC78BD795AA970B07FF382E705E652199DD2A3E60B0CD95E154A765B7F90E6D40210C6806A57EE40F90AC87F82E8B16305F4C6C9D3EC6966E74A8E98D8E63C03DD3813673481BF89E3EB7F75DFB80BC6F5E2B6F6FAF0043755
310
509DFE389E6D19345696FF069C61F000069FF3A97DB58A11057BBE250C005246E2D01C8620B46F374F6EB884C009811E56211AFA2032B0FB00B7C1D892D969A5722FEB750C10B57B4C87280960D316096CF4E8E906B20727F14E4D4D11FBE09DBF8BB92EAE561F5725DFA218DF5A9FBEC25BC28884ACB99FA116E62D89EEF1
310
F363CE1310F425DEAB26DE99DD4A00DA0A73057C5A81A01E763BB73688615D9AAB7013BCB10308A1727583FE2D1131A614319C97D5BE757453865A7BBCAD19DCF0C8403C3DEA9830C70F445515E034BB192D4621EFC79C140A4437BC3192D541D3EB91EEDBF21358643DBF67D69241E86588FEA983D61E1C5A965D216D81A8
310
05DEECC2799CD39C479BE7C8443A176A0960A3ED2DDF5B4421D61B25292AE041DAEFAA90921A69A3846CB7A580B8BA87C5EFCBCBA6394CBCA93F779AFF1D679C41B405DF45DCFA5D678F886428C5D116257DDB3577AB690B4DB28734C75B0A729107229F2324A34982D343A03988F8D9BB524F692E04615840BEDA0B7E138D
310
890781C468B3625969B5033411518625A28720A0C8F480ABD38EAE7163281DDEE6B1B6DED734D624FA3F590447504BE62C22508A420E799371DF9B430C69A36B50EEE00BD656D1D662D0124A88F8397AC424BD9387A06EC8F7E01EC391A494515EA018CC7A00D917BEA294DAE17D83E27B953FA2B8A4EF652002D36D44282D
310
B3087E84C1C963886BD781E955141AC44DEC933883A20CC9920FD9E4783E79B18FA919BA21B0B1D1965008DB51868A1ED45B0151D7234E0DBEA5DEA3D44D991511CAF2920D32146FDAF5264BBEAB56457620BFAA5484B2B1226C09860161B2CEAA55CC0653D78115DC4807AAE748A0ACA0E614F646E2F16B6FD2947B37E0D6
310
4FDF77830C0ABF1EED3523EAAC82C1F2D82A0CC42392F19D1BAEF4757401F57782935DAAAF6ACD66050888A9485E726255F46D09E58DADD1DCF01649B1BE3159B7BA7E5B7AD0FD08C6B0066A977AE152019D612691AA4C6ED50DFD8A2004B76898F1A5CAA98750592489AE1A11BD267DEA6C9511AD4D33E2157798E519FCD8
310
9AB09896095EA344DC47B792462BA258B7527A19A9307E55C0CF37AB0E3C303240A42FAAC0C38F9DB576F452954B7B89C8BB32DB30442008B6444B8D6EBC82A556239596EBAB3A5340DD050666553CFB79B268B6237E9E2C526B183F76B2A0F906D15DB46964F35899F541A7803A3D292AEF710AD05D879A6A9D444C2EB7E2
310
5B5F8A202656417E703156C50C43B08FE3FF9CB4FB92A0D9AEC3FF6149DB7F51701C94545A9355936A4FE1BA6CA6B0AB93E3E9EC7A713A5ACCE793D16C717A31BA38BAF647A78B93B3C5623299CE4F4E6B34B59F86411DCB74EA826713D3AA61F5643180A6ACC82949E0309F382986902FE1483FA07BCE332C2077367BDD89
310
EDC90F58FD60DA9C126D28AE38B943D01FA602B23A6054C6B23DEEFC029D4909E7EC73177A46DE3DFC59AB741D483CE72E740A2489B1F036D06552FD3C4D1C32AE4EFD9618E08358AA32A259543FD7AB1436ADE85F4F199205AC5CAD1606D46D0534BF5A0D0ACD9BE5293E48F08A1D0749B8DD94128A3523CB6EA016466FB3
310
53BF918D12766FB77E02D77D5D2CDFD3735A880CFA62F0AA1118AA238978AADBDD8A31CBD2E2EACB18DA6CCEF2B353D032055D0EA734E2188CB954F51458115885A5592009A67AF9FBFA0BCFE10B4FE6E8A2C8F9F5E9F4F8B7F5659E65393343EB051CCA12F84EE4ACEEE0AB4FB286DA01ABDEBA581F4DFCA3B5EE69DB367B
310
B441027BAA288281AA965082744C0EECF2457FCA762FC74A159DE9CB2BC70651E805183B7AD1E235DFB81CF021F53545798CF6F34ADA57DBDA633D156C8243433AFC17504B0304140006080000F39AD542000000000000000000000000350000006662782F44314532364145382D413636412D344333332D384644332D3537
310
443135464233444441332F76657274696365732E62696E504B0304140006080800F39AD542F270F1330600000004000000360000006662782F44314532364145382D413636412D344333332D384644332D3537443135464233444441332F747269616E676C65732E62696E636660600000504B0304140006080000F39AD542
310
000000000000000000000000370000006662782F44314532364145382D413636412D344333332D384644332D3537443135464233444441332F617474726962757465732E62696E504B0304140006080800F39AD542D5987DFC8F00000041010000360000006662782F44314532364145382D413636412D344333332D384644
310
332D3537443135464233444441332F6469726563746F72792E786D6C858F410EC2201045AF4266AF15DDB800BA74E7C21B903225242D6328188F2FA5C4183471359997F9FF81E89FF3C41E1816475E02DF1F80A11FC8386F25A438EECEC07A250251FC3803E6F58C12560C4AD840E95E91C151A72936F496F35732D860FE63
310
5F62C8F2DA16B505C545B74125BAA2FA9E05D7CC053D063734D5C7665FD55B6B8D15D5E9BFEAFD8490FFA45E504B0304140006080800F39AD542979C242BFE000000A00100003B0000006662782F44314532364145382D413636412D344333332D384644332D3537443135464233444441332F7265736F75726365732F636F
310
72652E786D6C8D50596E833010BD0A9ADFCA804D42161947D070835EC032136225D89197AAC7AF9D50A9FDEBCFCCE82D9AA7C74F5FCBBDF844E7B5351DD0B286028DB293367307315CC81E8A93E0CEDAF04B0685910B769061107C76363E56485913D084841A3BE10A4AEF3140A1EEE9E8C0AB2B2EB294312485BF950FA96E
310
72C69296894E3AC17D702940F17A92270887DE46A7D0F3EAC50A1EA39E568D9ED24F7DD1E8401CC65D3FEE1A460636B46443D948867EE8C9FB6673DED3EDD09F69CBAB6C163CE8E527A37228034E20584D1B52B784D10F7A38B2E6D8ECDFEAEDB1A97995E57F4CF131FDD314B5090D5BE3BE6C1E044D419E84E055EE2BAD67
310
9969E76EC537504B010214000A0000080000F39AD5423DEE336E79000000790000001B00000000000000000000000000000000006175746F6465736B2D64657369676E2D7061636B6167652E786D6C504B01021400140006080800F39AD542D486FD9CA0000000F40000001300000000000000000000000000B20000005B43
310
6F6E74656E745F54797065735D2E786D6C504B01021400140006080800F39AD54284370AB3EC0000007C010000080000000000000000000000000083010000636F72652E786D6C504B01021400140006080800F39AD54255019EA25F0000007C000000070000000000000000000000000095020000636E782E786D6C504B01
310
021400140006080800F39AD542911AAA3167010000020300000C00000000000000000000000000190300006662782F636F72652E786D6C504B01021400140006080800F39AD542137DC9BE7E0000009D0000000B00000000000000000000000000AA0400006662782F636E782E786D6C504B01021400140006080800F39AD5
310
42EB663A7F2C010000140200003100000000000000000000000000510500006662782F44314532364145382D413636412D344333332D384644332D3537443135464233444441332F636F72652E786D6C504B01021400140006080800F39AD542C84ADA2755010000330300003000000000000000000000000000CC06000066
310
62782F44314532364145382D413636412D344333332D384644332D3537443135464233444441332F636E782E786D6C504B01021400140006080800F39AD5429D2FFC3962070000991B000034000000000000000000000000006F0800006662782F44314532364145382D413636412D344333332D384644332D353744313546
310
4233444441332F6F626A656374732E786D6C504B01021400140006080000F39AD5420000000000000000000000003500000000000000000000000000231000006662782F44314532364145382D413636412D344333332D384644332D3537443135464233444441332F76657274696365732E62696E504B0102140014000608
310
0800F39AD542F270F13306000000040000003600000000000000000000000000761000006662782F44314532364145382D413636412D344333332D384644332D3537443135464233444441332F747269616E676C65732E62696E504B01021400140006080000F39AD542000000000000000000000000370000000000000000
310
0000000000D01000006662782F44314532364145382D413636412D344333332D384644332D3537443135464233444441332F617474726962757465732E62696E504B01021400140006080800F39AD542D5987DFC8F000000410100003600000000000000000000000000251100006662782F44314532364145382D41363641
310
2D344333332D384644332D3537443135464233444441332F6469726563746F72792E786D6C504B01021400140006080800F39AD542979C242BFE000000A00100003B00000000000000000000000000081200006662782F44314532364145382D413636412D344333332D384644332D3537443135464233444441332F726573
310
6F75726365732F636F72652E786D6C504B0506000000000E000E00800400005F1300000000
  0
XRECORD
  5
27
102
{ACAD_REACTORS
330
22
102
}
330
22
100
AcDbXrecord
280
     1
270
     1
271
     1
  0
XRECORD
  5
26
102
{ACAD_REACTORS
330
22
102
}
330
22
100
AcDbXrecord
280
     1
270
     1
271
     1
  0
XRECORD
  5
28
102
{ACAD_REACTORS
330
22
102
}
330
22
100
AcDbXrecord
280
     1
270
     1
271
     1
  0
XRECORD
  5
25
102
{ACAD_REACTORS
330
22
102
}
330
22
100
AcDbXrecord
280
     1
270
     1
271
     1
  0
XRECORD
  5
F7B
102
{ACAD_REACTORS
330
F7A
102
}
330
F7A
100
AcDbXrecord
280
     1
102
ACAD_ROUNDTRIP_2012_MLEADER_STYLE
298
     1
  0
CELLSTYLEMAP
  5
F79
102
{ACAD_REACTORS
330
F78
102
}
330
F78
100
AcDbCellStyleMap
 90
        3
300
CELLSTYLE
  1
TABLEFORMAT_BEGIN
 90
        5
170
     1
 91
        0
 92
    32768
 62
   257
 93
        1
300
CONTENTFORMAT
  1
CONTENTFORMAT_BEGIN
 90
        0
 91
        0
 92
      512
 93
        0
300

 40
0.0
140
1.0
 94
        5
 62
     0
340
55
144
0.25
309
CONTENTFORMAT_END
171
     0
 94
        0
309
TABLEFORMAT_END
  1
CELLSTYLE_BEGIN
 90
        1
 91
        1
300
_TITLE
309
CELLSTYLE_END
300
CELLSTYLE
  1
TABLEFORMAT_BEGIN
 90
        5
170
     1
 91
        0
 92
        0
 62
   257
 93
        1
300
CONTENTFORMAT
  1
CONTENTFORMAT_BEGIN
 90
        0
 91
        0
 92
      512
 93
        0
300

 40
0.0
140
1.0
 94
        5
 62
     0
340
55
144
0.18
309
CONTENTFORMAT_END
171
     0
 94
        0
309
TABLEFORMAT_END
  1
CELLSTYLE_BEGIN
 90
        2
 91
        1
300
_HEADER
309
CELLSTYLE_END
300
CELLSTYLE
  1
TABLEFORMAT_BEGIN
 90
        5
170
     1
 91
        0
 92
        0
 62
   257
 93
        1
300
CONTENTFORMAT
  1
CONTENTFORMAT_BEGIN
 90
        0
 91
        0
 92
      512
 93
        0
300

 40
0.0
140
1.0
 94
        2
 62
     0
340
55
144
0.18
309
CONTENTFORMAT_END
171
     0
 94
        0
309
TABLEFORMAT_END
  1
CELLSTYLE_BEGIN
 90
        3
 91
        2
300
_DATA
309
CELLSTYLE_END
  0
ENDSEC
  0
EOF
