  0
SECTION
  2
HEADER
  9
$ACADVER
  1
AC1024
  9
$ACADMAINTVER
 70
    63
  9
$DWGCODEPAGE
  3
ANSI_1252
  9
$AUTHOR
  1
PR
  9
$REVISIONNUMBER
  1
-
  9
$CUSTOMPROPERTYTAG
  1
Manager
  9
$CUSTOMPROPERTY
  1

  9
$CUSTOMPROPERTYTAG
  1
Company
  9
$CUSTOMPROPERTY
  1

  9
$CUSTOMPROPERTYTAG
  1
Category
  9
$CUSTOMPROPERTY
  1

  9
$CUSTOMPROPERTYTAG
  1
Part Number
  9
$CUSTOMPROPERTY
  1
HWDWA90P72F2
  9
$CUSTOMPROPERTYTAG
  1
Description
  9
$CUSTOMPROPERTY
  1
N1P PANEL MASTER VIEW
  9
$CUSTOMPROPERTYTAG
  1
Project
  9
$CUSTOMPROPERTY
  1

  9
$CUSTOMPROPERTYTAG
  1
Designer
  9
$CUSTOMPROPERTY
  1
PR
  9
$CUSTOMPROPERTYTAG
  1
Engineer
  9
$CUSTOMPROPERTY
  1

  9
$CUSTOMPROPERTYTAG
  1
Authority
  9
$CUSTOMPROPERTY
  1

  9
$CUSTOMPROPERTYTAG
  1
Cost Center
  9
$CUSTOMPROPERTY
  1

  9
$CUSTOMPROPERTYTAG
  1
Vendor
  9
$CUSTOMPROPERTY
  1

  9
$CUSTOMPROPERTYTAG
  1
User Status
  9
$CUSTOMPROPERTY
  1

  9
$CUSTOMPROPERTYTAG
  1
Design Status
  9
$CUSTOMPROPERTY
  1
WorkInProgress
  9
$CUSTOMPROPERTYTAG
  1
Checked by
  9
$CUSTOMPROPERTY
  1
NJ
  9
$CUSTOMPROPERTYTAG
  1
Engr Approved by
  9
$CUSTOMPROPERTY
  1

  9
$CUSTOMPROPERTYTAG
  1
Date Eng Approved
  9
$CUSTOMPROPERTY
  1
06/19/2013
  9
$CUSTOMPROPERTYTAG
  1
Mfg Approved by
  9
$CUSTOMPROPERTY
  1

  9
$CUSTOMPROPERTYTAG
  1
DWG. NO
  9
$CUSTOMPROPERTY
  1

  9
$CUSTOMPROPERTYTAG
  1
NUMBER OF SHEETS
  9
$CUSTOMPROPERTY
  1
1
  9
$CUSTOMPROPERTYTAG
  1
DRAWING #
  9
$CUSTOMPROPERTY
  1
1
  9
$INSBASE
 10
0.0
 20
0.0
 30
0.0
  9
$EXTMIN
 10
0.0
 20
0.0
 30
0.0
  9
$EXTMAX
 10
187.0
 20
121.0
 30
0.0
  9
$LIMMIN
 10
0.0
 20
0.0
  9
$LIMMAX
 10
187.0
 20
121.0
  9
$ORTHOMODE
 70
     0
  9
$REGENMODE
 70
     1
  9
$FILLMODE
 70
     1
  9
$QTEXTMODE
 70
     0
  9
$MIRRTEXT
 70
     0
  9
$LTSCALE
 40
11.0
  9
$ATTMODE
 70
     1
  9
$TEXTSIZE
 40
0.2
  9
$TRACEWID
 40
0.05
  9
$TEXTSTYLE
  7
Standard
  9
$CLAYER
  8
0
  9
$CELTYPE
  6
ByLayer
  9
$CECOLOR
 62
   256
  9
$CELTSCALE
 40
1.0
  9
$DISPSILH
 70
     0
  9
$DIMSCALE
 40
1.0
  9
$DIMASZ
 40
0.0708661417322835
  9
$DIMEXO
 40
0.0625
  9
$DIMDLI
 40
0.38
  9
$DIMRND
 40
0.0
  9
$DIMDLE
 40
0.0
  9
$DIMEXE
 40
0.18
  9
$DIMTP
 40
0.0
  9
$DIMTM
 40
0.0
  9
$DIMTXT
 40
0.0708661417322835
  9
$DIMCEN
 40
0.09
  9
$DIMTSZ
 40
0.0
  9
$DIMTOL
 70
     0
  9
$DIMLIM
 70
     0
  9
$DIMTIH
 70
     1
  9
$DIMTOH
 70
     1
  9
$DIMSE1
 70
     0
  9
$DIMSE2
 70
     0
  9
$DIMTAD
 70
     0
  9
$DIMZIN
 70
     0
  9
$DIMBLK
  1

  9
$DIMASO
 70
     1
  9
$DIMSHO
 70
     1
  9
$DIMPOST
  1

  9
$DIMAPOST
  1

  9
$DIMALT
 70
     0
  9
$DIMALTD
 70
     2
  9
$DIMALTF
 40
25.4
  9
$DIMLFAC
 40
1.0
  9
$DIMTOFL
 70
     0
  9
$DIMTVP
 40
0.0
  9
$DIMTIX
 70
     0
  9
$DIMSOXD
 70
     0
  9
$DIMSAH
 70
     0
  9
$DIMBLK1
  1

  9
$DIMBLK2
  1

  9
$DIMSTYLE
  2
STANDARD
  9
$DIMCLRD
 70
     0
  9
$DIMCLRE
 70
     0
  9
$DIMCLRT
 70
     0
  9
$DIMTFAC
 40
1.0
  9
$DIMGAP
 40
0.09
  9
$DIMJUST
 70
     0
  9
$DIMSD1
 70
     0
  9
$DIMSD2
 70
     0
  9
$DIMTOLJ
 70
     1
  9
$DIMTZIN
 70
     0
  9
$DIMALTZ
 70
     0
  9
$DIMALTTZ
 70
     0
  9
$DIMUPT
 70
     0
  9
$DIMDEC
 70
     4
  9
$DIMTDEC
 70
     4
  9
$DIMALTU
 70
     2
  9
$DIMALTTD
 70
     2
  9
$DIMTXSTY
  7
Standard
  9
$DIMAUNIT
 70
     0
  9
$DIMADEC
 70
     0
  9
$DIMALTRND
 40
0.0
  9
$DIMAZIN
 70
     0
  9
$DIMDSEP
 70
    46
  9
$DIMATFIT
 70
     3
  9
$DIMFRAC
 70
     0
  9
$DIMLDRBLK
  1

  9
$DIMLUNIT
 70
     2
  9
$DIMLWD
 70
    -2
  9
$DIMLWE
 70
    -2
  9
$DIMTMOVE
 70
     0
  9
$DIMFXL
 40
1.0
  9
$DIMFXLON
 70
     0
  9
$DIMJOGANG
 40
0.7853981633974483
  9
$DIMTFILL
 70
     0
  9
$DIMTFILLCLR
 70
     0
  9
$DIMARCSYM
 70
     0
  9
$DIMLTYPE
  6

  9
$DIMLTEX1
  6

  9
$DIMLTEX2
  6

  9
$DIMTXTDIRECTION
 70
     0
  9
$LUNITS
 70
     2
  9
$LUPREC
 70
     4
  9
$SKETCHINC
 40
0.1
  9
$FILLETRAD
 40
0.0
  9
$AUNITS
 70
     0
  9
$AUPREC
 70
     0
  9
$MENU
  1
.
  9
$ELEVATION
 40
0.0
  9
$PELEVATION
 40
0.0
  9
$THICKNESS
 40
0.0
  9
$LIMCHECK
 70
     0
  9
$CHAMFERA
 40
0.0
  9
$CHAMFERB
 40
0.0
  9
$CHAMFERC
 40
0.0
  9
$CHAMFERD
 40
0.0
  9
$SKPOLY
 70
     0
  9
$TDCREATE
 40
2456465.809433878
  9
$TDUCREATE
 40
2456465.580267211
  9
$TDUPDATE
 40
2456465.809433878
  9
$TDUUPDATE
 40
2456465.580267211
  9
$TDINDWG
 40
0.0000471528
  9
$TDUSRTIMER
 40
0.0000471528
  9
$USRTIMER
 70
     1
  9
$ANGBASE
 50
0.0
  9
$ANGDIR
 70
     0
  9
$PDMODE
 70
     0
  9
$PDSIZE
 40
0.0
  9
$PLINEWID
 40
0.0
  9
$SPLFRAME
 70
     0
  9
$SPLINETYPE
 70
     6
  9
$SPLINESEGS
 70
     8
  9
$HANDSEED
  5
E89
  9
$SURFTAB1
 70
     6
  9
$SURFTAB2
 70
     6
  9
$SURFTYPE
 70
     6
  9
$SURFU
 70
     6
  9
$SURFV
 70
     6
  9
$UCSBASE
  2

  9
$UCSNAME
  2

  9
$UCSORG
 10
0.0
 20
0.0
 30
0.0
  9
$UCSXDIR
 10
1.0
 20
0.0
 30
0.0
  9
$UCSYDIR
 10
0.0
 20
1.0
 30
0.0
  9
$UCSORTHOREF
  2

  9
$UCSORTHOVIEW
 70
     0
  9
$UCSORGTOP
 10
0.0
 20
0.0
 30
0.0
  9
$UCSORGBOTTOM
 10
0.0
 20
0.0
 30
0.0
  9
$UCSORGLEFT
 10
0.0
 20
0.0
 30
0.0
  9
$UCSORGRIGHT
 10
0.0
 20
0.0
 30
0.0
  9
$UCSORGFRONT
 10
0.0
 20
0.0
 30
0.0
  9
$UCSORGBACK
 10
0.0
 20
0.0
 30
0.0
  9
$PUCSBASE
  2

  9
$PUCSNAME
  2

  9
$PUCSORG
 10
0.0
 20
0.0
 30
0.0
  9
$PUCSXDIR
 10
1.0
 20
0.0
 30
0.0
  9
$PUCSYDIR
 10
0.0
 20
1.0
 30
0.0
  9
$PUCSORTHOREF
  2

  9
$PUCSORTHOVIEW
 70
     0
  9
$PUCSORGTOP
 10
0.0
 20
0.0
 30
0.0
  9
$PUCSORGBOTTOM
 10
0.0
 20
0.0
 30
0.0
  9
$PUCSORGLEFT
 10
0.0
 20
0.0
 30
0.0
  9
$PUCSORGRIGHT
 10
0.0
 20
0.0
 30
0.0
  9
$PUCSORGFRONT
 10
0.0
 20
0.0
 30
0.0
  9
$PUCSORGBACK
 10
0.0
 20
0.0
 30
0.0
  9
$USERI1
 70
     0
  9
$USERI2
 70
     0
  9
$USERI3
 70
     0
  9
$USERI4
 70
     0
  9
$USERI5
 70
     0
  9
$USERR1
 40
0.0
  9
$USERR2
 40
0.0
  9
$USERR3
 40
0.0
  9
$USERR4
 40
0.0
  9
$USERR5
 40
0.0
  9
$WORLDVIEW
 70
     1
  9
$SHADEDGE
 70
     3
  9
$SHADEDIF
 70
    70
  9
$TILEMODE
 70
     1
  9
$MAXACTVP
 70
    64
  9
$PINSBASE
 10
0.0
 20
0.0
 30
0.0
  9
$PLIMCHECK
 70
     0
  9
$PEXTMIN
 10
0.0
 20
0.0
 30
0.0
  9
$PEXTMAX
 10
187.0
 20
121.0
 30
0.0
  9
$PLIMMIN
 10
0.0
 20
0.0
  9
$PLIMMAX
 10
187.0
 20
121.0
  9
$UNITMODE
 70
     0
  9
$VISRETAIN
 70
     1
  9
$PLINEGEN
 70
     0
  9
$PSLTSCALE
 70
     1
  9
$TREEDEPTH
 70
  3020
  9
$CMLSTYLE
  2
Standard
  9
$CMLJUST
 70
     0
  9
$CMLSCALE
 40
1.0
  9
$PROXYGRAPHICS
 70
     1
  9
$MEASUREMENT
 70
     0
  9
$CELWEIGHT
370
    -1
  9
$ENDCAPS
280
     0
  9
$JOINSTYLE
280
     0
  9
$LWDISPLAY
290
     0
  9
$INSUNITS
 70
     1
  9
$HYPERLINKBASE
  1

  9
$STYLESHEET
  1

  9
$XEDIT
290
     1
  9
$CEPSNTYPE
380
     0
  9
$PSTYLEMODE
290
     1
  9
$FINGERPRINTGUID
  2
{DCA219F0-0B84-4A5D-A6AE-C79C1BB73725}
  9
$VERSIONGUID
  2
{58BBEA99-A02C-4E1F-A51B-0B2878573743}
  9
$EXTNAMES
290
     1
  9
$PSVPSCALE
 40
0.0
  9
$OLESTARTUP
290
     0
  9
$SORTENTS
280
   127
  9
$INDEXCTL
280
     0
  9
$HIDETEXT
280
     1
  9
$XCLIPFRAME
280
     2
  9
$HALOGAP
280
     0
  9
$OBSCOLOR
 70
   257
  9
$OBSLTYPE
280
     0
  9
$INTERSECTIONDISPLAY
280
     0
  9
$INTERSECTIONCOLOR
 70
   257
  9
$DIMASSOC
280
     1
  9
$PROJECTNAME
  1

  9
$CAMERADISPLAY
290
     0
  9
$LENSLENGTH
 40
50.0
  9
$CAMERAHEIGHT
 40
0.0
  9
$STEPSPERSEC
 40
2.0
  9
$STEPSIZE
 40
6.0
  9
$3DDWFPREC
 40
2.0
  9
$PSOLWIDTH
 40
0.25
  9
$PSOLHEIGHT
 40
4.0
  9
$LOFTANG1
 40
1.570796326794896
  9
$LOFTANG2
 40
1.570796326794896
  9
$LOFTMAG1
 40
0.0
  9
$LOFTMAG2
 40
0.0
  9
$LOFTPARAM
 70
     7
  9
$LOFTNORMALS
280
     1
  9
$LATITUDE
 40
37.795
  9
$LONGITUDE
 40
-122.394
  9
$NORTHDIRECTION
 40
0.0
  9
$TIMEZONE
 70
 -8000
  9
$LIGHTGLYPHDISPLAY
280
     1
  9
$TILEMODELIGHTSYNCH
280
     1
  9
$CMATERIAL
347
11
  9
$SOLIDHIST
280
     0
  9
$SHOWHIST
280
     1
  9
$DWFFRAME
280
     2
  9
$DGNFRAME
280
     0
  9
$REALWORLDSCALE
290
     1
  9
$INTERFERECOLOR
 62
     1
  9
$INTERFEREOBJVS
345
33
  9
$INTERFEREVPVS
346
30
  9
$CSHADOW
280
     0
  9
$SHADOWPLANELOCATION
 40
0.0
  0
ENDSEC
  0
SECTION
  2
CLASSES
  0
CLASS
  1
ACDBDICTIONARYWDFLT
  2
AcDbDictionaryWithDefault
  3
ObjectDBX Classes
 90
        0
 91
        1
280
     0
281
     0
  0
CLASS
  1
MATERIAL
  2
AcDbMaterial
  3
ObjectDBX Classes
 90
     1153
 91
        3
280
     0
281
     0
  0
CLASS
  1
VISUALSTYLE
  2
AcDbVisualStyle
  3
ObjectDBX Classes
 90
     4095
 91
       24
280
     0
281
     0
  0
CLASS
  1
SCALE
  2
AcDbScale
  3
ObjectDBX Classes
 90
     1153
 91
       17
280
     0
281
     0
  0
CLASS
  1
TABLESTYLE
  2
AcDbTableStyle
  3
ObjectDBX Classes
 90
     4095
 91
        1
280
     0
281
     0
  0
CLASS
  1
MLEADERSTYLE
  2
AcDbMLeaderStyle
  3
ACDB_MLEADERSTYLE_CLASS
 90
     4095
 91
        1
280
     0
281
     0
  0
CLASS
  1
DICTIONARYVAR
  2
AcDbDictionaryVar
  3
ObjectDBX Classes
 90
        0
 91
        3
280
     0
281
     0
  0
CLASS
  1
CELLSTYLEMAP
  2
AcDbCellStyleMap
  3
ObjectDBX Classes
 90
     1152
 91
        1
280
     0
281
     0
  0
ENDSEC
  0
SECTION
  2
TABLES
  0
TABLE
  2
VPORT
  5
8
330
0
100
AcDbSymbolTable
 70
     1
  0
VPORT
  5
57
330
8
100
AcDbSymbolTableRecord
100
AcDbViewportTableRecord
  2
*Active
 70
     0
 10
0.0
 20
0.0
 11
1.0
 21
1.0
 12
93.49999999999999
 22
60.5
 13
0.0
 23
0.0
 14
1.0
 24
1.0
 15
0.0
 25
0.0
 16
0.0
 26
0.0
 36
1.0
 17
0.0
 27
0.0
 37
0.0
 40
121.0
 41
1.545454545454545
 42
50.0
 43
0.0
 44
0.0
 50
0.0
 51
0.0
 71
     0
 72
   100
 73
     1
 74
     1
 75
     0
 76
     0
 77
     0
 78
     0
281
     0
 65
     1
110
0.0
120
0.0
130
0.0
111
1.0
121
0.0
131
0.0
112
0.0
122
1.0
132
0.0
 79
     0
146
0.0
 60
     3
 61
     5
292
     1
282
     1
141
0.0
142
0.0
 63
   250
421
  3355443
  0
ENDTAB
  0
TABLE
  2
LTYPE
  5
5
330
0
100
AcDbSymbolTable
 70
    59
  0
LTYPE
  5
5B
330
5
100
AcDbSymbolTableRecord
100
AcDbLinetypeTableRecord
  2
ByBlock
 70
     0
  3

 72
    65
 73
     0
 40
0.0
  0
LTYPE
  5
5C
330
5
100
AcDbSymbolTableRecord
100
AcDbLinetypeTableRecord
  2
ByLayer
 70
     0
  3

 72
    65
 73
     0
 40
0.0
  0
LTYPE
  5
5D
330
5
100
AcDbSymbolTableRecord
100
AcDbLinetypeTableRecord
  2
Continuous
 70
     0
  3
Solid line
 72
    65
 73
     0
 40
0.0
  0
LTYPE
  5
7C
330
5
100
AcDbSymbolTableRecord
100
AcDbLinetypeTableRecord
  2
BY_STANDARD
 70
     0
  3
By Standard ____________    ____    ____   _
 72
    65
 73
     6
 40
1.240299999999999
 49
0.6614
 74
     0
 49
-0.0827
 74
     0
 49
0.1654
 74
     0
 49
-0.0827
 74
     0
 49
0.1654
 74
     0
 49
-0.0827
 74
     0
  0
LTYPE
  5
7D
330
5
100
AcDbSymbolTableRecord
100
AcDbLinetypeTableRecord
  2
CHAIN
 70
     0
  3
Chain ____ _ ____ _ ____ _ ____ _ ____ _ ____
 72
    65
 73
     4
 40
0.7087
 49
0.4724000000000001
 74
     0
 49
-0.0591
 74
     0
 49
0.1181
 74
     0
 49
-0.0591
 74
     0
  0
LTYPE
  5
7E
330
5
100
AcDbSymbolTableRecord
100
AcDbLinetypeTableRecord
  2
DASH_DOT
 70
     0
  3
Dash dot __ . __ . __ . __ . __ . __ . __ . __
 72
    65
 73
     4
 40
0.37
 49
0.24
 74
     0
 49
-0.06
 74
     0
 49
0.01
 74
     0
 49
-0.06
 74
     0
  0
LTYPE
  5
7F
330
5
100
AcDbSymbolTableRecord
100
AcDbLinetypeTableRecord
  2
DOUBLE_DASH_DOT
 70
     0
  3
Double-Dash Dot __ __ . __ __ . __ __ . __ _
 72
    65
 73
     6
 40
0.4398
 49
0.24
 74
     0
 49
-0.06
 74
     0
 49
0.0098
 74
     0
 49
-0.06
 74
     0
 49
0.01
 74
     0
 49
-0.06
 74
     0
  0
LTYPE
  5
80
330
5
100
AcDbSymbolTableRecord
100
AcDbLinetypeTableRecord
  2
DASH_TRIPLE_DOT
 70
     0
  3
Dash Triple-Dot _ . . . _ . . . _ . . . _
 72
    65
 73
     8
 40
0.51
 49
0.24
 74
     0
 49
-0.06
 74
     0
 49
0.01
 74
     0
 49
-0.06
 74
     0
 49
0.01
 74
     0
 49
-0.06
 74
     0
 49
0.01
 74
     0
 49
-0.06
 74
     0
  0
LTYPE
  5
81
330
5
100
AcDbSymbolTableRecord
100
AcDbLinetypeTableRecord
  2
DASHED
 70
     0
  3
Dashed __ __ __ __ __ __ __ __ __ __ __ __ __ _
 72
    65
 73
     2
 40
0.2067
 49
0.1654
 74
     0
 49
-0.0413
 74
     0
  0
LTYPE
  5
82
330
5
100
AcDbSymbolTableRecord
100
AcDbLinetypeTableRecord
  2
DASH_DOUBLE_DOT
 70
     0
  3
Dash Double-Dot __ . . __ . . __ . . __ . .
 72
    65
 73
     6
 40
0.4398
 49
0.24
 74
     0
 49
-0.06
 74
     0
 49
0.0098
 74
     0
 49
-0.06
 74
     0
 49
0.01
 74
     0
 49
-0.06
 74
     0
  0
LTYPE
  5
83
330
5
100
AcDbSymbolTableRecord
100
AcDbLinetypeTableRecord
  2
DASHED_SPACE
 70
     0
  3
Dashed Space __ __ __ __ __ __ __ __ __ __ __ _
 72
    65
 73
     2
 40
0.2067
 49
0.1654
 74
     0
 49
-0.0413
 74
     0
  0
LTYPE
  5
84
330
5
100
AcDbSymbolTableRecord
100
AcDbLinetypeTableRecord
  2
DOTTED
 70
     0
  3
Dotted . . . . . . . . . . . . . . . . . . . . 
 72
    65
 73
     2
 40
0.0482
 49
0.0069
 74
     0
 49
-0.0413
 74
     0
  0
LTYPE
  5
85
330
5
100
AcDbSymbolTableRecord
100
AcDbLinetypeTableRecord
  2
DOUBLE_DASH_CHAIN
 70
     0
  3
Double-Dash Chain ______  __  __  ______  __  _
 72
    65
 73
     6
 40
1.240299999999999
 49
0.6614
 74
     0
 49
-0.0827
 74
     0
 49
0.1654
 74
     0
 49
-0.0827
 74
     0
 49
0.1654
 74
     0
 49
-0.0827
 74
     0
  0
LTYPE
  5
87
330
5
100
AcDbSymbolTableRecord
100
AcDbLinetypeTableRecord
  2
DOUBLE_DASH_DOUBLE_DOT
 70
     0
  3
Double-Dash Double-dot _ _ . . _ _ . . _
 72
    65
 73
     8
 40
0.7400000000000001
 49
0.24
 74
     0
 49
-0.06
 74
     0
 49
0.24
 74
     0
 49
-0.06
 74
     0
 49
0.01
 74
     0
 49
-0.06
 74
     0
 49
0.01
 74
     0
 49
-0.06
 74
     0
  0
LTYPE
  5
88
330
5
100
AcDbSymbolTableRecord
100
AcDbLinetypeTableRecord
  2
DOUBLE_DASH_TRIPLE_DOT
 70
     0
  3
Double Dash Triple Dot __ __ . . . __ __ . .
 72
    65
 73
    10
 40
0.8100000000000001
 49
0.24
 74
     0
 49
-0.06
 74
     0
 49
0.24
 74
     0
 49
-0.06
 74
     0
 49
0.01
 74
     0
 49
-0.06
 74
     0
 49
0.01
 74
     0
 49
-0.06
 74
     0
 49
0.01
 74
     0
 49
-0.06
 74
     0
  0
LTYPE
  5
89
330
5
100
AcDbSymbolTableRecord
100
AcDbLinetypeTableRecord
  2
LONG_DASH_DOTTED
 70
     0
  3
Long Dash Dotted ____ . ____ . ____ . ____ . _
 72
    65
 73
     4
 40
0.3543
 49
0.2362
 74
     0
 49
-0.0295
 74
     0
 49
0.0591
 74
     0
 49
-0.0295
 74
     0
  0
LTYPE
  5
8A
330
5
100
AcDbSymbolTableRecord
100
AcDbLinetypeTableRecord
  2
LONG_DASH_DOUBLE_DOT
 70
     0
  3
Long Dash Double Dot ________  .  .  ________  
 72
    65
 73
     6
 40
0.6799999999999999
 49
0.48
 74
     0
 49
-0.06
 74
     0
 49
0.01
 74
     0
 49
-0.06
 74
     0
 49
0.01
 74
     0
 49
-0.06
 74
     0
  0
LTYPE
  5
8B
330
5
100
AcDbSymbolTableRecord
100
AcDbLinetypeTableRecord
  2
LONG_DASH_TRIPLE_DOT
 70
     0
  3
Long Dash Triple Dot ____ ... ____ ... ____
 72
    65
 73
     8
 40
0.3689
 49
0.2362
 74
     0
 49
-0.0295
 74
     0
 49
0.0049
 74
     0
 49
-0.0295
 74
     0
 49
0.0049
 74
     0
 49
-0.0295
 74
     0
 49
0.0049
 74
     0
 49
-0.0295
 74
     0
  0
LTYPE
  5
8C
330
5
100
AcDbSymbolTableRecord
100
AcDbLinetypeTableRecord
  2
BORDER
 70
     0
  3
Border __ __ . __ __ . __ __ . __ __ . __ __ .
 72
    65
 73
     6
 40
1.75
 49
0.5
 74
     0
 49
-0.25
 74
     0
 49
0.5
 74
     0
 49
-0.25
 74
     0
 49
0.0
 74
     0
 49
-0.25
 74
     0
  0
LTYPE
  5
8D
330
5
100
AcDbSymbolTableRecord
100
AcDbLinetypeTableRecord
  2
BORDER2
 70
     0
  3
Border (.5x) __.__.__.__.__.__.__.__.__.__.__.
 72
    65
 73
     6
 40
0.875
 49
0.25
 74
     0
 49
-0.125
 74
     0
 49
0.25
 74
     0
 49
-0.125
 74
     0
 49
0.0
 74
     0
 49
-0.125
 74
     0
  0
LTYPE
  5
8E
330
5
100
AcDbSymbolTableRecord
100
AcDbLinetypeTableRecord
  2
BORDERX2
 70
     0
  3
Border (2x) ____  ____  .  ____  ____  .  ___
 72
    65
 73
     6
 40
3.5
 49
1.0
 74
     0
 49
-0.5
 74
     0
 49
1.0
 74
     0
 49
-0.5
 74
     0
 49
0.0
 74
     0
 49
-0.5
 74
     0
  0
LTYPE
  5
8F
330
5
100
AcDbSymbolTableRecord
100
AcDbLinetypeTableRecord
  2
CENTER
 70
     0
  3
Center ____ _ ____ _ ____ _ ____ _ ____ _ ____
 72
    65
 73
     4
 40
2.0
 49
1.25
 74
     0
 49
-0.25
 74
     0
 49
0.25
 74
     0
 49
-0.25
 74
     0
  0
LTYPE
  5
90
330
5
100
AcDbSymbolTableRecord
100
AcDbLinetypeTableRecord
  2
CENTER2
 70
     0
  3
Center (.5x) ___ _ ___ _ ___ _ ___ _ ___ _ ___
 72
    65
 73
     4
 40
1.125
 49
0.75
 74
     0
 49
-0.125
 74
     0
 49
0.125
 74
     0
 49
-0.125
 74
     0
  0
LTYPE
  5
91
330
5
100
AcDbSymbolTableRecord
100
AcDbLinetypeTableRecord
  2
CENTERX2
 70
     0
  3
Center (2x) ________  __  ________  __  _____
 72
    65
 73
     4
 40
4.0
 49
2.5
 74
     0
 49
-0.5
 74
     0
 49
0.5
 74
     0
 49
-0.5
 74
     0
  0
LTYPE
  5
92
330
5
100
AcDbSymbolTableRecord
100
AcDbLinetypeTableRecord
  2
DASHDOT2
 70
     0
  3
Dash dot (.5x) _._._._._._._._._._._._._._._.
 72
    65
 73
     4
 40
0.5
 49
0.25
 74
     0
 49
-0.125
 74
     0
 49
0.0
 74
     0
 49
-0.125
 74
     0
  0
LTYPE
  5
93
330
5
100
AcDbSymbolTableRecord
100
AcDbLinetypeTableRecord
  2
DASHDOTX2
 70
     0
  3
Dash dot (2x) ____  .  ____  .  ____  .  ___
 72
    65
 73
     4
 40
2.0
 49
1.0
 74
     0
 49
-0.5
 74
     0
 49
0.0
 74
     0
 49
-0.5
 74
     0
  0
LTYPE
  5
95
330
5
100
AcDbSymbolTableRecord
100
AcDbLinetypeTableRecord
  2
DASHED2
 70
     0
  3
Dashed (.5x) _ _ _ _ _ _ _ _ _ _ _ _ _ _ _ _ _
 72
    65
 73
     2
 40
0.375
 49
0.25
 74
     0
 49
-0.125
 74
     0
  0
LTYPE
  5
96
330
5
100
AcDbSymbolTableRecord
100
AcDbLinetypeTableRecord
  2
DASHEDX2
 70
     0
  3
Dashed (2x) ____  ____  ____  ____  ____  ___
 72
    65
 73
     2
 40
1.5
 49
1.0
 74
     0
 49
-0.5
 74
     0
  0
LTYPE
  5
97
330
5
100
AcDbSymbolTableRecord
100
AcDbLinetypeTableRecord
  2
DIVIDE
 70
     0
  3
Divide ____ . . ____ . . ____ . . ____ . . ____
 72
    65
 73
     6
 40
1.25
 49
0.5
 74
     0
 49
-0.25
 74
     0
 49
0.0
 74
     0
 49
-0.25
 74
     0
 49
0.0
 74
     0
 49
-0.25
 74
     0
  0
LTYPE
  5
98
330
5
100
AcDbSymbolTableRecord
100
AcDbLinetypeTableRecord
  2
DIVIDE2
 70
     0
  3
Divide (.5x) __..__..__..__..__..__..__..__.._
 72
    65
 73
     6
 40
0.625
 49
0.25
 74
     0
 49
-0.125
 74
     0
 49
0.0
 74
     0
 49
-0.125
 74
     0
 49
0.0
 74
     0
 49
-0.125
 74
     0
  0
LTYPE
  5
99
330
5
100
AcDbSymbolTableRecord
100
AcDbLinetypeTableRecord
  2
DIVIDEX2
 70
     0
  3
Divide (2x) ________  .  .  ________  .  .  _
 72
    65
 73
     6
 40
2.5
 49
1.0
 74
     0
 49
-0.5
 74
     0
 49
0.0
 74
     0
 49
-0.5
 74
     0
 49
0.0
 74
     0
 49
-0.5
 74
     0
  0
LTYPE
  5
9A
330
5
100
AcDbSymbolTableRecord
100
AcDbLinetypeTableRecord
  2
DOT
 70
     0
  3
Dot . . . . . . . . . . . . . . . . . . . . . .
 72
    65
 73
     2
 40
0.25
 49
0.0
 74
     0
 49
-0.25
 74
     0
  0
LTYPE
  5
9B
330
5
100
AcDbSymbolTableRecord
100
AcDbLinetypeTableRecord
  2
DOT2
 70
     0
  3
Dot (.5x) .....................................
 72
    65
 73
     2
 40
0.125
 49
0.0
 74
     0
 49
-0.125
 74
     0
  0
LTYPE
  5
9C
330
5
100
AcDbSymbolTableRecord
100
AcDbLinetypeTableRecord
  2
DOTX2
 70
     0
  3
Dot (2x) .  .  .  .  .  .  .  .  .  .  .  .  . 
 72
    65
 73
     2
 40
0.5
 49
0.0
 74
     0
 49
-0.5
 74
     0
  0
LTYPE
  5
9D
330
5
100
AcDbSymbolTableRecord
100
AcDbLinetypeTableRecord
  2
HIDDEN
 70
     0
  3
Hidden __ __ __ __ __ __ __ __ __ __ __ __ __ _
 72
    65
 73
     2
 40
0.375
 49
0.25
 74
     0
 49
-0.125
 74
     0
  0
LTYPE
  5
9E
330
5
100
AcDbSymbolTableRecord
100
AcDbLinetypeTableRecord
  2
HIDDEN2
 70
     0
  3
Hidden (.5x) _ _ _ _ _ _ _ _ _ _ _ _ _ _ _ _ _
 72
    65
 73
     2
 40
0.1875
 49
0.125
 74
     0
 49
-0.0625
 74
     0
  0
LTYPE
  5
9F
330
5
100
AcDbSymbolTableRecord
100
AcDbLinetypeTableRecord
  2
HIDDENX2
 70
     0
  3
Hidden (2x) ____ ____ ____ ____ ____ ____ ____
 72
    65
 73
     2
 40
0.75
 49
0.5
 74
     0
 49
-0.25
 74
     0
  0
LTYPE
  5
A0
330
5
100
AcDbSymbolTableRecord
100
AcDbLinetypeTableRecord
  2
PHANTOM
 70
     0
  3
Phantom ______  __  __  ______  __  __  ______
 72
    65
 73
     6
 40
2.5
 49
1.25
 74
     0
 49
-0.25
 74
     0
 49
0.25
 74
     0
 49
-0.25
 74
     0
 49
0.25
 74
     0
 49
-0.25
 74
     0
  0
LTYPE
  5
A1
330
5
100
AcDbSymbolTableRecord
100
AcDbLinetypeTableRecord
  2
PHANTOM2
 70
     0
  3
Phantom (.5x) ___ _ _ ___ _ _ ___ _ _ ___ _ _
 72
    65
 73
     6
 40
1.25
 49
0.625
 74
     0
 49
-0.125
 74
     0
 49
0.125
 74
     0
 49
-0.125
 74
     0
 49
0.125
 74
     0
 49
-0.125
 74
     0
  0
LTYPE
  5
A2
330
5
100
AcDbSymbolTableRecord
100
AcDbLinetypeTableRecord
  2
PHANTOMX2
 70
     0
  3
Phantom (2x) ____________    ____    ____   _
 72
    65
 73
     6
 40
5.0
 49
2.5
 74
     0
 49
-0.5
 74
     0
 49
0.5
 74
     0
 49
-0.5
 74
     0
 49
0.5
 74
     0
 49
-0.5
 74
     0
  0
LTYPE
  5
A3
330
5
100
AcDbSymbolTableRecord
100
AcDbLinetypeTableRecord
  2
ACAD_ISO02W100
 70
     0
  3
ISO dash __ __ __ __ __ __ __ __ __ __ __ __ __
 72
    65
 73
     2
 40
0.59
 49
0.47
 74
     0
 49
-0.12
 74
     0
  0
LTYPE
  5
A4
330
5
100
AcDbSymbolTableRecord
100
AcDbLinetypeTableRecord
  2
ACAD_ISO03W100
 70
     0
  3
ISO dash space __    __    __    __    __    __
 72
    65
 73
     2
 40
1.179999999999999
 49
0.47
 74
     0
 49
-0.71
 74
     0
  0
LTYPE
  5
A5
330
5
100
AcDbSymbolTableRecord
100
AcDbLinetypeTableRecord
  2
ACAD_ISO04W100
 70
     0
  3
ISO long-dash dot ____ . ____ . ____ . ____ . _
 72
    65
 73
     4
 40
1.179999999999999
 49
0.9399999999999998
 74
     0
 49
-0.12
 74
     0
 49
0.0
 74
     0
 49
-0.12
 74
     0
  0
LTYPE
  5
A6
330
5
100
AcDbSymbolTableRecord
100
AcDbLinetypeTableRecord
  2
ACAD_ISO05W100
 70
     0
  3
ISO long-dash double-dot ____ .. ____ .. ____ .
 72
    65
 73
     6
 40
1.299999999999999
 49
0.9399999999999998
 74
     0
 49
-0.12
 74
     0
 49
0.0
 74
     0
 49
-0.12
 74
     0
 49
0.0
 74
     0
 49
-0.12
 74
     0
  0
LTYPE
  5
A7
330
5
100
AcDbSymbolTableRecord
100
AcDbLinetypeTableRecord
  2
ACAD_ISO06W100
 70
     0
  3
ISO long-dash triple-dot ____ ... ____ ... ____
 72
    65
 73
     8
 40
1.419999999999999
 49
0.9399999999999998
 74
     0
 49
-0.12
 74
     0
 49
0.0
 74
     0
 49
-0.12
 74
     0
 49
0.0
 74
     0
 49
-0.12
 74
     0
 49
0.0
 74
     0
 49
-0.12
 74
     0
  0
LTYPE
  5
A8
330
5
100
AcDbSymbolTableRecord
100
AcDbLinetypeTableRecord
  2
ACAD_ISO07W100
 70
     0
  3
ISO dot . . . . . . . . . . . . . . . . . . . .
 72
    65
 73
     2
 40
0.12
 49
0.0
 74
     0
 49
-0.12
 74
     0
  0
LTYPE
  5
A9
330
5
100
AcDbSymbolTableRecord
100
AcDbLinetypeTableRecord
  2
ACAD_ISO08W100
 70
     0
  3
ISO long-dash short-dash ____ __ ____ __ ____ _
 72
    65
 73
     4
 40
0.95
 49
0.47
 74
     0
 49
-0.12
 74
     0
 49
0.24
 74
     0
 49
-0.12
 74
     0
  0
LTYPE
  5
AA
330
5
100
AcDbSymbolTableRecord
100
AcDbLinetypeTableRecord
  2
ACAD_ISO09W100
 70
     0
  3
ISO long-dash double-short-dash ____ __ __ ____
 72
    65
 73
     6
 40
1.31
 49
0.47
 74
     0
 49
-0.12
 74
     0
 49
0.24
 74
     0
 49
-0.12
 74
     0
 49
0.24
 74
     0
 49
-0.12
 74
     0
  0
LTYPE
  5
AB
330
5
100
AcDbSymbolTableRecord
100
AcDbLinetypeTableRecord
  2
ACAD_ISO10W100
 70
     0
  3
ISO dash dot __ . __ . __ . __ . __ . __ . __ .
 72
    65
 73
     4
 40
0.71
 49
0.47
 74
     0
 49
-0.12
 74
     0
 49
0.0
 74
     0
 49
-0.12
 74
     0
  0
LTYPE
  5
AC
330
5
100
AcDbSymbolTableRecord
100
AcDbLinetypeTableRecord
  2
ACAD_ISO11W100
 70
     0
  3
ISO double-dash dot __ __ . __ __ . __ __ . __ 
 72
    65
 73
     6
 40
1.299999999999999
 49
0.47
 74
     0
 49
-0.12
 74
     0
 49
0.47
 74
     0
 49
-0.12
 74
     0
 49
0.0
 74
     0
 49
-0.12
 74
     0
  0
LTYPE
  5
AD
330
5
100
AcDbSymbolTableRecord
100
AcDbLinetypeTableRecord
  2
ACAD_ISO12W100
 70
     0
  3
ISO dash double-dot __ . . __ . . __ . . __ . .
 72
    65
 73
     6
 40
0.8299999999999998
 49
0.47
 74
     0
 49
-0.12
 74
     0
 49
0.0
 74
     0
 49
-0.12
 74
     0
 49
0.0
 74
     0
 49
-0.12
 74
     0
  0
LTYPE
  5
AE
330
5
100
AcDbSymbolTableRecord
100
AcDbLinetypeTableRecord
  2
ACAD_ISO13W100
 70
     0
  3
ISO double-dash double-dot __ __ . . __ __ . . 
 72
    65
 73
     8
 40
1.419999999999999
 49
0.47
 74
     0
 49
-0.12
 74
     0
 49
0.47
 74
     0
 49
-0.12
 74
     0
 49
0.0
 74
     0
 49
-0.12
 74
     0
 49
0.0
 74
     0
 49
-0.12
 74
     0
  0
LTYPE
  5
AF
330
5
100
AcDbSymbolTableRecord
100
AcDbLinetypeTableRecord
  2
ACAD_ISO14W100
 70
     0
  3
ISO dash triple-dot __ . . . __ . . . __ . . . 
 72
    65
 73
     8
 40
0.95
 49
0.47
 74
     0
 49
-0.12
 74
     0
 49
0.0
 74
     0
 49
-0.12
 74
     0
 49
0.0
 74
     0
 49
-0.12
 74
     0
 49
0.0
 74
     0
 49
-0.12
 74
     0
  0
LTYPE
  5
B0
330
5
100
AcDbSymbolTableRecord
100
AcDbLinetypeTableRecord
  2
ACAD_ISO15W100
 70
     0
  3
ISO double-dash triple-dot __ __ . . . __ __ . 
 72
    65
 73
    10
 40
1.539999999999999
 49
0.47
 74
     0
 49
-0.12
 74
     0
 49
0.47
 74
     0
 49
-0.12
 74
     0
 49
0.0
 74
     0
 49
-0.12
 74
     0
 49
0.0
 74
     0
 49
-0.12
 74
     0
 49
0.0
 74
     0
 49
-0.12
 74
     0
  0
LTYPE
  5
B3
330
5
100
AcDbSymbolTableRecord
100
AcDbLinetypeTableRecord
  2
FENCELINE1
 70
     0
  3
Fenceline circle ----0-----0----0-----0----0---
 72
    65
 73
     4
 40
1.45
 49
0.25
 74
     0
 49
-0.1
 74
     4
 75
   133
340
B2
 46
0.1
 50
0.0
 44
-0.1
 45
0.0
 49
-0.1
 74
     0
 49
1.0
 74
     0
  0
LTYPE
  5
B4
330
5
100
AcDbSymbolTableRecord
100
AcDbLinetypeTableRecord
  2
FENCELINE2
 70
     0
  3
Fenceline square ----[]-----[]----[]-----[]----
 72
    65
 73
     4
 40
1.45
 49
0.25
 74
     0
 49
-0.1
 74
     4
 75
   132
340
B2
 46
0.1
 50
0.0
 44
-0.1
 45
0.0
 49
-0.1
 74
     0
 49
1.0
 74
     0
  0
LTYPE
  5
B5
330
5
100
AcDbSymbolTableRecord
100
AcDbLinetypeTableRecord
  2
TRACKS
 70
     0
  3
Tracks -|-|-|-|-|-|-|-|-|-|-|-|-|-|-|-|-|-|-|-|
 72
    65
 73
     2
 40
0.3
 49
0.15
 74
     4
 75
   130
340
B2
 46
0.25
 50
0.0
 44
0.0
 45
0.0
 49
0.15
 74
     0
  0
LTYPE
  5
B6
330
5
100
AcDbSymbolTableRecord
100
AcDbLinetypeTableRecord
  2
BATTING
 70
     0
  3
Batting SSSSSSSSSSSSSSSSSSSSSSSSSSSSSSSSSSSSSSS
 72
    65
 73
     4
 40
0.4001000000000001
 49
0.0001
 74
     0
 49
-0.1
 74
     4
 75
   134
340
B2
 46
0.1
 50
0.0
 44
-0.1
 45
0.0
 49
-0.2
 74
     4
 75
   134
340
B2
 46
0.1
 50
180.0
 44
0.1
 45
0.0
 49
-0.1
 74
     0
  0
LTYPE
  5
B7
330
5
100
AcDbSymbolTableRecord
100
AcDbLinetypeTableRecord
  2
HOT_WATER_SUPPLY
 70
     0
  3
Hot water supply ---- HW ---- HW ---- HW ----
 72
    65
 73
     3
 40
0.9
 49
0.5
 74
     0
 49
-0.2
 74
     2
 75
     0
340
55
 46
0.1
 50
0.0
 44
-0.1
 45
-0.05
  9
HW
 49
-0.2
 74
     0
  0
LTYPE
  5
B8
330
5
100
AcDbSymbolTableRecord
100
AcDbLinetypeTableRecord
  2
GAS_LINE
 70
     0
  3
Gas line ----GAS----GAS----GAS----GAS----GAS---
 72
    65
 73
     3
 40
0.95
 49
0.5
 74
     0
 49
-0.2
 74
     2
 75
     0
340
55
 46
0.1
 50
0.0
 44
-0.1
 45
-0.05
  9
GAS
 49
-0.25
 74
     0
  0
LTYPE
  5
B9
330
5
100
AcDbSymbolTableRecord
100
AcDbLinetypeTableRecord
  2
ZIGZAG
 70
     0
  3
Zig zag /\/\/\/\/\/\/\/\/\/\/\/\/\/\/\/\/\/\/\/
 72
    65
 73
     4
 40
0.8001000000000001
 49
0.0001
 74
     0
 49
-0.2
 74
     4
 75
   131
340
B2
 46
0.2
 50
0.0
 44
-0.2
 45
0.0
 49
-0.4
 74
     4
 75
   131
340
B2
 46
0.2
 50
180.0
 44
0.2
 45
0.0
 49
-0.2
 74
     0
  0
ENDTAB
  0
TABLE
  2
LAYER
  5
2
330
0
100
AcDbSymbolTable
 70
    27
  0
LAYER
  5
54
330
2
100
AcDbSymbolTableRecord
100
AcDbLayerTableRecord
  2
0
 70
     0
 62
     7
  6
Continuous
370
    18
390
F
347
21
  0
LAYER
  5
C0
330
2
100
AcDbSymbolTableRecord
100
AcDbLayerTableRecord
  2
Center Mark (ANSI)
 70
     0
 62
     7
  6
Continuous
370
    15
390
F
347
21
  0
LAYER
  5
C1
330
2
100
AcDbSymbolTableRecord
100
AcDbLayerTableRecord
  2
Centerline (ANSI)
 70
     0
 62
     7
  6
Continuous
370
    15
390
F
347
21
  0
LAYER
  5
C3
330
2
100
AcDbSymbolTableRecord
100
AcDbLayerTableRecord
  2
Dimension (ANSI)
 70
     0
 62
     7
  6
Continuous
370
    13
390
F
347
21
  0
LAYER
  5
C5
330
2
100
AcDbSymbolTableRecord
100
AcDbLayerTableRecord
  2
Hidden (ANSI)
 70
     0
 62
     7
  6
DASHED
370
    15
390
F
347
21
  0
LAYER
  5
CC
330
2
100
AcDbSymbolTableRecord
100
AcDbLayerTableRecord
  2
Symbol (ANSI)
 70
     0
 62
     7
  6
Continuous
370
    18
390
F
347
21
  0
LAYER
  5
CF
330
2
100
AcDbSymbolTableRecord
100
AcDbLayerTableRecord
  2
Visible (ANSI)
 70
     0
 62
     7
  6
Continuous
370
    13
390
F
347
21
  0
LAYER
  5
D0
330
2
100
AcDbSymbolTableRecord
100
AcDbLayerTableRecord
  2
Visible Narrow (ANSI)
 70
     0
 62
     7
  6
Continuous
370
    18
390
F
347
21
  0
LAYER
  5
54E
330
2
100
AcDbSymbolTableRecord
100
AcDbLayerTableRecord
  2
Defpoints
 70
     0
 62
     7
  6
Continuous
290
     0
370
    -3
390
F
347
21
  0
ENDTAB
  0
TABLE
  2
STYLE
  5
3
330
0
100
AcDbSymbolTable
 70
    18
  0
STYLE
  5
55
330
3
100
AcDbSymbolTableRecord
100
AcDbTextStyleTableRecord
  2
Standard
 70
     0
 40
0.0
 41
1.0
 50
0.0
 71
     0
 42
0.2
  3
txt
  4

  0
STYLE
  5
5A
330
3
100
AcDbSymbolTableRecord
100
AcDbTextStyleTableRecord
  2
Annotative
 70
     0
 40
0.0
 41
1.0
 50
0.0
 71
     0
 42
0.2
  3
txt
  4

1001
AcadAnnotative
1000
AnnotativeData
1002
{
1070
     1
1070
     1
1002
}
  0
STYLE
  5
B2
330
3
100
AcDbSymbolTableRecord
100
AcDbTextStyleTableRecord
  2

 70
     1
 40
0.0
 41
1.0
 50
0.0
 71
     0
 42
0.2
  3
ltypeshp.shx
  4

  0
STYLE
  5
D4
330
3
100
AcDbSymbolTableRecord
100
AcDbTextStyleTableRecord
  2
ITALICC_120
 70
     0
 40
0.0
 41
1.0
 50
0.0
 71
     0
 42
0.2
  3
italicc.shx
  4

  0
STYLE
  5
D5
330
3
100
AcDbSymbolTableRecord
100
AcDbTextStyleTableRecord
  2
Label Text (ANSI)
 70
     0
 40
0.0
 41
1.0
 50
0.0
 71
     0
 42
0.2
  3
tahoma.ttf
  4

1001
ACAD
1000
Tahoma
1071
      256
  0
STYLE
  5
D6
330
3
100
AcDbSymbolTableRecord
100
AcDbTextStyleTableRecord
  2
Note Text (ANSI)
 70
     0
 40
0.0
 41
1.0
 50
0.0
 71
     0
 42
0.2
  3
tahoma.ttf
  4

1001
ACAD
1000
Tahoma
1071
      256
  0
STYLE
  5
D7
330
3
100
AcDbSymbolTableRecord
100
AcDbTextStyleTableRecord
  2
ROMANS
 70
     0
 40
0.0
 41
1.0
 50
0.0
 71
     0
 42
0.2
  3
romans.shx
  4

  0
STYLE
  5
D8
330
3
100
AcDbSymbolTableRecord
100
AcDbTextStyleTableRecord
  2
SANSSERIF_114
 70
     0
 40
0.0
 41
1.0
 50
0.0
 71
     0
 42
0.2
  3
tahoma.ttf
  4

1001
ACAD
1000
Tahoma
1071
      256
  0
STYLE
  5
D9
330
3
100
AcDbSymbolTableRecord
100
AcDbTextStyleTableRecord
  2
SANSSERIF_117
 70
     0
 40
0.0
 41
1.0
 50
0.0
 71
     0
 42
0.2
  3
tahoma.ttf
  4

1001
ACAD
1000
Tahoma
1071
      256
  0
STYLE
  5
DA
330
3
100
AcDbSymbolTableRecord
100
AcDbTextStyleTableRecord
  2
STANDARDAM_ANSI
 70
     0
 40
0.0
 41
1.0
 50
0.0
 71
     0
 42
0.2
  3
txt.shx
  4

  0
STYLE
  5
DB
330
3
100
AcDbSymbolTableRecord
100
AcDbTextStyleTableRecord
  2
StandardAM_ANSI$0
 70
     0
 40
0.0
 41
1.0
 50
0.0
 71
     0
 42
0.2
  3
txt.shx
  4

  0
STYLE
  5
DC
330
3
100
AcDbSymbolTableRecord
100
AcDbTextStyleTableRecord
  2
STANDARDAM_ANSI$3
 70
     0
 40
0.0
 41
1.0
 50
0.0
 71
     0
 42
0.2
  3
txt.shx
  4

  0
STYLE
  5
DD
330
3
100
AcDbSymbolTableRecord
100
AcDbTextStyleTableRecord
  2
STANDARDAM_ANSI$4
 70
     0
 40
0.0
 41
1.0
 50
0.0
 71
     0
 42
0.2
  3
txt.shx
  4

  0
STYLE
  5
DE
330
3
100
AcDbSymbolTableRecord
100
AcDbTextStyleTableRecord
  2
STANDARDAM_ANSI$7
 70
     0
 40
0.0
 41
1.0
 50
0.0
 71
     0
 42
0.2
  3
txt.shx
  4

  0
STYLE
  5
DF
330
3
100
AcDbSymbolTableRecord
100
AcDbTextStyleTableRecord
  2
STANDARDAM_ANSI$SF
 70
     0
 40
0.0
 41
1.0
 50
0.0
 71
     0
 42
0.2
  3
txt.shx
  4

  0
STYLE
  5
E0
330
3
100
AcDbSymbolTableRecord
100
AcDbTextStyleTableRecord
  2
STANDARDAM_ANSI$SH
 70
     0
 40
0.0
 41
1.0
 50
0.0
 71
     0
 42
0.2
  3
txt.shx
  4

  0
STYLE
  5
E1
330
3
100
AcDbSymbolTableRecord
100
AcDbTextStyleTableRecord
  2
STANDARDSTANDARD
 70
     0
 40
0.0
 41
1.0
 50
0.0
 71
     0
 42
0.2
  3
txt.shx
  4

  0
STYLE
  5
2E1
330
3
100
AcDbSymbolTableRecord
100
AcDbTextStyleTableRecord
  2
Text Style153
 70
     0
 40
0.0
 41
1.0
 50
0.0
 71
     0
 42
0.2
  3
tahoma.ttf
  4

1001
ACAD
1000
Tahoma
1071
      256
  0
ENDTAB
  0
TABLE
  2
VIEW
  5
6
330
0
100
AcDbSymbolTable
 70
     0
  0
ENDTAB
  0
TABLE
  2
UCS
  5
7
330
0
100
AcDbSymbolTable
 70
     0
  0
ENDTAB
  0
TABLE
  2
APPID
  5
9
330
0
100
AcDbSymbolTable
 70
     3
  0
APPID
  5
56
330
9
100
AcDbSymbolTableRecord
100
AcDbRegAppTableRecord
  2
ACAD
 70
     0
  0
APPID
  5
5E
330
9
100
AcDbSymbolTableRecord
100
AcDbRegAppTableRecord
  2
AcadAnnotative
 70
     0
  0
APPID
  5
B79
330
9
100
AcDbSymbolTableRecord
100
AcDbRegAppTableRecord
  2
ACAD_DSTYLE_DIMRADIAL_EXTENSION
 70
     0
  0
ENDTAB
  0
TABLE
  2
DIMSTYLE
  5
A
330
0
100
AcDbSymbolTable
 70
    27
100
AcDbDimStyleTable
 71
     2
340
F6
340
58
  0
DIMSTYLE
105
58
330
A
100
AcDbSymbolTableRecord
100
AcDbDimStyleTableRecord
  2
STANDARD
 70
     0
 41
0.1800000071525573
 42
0.0625
140
0.1800000071525574
144
1.0
147
0.0900000035762787
176
   256
177
   256
178
   256
274
     3
340
55
371
    -1
372
    -1
  0
DIMSTYLE
105
59
330
A
100
AcDbSymbolTableRecord
100
AcDbDimStyleTableRecord
  2
Annotative
 70
     0
340
55
1001
AcadAnnotative
1000
AnnotativeData
1002
{
1070
     1
1070
     1
1002
}
  0
DIMSTYLE
105
E2
330
A
100
AcDbSymbolTableRecord
100
AcDbDimStyleTableRecord
  2
AM_ANSI
 70
     0
  4
 mm
 40
11.0
 41
0.119999997317791
 42
0.05
 43
0.5
 44
0.1
 45
0.00000001
 78
     4
 79
     2
140
0.1200000047683716
146
0.7099999189376831
147
0.0599999986588955
176
   256
177
   256
178
     2
284
     4
340
DA
371
    -1
372
    -1
  0
DIMSTYLE
105
E3
330
A
100
AcDbSymbolTableRecord
100
AcDbDimStyleTableRecord
  2
AM_ANSI$7
 70
     0
  4
 mm
 40
11.0
 41
0.119999997317791
 42
0.05
 43
0.5
 44
0.1
 45
0.00000001
 78
     4
 79
     2
140
0.1200000047683716
146
0.7099999189376831
147
0.0599999986588955
176
   256
177
   256
178
     2
284
     4
340
DA
371
    -1
372
    -1
  0
DIMSTYLE
105
E4
330
A
100
AcDbSymbolTableRecord
100
AcDbDimStyleTableRecord
  2
AM_ANSI$0
 70
     0
  4
 mm
 40
11.0
 41
0.119999997317791
 42
0.05
 43
0.5
 44
0.1
 45
0.00000001
 78
     4
 79
     2
140
0.1200000047683716
146
0.7099999189376831
147
0.0599999986588955
176
   256
177
   256
178
     2
284
     4
340
DB
371
    -1
372
    -1
  0
DIMSTYLE
105
E5
330
A
100
AcDbSymbolTableRecord
100
AcDbDimStyleTableRecord
  2
AM_ANSI$0$7
 70
     0
  4
 mm
 40
11.0
 41
0.119999997317791
 42
0.05
 43
0.5
 44
0.1
 45
0.00000001
 78
     4
 79
     2
140
0.1200000047683716
146
0.7099999189376831
147
0.0599999986588955
176
   256
177
   256
178
     2
284
     4
340
DB
371
    -1
372
    -1
  0
DIMSTYLE
105
E6
330
A
100
AcDbSymbolTableRecord
100
AcDbDimStyleTableRecord
  2
AM_ANSI$3
 70
     0
  4
 mm
 40
11.0
 41
0.119999997317791
 42
0.05
 43
0.5
 44
0.1
 45
0.00000001
 78
     4
 79
     2
140
0.1200000047683716
146
0.7099999189376831
147
0.0599999986588955
176
   256
177
   256
178
     2
284
     4
340
DC
371
    -1
372
    -1
  0
DIMSTYLE
105
E7
330
A
100
AcDbSymbolTableRecord
100
AcDbDimStyleTableRecord
  2
AM_ANSI$3$7
 70
     0
  4
 mm
 40
11.0
 41
0.119999997317791
 42
0.05
 43
0.5
 44
0.1
 45
0.00000001
 78
     4
 79
     2
140
0.1200000047683716
146
0.7099999189376831
147
0.0599999986588955
176
   256
177
   256
178
     2
284
     4
340
DC
371
    -1
372
    -1
  0
DIMSTYLE
105
E8
330
A
100
AcDbSymbolTableRecord
100
AcDbDimStyleTableRecord
  2
AM_ANSI$4
 70
     0
  4
 mm
 40
11.0
 41
0.119999997317791
 42
0.05
 43
0.5
 44
0.1
 45
0.00000001
 78
     4
 79
     2
140
0.1200000047683716
146
0.7099999189376831
147
0.0599999986588955
176
   256
177
   256
178
     2
284
     4
340
DD
371
    -1
372
    -1
  0
DIMSTYLE
105
E9
330
A
100
AcDbSymbolTableRecord
100
AcDbDimStyleTableRecord
  2
AM_ANSI$4$7
 70
     0
  4
 mm
 40
11.0
 41
0.119999997317791
 42
0.05
 43
0.5
 44
0.1
 45
0.00000001
 78
     4
 79
     2
140
0.1200000047683716
146
0.7099999189376831
147
0.0599999986588955
176
   256
177
   256
178
     2
284
     4
340
DD
371
    -1
372
    -1
  0
DIMSTYLE
105
EA
330
A
100
AcDbSymbolTableRecord
100
AcDbDimStyleTableRecord
  2
AM_ANSI$SF
 70
     0
  4
 mm
 40
11.0
 41
0.119999997317791
 42
0.05
 43
0.5
 44
0.1
 45
0.00000001
 75
     1
 76
     1
 78
     4
 79
     2
140
0.1200000047683716
146
0.7099999189376831
147
0.0599999986588955
176
   256
177
   256
178
     2
284
     4
340
DF
371
    -1
372
    -1
  0
DIMSTYLE
105
EB
330
A
100
AcDbSymbolTableRecord
100
AcDbDimStyleTableRecord
  2
AM_ANSI$SF$7
 70
     0
  4
 mm
 40
11.0
 41
0.119999997317791
 42
0.05
 43
0.5
 44
0.1
 45
0.00000001
 75
     1
 76
     1
 78
     4
 79
     2
140
0.1200000047683716
146
0.7099999189376831
147
0.0599999986588955
176
   256
177
   256
178
     2
284
     4
340
DF
371
    -1
372
    -1
  0
DIMSTYLE
105
EC
330
A
100
AcDbSymbolTableRecord
100
AcDbDimStyleTableRecord
  2
AM_ANSI$SH
 70
     0
  4
 mm
 40
11.0
 41
0.119999997317791
 42
0.05
 43
0.5
 44
0.1
 45
0.00000001
 75
     1
 76
     1
 78
     4
 79
     2
140
0.1200000047683716
146
0.7099999189376831
147
0.0599999986588955
176
   256
177
   256
178
     2
284
     4
340
E0
371
    -1
372
    -1
  0
DIMSTYLE
105
ED
330
A
100
AcDbSymbolTableRecord
100
AcDbDimStyleTableRecord
  2
AM_ANSI$SH$7
 70
     0
  4
 mm
 40
11.0
 41
0.119999997317791
 42
0.05
 43
0.5
 44
0.1
 45
0.00000001
 75
     1
 76
     1
 78
     4
 79
     2
140
0.1200000047683716
146
0.7099999189376831
147
0.0599999986588955
176
   256
177
   256
178
     2
284
     4
340
E0
371
    -1
372
    -1
  0
DIMSTYLE
105
EE
330
A
100
AcDbSymbolTableRecord
100
AcDbDimStyleTableRecord
  2
Architectural (ANSI)
 70
     0
 40
11.0
 41
0.0984251946210861
 43
0.2362204724409449
 44
0.125
 45
0.00000001
 46
0.3937007874015748
 78
     3
 79
     3
140
0.1200000047683716
147
0.031496062992126
171
     1
176
   256
177
   256
178
   256
272
     2
274
     1
276
     2
277
     4
284
    12
285
     4
286
    12
340
D6
371
    -1
372
    -1
  0
DIMSTYLE
105
EF
330
A
100
AcDbSymbolTableRecord
100
AcDbDimStyleTableRecord
  2
Architectural (ANSI)$7
 70
     0
 40
11.0
 41
0.0984251946210861
 43
0.2362204724409449
 44
0.125
 45
0.00000001
 46
0.3937007874015748
 78
     3
 79
     3
140
0.1200000047683716
147
0.031496062992126
171
     1
176
   256
177
   256
178
   256
272
     2
274
     1
276
     2
277
     4
284
    12
285
     4
286
    12
340
D6
371
    -1
372
    -1
  0
DIMSTYLE
105
F0
330
A
100
AcDbSymbolTableRecord
100
AcDbDimStyleTableRecord
  2
Default - Fraction (ANSI)
 70
     0
 40
11.0
 41
0.0984251946210861
 43
0.2362204724409449
 44
0.125
 45
0.00000001
 46
0.3937007874015748
 79
     3
140
0.1200000047683716
147
0.031496062992126
171
     1
176
   256
177
   256
178
   256
272
     2
274
     1
276
     2
277
     5
284
    12
285
     4
286
    12
340
D6
371
    -1
372
    -1
  0
DIMSTYLE
105
F1
330
A
100
AcDbSymbolTableRecord
100
AcDbDimStyleTableRecord
  2
Default - Fraction (ANSI)$7
 70
     0
 40
11.0
 41
0.0984251946210861
 43
0.2362204724409449
 44
0.125
 45
0.00000001
 46
0.3937007874015748
 79
     3
140
0.1200000047683716
147
0.031496062992126
171
     1
176
   256
177
   256
178
   256
272
     2
274
     1
276
     2
277
     5
284
    12
285
     4
286
    12
340
D6
371
    -1
372
    -1
  0
DIMSTYLE
105
F2
330
A
100
AcDbSymbolTableRecord
100
AcDbDimStyleTableRecord
  2
Default - mm (ANSI)
 70
     0
 40
11.0
 41
0.0984251946210861
 42
0.063
 43
0.2362204724409449
 44
0.125
 45
0.00000001
 46
0.3937007874015748
 73
     0
 78
     4
 79
     1
140
0.1200000047683716
143
1.0
144
25.4
147
0.031496062992126
171
     1
176
   256
177
   256
178
   256
179
     1
271
     2
272
     2
274
     1
284
     4
285
     4
340
D6
371
    -1
372
    -1
  0
DIMSTYLE
105
F3
330
A
100
AcDbSymbolTableRecord
100
AcDbDimStyleTableRecord
  2
Default - mm (ANSI)$7
 70
     0
 40
11.0
 41
0.0984251946210861
 42
0.063
 43
0.2362204724409449
 44
0.125
 45
0.00000001
 46
0.3937007874015748
 73
     0
 78
     4
 79
     1
140
0.1200000047683716
143
1.0
144
25.4
147
0.031496062992126
171
     1
176
   256
177
   256
178
   256
179
     1
271
     2
272
     2
274
     1
284
     4
285
     4
340
D6
371
    -1
372
    -1
  0
DIMSTYLE
105
F4
330
A
100
AcDbSymbolTableRecord
100
AcDbDimStyleTableRecord
  2
Default - mm [in] (ANSI)
 70
     0
  4
 in
 40
11.0
 41
0.0984251946210861
 42
0.063
 43
0.25
 44
0.125
 45
0.00000001
 46
0.3937007874015748
 73
     0
 78
     4
 79
     1
140
0.1200000047683716
143
0.03937
144
25.4
147
0.031496062992126
170
     1
171
     3
176
   256
177
   256
178
   256
179
     1
271
     2
272
     2
274
     3
284
     4
285
     4
286
     4
340
D6
371
    -1
372
    -1
  0
DIMSTYLE
105
F5
330
A
100
AcDbSymbolTableRecord
100
AcDbDimStyleTableRecord
  2
Default - mm [in] (ANSI)$7
 70
     0
  4
 in
 40
11.0
 41
0.0984251946210861
 42
0.063
 43
0.25
 44
0.125
 45
0.00000001
 46
0.3937007874015748
 73
     0
 78
     4
 79
     1
140
0.1200000047683716
143
0.03937
144
25.4
147
0.031496062992126
170
     1
171
     3
176
   256
177
   256
178
   256
179
     1
271
     2
272
     2
274
     3
284
     4
285
     4
286
     4
340
D6
371
    -1
372
    -1
  0
DIMSTYLE
105
F6
102
{ACAD_REACTORS
330
54C
330
638
330
722
330
80C
330
90C
330
9F6
330
AE0
330
B9A
330
CA3
330
D95
102
}
330
A
100
AcDbSymbolTableRecord
100
AcDbDimStyleTableRecord
  2
Default (ANSI)
 70
     0
 40
11.0
 41
0.0984251946210861
 43
0.2362204724409449
 44
0.125
 45
0.00000001
 46
0.3937007874015748
 79
     1
140
0.1200000047683716
147
0.031496062992126
171
     1
176
   256
177
   256
178
   256
271
     2
272
     2
274
     1
284
     4
285
     4
340
D6
371
    -1
372
    -1
  0
DIMSTYLE
105
F7
330
A
100
AcDbSymbolTableRecord
100
AcDbDimStyleTableRecord
  2
Default (ANSI)$7
 70
     0
 40
11.0
 41
0.0984251946210861
 43
0.2362204724409449
 44
0.125
 45
0.00000001
 46
0.3937007874015748
 79
     1
140
0.1200000047683716
147
0.031496062992126
171
     1
176
   256
177
   256
178
   256
271
     2
272
     2
274
     1
284
     4
285
     4
340
D6
371
    -1
372
    -1
  0
DIMSTYLE
105
F8
330
A
100
AcDbSymbolTableRecord
100
AcDbDimStyleTableRecord
  2
Alternate (ANSI)
 70
     0
 40
11.0
 41
0.0979999974370003
340
55
342
F9
  0
DIMSTYLE
105
10B
330
A
100
AcDbSymbolTableRecord
100
AcDbDimStyleTableRecord
  2
Datum (ANSI)
 70
     0
 40
11.0
 41
0.0979999974370003
340
55
342
F9
  0
DIMSTYLE
105
11A
330
A
100
AcDbSymbolTableRecord
100
AcDbDimStyleTableRecord
  2
Large (ANSI)
 70
     0
 40
11.0
 41
0.1959999948740005
340
55
342
F9
  0
ENDTAB
  0
TABLE
  2
BLOCK_RECORD
  5
1
330
0
100
AcDbSymbolTable
 70
    14
  0
BLOCK_RECORD
  5
6C
330
1
100
AcDbSymbolTableRecord
100
AcDbBlockTableRecord
  2
*Model_Space
340
6F
 70
     0
280
     1
281
     0
  0
BLOCK_RECORD
  5
68
330
1
100
AcDbSymbolTableRecord
100
AcDbBlockTableRecord
  2
*Paper_Space
340
6B
 70
     0
280
     1
281
     0
  0
BLOCK_RECORD
  5
70
330
1
100
AcDbSymbolTableRecord
100
AcDbBlockTableRecord
  2
*Paper_Space0
340
73
 70
     0
280
     1
281
     0
  0
BLOCK_RECORD
  5
F9
330
1
100
AcDbSymbolTableRecord
100
AcDbBlockTableRecord
  2
_Closed
340
0
 70
     0
280
     1
281
     0
  0
BLOCK_RECORD
  5
100
330
1
100
AcDbSymbolTableRecord
100
AcDbBlockTableRecord
  2
DatumFilled45
340
0
 70
     0
280
     1
281
     0
  0
BLOCK_RECORD
  5
10C
330
1
100
AcDbSymbolTableRecord
100
AcDbBlockTableRecord
  2
Filled-1
340
0
 70
     0
280
     1
281
     0
  0
BLOCK_RECORD
  5
54F
330
1
100
AcDbSymbolTableRecord
100
AcDbBlockTableRecord
  2
*D4
340
0
 70
     0
280
     1
281
     0
  0
BLOCK_RECORD
  5
639
330
1
100
AcDbSymbolTableRecord
100
AcDbBlockTableRecord
  2
*D5
340
0
 70
     0
280
     1
281
     0
  0
BLOCK_RECORD
  5
723
330
1
100
AcDbSymbolTableRecord
100
AcDbBlockTableRecord
  2
*D6
340
0
 70
     0
280
     1
281
     0
  0
BLOCK_RECORD
  5
80D
330
1
100
AcDbSymbolTableRecord
100
AcDbBlockTableRecord
  2
*D7
340
0
 70
     0
280
     1
281
     0
  0
BLOCK_RECORD
  5
90D
330
1
100
AcDbSymbolTableRecord
100
AcDbBlockTableRecord
  2
*D8
340
0
 70
     0
280
     1
281
     0
  0
BLOCK_RECORD
  5
9F7
330
1
100
AcDbSymbolTableRecord
100
AcDbBlockTableRecord
  2
*D9
340
0
 70
     0
280
     1
281
     0
  0
BLOCK_RECORD
  5
AE1
330
1
100
AcDbSymbolTableRecord
100
AcDbBlockTableRecord
  2
*D10
340
0
 70
     0
280
     1
281
     0
  0
BLOCK_RECORD
  5
B9B
330
1
100
AcDbSymbolTableRecord
100
AcDbBlockTableRecord
  2
*D11
340
0
 70
     0
280
     1
281
     0
  0
BLOCK_RECORD
  5
CA4
330
1
100
AcDbSymbolTableRecord
100
AcDbBlockTableRecord
  2
*D12
340
0
 70
     0
280
     1
281
     0
  0
BLOCK_RECORD
  5
D96
330
1
100
AcDbSymbolTableRecord
100
AcDbBlockTableRecord
  2
*D13
340
0
 70
     0
280
     1
281
     0
  0
ENDTAB
  0
ENDSEC
  0
SECTION
  2
BLOCKS
  0
BLOCK
  5
6D
330
6C
100
AcDbEntity
  8
0
100
AcDbBlockBegin
  2
*Model_Space
 70
     0
 10
0.0
 20
0.0
 30
0.0
  3
*Model_Space
  1

  0
ENDBLK
  5
6E
330
6C
100
AcDbEntity
  8
0
100
AcDbBlockEnd
  0
BLOCK
  5
69
330
68
100
AcDbEntity
 67
     1
  8
0
100
AcDbBlockBegin
  2
*Paper_Space
 70
     0
 10
0.0
 20
0.0
 30
0.0
  3
*Paper_Space
  1

  0
ENDBLK
  5
6A
330
68
100
AcDbEntity
 67
     1
  8
0
100
AcDbBlockEnd
  0
BLOCK
  5
71
330
70
100
AcDbEntity
 67
     1
  8
0
100
AcDbBlockBegin
  2
*Paper_Space0
 70
     0
 10
0.0
 20
0.0
 30
0.0
  3
*Paper_Space0
  1

  0
ENDBLK
  5
72
330
70
100
AcDbEntity
 67
     1
  8
0
100
AcDbBlockEnd
  0
BLOCK
  5
FE
330
F9
100
AcDbEntity
  8
0
100
AcDbBlockBegin
  2
_Closed
 70
     0
 10
0.0
 20
0.0
 30
0.0
  3
_Closed
  1

  0
LINE
  5
FA
330
F9
100
AcDbEntity
  8
0
  6
ByBlock
 62
     0
370
    -2
100
AcDbLine
 10
-1.0
 20
0.1666666666666666
 30
0.0
 11
0.0
 21
0.0
 31
0.0
  0
LINE
  5
FB
330
F9
100
AcDbEntity
  8
0
  6
ByBlock
 62
     0
370
    -2
100
AcDbLine
 10
0.0
 20
0.0
 30
0.0
 11
-1.0
 21
-0.1666666666666666
 31
0.0
  0
LINE
  5
FC
330
F9
100
AcDbEntity
  8
0
  6
ByBlock
 62
     0
370
    -2
100
AcDbLine
 10
-1.0
 20
0.1666666666666666
 30
0.0
 11
-1.0
 21
-0.1666666666666666
 31
0.0
  0
LINE
  5
FD
330
F9
100
AcDbEntity
  8
0
  6
ByBlock
 62
     0
370
    -2
100
AcDbLine
 10
0.0
 20
0.0
 30
0.0
 11
-1.0
 21
0.0
 31
0.0
  0
ENDBLK
  5
FF
330
F9
100
AcDbEntity
  8
0
100
AcDbBlockEnd
  0
BLOCK
  5
101
330
100
100
AcDbEntity
  8
0
100
AcDbBlockBegin
  2
DatumFilled45
 70
     0
 10
0.0
 20
0.0
 30
0.0
  3
DatumFilled45
  1

  0
POLYLINE
  5
103
330
100
100
AcDbEntity
  8
0
 62
     0
100
AcDb2dPolyline
 66
     1
 10
0.0
 20
0.0
 30
0.0
 70
   128
  0
VERTEX
  5
104
330
103
100
AcDbEntity
  8
0
 62
     0
100
AcDbVertex
100
AcDb2dVertex
 10
0.0
 20
0.9999999999999998
 30
0.0
  0
VERTEX
  5
105
330
103
100
AcDbEntity
  8
0
 62
     0
100
AcDbVertex
100
AcDb2dVertex
 10
0.0
 20
-0.9999999999999998
 30
0.0
  0
VERTEX
  5
107
330
103
100
AcDbEntity
  8
0
 62
     0
100
AcDbVertex
100
AcDb2dVertex
 10
-0.9999999999999998
 20
0.0
 30
0.0
  0
VERTEX
  5
108
330
103
100
AcDbEntity
  8
0
 62
     0
100
AcDbVertex
100
AcDb2dVertex
 10
0.0
 20
0.9999999999999998
 30
0.0
  0
SEQEND
  5
106
330
103
100
AcDbEntity
  8
0
 62
     0
  0
SOLID
  5
10A
330
100
100
AcDbEntity
  8
0
 62
     0
100
AcDbTrace
 10
0.0
 20
0.9999999999999998
 30
0.0
 11
0.0
 21
-0.9999999999999998
 31
0.0
 12
-0.9999999999999998
 22
0.0
 32
0.0
 13
0.0
 23
0.9999999999999998
 33
0.0
  0
ENDBLK
  5
102
330
100
100
AcDbEntity
  8
0
100
AcDbBlockEnd
  0
BLOCK
  5
10D
330
10C
100
AcDbEntity
  8
0
100
AcDbBlockBegin
  2
Filled-1
 70
     0
 10
0.0
 20
0.0
 30
0.0
  3
Filled-1
  1

  0
LINE
  5
10F
330
10C
100
AcDbEntity
  8
0
 62
     0
100
AcDbLine
 10
-0.9999999999999998
 20
0.0
 30
0.0
 11
0.0
 21
0.0
 31
0.0
  0
POLYLINE
  5
110
330
10C
100
AcDbEntity
  8
0
 62
     0
100
AcDb2dPolyline
 66
     1
 10
0.0
 20
0.0
 30
0.0
 70
   128
  0
VERTEX
  5
111
330
110
100
AcDbEntity
  8
0
 62
     0
100
AcDbVertex
100
AcDb2dVertex
 10
-0.9999999999999998
 20
-0.0994897959183674
 30
0.0
  0
VERTEX
  5
112
330
110
100
AcDbEntity
  8
0
 62
     0
100
AcDbVertex
100
AcDb2dVertex
 10
0.0
 20
0.0
 30
0.0
  0
VERTEX
  5
114
330
110
100
AcDbEntity
  8
0
 62
     0
100
AcDbVertex
100
AcDb2dVertex
 10
-0.9999999999999998
 20
0.0994897959183674
 30
0.0
  0
VERTEX
  5
115
330
110
100
AcDbEntity
  8
0
 62
     0
100
AcDbVertex
100
AcDb2dVertex
 10
-0.9999999999999998
 20
-0.0994897959183674
 30
0.0
  0
SEQEND
  5
113
330
110
100
AcDbEntity
  8
0
 62
     0
  0
SOLID
  5
116
330
10C
100
AcDbEntity
  8
0
 62
     0
100
AcDbTrace
 10
-0.9999999999999998
 20
-0.0994897959183674
 30
0.0
 11
0.0
 21
0.0
 31
0.0
 12
-0.9999999999999998
 22
0.0994897959183674
 32
0.0
 13
-0.9999999999999998
 23
-0.0994897959183674
 33
0.0
  0
LINE
  5
117
330
10C
100
AcDbEntity
  8
0
 62
     0
100
AcDbLine
 10
-0.9999999999999998
 20
-0.0994897959183674
 30
0.0
 11
0.0
 21
0.0
 31
0.0
  0
LINE
  5
118
330
10C
100
AcDbEntity
  8
0
 62
     0
100
AcDbLine
 10
0.0
 20
0.0
 30
0.0
 11
-0.9999999999999998
 21
0.0994897959183674
 31
0.0
  0
LINE
  5
119
330
10C
100
AcDbEntity
  8
0
 62
     0
100
AcDbLine
 10
-0.9999999999999998
 20
0.0994897959183674
 30
0.0
 11
-0.9999999999999998
 21
-0.0994897959183674
 31
0.0
  0
ENDBLK
  5
10E
330
10C
100
AcDbEntity
  8
0
100
AcDbBlockEnd
  0
BLOCK
  5
550
330
54F
100
AcDbEntity
  8
0
100
AcDbBlockBegin
  2
*D4
 70
     1
 10
0.0
 20
0.0
 30
0.0
  3
*D4
  1

  0
LINE
  5
62E
330
54F
100
AcDbEntity
  8
Dimension (ANSI)
440
 16777216
100
AcDbLine
 10
20.9611325001728
 20
75.38551021172454
 30
0.0
 11
20.9611325001728
 21
86.33910279781721
 31
0.0
  0
LINE
  5
62F
330
54F
100
AcDbEntity
  8
Dimension (ANSI)
440
 16777216
100
AcDbLine
 10
88.96113250017277
 20
75.38551021172454
 30
0.0
 11
88.96113250017277
 21
86.33910279781721
 31
0.0
  0
LINE
  5
630
330
54F
100
AcDbEntity
  8
Dimension (ANSI)
440
 16777216
100
AcDbLine
 10
22.04380964100475
 20
84.9641027978172
 30
0.0
 11
52.43211025444566
 21
84.9641027978172
 31
0.0
  0
LINE
  5
631
330
54F
100
AcDbEntity
  8
Dimension (ANSI)
440
 16777216
100
AcDbLine
 10
87.87845535934081
 20
84.9641027978172
 30
0.0
 11
57.49015474589991
 21
84.9641027978172
 31
0.0
  0
SOLID
  5
632
330
54F
100
AcDbEntity
  8
Dimension (ANSI)
440
 16777216
100
AcDbTrace
 10
22.04380964100475
 20
85.14454898795586
 30
0.0
 11
22.04380964100475
 21
84.78365660767854
 31
0.0
 12
20.9611325001728
 22
84.9641027978172
 32
0.0
 13
20.9611325001728
 23
84.9641027978172
 33
0.0
  0
SOLID
  5
633
330
54F
100
AcDbEntity
  8
Dimension (ANSI)
440
 16777216
100
AcDbTrace
 10
87.87845535934081
 20
85.14454898795586
 30
0.0
 11
87.87845535934081
 21
84.78365660767854
 31
0.0
 12
88.96113250017277
 22
84.9641027978172
 32
0.0
 13
88.96113250017277
 23
84.9641027978172
 33
0.0
  0
MTEXT
  5
634
330
54F
100
AcDbEntity
  8
Dimension (ANSI)
440
 16777216
100
AcDbMText
 10
52.77856694735904
 20
85.65424385503309
 30
0.0
 40
1.320000052452087
 41
0.0
 46
0.0
 71
     1
 72
     1
  1
\A1;68.00
  7
Note Text (ANSI)
 73
     1
 44
1.0
  0
POINT
  5
635
330
54F
100
AcDbEntity
  8
Defpoints
 62
     0
440
 16777216
100
AcDbPoint
 10
20.9611325001728
 20
74.69801021172454
 30
0.0
  0
POINT
  5
636
330
54F
100
AcDbEntity
  8
Defpoints
 62
     0
440
 16777216
100
AcDbPoint
 10
88.96113250017277
 20
74.69801021172454
 30
0.0
  0
POINT
  5
637
330
54F
100
AcDbEntity
  8
Defpoints
 62
     0
440
 16777216
100
AcDbPoint
 10
88.96113250017277
 20
84.9641027978172
 30
0.0
  0
ENDBLK
  5
551
330
54F
100
AcDbEntity
  8
0
100
AcDbBlockEnd
  0
BLOCK
  5
63A
330
639
100
AcDbEntity
  8
0
100
AcDbBlockBegin
  2
*D5
 70
     1
 10
0.0
 20
0.0
 30
0.0
  3
*D5
  1

  0
LINE
  5
718
330
639
100
AcDbEntity
  8
Dimension (ANSI)
440
 16777216
100
AcDbLine
 10
20.9611325001728
 20
75.38551021172454
 30
0.0
 11
20.9611325001728
 21
78.82999283471291
 31
0.0
  0
LINE
  5
719
330
639
100
AcDbEntity
  8
Dimension (ANSI)
440
 16777216
100
AcDbLine
 10
21.8361325001728
 20
76.38039855937285
 30
0.0
 11
21.8361325001728
 21
78.82999283471291
 31
0.0
  0
LINE
  5
71A
330
639
100
AcDbEntity
  8
Dimension (ANSI)
440
 16777216
100
AcDbLine
 10
22.91880964100475
 20
77.45499283471291
 30
0.0
 11
24.0014867818367
 21
77.45499283471291
 31
0.0
  0
LINE
  5
71B
330
639
100
AcDbEntity
  8
Dimension (ANSI)
440
 16777216
100
AcDbLine
 10
19.87845535934085
 20
77.45499283471291
 30
0.0
 11
18.19122569432714
 21
77.45499283471291
 31
0.0
  0
SOLID
  5
71C
330
639
100
AcDbEntity
  8
Dimension (ANSI)
440
 16777216
100
AcDbTrace
 10
22.91880964100475
 20
77.63543902485157
 30
0.0
 11
22.91880964100475
 21
77.27454664457425
 31
0.0
 12
21.8361325001728
 22
77.45499283471291
 32
0.0
 13
21.8361325001728
 23
77.45499283471291
 33
0.0
  0
SOLID
  5
71D
330
639
100
AcDbEntity
  8
Dimension (ANSI)
440
 16777216
100
AcDbTrace
 10
19.87845535934085
 20
77.63543902485157
 30
0.0
 11
19.87845535934085
 21
77.27454664457425
 31
0.0
 12
20.9611325001728
 22
77.45499283471291
 32
0.0
 13
20.9611325001728
 23
77.45499283471291
 33
0.0
  0
MTEXT
  5
71E
330
639
100
AcDbEntity
  8
Dimension (ANSI)
440
 16777216
100
AcDbMText
 10
14.46099454361926
 20
78.14513389192879
 30
0.0
 40
1.320000052452087
 41
0.0
 46
0.0
 71
     1
 72
     1
  1
\A1;0.88
  7
Note Text (ANSI)
 73
     1
 44
1.0
  0
POINT
  5
71F
330
639
100
AcDbEntity
  8
Defpoints
 62
     0
440
 16777216
100
AcDbPoint
 10
20.9611325001728
 20
74.69801021172454
 30
0.0
  0
POINT
  5
720
330
639
100
AcDbEntity
  8
Defpoints
 62
     0
440
 16777216
100
AcDbPoint
 10
21.8361325001728
 20
75.69289855937284
 30
0.0
  0
POINT
  5
721
330
639
100
AcDbEntity
  8
Defpoints
 62
     0
440
 16777216
100
AcDbPoint
 10
21.8361325001728
 20
77.45499283471291
 30
0.0
  0
ENDBLK
  5
63B
330
639
100
AcDbEntity
  8
0
100
AcDbBlockEnd
  0
BLOCK
  5
724
330
723
100
AcDbEntity
  8
0
100
AcDbBlockBegin
  2
*D6
 70
     1
 10
0.0
 20
0.0
 30
0.0
  3
*D6
  1

  0
LINE
  5
802
330
723
100
AcDbEntity
  8
Dimension (ANSI)
440
 16777216
100
AcDbLine
 10
21.8361325001728
 20
76.38039855937285
 30
0.0
 11
21.8361325001728
 21
82.52112044507899
 31
0.0
  0
LINE
  5
803
330
723
100
AcDbEntity
  8
Dimension (ANSI)
440
 16777216
100
AcDbLine
 10
88.08613250017277
 20
76.38039855937285
 30
0.0
 11
88.08613250017277
 21
82.52112044507899
 31
0.0
  0
LINE
  5
804
330
723
100
AcDbEntity
  8
Dimension (ANSI)
440
 16777216
100
AcDbLine
 10
22.91880964100475
 20
81.14612044507898
 30
0.0
 11
52.44274826688829
 21
81.14612044507898
 31
0.0
  0
LINE
  5
805
330
723
100
AcDbEntity
  8
Dimension (ANSI)
440
 16777216
100
AcDbLine
 10
87.00345535934081
 20
81.14612044507898
 30
0.0
 11
57.47951673345728
 21
81.14612044507898
 31
0.0
  0
SOLID
  5
806
330
723
100
AcDbEntity
  8
Dimension (ANSI)
440
 16777216
100
AcDbTrace
 10
22.91880964100475
 20
81.32656663521764
 30
0.0
 11
22.91880964100475
 21
80.96567425494034
 31
0.0
 12
21.8361325001728
 22
81.14612044507898
 32
0.0
 13
21.8361325001728
 23
81.14612044507898
 33
0.0
  0
SOLID
  5
807
330
723
100
AcDbEntity
  8
Dimension (ANSI)
440
 16777216
100
AcDbTrace
 10
87.00345535934081
 20
81.32656663521764
 30
0.0
 11
87.00345535934081
 21
80.96567425494034
 31
0.0
 12
88.08613250017277
 22
81.14612044507898
 32
0.0
 13
88.08613250017277
 23
81.14612044507898
 33
0.0
  0
MTEXT
  5
808
330
723
100
AcDbEntity
  8
Dimension (ANSI)
440
 16777216
100
AcDbMText
 10
52.78920495980167
 20
81.83360199918421
 30
0.0
 40
1.320000052452087
 41
0.0
 46
0.0
 71
     1
 72
     1
  1
\A1;66.25
  7
Note Text (ANSI)
 73
     1
 44
1.0
  0
POINT
  5
809
330
723
100
AcDbEntity
  8
Defpoints
 62
     0
440
 16777216
100
AcDbPoint
 10
21.8361325001728
 20
75.69289855937284
 30
0.0
  0
POINT
  5
80A
330
723
100
AcDbEntity
  8
Defpoints
 62
     0
440
 16777216
100
AcDbPoint
 10
88.08613250017277
 20
75.69289855937284
 30
0.0
  0
POINT
  5
80B
330
723
100
AcDbEntity
  8
Defpoints
 62
     0
440
 16777216
100
AcDbPoint
 10
88.08613250017277
 20
81.14612044507898
 30
0.0
  0
ENDBLK
  5
725
330
723
100
AcDbEntity
  8
0
100
AcDbBlockEnd
  0
BLOCK
  5
80E
330
80D
100
AcDbEntity
  8
0
100
AcDbBlockBegin
  2
*D7
 70
     1
 10
0.0
 20
0.0
 30
0.0
  3
*D7
  1

  0
LINE
  5
901
330
80D
100
AcDbEntity
  8
Dimension (ANSI)
440
 16777216
100
AcDbLine
 10
20.48702084782113
 20
35.03139855937287
 30
0.0
 11
17.98864568879963
 21
35.03139855937287
 31
0.0
  0
LINE
  5
902
330
80D
100
AcDbEntity
  8
Dimension (ANSI)
440
 16777216
100
AcDbLine
 10
19.49213250017279
 20
35.90639855937287
 30
0.0
 11
17.98864568879963
 21
35.90639855937287
 31
0.0
  0
LINE
  5
903
330
80D
100
AcDbEntity
  8
Dimension (ANSI)
440
 16777216
100
AcDbLine
 10
19.36364568879963
 20
36.98907570020482
 30
0.0
 11
19.36364568879963
 21
38.07175284103676
 31
0.0
  0
LINE
  5
904
330
80D
100
AcDbEntity
  8
Dimension (ANSI)
440
 16777216
100
AcDbLine
 10
19.36364568879963
 20
33.94872141854092
 30
0.0
 11
19.36364568879963
 21
31.87442423466933
 31
0.0
  0
LINE
  5
905
330
80D
100
AcDbEntity
  8
Dimension (ANSI)
440
 16777216
100
AcDbLine
 10
19.36364568879963
 20
31.87442423466933
 30
0.0
 11
18.28096854796769
 21
31.87442423466933
 31
0.0
  0
SOLID
  5
906
330
80D
100
AcDbEntity
  8
Dimension (ANSI)
440
 16777216
100
AcDbTrace
 10
19.18319949866098
 20
36.98907570020482
 30
0.0
 11
19.54409187893829
 21
36.98907570020482
 31
0.0
 12
19.36364568879963
 22
35.90639855937287
 32
0.0
 13
19.36364568879963
 23
35.90639855937287
 33
0.0
  0
SOLID
  5
907
330
80D
100
AcDbEntity
  8
Dimension (ANSI)
440
 16777216
100
AcDbTrace
 10
19.18319949866098
 20
33.94872141854092
 30
0.0
 11
19.54409187893829
 21
33.94872141854092
 31
0.0
 12
19.36364568879963
 22
35.03139855937287
 32
0.0
 13
19.36364568879963
 23
35.03139855937287
 33
0.0
  0
MTEXT
  5
908
330
80D
100
AcDbEntity
  8
Dimension (ANSI)
440
 16777216
100
AcDbMText
 10
14.5507373972598
 20
32.56456529188522
 30
0.0
 40
1.320000052452087
 41
0.0
 46
0.0
 71
     1
 72
     1
  1
\A1;0.88
  7
Note Text (ANSI)
 73
     1
 44
1.0
  0
POINT
  5
909
330
80D
100
AcDbEntity
  8
Defpoints
 62
     0
440
 16777216
100
AcDbPoint
 10
21.17452084782113
 20
35.03139855937287
 30
0.0
  0
POINT
  5
90A
330
80D
100
AcDbEntity
  8
Defpoints
 62
     0
440
 16777216
100
AcDbPoint
 10
20.17963250017279
 20
35.90639855937287
 30
0.0
  0
POINT
  5
90B
330
80D
100
AcDbEntity
  8
Defpoints
 62
     0
440
 16777216
100
AcDbPoint
 10
19.36364568879963
 20
35.90639855937287
 30
0.0
  0
ENDBLK
  5
80F
330
80D
100
AcDbEntity
  8
0
100
AcDbBlockEnd
  0
BLOCK
  5
90E
330
90D
100
AcDbEntity
  8
0
100
AcDbBlockBegin
  2
*D8
 70
     1
 10
0.0
 20
0.0
 30
0.0
  3
*D8
  1

  0
LINE
  5
9EC
330
90D
100
AcDbEntity
  8
Dimension (ANSI)
440
 16777216
100
AcDbLine
 10
19.49213250017279
 20
35.90639855937287
 30
0.0
 11
14.86762462615705
 21
35.90639855937288
 31
0.0
  0
LINE
  5
9ED
330
90D
100
AcDbEntity
  8
Dimension (ANSI)
440
 16777216
100
AcDbLine
 10
19.4921325001728
 20
74.03639855937285
 30
0.0
 11
14.86762462615706
 21
74.03639855937285
 31
0.0
  0
LINE
  5
9EE
330
90D
100
AcDbEntity
  8
Dimension (ANSI)
440
 16777216
100
AcDbLine
 10
16.24262462615705
 20
36.98907570020482
 30
0.0
 11
16.24262462615706
 21
53.9348008092436
 31
0.0
  0
LINE
  5
9EF
330
90D
100
AcDbEntity
  8
Dimension (ANSI)
440
 16777216
100
AcDbLine
 10
16.24262462615706
 20
72.95372141854091
 30
0.0
 11
16.24262462615706
 21
56.00799630950214
 31
0.0
  0
SOLID
  5
9F0
330
90D
100
AcDbEntity
  8
Dimension (ANSI)
440
 16777216
100
AcDbTrace
 10
16.0621784360184
 20
36.98907570020482
 30
0.0
 11
16.42307081629571
 21
36.98907570020482
 31
0.0
 12
16.24262462615705
 22
35.90639855937287
 32
0.0
 13
16.24262462615705
 23
35.90639855937287
 33
0.0
  0
SOLID
  5
9F1
330
90D
100
AcDbEntity
  8
Dimension (ANSI)
440
 16777216
100
AcDbTrace
 10
16.06217843601841
 20
72.95372141854091
 30
0.0
 11
16.42307081629572
 21
72.95372141854091
 31
0.0
 12
16.24262462615706
 22
74.03639855937285
 32
0.0
 13
16.24262462615706
 23
74.03639855937285
 33
0.0
  0
MTEXT
  5
9F2
330
90D
100
AcDbEntity
  8
Dimension (ANSI)
440
 16777216
100
AcDbMText
 10
14.08000534667325
 20
55.66153961658876
 30
0.0
 40
1.320000052452087
 41
0.0
 46
0.0
 71
     1
 72
     1
  1
\A1;38.13
  7
Note Text (ANSI)
 73
     1
 44
1.0
  0
POINT
  5
9F3
330
90D
100
AcDbEntity
  8
Defpoints
 62
     0
440
 16777216
100
AcDbPoint
 10
20.17963250017279
 20
35.90639855937287
 30
0.0
  0
POINT
  5
9F4
330
90D
100
AcDbEntity
  8
Defpoints
 62
     0
440
 16777216
100
AcDbPoint
 10
20.17963250017281
 20
74.03639855937285
 30
0.0
  0
POINT
  5
9F5
330
90D
100
AcDbEntity
  8
Defpoints
 62
     0
440
 16777216
100
AcDbPoint
 10
16.24262462615706
 20
74.03639855937285
 30
0.0
  0
ENDBLK
  5
90F
330
90D
100
AcDbEntity
  8
0
100
AcDbBlockEnd
  0
BLOCK
  5
9F8
330
9F7
100
AcDbEntity
  8
0
100
AcDbBlockBegin
  2
*D9
 70
     1
 10
0.0
 20
0.0
 30
0.0
  3
*D9
  1

  0
LINE
  5
AD6
330
9F7
100
AcDbEntity
  8
Dimension (ANSI)
440
 16777216
100
AcDbLine
 10
20.48702084782113
 20
35.03139855937287
 30
0.0
 11
8.775898800577044
 21
35.03139855937288
 31
0.0
  0
LINE
  5
AD7
330
9F7
100
AcDbEntity
  8
Dimension (ANSI)
440
 16777216
100
AcDbLine
 10
20.48702084782113
 20
74.91139855937284
 30
0.0
 11
8.775898800577053
 21
74.91139855937284
 31
0.0
  0
LINE
  5
AD8
330
9F7
100
AcDbEntity
  8
Dimension (ANSI)
440
 16777216
100
AcDbLine
 10
10.15089880057704
 20
36.11407570020482
 30
0.0
 11
10.15089880057705
 21
53.93480080924361
 31
0.0
  0
LINE
  5
AD9
330
9F7
100
AcDbEntity
  8
Dimension (ANSI)
440
 16777216
100
AcDbLine
 10
10.15089880057705
 20
73.8287214185409
 30
0.0
 11
10.15089880057705
 21
56.00799630950215
 31
0.0
  0
SOLID
  5
ADA
330
9F7
100
AcDbEntity
  8
Dimension (ANSI)
440
 16777216
100
AcDbTrace
 10
9.970452610438387
 20
36.11407570020482
 30
0.0
 11
10.3313449907157
 21
36.11407570020482
 31
0.0
 12
10.15089880057704
 22
35.03139855937288
 32
0.0
 13
10.15089880057704
 23
35.03139855937288
 33
0.0
  0
SOLID
  5
ADB
330
9F7
100
AcDbEntity
  8
Dimension (ANSI)
440
 16777216
100
AcDbTrace
 10
9.970452610438394
 20
73.8287214185409
 30
0.0
 11
10.33134499071571
 21
73.8287214185409
 31
0.0
 12
10.15089880057705
 22
74.91139855937284
 32
0.0
 13
10.15089880057705
 23
74.91139855937284
 33
0.0
  0
MTEXT
  5
ADC
330
9F7
100
AcDbEntity
  8
Dimension (ANSI)
440
 16777216
100
AcDbMText
 10
7.96966299931863
 20
55.66153961658876
 30
0.0
 40
1.320000052452087
 41
0.0
 46
0.0
 71
     1
 72
     1
  1
\A1;39.88
  7
Note Text (ANSI)
 73
     1
 44
1.0
  0
POINT
  5
ADD
330
9F7
100
AcDbEntity
  8
Defpoints
 62
     0
440
 16777216
100
AcDbPoint
 10
21.17452084782113
 20
35.03139855937287
 30
0.0
  0
POINT
  5
ADE
330
9F7
100
AcDbEntity
  8
Defpoints
 62
     0
440
 16777216
100
AcDbPoint
 10
21.17452084782113
 20
74.91139855937284
 30
0.0
  0
POINT
  5
ADF
330
9F7
100
AcDbEntity
  8
Defpoints
 62
     0
440
 16777216
100
AcDbPoint
 10
10.15089880057705
 20
74.91139855937284
 30
0.0
  0
ENDBLK
  5
9F9
330
9F7
100
AcDbEntity
  8
0
100
AcDbBlockEnd
  0
BLOCK
  5
AE2
330
AE1
100
AcDbEntity
  8
0
100
AcDbBlockBegin
  2
*D10
 70
     1
 10
0.0
 20
0.0
 30
0.0
  3
*D10
  1

  0
LINE
  5
B92
330
AE1
100
AcDbEntity
  8
Dimension (ANSI)
440
 16777216
100
AcDbLine
 10
91.86830245217496
 20
32.91907818922464
 30
0.0
 11
90.39210613758212
 21
32.91907818922464
 31
0.0
  0
LINE
  5
B93
330
AE1
100
AcDbEntity
  8
Dimension (ANSI)
440
 16777216
100
AcDbLine
 10
90.39210613758212
 20
32.91907818922464
 30
0.0
 11
88.91970955859429
 21
34.82652423370261
 31
0.0
  0
MTEXT
  5
B94
330
AE1
100
AcDbEntity
  8
Dimension (ANSI)
440
 16777216
100
AcDbMText
 10
92.21475914508834
 20
32.91907818922464
 30
0.0
 40
1.320000052452087
 41
0.0
 46
0.0
 71
     4
 72
     1
  1
\A1;∅0.563{\P(6 PL.)}
  7
Note Text (ANSI)
 73
     1
 44
1.0
  0
SOLID
  5
B95
330
AE1
100
AcDbEntity
  8
Dimension (ANSI)
440
 16777216
100
AcDbTrace
 10
89.06254966495827
 20
34.93678543063736
 30
0.0
 11
88.77686945223031
 21
34.71626303676787
 31
0.0
 12
88.25814237698581
 22
35.6835648718865
 32
0.0
 13
88.25814237698581
 23
35.6835648718865
 33
0.0
  0
LINE
  5
B96
330
AE1
100
AcDbEntity
  8
Dimension (ANSI)
440
 16777216
100
AcDbLine
 10
87.09613250017282
 20
35.90639855937288
 30
0.0
 11
89.07613250017281
 21
35.90639855937288
 31
0.0
  0
LINE
  5
B97
330
AE1
100
AcDbEntity
  8
Dimension (ANSI)
440
 16777216
100
AcDbLine
 10
88.08613250017279
 20
34.91639855937286
 30
0.0
 11
88.0861325001728
 21
36.89639855937288
 31
0.0
  0
POINT
  5
B98
330
AE1
100
AcDbEntity
  8
Defpoints
 62
     0
440
 16777216
100
AcDbPoint
 10
88.25814237698581
 20
35.6835648718865
 30
0.0
  0
POINT
  5
B99
330
AE1
100
AcDbEntity
  8
Defpoints
 62
     0
440
 16777216
100
AcDbPoint
 10
87.91412262335976
 20
36.12923224685923
 30
0.0
  0
ENDBLK
  5
AE3
330
AE1
100
AcDbEntity
  8
0
100
AcDbBlockEnd
  0
BLOCK
  5
B9C
330
B9B
100
AcDbEntity
  8
0
100
AcDbBlockBegin
  2
*D11
 70
     1
 10
0.0
 20
0.0
 30
0.0
  3
*D11
  1

  0
LINE
  5
C9A
330
B9B
100
AcDbEntity
  8
Dimension (ANSI)
440
 16777216
100
AcDbLine
 10
77.46999913082193
 20
98.62882414050288
 30
0.0
 11
77.46999913082193
 21
97.54614699967092
 31
0.0
  0
LINE
  5
C9B
330
B9B
100
AcDbEntity
  8
Dimension (ANSI)
440
 16777216
100
AcDbLine
 10
77.46999913082193
 20
101.6691784221668
 30
0.0
 11
77.46999913082193
 21
105.2284756243914
 31
0.0
  0
LINE
  5
C9C
330
B9B
100
AcDbEntity
  8
Dimension (ANSI)
440
 16777216
100
AcDbLine
 10
77.46999913082193
 20
105.2284756243914
 30
0.0
 11
78.55267627165388
 21
105.2284756243914
 31
0.0
  0
SOLID
  5
C9D
330
B9B
100
AcDbEntity
  8
Dimension (ANSI)
440
 16777216
100
AcDbTrace
 10
77.28955294068327
 20
98.62882414050288
 30
0.0
 11
77.65044532096059
 21
98.62882414050288
 31
0.0
 12
77.46999913082193
 22
99.71150128133482
 32
0.0
 13
77.46999913082193
 23
99.71150128133482
 33
0.0
  0
SOLID
  5
C9E
330
B9B
100
AcDbEntity
  8
Dimension (ANSI)
440
 16777216
100
AcDbTrace
 10
77.28955294068327
 20
101.6691784221668
 30
0.0
 11
77.65044532096059
 21
101.6691784221668
 31
0.0
 12
77.46999913082193
 22
100.5865012813349
 32
0.0
 13
77.46999913082193
 23
100.5865012813349
 33
0.0
  0
MTEXT
  5
C9F
330
B9B
100
AcDbEntity
  8
Dimension (ANSI)
440
 16777216
100
AcDbMText
 10
80.64288050412233
 20
105.2284756243915
 30
0.0
 40
1.320000052452087
 41
0.0
 46
0.0
 71
     5
 72
     1
  1
\A1;0.88{\PTYP.}
  7
Note Text (ANSI)
 73
     1
 44
1.0
  0
POINT
  5
CA0
330
B9B
100
AcDbEntity
  8
Defpoints
 62
     0
440
 16777216
100
AcDbPoint
 10
80.64288050412233
 20
100.5865012813349
 30
0.0
  0
POINT
  5
CA1
330
B9B
100
AcDbEntity
  8
Defpoints
 62
     0
440
 16777216
100
AcDbPoint
 10
80.60688054811825
 20
99.71150128133482
 30
0.0
  0
POINT
  5
CA2
330
B9B
100
AcDbEntity
  8
Defpoints
 62
     0
440
 16777216
100
AcDbPoint
 10
77.46999913082193
 20
99.71150128133482
 30
0.0
  0
ENDBLK
  5
B9D
330
B9B
100
AcDbEntity
  8
0
100
AcDbBlockEnd
  0
BLOCK
  5
CA5
330
CA4
100
AcDbEntity
  8
0
100
AcDbBlockBegin
  2
*D12
 70
     1
 10
0.0
 20
0.0
 30
0.0
  3
*D12
  1

  0
LINE
  5
D8A
330
CA4
100
AcDbEntity
  8
Dimension (ANSI)
440
 16777216
100
AcDbLine
 10
107.0876263458389
 20
72.83731445828127
 30
0.0
 11
106.0049492050069
 21
72.83731445828127
 31
0.0
  0
LINE
  5
D8B
330
CA4
100
AcDbEntity
  8
Dimension (ANSI)
440
 16777216
100
AcDbLine
 10
110.1279806275027
 20
72.83731445828127
 30
0.0
 11
111.8201042738145
 21
72.83731445828127
 31
0.0
  0
SOLID
  5
D8C
330
CA4
100
AcDbEntity
  8
Dimension (ANSI)
440
 16777216
100
AcDbTrace
 10
107.0876263458389
 20
73.01776064841992
 30
0.0
 11
107.0876263458389
 21
72.65686826814262
 31
0.0
 12
108.1703034866708
 22
72.83731445828127
 32
0.0
 13
108.1703034866708
 23
72.83731445828127
 33
0.0
  0
SOLID
  5
D8D
330
CA4
100
AcDbEntity
  8
Dimension (ANSI)
440
 16777216
100
AcDbTrace
 10
110.1279806275027
 20
73.01776064841992
 30
0.0
 11
110.1279806275027
 21
72.65686826814262
 31
0.0
 12
109.0453034866708
 22
72.83731445828127
 32
0.0
 13
109.0453034866708
 23
72.83731445828127
 33
0.0
  0
MTEXT
  5
D8E
330
CA4
100
AcDbEntity
  8
Dimension (ANSI)
440
 16777216
100
AcDbMText
 10
112.1665609667279
 20
72.83731445828127
 30
0.0
 40
1.320000052452087
 41
0.0
 46
0.0
 71
     4
 72
     1
  1
\A1;0.88{\PTYP.}
  7
Note Text (ANSI)
 73
     1
 44
1.0
  0
POINT
  5
D8F
330
CA4
100
AcDbEntity
  8
Defpoints
 62
     0
440
 16777216
100
AcDbPoint
 10
109.0453034866708
 20
72.83731445828127
 30
0.0
  0
POINT
  5
D90
330
CA4
100
AcDbEntity
  8
Defpoints
 62
     0
440
 16777216
100
AcDbPoint
 10
108.1703034866708
 20
72.87691860557997
 30
0.0
  0
POINT
  5
D91
330
CA4
100
AcDbEntity
  8
Defpoints
 62
     0
440
 16777216
100
AcDbPoint
 10
108.1703034866708
 20
72.83731445828127
 30
0.0
  0
ENDBLK
  5
CA6
330
CA4
100
AcDbEntity
  8
0
100
AcDbBlockEnd
  0
BLOCK
  5
D97
330
D96
100
AcDbEntity
  8
0
100
AcDbBlockBegin
  2
*D13
 70
     1
 10
0.0
 20
0.0
 30
0.0
  3
*D13
  1

  0
LINE
  5
E75
330
D96
100
AcDbEntity
  8
Dimension (ANSI)
440
 16777216
100
AcDbLine
 10
21.8361325001728
 20
76.38039855937285
 30
0.0
 11
21.8361325001728
 21
78.82999283471291
 31
0.0
  0
LINE
  5
E76
330
D96
100
AcDbEntity
  8
Dimension (ANSI)
440
 16777216
100
AcDbLine
 10
54.9611325001728
 20
76.38039855937285
 30
0.0
 11
54.9611325001728
 21
78.82999283471291
 31
0.0
  0
LINE
  5
E77
330
D96
100
AcDbEntity
  8
Dimension (ANSI)
440
 16777216
100
AcDbLine
 10
22.91880964100475
 20
77.45499283471291
 30
0.0
 11
35.88955652777562
 21
77.45499283471291
 31
0.0
  0
LINE
  5
E78
330
D96
100
AcDbEntity
  8
Dimension (ANSI)
440
 16777216
100
AcDbLine
 10
53.87845535934085
 20
77.45499283471291
 30
0.0
 11
40.90770847256998
 21
77.45499283471291
 31
0.0
  0
SOLID
  5
E79
330
D96
100
AcDbEntity
  8
Dimension (ANSI)
440
 16777216
100
AcDbTrace
 10
22.91880964100475
 20
77.63543902485157
 30
0.0
 11
22.91880964100475
 21
77.27454664457425
 31
0.0
 12
21.8361325001728
 22
77.45499283471291
 32
0.0
 13
21.8361325001728
 23
77.45499283471291
 33
0.0
  0
SOLID
  5
E7A
330
D96
100
AcDbEntity
  8
Dimension (ANSI)
440
 16777216
100
AcDbTrace
 10
53.87845535934085
 20
77.63543902485157
 30
0.0
 11
53.87845535934085
 21
77.27454664457425
 31
0.0
 12
54.9611325001728
 22
77.45499283471291
 32
0.0
 13
54.9611325001728
 23
77.45499283471291
 33
0.0
  0
MTEXT
  5
E7B
330
D96
100
AcDbEntity
  8
Dimension (ANSI)
440
 16777216
100
AcDbMText
 10
36.236013220689
 20
78.14247438881813
 30
0.0
 40
1.320000052452087
 41
0.0
 46
0.0
 71
     1
 72
     1
  1
\A1;33.13
  7
Note Text (ANSI)
 73
     1
 44
1.0
  0
POINT
  5
E7C
330
D96
100
AcDbEntity
  8
Defpoints
 62
     0
440
 16777216
100
AcDbPoint
 10
21.8361325001728
 20
75.69289855937284
 30
0.0
  0
POINT
  5
E7D
330
D96
100
AcDbEntity
  8
Defpoints
 62
     0
440
 16777216
100
AcDbPoint
 10
54.9611325001728
 20
75.69289855937284
 30
0.0
  0
POINT
  5
E7E
330
D96
100
AcDbEntity
  8
Defpoints
 62
     0
440
 16777216
100
AcDbPoint
 10
54.9611325001728
 20
77.45499283471291
 30
0.0
  0
ENDBLK
  5
D98
330
D96
100
AcDbEntity
  8
0
100
AcDbBlockEnd
  0
ENDSEC
  0
SECTION
  2
ENTITIES
  0
CIRCLE
  5
11B
330
6C
100
AcDbEntity
  8
Visible (ANSI)
100
AcDbCircle
 10
54.96113250017284
 20
35.90639855937286
 30
0.0
 40
0.2814999999999999
  0
CIRCLE
  5
11C
330
6C
100
AcDbEntity
  8
Visible (ANSI)
100
AcDbCircle
 10
54.9611325001728
 20
74.03639855937285
 30
0.0
 40
0.2814999999999999
  0
CIRCLE
  5
11D
330
6C
100
AcDbEntity
  8
Visible (ANSI)
100
AcDbCircle
 10
88.08613250017277
 20
74.03639855937285
 30
0.0
 40
0.2814999999999999
  0
CIRCLE
  5
11E
330
6C
100
AcDbEntity
  8
Visible (ANSI)
100
AcDbCircle
 10
21.8361325001728
 20
74.03639855937285
 30
0.0
 40
0.2814999999999999
  0
CIRCLE
  5
11F
330
6C
100
AcDbEntity
  8
Visible (ANSI)
100
AcDbCircle
 10
21.83613250017279
 20
35.90639855937287
 30
0.0
 40
0.2814999999999999
  0
CIRCLE
  5
120
330
6C
100
AcDbEntity
  8
Visible (ANSI)
100
AcDbCircle
 10
88.08613250017277
 20
35.90639855937287
 30
0.0
 40
0.2814999999999999
  0
LINE
  5
121
330
6C
100
AcDbEntity
  8
Visible (ANSI)
100
AcDbLine
 10
88.96113250017277
 20
74.69801021172454
 30
0.0
 11
88.96113250017284
 21
35.2447869070212
 31
0.0
  0
LINE
  5
122
330
6C
100
AcDbEntity
  8
Visible (ANSI)
100
AcDbLine
 10
21.17452084782112
 20
74.91139855937285
 30
0.0
 11
88.74774415252447
 21
74.91139855937288
 31
0.0
  0
LINE
  5
123
330
6C
100
AcDbEntity
  8
Visible (ANSI)
100
AcDbLine
 10
20.96113250017281
 20
35.24478690702119
 30
0.0
 11
20.9611325001728
 21
74.69801021172457
 31
0.0
  0
LINE
  5
124
330
6C
100
AcDbEntity
  8
Visible (ANSI)
100
AcDbLine
 10
88.74774415252449
 20
35.03139855937287
 30
0.0
 11
21.17452084782113
 21
35.03139855937287
 31
0.0
  0
LINE
  5
125
330
6C
100
AcDbEntity
  8
Hidden (ANSI)
 48
1.084499478340148
100
AcDbLine
 10
88.83613250017283
 20
35.2447869070212
 30
0.0
 11
88.83613250017276
 21
74.69801021172454
 31
0.0
  0
LINE
  5
126
330
6C
100
AcDbEntity
  8
Hidden (ANSI)
 48
1.100722193717956
100
AcDbLine
 10
88.74774415252447
 20
74.78639855937287
 30
0.0
 11
21.17452084782112
 21
74.78639855937284
 31
0.0
  0
LINE
  5
127
330
6C
100
AcDbEntity
  8
Hidden (ANSI)
 48
1.084499478340148
100
AcDbLine
 10
21.0861325001728
 20
74.69801021172457
 30
0.0
 11
21.08613250017282
 21
35.24478690702118
 31
0.0
  0
LINE
  5
128
330
6C
100
AcDbEntity
  8
Hidden (ANSI)
 48
1.100722193717956
100
AcDbLine
 10
21.17452084782113
 20
35.15639855937287
 30
0.0
 11
88.74774415252449
 21
35.15639855937287
 31
0.0
  0
POLYLINE
  5
129
330
6C
100
AcDbEntity
  8
Visible (ANSI)
100
AcDb2dPolyline
 66
     1
 10
0.0
 20
0.0
 30
0.0
 70
   128
  0
VERTEX
  5
12A
330
129
100
AcDbEntity
  8
Visible (ANSI)
100
AcDbVertex
100
AcDb2dVertex
 10
88.82052984769064
 20
74.77079706511691
 30
0.0
  0
VERTEX
  5
12B
330
129
100
AcDbEntity
  8
Visible (ANSI)
100
AcDbVertex
100
AcDb2dVertex
 10
88.82972717290902
 20
74.76776633319485
 30
0.0
  0
VERTEX
  5
12D
330
129
100
AcDbEntity
  8
Visible (ANSI)
100
AcDbVertex
100
AcDb2dVertex
 10
88.83888244634652
 20
74.76473259757415
 30
0.0
  0
VERTEX
  5
12E
330
129
100
AcDbEntity
  8
Visible (ANSI)
100
AcDbVertex
100
AcDb2dVertex
 10
88.84795962361954
 20
74.76169886195345
 30
0.0
  0
VERTEX
  5
12F
330
129
100
AcDbEntity
  8
Visible (ANSI)
100
AcDbVertex
100
AcDb2dVertex
 10
88.85692266034444
 20
74.75866813003138
 30
0.0
  0
VERTEX
  5
130
330
129
100
AcDbEntity
  8
Visible (ANSI)
100
AcDbVertex
100
AcDb2dVertex
 10
88.86572950474034
 20
74.75563439441071
 30
0.0
  0
VERTEX
  5
131
330
129
100
AcDbEntity
  8
Visible (ANSI)
100
AcDbVertex
100
AcDb2dVertex
 10
88.8743381050264
 20
74.75260065879002
 30
0.0
  0
VERTEX
  5
132
330
129
100
AcDbEntity
  8
Visible (ANSI)
100
AcDbVertex
100
AcDb2dVertex
 10
88.88271842421623
 20
74.74956992686795
 30
0.0
  0
VERTEX
  5
133
330
129
100
AcDbEntity
  8
Visible (ANSI)
100
AcDbVertex
100
AcDb2dVertex
 10
88.89083441792626
 20
74.74653619124724
 30
0.0
  0
VERTEX
  5
134
330
129
100
AcDbEntity
  8
Visible (ANSI)
100
AcDbVertex
100
AcDb2dVertex
 10
88.89864403437556
 20
74.74350245562655
 30
0.0
  0
VERTEX
  5
135
330
129
100
AcDbEntity
  8
Visible (ANSI)
100
AcDbVertex
100
AcDb2dVertex
 10
88.90612324397508
 20
74.74046872000586
 30
0.0
  0
VERTEX
  5
136
330
129
100
AcDbEntity
  8
Visible (ANSI)
100
AcDbVertex
100
AcDb2dVertex
 10
88.91323600234123
 20
74.73743798808381
 30
0.0
  0
VERTEX
  5
137
330
129
100
AcDbEntity
  8
Visible (ANSI)
100
AcDbVertex
100
AcDb2dVertex
 10
88.91995227248765
 20
74.73440425246311
 30
0.0
  0
VERTEX
  5
138
330
129
100
AcDbEntity
  8
Visible (ANSI)
100
AcDbVertex
100
AcDb2dVertex
 10
88.92624201742796
 20
74.73137051684242
 30
0.0
  0
VERTEX
  5
139
330
129
100
AcDbEntity
  8
Visible (ANSI)
100
AcDbVertex
100
AcDb2dVertex
 10
88.93207520017588
 20
74.72833978492037
 30
0.0
  0
VERTEX
  5
13A
330
129
100
AcDbEntity
  8
Visible (ANSI)
100
AcDbVertex
100
AcDb2dVertex
 10
88.93743980593683
 20
74.72530604929966
 30
0.0
  0
VERTEX
  5
13B
330
129
100
AcDbEntity
  8
Visible (ANSI)
100
AcDbVertex
100
AcDb2dVertex
 10
88.94229378292996
 20
74.72227231367897
 30
0.0
  0
VERTEX
  5
13C
330
129
100
AcDbEntity
  8
Visible (ANSI)
100
AcDbVertex
100
AcDb2dVertex
 10
88.94663112375793
 20
74.7192415817569
 30
0.0
  0
VERTEX
  5
13D
330
129
100
AcDbEntity
  8
Visible (ANSI)
100
AcDbVertex
100
AcDb2dVertex
 10
88.95042779883176
 20
74.71620784613621
 30
0.0
  0
VERTEX
  5
13E
330
129
100
AcDbEntity
  8
Visible (ANSI)
100
AcDbVertex
100
AcDb2dVertex
 10
88.95367179335686
 20
74.71317411051552
 30
0.0
  0
VERTEX
  5
13F
330
129
100
AcDbEntity
  8
Visible (ANSI)
100
AcDbVertex
100
AcDb2dVertex
 10
88.95633907774415
 20
74.71014037489482
 30
0.0
  0
VERTEX
  5
140
330
129
100
AcDbEntity
  8
Visible (ANSI)
100
AcDbVertex
100
AcDb2dVertex
 10
88.95842965199367
 20
74.70710964297277
 30
0.0
  0
VERTEX
  5
141
330
129
100
AcDbEntity
  8
Visible (ANSI)
100
AcDbVertex
100
AcDb2dVertex
 10
88.95993150131086
 20
74.70407590735208
 30
0.0
  0
VERTEX
  5
142
330
129
100
AcDbEntity
  8
Visible (ANSI)
100
AcDbVertex
100
AcDb2dVertex
 10
88.96083261090115
 20
74.70104217173137
 30
0.0
  0
VERTEX
  5
143
330
129
100
AcDbEntity
  8
Visible (ANSI)
100
AcDbVertex
100
AcDb2dVertex
 10
88.96113298076459
 20
74.69801143980932
 30
0.0
  0
SEQEND
  5
12C
330
129
100
AcDbEntity
  8
Visible (ANSI)
  0
POLYLINE
  5
144
330
6C
100
AcDbEntity
  8
Visible (ANSI)
100
AcDb2dPolyline
 66
     1
 10
0.0
 20
0.0
 30
0.0
 70
   128
  0
VERTEX
  5
145
330
144
100
AcDbEntity
  8
Visible (ANSI)
100
AcDbVertex
100
AcDb2dVertex
 10
88.96113298076459
 20
35.24478689535927
 30
0.0
  0
VERTEX
  5
146
330
144
100
AcDbEntity
  8
Visible (ANSI)
100
AcDbVertex
100
AcDb2dVertex
 10
88.96083261090115
 20
35.24175405146161
 30
0.0
  0
VERTEX
  5
148
330
144
100
AcDbEntity
  8
Visible (ANSI)
100
AcDbVertex
100
AcDb2dVertex
 10
88.95993150131086
 20
35.23872120756395
 30
0.0
  0
VERTEX
  5
149
330
144
100
AcDbEntity
  8
Visible (ANSI)
100
AcDbVertex
100
AcDb2dVertex
 10
88.95842965199367
 20
35.23568836366628
 30
0.0
  0
VERTEX
  5
14A
330
144
100
AcDbEntity
  8
Visible (ANSI)
100
AcDbVertex
100
AcDb2dVertex
 10
88.95633907774415
 20
35.23265551976862
 30
0.0
  0
VERTEX
  5
14B
330
144
100
AcDbEntity
  8
Visible (ANSI)
100
AcDbVertex
100
AcDb2dVertex
 10
88.95367179335686
 20
35.22962267587096
 30
0.0
  0
VERTEX
  5
14C
330
144
100
AcDbEntity
  8
Visible (ANSI)
100
AcDbVertex
100
AcDb2dVertex
 10
88.95042779883176
 20
35.2265898202401
 30
0.0
  0
VERTEX
  5
14D
330
144
100
AcDbEntity
  8
Visible (ANSI)
100
AcDbVertex
100
AcDb2dVertex
 10
88.94663112375793
 20
35.22355697634245
 30
0.0
  0
VERTEX
  5
14E
330
144
100
AcDbEntity
  8
Visible (ANSI)
100
AcDbVertex
100
AcDb2dVertex
 10
88.94229378292996
 20
35.22052412071158
 30
0.0
  0
VERTEX
  5
14F
330
144
100
AcDbEntity
  8
Visible (ANSI)
100
AcDbVertex
100
AcDb2dVertex
 10
88.93743980593683
 20
35.21749127681392
 30
0.0
  0
VERTEX
  5
150
330
144
100
AcDbEntity
  8
Visible (ANSI)
100
AcDbVertex
100
AcDb2dVertex
 10
88.93207520017588
 20
35.21445843291626
 30
0.0
  0
VERTEX
  5
151
330
144
100
AcDbEntity
  8
Visible (ANSI)
100
AcDbVertex
100
AcDb2dVertex
 10
88.92624201742796
 20
35.2114255772854
 30
0.0
  0
VERTEX
  5
152
330
144
100
AcDbEntity
  8
Visible (ANSI)
100
AcDbVertex
100
AcDb2dVertex
 10
88.91995227248765
 20
35.20839273338773
 30
0.0
  0
VERTEX
  5
153
330
144
100
AcDbEntity
  8
Visible (ANSI)
100
AcDbVertex
100
AcDb2dVertex
 10
88.91323600234123
 20
35.20535988949007
 30
0.0
  0
VERTEX
  5
154
330
144
100
AcDbEntity
  8
Visible (ANSI)
100
AcDbVertex
100
AcDb2dVertex
 10
88.90612324397508
 20
35.20232703385921
 30
0.0
  0
VERTEX
  5
155
330
144
100
AcDbEntity
  8
Visible (ANSI)
100
AcDbVertex
100
AcDb2dVertex
 10
88.89864403437556
 20
35.19929418996155
 30
0.0
  0
VERTEX
  5
156
330
144
100
AcDbEntity
  8
Visible (ANSI)
100
AcDbVertex
100
AcDb2dVertex
 10
88.89083441792626
 20
35.19626134606389
 30
0.0
  0
VERTEX
  5
157
330
144
100
AcDbEntity
  8
Visible (ANSI)
100
AcDbVertex
100
AcDb2dVertex
 10
88.88271842421623
 20
35.19322849043303
 30
0.0
  0
VERTEX
  5
158
330
144
100
AcDbEntity
  8
Visible (ANSI)
100
AcDbVertex
100
AcDb2dVertex
 10
88.8743381050264
 20
35.19019564653537
 30
0.0
  0
VERTEX
  5
159
330
144
100
AcDbEntity
  8
Visible (ANSI)
100
AcDbVertex
100
AcDb2dVertex
 10
88.86572950474034
 20
35.18716280263771
 30
0.0
  0
VERTEX
  5
15A
330
144
100
AcDbEntity
  8
Visible (ANSI)
100
AcDbVertex
100
AcDb2dVertex
 10
88.85692266034444
 20
35.18412994700685
 30
0.0
  0
VERTEX
  5
15B
330
144
100
AcDbEntity
  8
Visible (ANSI)
100
AcDbVertex
100
AcDb2dVertex
 10
88.84795962361954
 20
35.18109710310919
 30
0.0
  0
VERTEX
  5
15C
330
144
100
AcDbEntity
  8
Visible (ANSI)
100
AcDbVertex
100
AcDb2dVertex
 10
88.83888244634652
 20
35.17806425921153
 30
0.0
  0
VERTEX
  5
15D
330
144
100
AcDbEntity
  8
Visible (ANSI)
100
AcDbVertex
100
AcDb2dVertex
 10
88.82972717290902
 20
35.17503140358066
 30
0.0
  0
VERTEX
  5
15E
330
144
100
AcDbEntity
  8
Visible (ANSI)
100
AcDbVertex
100
AcDb2dVertex
 10
88.82052984769064
 20
35.171998559683
 30
0.0
  0
SEQEND
  5
147
330
144
100
AcDbEntity
  8
Visible (ANSI)
  0
POLYLINE
  5
15F
330
6C
100
AcDbEntity
  8
Visible (ANSI)
100
AcDb2dPolyline
 66
     1
 10
0.0
 20
0.0
 30
0.0
 70
   128
  0
VERTEX
  5
160
330
15F
100
AcDbEntity
  8
Visible (ANSI)
100
AcDbVertex
100
AcDb2dVertex
 10
21.10173250048295
 20
74.77079706511691
 30
0.0
  0
VERTEX
  5
161
330
15F
100
AcDbEntity
  8
Visible (ANSI)
100
AcDbVertex
100
AcDb2dVertex
 10
21.10476534438061
 20
74.77999439033529
 30
0.0
  0
VERTEX
  5
163
330
15F
100
AcDbEntity
  8
Visible (ANSI)
100
AcDbVertex
100
AcDb2dVertex
 10
21.10779820001146
 20
74.78914966377279
 30
0.0
  0
VERTEX
  5
164
330
15F
100
AcDbEntity
  8
Visible (ANSI)
100
AcDbVertex
100
AcDb2dVertex
 10
21.11083104390913
 20
74.79822684104579
 30
0.0
  0
VERTEX
  5
165
330
15F
100
AcDbEntity
  8
Visible (ANSI)
100
AcDbVertex
100
AcDb2dVertex
 10
21.11386388780679
 20
74.8071898777707
 30
0.0
  0
VERTEX
  5
166
330
15F
100
AcDbEntity
  8
Visible (ANSI)
100
AcDbVertex
100
AcDb2dVertex
 10
21.11689674343765
 20
74.81599371846797
 30
0.0
  0
VERTEX
  5
167
330
15F
100
AcDbEntity
  8
Visible (ANSI)
100
AcDbVertex
100
AcDb2dVertex
 10
21.11992958733531
 20
74.82460532245266
 30
0.0
  0
VERTEX
  5
168
330
15F
100
AcDbEntity
  8
Visible (ANSI)
100
AcDbVertex
100
AcDb2dVertex
 10
21.12296243123298
 20
74.83298564164248
 30
0.0
  0
VERTEX
  5
169
330
15F
100
AcDbEntity
  8
Visible (ANSI)
100
AcDbVertex
100
AcDb2dVertex
 10
21.12599528686383
 20
74.84109863165386
 30
0.0
  0
VERTEX
  5
16A
330
15F
100
AcDbEntity
  8
Visible (ANSI)
100
AcDbVertex
100
AcDb2dVertex
 10
21.1290281307615
 20
74.84891125180181
 30
0.0
  0
VERTEX
  5
16B
330
15F
100
AcDbEntity
  8
Visible (ANSI)
100
AcDbVertex
100
AcDb2dVertex
 10
21.13206097465916
 20
74.85639046140135
 30
0.0
  0
VERTEX
  5
16C
330
15F
100
AcDbEntity
  8
Visible (ANSI)
100
AcDbVertex
100
AcDb2dVertex
 10
21.13509383029002
 20
74.86350321976748
 30
0.0
  0
VERTEX
  5
16D
330
15F
100
AcDbEntity
  8
Visible (ANSI)
100
AcDbVertex
100
AcDb2dVertex
 10
21.13812667418768
 20
74.87021648621527
 30
0.0
  0
VERTEX
  5
16E
330
15F
100
AcDbEntity
  8
Visible (ANSI)
100
AcDbVertex
100
AcDb2dVertex
 10
21.14115951808534
 20
74.8765062311556
 30
0.0
  0
VERTEX
  5
16F
330
15F
100
AcDbEntity
  8
Visible (ANSI)
100
AcDbVertex
100
AcDb2dVertex
 10
21.1441923737162
 20
74.88234542130077
 30
0.0
  0
VERTEX
  5
170
330
15F
100
AcDbEntity
  8
Visible (ANSI)
100
AcDbVertex
100
AcDb2dVertex
 10
21.14722521761386
 20
74.88770401966445
 30
0.0
  0
VERTEX
  5
171
330
15F
100
AcDbEntity
  8
Visible (ANSI)
100
AcDbVertex
100
AcDb2dVertex
 10
21.15025806151153
 20
74.89256100035621
 30
0.0
  0
VERTEX
  5
172
330
15F
100
AcDbEntity
  8
Visible (ANSI)
100
AcDbVertex
100
AcDb2dVertex
 10
21.15329091714238
 20
74.89689834118419
 30
0.0
  0
VERTEX
  5
173
330
15F
100
AcDbEntity
  8
Visible (ANSI)
100
AcDbVertex
100
AcDb2dVertex
 10
21.15632376104005
 20
74.90069501625803
 30
0.0
  0
VERTEX
  5
174
330
15F
100
AcDbEntity
  8
Visible (ANSI)
100
AcDbVertex
100
AcDb2dVertex
 10
21.15935661667091
 20
74.90393600708448
 30
0.0
  0
VERTEX
  5
175
330
15F
100
AcDbEntity
  8
Visible (ANSI)
100
AcDbVertex
100
AcDb2dVertex
 10
21.16238946056856
 20
74.90660629517042
 30
0.0
  0
VERTEX
  5
176
330
15F
100
AcDbEntity
  8
Visible (ANSI)
100
AcDbVertex
100
AcDb2dVertex
 10
21.16542230446623
 20
74.90869686941993
 30
0.0
  0
VERTEX
  5
177
330
15F
100
AcDbEntity
  8
Visible (ANSI)
100
AcDbVertex
100
AcDb2dVertex
 10
21.16845514836389
 20
74.91019571503847
 30
0.0
  0
VERTEX
  5
178
330
15F
100
AcDbEntity
  8
Visible (ANSI)
100
AcDbVertex
100
AcDb2dVertex
 10
21.17148799226155
 20
74.91109682462878
 30
0.0
  0
VERTEX
  5
179
330
15F
100
AcDbEntity
  8
Visible (ANSI)
100
AcDbVertex
100
AcDb2dVertex
 10
21.17452083615921
 20
74.91139719449221
 30
0.0
  0
SEQEND
  5
162
330
15F
100
AcDbEntity
  8
Visible (ANSI)
  0
POLYLINE
  5
17A
330
6C
100
AcDbEntity
  8
Visible (ANSI)
100
AcDb2dPolyline
 66
     1
 10
0.0
 20
0.0
 30
0.0
 70
   128
  0
VERTEX
  5
17B
330
17A
100
AcDbEntity
  8
Visible (ANSI)
100
AcDbVertex
100
AcDb2dVertex
 10
88.74774422238308
 20
74.91139719449221
 30
0.0
  0
VERTEX
  5
17C
330
17A
100
AcDbEntity
  8
Visible (ANSI)
100
AcDbVertex
100
AcDb2dVertex
 10
88.75077795800377
 20
74.91109682462878
 30
0.0
  0
VERTEX
  5
17E
330
17A
100
AcDbEntity
  8
Visible (ANSI)
100
AcDbVertex
100
AcDb2dVertex
 10
88.75381169362444
 20
74.91019571503847
 30
0.0
  0
VERTEX
  5
17F
330
17A
100
AcDbEntity
  8
Visible (ANSI)
100
AcDbVertex
100
AcDb2dVertex
 10
88.75684542924515
 20
74.90869686941993
 30
0.0
  0
VERTEX
  5
180
330
17A
100
AcDbEntity
  8
Visible (ANSI)
100
AcDbVertex
100
AcDb2dVertex
 10
88.75987315746858
 20
74.90660629517042
 30
0.0
  0
VERTEX
  5
181
330
17A
100
AcDbEntity
  8
Visible (ANSI)
100
AcDbVertex
100
AcDb2dVertex
 10
88.76290689308927
 20
74.90393600708448
 30
0.0
  0
VERTEX
  5
182
330
17A
100
AcDbEntity
  8
Visible (ANSI)
100
AcDbVertex
100
AcDb2dVertex
 10
88.76594062870998
 20
74.90069501625803
 30
0.0
  0
VERTEX
  5
183
330
17A
100
AcDbEntity
  8
Visible (ANSI)
100
AcDbVertex
100
AcDb2dVertex
 10
88.76897436433065
 20
74.89689834118419
 30
0.0
  0
VERTEX
  5
184
330
17A
100
AcDbEntity
  8
Visible (ANSI)
100
AcDbVertex
100
AcDb2dVertex
 10
88.77200809995136
 20
74.89256100035621
 30
0.0
  0
VERTEX
  5
185
330
17A
100
AcDbEntity
  8
Visible (ANSI)
100
AcDbVertex
100
AcDb2dVertex
 10
88.77504183557205
 20
74.88770401966445
 30
0.0
  0
VERTEX
  5
186
330
17A
100
AcDbEntity
  8
Visible (ANSI)
100
AcDbVertex
100
AcDb2dVertex
 10
88.77807557119274
 20
74.88234542130077
 30
0.0
  0
VERTEX
  5
187
330
17A
100
AcDbEntity
  8
Visible (ANSI)
100
AcDbVertex
100
AcDb2dVertex
 10
88.78110329941616
 20
74.8765062311556
 30
0.0
  0
VERTEX
  5
188
330
17A
100
AcDbEntity
  8
Visible (ANSI)
100
AcDbVertex
100
AcDb2dVertex
 10
88.78413703503685
 20
74.87021648621527
 30
0.0
  0
VERTEX
  5
189
330
17A
100
AcDbEntity
  8
Visible (ANSI)
100
AcDbVertex
100
AcDb2dVertex
 10
88.78717077065756
 20
74.86350321976748
 30
0.0
  0
VERTEX
  5
18A
330
17A
100
AcDbEntity
  8
Visible (ANSI)
100
AcDbVertex
100
AcDb2dVertex
 10
88.79020450627825
 20
74.85639046140135
 30
0.0
  0
VERTEX
  5
18B
330
17A
100
AcDbEntity
  8
Visible (ANSI)
100
AcDbVertex
100
AcDb2dVertex
 10
88.79323824189894
 20
74.84891125180181
 30
0.0
  0
VERTEX
  5
18C
330
17A
100
AcDbEntity
  8
Visible (ANSI)
100
AcDbVertex
100
AcDb2dVertex
 10
88.79627197751963
 20
74.84109863165386
 30
0.0
  0
VERTEX
  5
18D
330
17A
100
AcDbEntity
  8
Visible (ANSI)
100
AcDbVertex
100
AcDb2dVertex
 10
88.79929970574305
 20
74.83298564164248
 30
0.0
  0
VERTEX
  5
18E
330
17A
100
AcDbEntity
  8
Visible (ANSI)
100
AcDbVertex
100
AcDb2dVertex
 10
88.80233344136376
 20
74.82460532245266
 30
0.0
  0
VERTEX
  5
18F
330
17A
100
AcDbEntity
  8
Visible (ANSI)
100
AcDbVertex
100
AcDb2dVertex
 10
88.80536717698445
 20
74.81599371846797
 30
0.0
  0
VERTEX
  5
190
330
17A
100
AcDbEntity
  8
Visible (ANSI)
100
AcDbVertex
100
AcDb2dVertex
 10
88.80840091260514
 20
74.8071898777707
 30
0.0
  0
VERTEX
  5
191
330
17A
100
AcDbEntity
  8
Visible (ANSI)
100
AcDbVertex
100
AcDb2dVertex
 10
88.81143464822583
 20
74.79822684104579
 30
0.0
  0
VERTEX
  5
192
330
17A
100
AcDbEntity
  8
Visible (ANSI)
100
AcDbVertex
100
AcDb2dVertex
 10
88.81446838384652
 20
74.78914966377279
 30
0.0
  0
VERTEX
  5
193
330
17A
100
AcDbEntity
  8
Visible (ANSI)
100
AcDbVertex
100
AcDb2dVertex
 10
88.81750211946721
 20
74.77999439033529
 30
0.0
  0
VERTEX
  5
194
330
17A
100
AcDbEntity
  8
Visible (ANSI)
100
AcDbVertex
100
AcDb2dVertex
 10
88.82052984769064
 20
74.77079706511691
 30
0.0
  0
SEQEND
  5
17D
330
17A
100
AcDbEntity
  8
Visible (ANSI)
  0
POLYLINE
  5
195
330
6C
100
AcDbEntity
  8
Visible (ANSI)
100
AcDb2dPolyline
 66
     1
 10
0.0
 20
0.0
 30
0.0
 70
   128
  0
VERTEX
  5
196
330
195
100
AcDbEntity
  8
Visible (ANSI)
100
AcDbVertex
100
AcDb2dVertex
 10
21.10173250048295
 20
35.171998559683
 30
0.0
  0
VERTEX
  5
197
330
195
100
AcDbEntity
  8
Visible (ANSI)
100
AcDbVertex
100
AcDb2dVertex
 10
21.09253681791225
 20
35.17503140358066
 30
0.0
  0
VERTEX
  5
199
330
195
100
AcDbEntity
  8
Visible (ANSI)
100
AcDbVertex
100
AcDb2dVertex
 10
21.08338051195335
 20
35.17806425921153
 30
0.0
  0
VERTEX
  5
19A
330
195
100
AcDbEntity
  8
Visible (ANSI)
100
AcDbVertex
100
AcDb2dVertex
 10
21.07430280668644
 20
35.18109710310919
 30
0.0
  0
VERTEX
  5
19B
330
195
100
AcDbEntity
  8
Visible (ANSI)
100
AcDbVertex
100
AcDb2dVertex
 10
21.06534253899622
 20
35.18412994700685
 30
0.0
  0
VERTEX
  5
19C
330
195
100
AcDbEntity
  8
Visible (ANSI)
100
AcDbVertex
100
AcDb2dVertex
 10
21.05653811163905
 20
35.18716280263771
 30
0.0
  0
VERTEX
  5
19D
330
195
100
AcDbEntity
  8
Visible (ANSI)
100
AcDbVertex
100
AcDb2dVertex
 10
21.04792721164624
 20
35.19019564653537
 30
0.0
  0
VERTEX
  5
19E
330
195
100
AcDbEntity
  8
Visible (ANSI)
100
AcDbVertex
100
AcDb2dVertex
 10
21.03954671059183
 20
35.19322849043303
 30
0.0
  0
VERTEX
  5
19F
330
195
100
AcDbEntity
  8
Visible (ANSI)
100
AcDbVertex
100
AcDb2dVertex
 10
21.03143250032788
 20
35.19626134606389
 30
0.0
  0
VERTEX
  5
1A0
330
195
100
AcDbEntity
  8
Visible (ANSI)
100
AcDbVertex
100
AcDb2dVertex
 10
21.02361932285304
 20
35.19929418996155
 30
0.0
  0
VERTEX
  5
1A1
330
195
100
AcDbEntity
  8
Visible (ANSI)
100
AcDbVertex
100
AcDb2dVertex
 10
21.01614064124741
 20
35.20232703385921
 30
0.0
  0
VERTEX
  5
1A2
330
195
100
AcDbEntity
  8
Visible (ANSI)
100
AcDbVertex
100
AcDb2dVertex
 10
21.00902847834105
 20
35.20535988949007
 30
0.0
  0
VERTEX
  5
1A3
330
195
100
AcDbEntity
  8
Visible (ANSI)
100
AcDbVertex
100
AcDb2dVertex
 10
21.00231328764884
 20
35.20839273338773
 30
0.0
  0
VERTEX
  5
1A4
330
195
100
AcDbEntity
  8
Visible (ANSI)
100
AcDbVertex
100
AcDb2dVertex
 10
20.99602382430526
 20
35.2114255772854
 30
0.0
  0
VERTEX
  5
1A5
330
195
100
AcDbEntity
  8
Visible (ANSI)
100
AcDbVertex
100
AcDb2dVertex
 10
20.99018702186583
 20
35.21445843291626
 30
0.0
  0
VERTEX
  5
1A6
330
195
100
AcDbEntity
  8
Visible (ANSI)
100
AcDbVertex
100
AcDb2dVertex
 10
20.98482787204186
 20
35.21749127681392
 30
0.0
  0
VERTEX
  5
1A7
330
195
100
AcDbEntity
  8
Visible (ANSI)
100
AcDbVertex
100
AcDb2dVertex
 10
20.97996932790151
 20
35.22052412071158
 30
0.0
  0
VERTEX
  5
1A8
330
195
100
AcDbEntity
  8
Visible (ANSI)
100
AcDbVertex
100
AcDb2dVertex
 10
20.97563219240447
 20
35.22355697634245
 30
0.0
  0
VERTEX
  5
1A9
330
195
100
AcDbEntity
  8
Visible (ANSI)
100
AcDbVertex
100
AcDb2dVertex
 10
20.97183503773619
 20
35.2265898202401
 30
0.0
  0
VERTEX
  5
1AA
330
195
100
AcDbEntity
  8
Visible (ANSI)
100
AcDbVertex
100
AcDb2dVertex
 10
20.96859412390883
 20
35.22962267587096
 30
0.0
  0
VERTEX
  5
1AB
330
195
100
AcDbEntity
  8
Visible (ANSI)
100
AcDbVertex
100
AcDb2dVertex
 10
20.96592332909542
 20
35.23265551976862
 30
0.0
  0
VERTEX
  5
1AC
330
195
100
AcDbEntity
  8
Visible (ANSI)
100
AcDbVertex
100
AcDb2dVertex
 10
20.96383408968049
 20
35.23568836366628
 30
0.0
  0
VERTEX
  5
1AD
330
195
100
AcDbEntity
  8
Visible (ANSI)
100
AcDbVertex
100
AcDb2dVertex
 10
20.96233535268569
 20
35.23872120756395
 30
0.0
  0
VERTEX
  5
1AE
330
195
100
AcDbEntity
  8
Visible (ANSI)
100
AcDbVertex
100
AcDb2dVertex
 10
20.96143353557439
 20
35.24175405146161
 30
0.0
  0
VERTEX
  5
1AF
330
195
100
AcDbEntity
  8
Visible (ANSI)
100
AcDbVertex
100
AcDb2dVertex
 10
20.96113250017281
 20
35.24478689535927
 30
0.0
  0
SEQEND
  5
198
330
195
100
AcDbEntity
  8
Visible (ANSI)
  0
POLYLINE
  5
1B0
330
6C
100
AcDbEntity
  8
Visible (ANSI)
100
AcDb2dPolyline
 66
     1
 10
0.0
 20
0.0
 30
0.0
 70
   128
  0
VERTEX
  5
1B1
330
1B0
100
AcDbEntity
  8
Visible (ANSI)
100
AcDbVertex
100
AcDb2dVertex
 10
20.9611325001728
 20
74.69801143980932
 30
0.0
  0
VERTEX
  5
1B2
330
1B0
100
AcDbEntity
  8
Visible (ANSI)
100
AcDbVertex
100
AcDb2dVertex
 10
20.96143353557439
 20
74.70104217173137
 30
0.0
  0
VERTEX
  5
1B4
330
1B0
100
AcDbEntity
  8
Visible (ANSI)
100
AcDbVertex
100
AcDb2dVertex
 10
20.96233535268569
 20
74.70407590735208
 30
0.0
  0
VERTEX
  5
1B5
330
1B0
100
AcDbEntity
  8
Visible (ANSI)
100
AcDbVertex
100
AcDb2dVertex
 10
20.96383408968049
 20
74.70710964297277
 30
0.0
  0
VERTEX
  5
1B6
330
1B0
100
AcDbEntity
  8
Visible (ANSI)
100
AcDbVertex
100
AcDb2dVertex
 10
20.96592332909542
 20
74.71014037489482
 30
0.0
  0
VERTEX
  5
1B7
330
1B0
100
AcDbEntity
  8
Visible (ANSI)
100
AcDbVertex
100
AcDb2dVertex
 10
20.96859412390883
 20
74.71317411051552
 30
0.0
  0
VERTEX
  5
1B8
330
1B0
100
AcDbEntity
  8
Visible (ANSI)
100
AcDbVertex
100
AcDb2dVertex
 10
20.97183503773619
 20
74.71620784613621
 30
0.0
  0
VERTEX
  5
1B9
330
1B0
100
AcDbEntity
  8
Visible (ANSI)
100
AcDbVertex
100
AcDb2dVertex
 10
20.97563219240447
 20
74.7192415817569
 30
0.0
  0
VERTEX
  5
1BA
330
1B0
100
AcDbEntity
  8
Visible (ANSI)
100
AcDbVertex
100
AcDb2dVertex
 10
20.97996932790151
 20
74.72227231367897
 30
0.0
  0
VERTEX
  5
1BB
330
1B0
100
AcDbEntity
  8
Visible (ANSI)
100
AcDbVertex
100
AcDb2dVertex
 10
20.98482787204186
 20
74.72530604929966
 30
0.0
  0
VERTEX
  5
1BC
330
1B0
100
AcDbEntity
  8
Visible (ANSI)
100
AcDbVertex
100
AcDb2dVertex
 10
20.99018702186583
 20
74.72833978492037
 30
0.0
  0
VERTEX
  5
1BD
330
1B0
100
AcDbEntity
  8
Visible (ANSI)
100
AcDbVertex
100
AcDb2dVertex
 10
20.99602382430526
 20
74.73137051684242
 30
0.0
  0
VERTEX
  5
1BE
330
1B0
100
AcDbEntity
  8
Visible (ANSI)
100
AcDbVertex
100
AcDb2dVertex
 10
21.00231328764884
 20
74.73440425246311
 30
0.0
  0
VERTEX
  5
1BF
330
1B0
100
AcDbEntity
  8
Visible (ANSI)
100
AcDbVertex
100
AcDb2dVertex
 10
21.00902847834105
 20
74.73743798808381
 30
0.0
  0
VERTEX
  5
1C0
330
1B0
100
AcDbEntity
  8
Visible (ANSI)
100
AcDbVertex
100
AcDb2dVertex
 10
21.01614064124741
 20
74.74046872000586
 30
0.0
  0
VERTEX
  5
1C1
330
1B0
100
AcDbEntity
  8
Visible (ANSI)
100
AcDbVertex
100
AcDb2dVertex
 10
21.02361932285304
 20
74.74350245562655
 30
0.0
  0
VERTEX
  5
1C2
330
1B0
100
AcDbEntity
  8
Visible (ANSI)
100
AcDbVertex
100
AcDb2dVertex
 10
21.03143250032788
 20
74.74653619124724
 30
0.0
  0
VERTEX
  5
1C3
330
1B0
100
AcDbEntity
  8
Visible (ANSI)
100
AcDbVertex
100
AcDb2dVertex
 10
21.03954671059183
 20
74.74956992686795
 30
0.0
  0
VERTEX
  5
1C4
330
1B0
100
AcDbEntity
  8
Visible (ANSI)
100
AcDbVertex
100
AcDb2dVertex
 10
21.04792721164624
 20
74.75260065879002
 30
0.0
  0
VERTEX
  5
1C5
330
1B0
100
AcDbEntity
  8
Visible (ANSI)
100
AcDbVertex
100
AcDb2dVertex
 10
21.05653811163905
 20
74.75563439441071
 30
0.0
  0
VERTEX
  5
1C6
330
1B0
100
AcDbEntity
  8
Visible (ANSI)
100
AcDbVertex
100
AcDb2dVertex
 10
21.06534253899622
 20
74.75866813003138
 30
0.0
  0
VERTEX
  5
1C7
330
1B0
100
AcDbEntity
  8
Visible (ANSI)
100
AcDbVertex
100
AcDb2dVertex
 10
21.07430280668644
 20
74.76169886195345
 30
0.0
  0
VERTEX
  5
1C8
330
1B0
100
AcDbEntity
  8
Visible (ANSI)
100
AcDbVertex
100
AcDb2dVertex
 10
21.08338051195335
 20
74.76473259757415
 30
0.0
  0
VERTEX
  5
1C9
330
1B0
100
AcDbEntity
  8
Visible (ANSI)
100
AcDbVertex
100
AcDb2dVertex
 10
21.09253681791225
 20
74.76776633319485
 30
0.0
  0
VERTEX
  5
1CA
330
1B0
100
AcDbEntity
  8
Visible (ANSI)
100
AcDbVertex
100
AcDb2dVertex
 10
21.10173250048295
 20
74.77079706511691
 30
0.0
  0
SEQEND
  5
1B3
330
1B0
100
AcDbEntity
  8
Visible (ANSI)
  0
POLYLINE
  5
1CB
330
6C
100
AcDbEntity
  8
Visible (ANSI)
100
AcDb2dPolyline
 66
     1
 10
0.0
 20
0.0
 30
0.0
 70
   128
  0
VERTEX
  5
1CC
330
1CB
100
AcDbEntity
  8
Visible (ANSI)
100
AcDbVertex
100
AcDb2dVertex
 10
88.82052984769064
 20
35.171998559683
 30
0.0
  0
VERTEX
  5
1CD
330
1CB
100
AcDbEntity
  8
Visible (ANSI)
100
AcDbVertex
100
AcDb2dVertex
 10
88.81750211946721
 20
35.16280287711231
 30
0.0
  0
VERTEX
  5
1CF
330
1CB
100
AcDbEntity
  8
Visible (ANSI)
100
AcDbVertex
100
AcDb2dVertex
 10
88.81446838384652
 20
35.1536465711534
 30
0.0
  0
VERTEX
  5
1D0
330
1CB
100
AcDbEntity
  8
Visible (ANSI)
100
AcDbVertex
100
AcDb2dVertex
 10
88.81143464822583
 20
35.1445688658865
 30
0.0
  0
VERTEX
  5
1D1
330
1CB
100
AcDbEntity
  8
Visible (ANSI)
100
AcDbVertex
100
AcDb2dVertex
 10
88.80840091260514
 20
35.13560859819628
 30
0.0
  0
VERTEX
  5
1D2
330
1CB
100
AcDbEntity
  8
Visible (ANSI)
100
AcDbVertex
100
AcDb2dVertex
 10
88.80536717698445
 20
35.12680417083911
 30
0.0
  0
VERTEX
  5
1D3
330
1CB
100
AcDbEntity
  8
Visible (ANSI)
100
AcDbVertex
100
AcDb2dVertex
 10
88.80233344136376
 20
35.11819327084629
 30
0.0
  0
VERTEX
  5
1D4
330
1CB
100
AcDbEntity
  8
Visible (ANSI)
100
AcDbVertex
100
AcDb2dVertex
 10
88.79929970574305
 20
35.10981276979189
 30
0.0
  0
VERTEX
  5
1D5
330
1CB
100
AcDbEntity
  8
Visible (ANSI)
100
AcDbVertex
100
AcDb2dVertex
 10
88.79627197751963
 20
35.10169855952794
 30
0.0
  0
VERTEX
  5
1D6
330
1CB
100
AcDbEntity
  8
Visible (ANSI)
100
AcDbVertex
100
AcDb2dVertex
 10
88.79323824189894
 20
35.0938853820531
 30
0.0
  0
VERTEX
  5
1D7
330
1CB
100
AcDbEntity
  8
Visible (ANSI)
100
AcDbVertex
100
AcDb2dVertex
 10
88.79020450627825
 20
35.08640670044747
 30
0.0
  0
VERTEX
  5
1D8
330
1CB
100
AcDbEntity
  8
Visible (ANSI)
100
AcDbVertex
100
AcDb2dVertex
 10
88.78717077065756
 20
35.07929453754112
 30
0.0
  0
VERTEX
  5
1D9
330
1CB
100
AcDbEntity
  8
Visible (ANSI)
100
AcDbVertex
100
AcDb2dVertex
 10
88.78413703503685
 20
35.0725793468489
 30
0.0
  0
VERTEX
  5
1DA
330
1CB
100
AcDbEntity
  8
Visible (ANSI)
100
AcDbVertex
100
AcDb2dVertex
 10
88.78110329941616
 20
35.06628988350532
 30
0.0
  0
VERTEX
  5
1DB
330
1CB
100
AcDbEntity
  8
Visible (ANSI)
100
AcDbVertex
100
AcDb2dVertex
 10
88.77807557119274
 20
35.06045308106589
 30
0.0
  0
VERTEX
  5
1DC
330
1CB
100
AcDbEntity
  8
Visible (ANSI)
100
AcDbVertex
100
AcDb2dVertex
 10
88.77504183557205
 20
35.05509393124191
 30
0.0
  0
VERTEX
  5
1DD
330
1CB
100
AcDbEntity
  8
Visible (ANSI)
100
AcDbVertex
100
AcDb2dVertex
 10
88.77200809995136
 20
35.05023538710157
 30
0.0
  0
VERTEX
  5
1DE
330
1CB
100
AcDbEntity
  8
Visible (ANSI)
100
AcDbVertex
100
AcDb2dVertex
 10
88.76897436433065
 20
35.04589825160452
 30
0.0
  0
VERTEX
  5
1DF
330
1CB
100
AcDbEntity
  8
Visible (ANSI)
100
AcDbVertex
100
AcDb2dVertex
 10
88.76594062870998
 20
35.04210109693624
 30
0.0
  0
VERTEX
  5
1E0
330
1CB
100
AcDbEntity
  8
Visible (ANSI)
100
AcDbVertex
100
AcDb2dVertex
 10
88.76290689308927
 20
35.03886018310889
 30
0.0
  0
VERTEX
  5
1E1
330
1CB
100
AcDbEntity
  8
Visible (ANSI)
100
AcDbVertex
100
AcDb2dVertex
 10
88.75987315746858
 20
35.03618938829547
 30
0.0
  0
VERTEX
  5
1E2
330
1CB
100
AcDbEntity
  8
Visible (ANSI)
100
AcDbVertex
100
AcDb2dVertex
 10
88.75684542924515
 20
35.03410014888055
 30
0.0
  0
VERTEX
  5
1E3
330
1CB
100
AcDbEntity
  8
Visible (ANSI)
100
AcDbVertex
100
AcDb2dVertex
 10
88.75381169362444
 20
35.03260141188575
 30
0.0
  0
VERTEX
  5
1E4
330
1CB
100
AcDbEntity
  8
Visible (ANSI)
100
AcDbVertex
100
AcDb2dVertex
 10
88.75077795800377
 20
35.03169959477445
 30
0.0
  0
VERTEX
  5
1E5
330
1CB
100
AcDbEntity
  8
Visible (ANSI)
100
AcDbVertex
100
AcDb2dVertex
 10
88.74774422238308
 20
35.03139855937287
 30
0.0
  0
SEQEND
  5
1CE
330
1CB
100
AcDbEntity
  8
Visible (ANSI)
  0
POLYLINE
  5
1E6
330
6C
100
AcDbEntity
  8
Visible (ANSI)
100
AcDb2dPolyline
 66
     1
 10
0.0
 20
0.0
 30
0.0
 70
   128
  0
VERTEX
  5
1E7
330
1E6
100
AcDbEntity
  8
Visible (ANSI)
100
AcDbVertex
100
AcDb2dVertex
 10
21.17452083615921
 20
35.03139855937287
 30
0.0
  0
VERTEX
  5
1E8
330
1E6
100
AcDbEntity
  8
Visible (ANSI)
100
AcDbVertex
100
AcDb2dVertex
 10
21.17148799226155
 20
35.03169959477445
 30
0.0
  0
VERTEX
  5
1EA
330
1E6
100
AcDbEntity
  8
Visible (ANSI)
100
AcDbVertex
100
AcDb2dVertex
 10
21.16845514836389
 20
35.03260141188575
 30
0.0
  0
VERTEX
  5
1EB
330
1E6
100
AcDbEntity
  8
Visible (ANSI)
100
AcDbVertex
100
AcDb2dVertex
 10
21.16542230446623
 20
35.03410014888055
 30
0.0
  0
VERTEX
  5
1EC
330
1E6
100
AcDbEntity
  8
Visible (ANSI)
100
AcDbVertex
100
AcDb2dVertex
 10
21.16238946056856
 20
35.03618938829547
 30
0.0
  0
VERTEX
  5
1ED
330
1E6
100
AcDbEntity
  8
Visible (ANSI)
100
AcDbVertex
100
AcDb2dVertex
 10
21.15935661667091
 20
35.03886018310889
 30
0.0
  0
VERTEX
  5
1EE
330
1E6
100
AcDbEntity
  8
Visible (ANSI)
100
AcDbVertex
100
AcDb2dVertex
 10
21.15632376104005
 20
35.04210109693624
 30
0.0
  0
VERTEX
  5
1EF
330
1E6
100
AcDbEntity
  8
Visible (ANSI)
100
AcDbVertex
100
AcDb2dVertex
 10
21.15329091714238
 20
35.04589825160452
 30
0.0
  0
VERTEX
  5
1F0
330
1E6
100
AcDbEntity
  8
Visible (ANSI)
100
AcDbVertex
100
AcDb2dVertex
 10
21.15025806151153
 20
35.05023538710157
 30
0.0
  0
VERTEX
  5
1F1
330
1E6
100
AcDbEntity
  8
Visible (ANSI)
100
AcDbVertex
100
AcDb2dVertex
 10
21.14722521761386
 20
35.05509393124191
 30
0.0
  0
VERTEX
  5
1F2
330
1E6
100
AcDbEntity
  8
Visible (ANSI)
100
AcDbVertex
100
AcDb2dVertex
 10
21.1441923737162
 20
35.06045308106589
 30
0.0
  0
VERTEX
  5
1F3
330
1E6
100
AcDbEntity
  8
Visible (ANSI)
100
AcDbVertex
100
AcDb2dVertex
 10
21.14115951808534
 20
35.06628988350532
 30
0.0
  0
VERTEX
  5
1F4
330
1E6
100
AcDbEntity
  8
Visible (ANSI)
100
AcDbVertex
100
AcDb2dVertex
 10
21.13812667418768
 20
35.0725793468489
 30
0.0
  0
VERTEX
  5
1F5
330
1E6
100
AcDbEntity
  8
Visible (ANSI)
100
AcDbVertex
100
AcDb2dVertex
 10
21.13509383029002
 20
35.07929453754112
 30
0.0
  0
VERTEX
  5
1F6
330
1E6
100
AcDbEntity
  8
Visible (ANSI)
100
AcDbVertex
100
AcDb2dVertex
 10
21.13206097465916
 20
35.08640670044747
 30
0.0
  0
VERTEX
  5
1F7
330
1E6
100
AcDbEntity
  8
Visible (ANSI)
100
AcDbVertex
100
AcDb2dVertex
 10
21.1290281307615
 20
35.0938853820531
 30
0.0
  0
VERTEX
  5
1F8
330
1E6
100
AcDbEntity
  8
Visible (ANSI)
100
AcDbVertex
100
AcDb2dVertex
 10
21.12599528686383
 20
35.10169855952794
 30
0.0
  0
VERTEX
  5
1F9
330
1E6
100
AcDbEntity
  8
Visible (ANSI)
100
AcDbVertex
100
AcDb2dVertex
 10
21.12296243123298
 20
35.10981276979189
 30
0.0
  0
VERTEX
  5
1FA
330
1E6
100
AcDbEntity
  8
Visible (ANSI)
100
AcDbVertex
100
AcDb2dVertex
 10
21.11992958733531
 20
35.11819327084629
 30
0.0
  0
VERTEX
  5
1FB
330
1E6
100
AcDbEntity
  8
Visible (ANSI)
100
AcDbVertex
100
AcDb2dVertex
 10
21.11689674343765
 20
35.12680417083911
 30
0.0
  0
VERTEX
  5
1FC
330
1E6
100
AcDbEntity
  8
Visible (ANSI)
100
AcDbVertex
100
AcDb2dVertex
 10
21.11386388780679
 20
35.13560859819628
 30
0.0
  0
VERTEX
  5
1FD
330
1E6
100
AcDbEntity
  8
Visible (ANSI)
100
AcDbVertex
100
AcDb2dVertex
 10
21.11083104390913
 20
35.1445688658865
 30
0.0
  0
VERTEX
  5
1FE
330
1E6
100
AcDbEntity
  8
Visible (ANSI)
100
AcDbVertex
100
AcDb2dVertex
 10
21.10779820001146
 20
35.1536465711534
 30
0.0
  0
VERTEX
  5
1FF
330
1E6
100
AcDbEntity
  8
Visible (ANSI)
100
AcDbVertex
100
AcDb2dVertex
 10
21.10476534438061
 20
35.16280287711231
 30
0.0
  0
VERTEX
  5
200
330
1E6
100
AcDbEntity
  8
Visible (ANSI)
100
AcDbVertex
100
AcDb2dVertex
 10
21.10173250048295
 20
35.171998559683
 30
0.0
  0
SEQEND
  5
1E9
330
1E6
100
AcDbEntity
  8
Visible (ANSI)
  0
LINE
  5
201
330
6C
100
AcDbEntity
  8
Hidden (ANSI)
 48
0.0215442795306444
100
AcDbLine
 10
88.83613250017283
 20
35.2447869070212
 30
0.0
 11
88.96113250017284
 21
35.2447869070212
 31
0.0
  0
POLYLINE
  5
202
330
6C
100
AcDbEntity
  8
Hidden (ANSI)
 48
0.0131985787302256
100
AcDb2dPolyline
 66
     1
 10
0.0
 20
0.0
 30
0.0
 70
   128
  0
VERTEX
  5
203
330
202
100
AcDbEntity
  8
Hidden (ANSI)
 48
0.0131985787302256
100
AcDbVertex
100
AcDb2dVertex
 10
88.82052984769064
 20
35.171998559683
 30
0.0
  0
VERTEX
  5
204
330
202
100
AcDbEntity
  8
Hidden (ANSI)
 48
0.0131985787302256
100
AcDbVertex
100
AcDb2dVertex
 10
88.82155110522631
 20
35.17503140358066
 30
0.0
  0
VERTEX
  5
206
330
202
100
AcDbEntity
  8
Hidden (ANSI)
 48
0.0131985787302256
100
AcDbVertex
100
AcDb2dVertex
 10
88.82256635536473
 20
35.17806425921153
 30
0.0
  0
VERTEX
  5
207
330
202
100
AcDbEntity
  8
Hidden (ANSI)
 48
0.0131985787302256
100
AcDbVertex
100
AcDb2dVertex
 10
88.82357559810589
 20
35.18109710310919
 30
0.0
  0
VERTEX
  5
208
330
202
100
AcDbEntity
  8
Hidden (ANSI)
 48
0.0131985787302256
100
AcDbVertex
100
AcDb2dVertex
 10
88.82457282605249
 20
35.18412994700685
 30
0.0
  0
VERTEX
  5
209
330
202
100
AcDbEntity
  8
Hidden (ANSI)
 48
0.0131985787302256
100
AcDbVertex
100
AcDb2dVertex
 10
88.82554602441002
 20
35.18716280263771
 30
0.0
  0
VERTEX
  5
20A
330
202
100
AcDbEntity
  8
Hidden (ANSI)
 48
0.0131985787302256
100
AcDbVertex
100
AcDb2dVertex
 10
88.82650120057572
 20
35.19019564653537
 30
0.0
  0
VERTEX
  5
20B
330
202
100
AcDbEntity
  8
Hidden (ANSI)
 48
0.0131985787302256
100
AcDbVertex
100
AcDb2dVertex
 10
88.82743234715238
 20
35.19322849043303
 30
0.0
  0
VERTEX
  5
20C
330
202
100
AcDbEntity
  8
Hidden (ANSI)
 48
0.0131985787302256
100
AcDbVertex
100
AcDb2dVertex
 10
88.82833345674269
 20
35.19626134606389
 30
0.0
  0
VERTEX
  5
20D
330
202
100
AcDbEntity
  8
Hidden (ANSI)
 48
0.0131985787302256
100
AcDbVertex
100
AcDb2dVertex
 10
88.82919852194937
 20
35.19929418996155
 30
0.0
  0
VERTEX
  5
20E
330
202
100
AcDbEntity
  8
Hidden (ANSI)
 48
0.0131985787302256
100
AcDbVertex
100
AcDb2dVertex
 10
88.83002754277246
 20
35.20232703385921
 30
0.0
  0
VERTEX
  5
20F
330
202
100
AcDbEntity
  8
Hidden (ANSI)
 48
0.0131985787302256
100
AcDbVertex
100
AcDb2dVertex
 10
88.83082051921192
 20
35.20535988949007
 30
0.0
  0
VERTEX
  5
210
330
202
100
AcDbEntity
  8
Hidden (ANSI)
 48
0.0131985787302256
100
AcDbVertex
100
AcDb2dVertex
 10
88.83156543647324
 20
35.20839273338773
 30
0.0
  0
VERTEX
  5
211
330
202
100
AcDbEntity
  8
Hidden (ANSI)
 48
0.0131985787302256
100
AcDbVertex
100
AcDb2dVertex
 10
88.83226229455642
 20
35.2114255772854
 30
0.0
  0
VERTEX
  5
212
330
202
100
AcDbEntity
  8
Hidden (ANSI)
 48
0.0131985787302256
100
AcDbVertex
100
AcDb2dVertex
 10
88.83291109346144
 20
35.21445843291626
 30
0.0
  0
VERTEX
  5
213
330
202
100
AcDbEntity
  8
Hidden (ANSI)
 48
0.0131985787302256
100
AcDbVertex
100
AcDb2dVertex
 10
88.83350582579103
 20
35.21749127681392
 30
0.0
  0
VERTEX
  5
214
330
202
100
AcDbEntity
  8
Hidden (ANSI)
 48
0.0131985787302256
100
AcDbVertex
100
AcDb2dVertex
 10
88.83404048414794
 20
35.22052412071158
 30
0.0
  0
VERTEX
  5
215
330
202
100
AcDbEntity
  8
Hidden (ANSI)
 48
0.0131985787302256
100
AcDbVertex
100
AcDb2dVertex
 10
88.83452107592944
 20
35.22355697634245
 30
0.0
  0
VERTEX
  5
216
330
202
100
AcDbEntity
  8
Hidden (ANSI)
 48
0.0131985787302256
100
AcDbVertex
100
AcDb2dVertex
 10
88.83494760113553
 20
35.2265898202401
 30
0.0
  0
VERTEX
  5
217
330
202
100
AcDbEntity
  8
Hidden (ANSI)
 48
0.0131985787302256
100
AcDbVertex
100
AcDb2dVertex
 10
88.83530203757439
 20
35.22962267587096
 30
0.0
  0
VERTEX
  5
218
330
202
100
AcDbEntity
  8
Hidden (ANSI)
 48
0.0131985787302256
100
AcDbVertex
100
AcDb2dVertex
 10
88.83560240743781
 20
35.23265551976862
 30
0.0
  0
VERTEX
  5
219
330
202
100
AcDbEntity
  8
Hidden (ANSI)
 48
0.0131985787302256
100
AcDbVertex
100
AcDb2dVertex
 10
88.83583068853402
 20
35.23568836366628
 30
0.0
  0
VERTEX
  5
21A
330
202
100
AcDbEntity
  8
Hidden (ANSI)
 48
0.0131985787302256
100
AcDbVertex
100
AcDb2dVertex
 10
88.83599889565756
 20
35.23872120756395
 30
0.0
  0
VERTEX
  5
21B
330
202
100
AcDbEntity
  8
Hidden (ANSI)
 48
0.0131985787302256
100
AcDbVertex
100
AcDb2dVertex
 10
88.83610102141112
 20
35.24175405146161
 30
0.0
  0
VERTEX
  5
21C
330
202
100
AcDbEntity
  8
Hidden (ANSI)
 48
0.0131985787302256
100
AcDbVertex
100
AcDb2dVertex
 10
88.83613105839748
 20
35.24478689535927
 30
0.0
  0
SEQEND
  5
205
330
202
100
AcDbEntity
  8
Hidden (ANSI)
 48
0.0131985787302256
  0
LINE
  5
21D
330
6C
100
AcDbEntity
  8
Hidden (ANSI)
 48
0.0215442795306444
100
AcDbLine
 10
88.83613250017276
 20
74.69801021172454
 30
0.0
 11
88.96113250017277
 21
74.69801021172454
 31
0.0
  0
POLYLINE
  5
21E
330
6C
100
AcDbEntity
  8
Hidden (ANSI)
 48
0.0131981344893575
100
AcDb2dPolyline
 66
     1
 10
0.0
 20
0.0
 30
0.0
 70
   128
  0
VERTEX
  5
21F
330
21E
100
AcDbEntity
  8
Hidden (ANSI)
 48
0.0131981344893575
100
AcDbVertex
100
AcDb2dVertex
 10
88.82052984769064
 20
74.77079706511691
 30
0.0
  0
VERTEX
  5
220
330
21E
100
AcDbEntity
  8
Hidden (ANSI)
 48
0.0131981344893575
100
AcDbVertex
100
AcDb2dVertex
 10
88.82155110522631
 20
74.76776633319485
 30
0.0
  0
VERTEX
  5
222
330
21E
100
AcDbEntity
  8
Hidden (ANSI)
 48
0.0131981344893575
100
AcDbVertex
100
AcDb2dVertex
 10
88.82256635536473
 20
74.76473259757415
 30
0.0
  0
VERTEX
  5
223
330
21E
100
AcDbEntity
  8
Hidden (ANSI)
 48
0.0131981344893575
100
AcDbVertex
100
AcDb2dVertex
 10
88.82357559810589
 20
74.76169886195345
 30
0.0
  0
VERTEX
  5
224
330
21E
100
AcDbEntity
  8
Hidden (ANSI)
 48
0.0131981344893575
100
AcDbVertex
100
AcDb2dVertex
 10
88.82457282605249
 20
74.75866813003138
 30
0.0
  0
VERTEX
  5
225
330
21E
100
AcDbEntity
  8
Hidden (ANSI)
 48
0.0131981344893575
100
AcDbVertex
100
AcDb2dVertex
 10
88.82554602441002
 20
74.75563439441071
 30
0.0
  0
VERTEX
  5
226
330
21E
100
AcDbEntity
  8
Hidden (ANSI)
 48
0.0131981344893575
100
AcDbVertex
100
AcDb2dVertex
 10
88.82650120057572
 20
74.75260065879002
 30
0.0
  0
VERTEX
  5
227
330
21E
100
AcDbEntity
  8
Hidden (ANSI)
 48
0.0131981344893575
100
AcDbVertex
100
AcDb2dVertex
 10
88.82743234715238
 20
74.74956992686795
 30
0.0
  0
VERTEX
  5
228
330
21E
100
AcDbEntity
  8
Hidden (ANSI)
 48
0.0131981344893575
100
AcDbVertex
100
AcDb2dVertex
 10
88.82833345674269
 20
74.74653619124724
 30
0.0
  0
VERTEX
  5
229
330
21E
100
AcDbEntity
  8
Hidden (ANSI)
 48
0.0131981344893575
100
AcDbVertex
100
AcDb2dVertex
 10
88.82919852194937
 20
74.74350245562655
 30
0.0
  0
VERTEX
  5
22A
330
21E
100
AcDbEntity
  8
Hidden (ANSI)
 48
0.0131981344893575
100
AcDbVertex
100
AcDb2dVertex
 10
88.83002754277246
 20
74.74046872000586
 30
0.0
  0
VERTEX
  5
22B
330
21E
100
AcDbEntity
  8
Hidden (ANSI)
 48
0.0131981344893575
100
AcDbVertex
100
AcDb2dVertex
 10
88.83082051921192
 20
74.73743798808381
 30
0.0
  0
VERTEX
  5
22C
330
21E
100
AcDbEntity
  8
Hidden (ANSI)
 48
0.0131981344893575
100
AcDbVertex
100
AcDb2dVertex
 10
88.83156543647324
 20
74.73440425246311
 30
0.0
  0
VERTEX
  5
22D
330
21E
100
AcDbEntity
  8
Hidden (ANSI)
 48
0.0131981344893575
100
AcDbVertex
100
AcDb2dVertex
 10
88.83226229455642
 20
74.73137051684242
 30
0.0
  0
VERTEX
  5
22E
330
21E
100
AcDbEntity
  8
Hidden (ANSI)
 48
0.0131981344893575
100
AcDbVertex
100
AcDb2dVertex
 10
88.83291109346144
 20
74.72833978492037
 30
0.0
  0
VERTEX
  5
22F
330
21E
100
AcDbEntity
  8
Hidden (ANSI)
 48
0.0131981344893575
100
AcDbVertex
100
AcDb2dVertex
 10
88.83350582579103
 20
74.72530604929966
 30
0.0
  0
VERTEX
  5
230
330
21E
100
AcDbEntity
  8
Hidden (ANSI)
 48
0.0131981344893575
100
AcDbVertex
100
AcDb2dVertex
 10
88.83404048414794
 20
74.72227231367897
 30
0.0
  0
VERTEX
  5
231
330
21E
100
AcDbEntity
  8
Hidden (ANSI)
 48
0.0131981344893575
100
AcDbVertex
100
AcDb2dVertex
 10
88.83452107592944
 20
74.7192415817569
 30
0.0
  0
VERTEX
  5
232
330
21E
100
AcDbEntity
  8
Hidden (ANSI)
 48
0.0131981344893575
100
AcDbVertex
100
AcDb2dVertex
 10
88.83494760113553
 20
74.71620784613621
 30
0.0
  0
VERTEX
  5
233
330
21E
100
AcDbEntity
  8
Hidden (ANSI)
 48
0.0131981344893575
100
AcDbVertex
100
AcDb2dVertex
 10
88.83530203757439
 20
74.71317411051552
 30
0.0
  0
VERTEX
  5
234
330
21E
100
AcDbEntity
  8
Hidden (ANSI)
 48
0.0131981344893575
100
AcDbVertex
100
AcDb2dVertex
 10
88.83560240743781
 20
74.71014037489482
 30
0.0
  0
VERTEX
  5
235
330
21E
100
AcDbEntity
  8
Hidden (ANSI)
 48
0.0131981344893575
100
AcDbVertex
100
AcDb2dVertex
 10
88.83583068853402
 20
74.70710964297277
 30
0.0
  0
VERTEX
  5
236
330
21E
100
AcDbEntity
  8
Hidden (ANSI)
 48
0.0131981344893575
100
AcDbVertex
100
AcDb2dVertex
 10
88.83599889565756
 20
74.70407590735208
 30
0.0
  0
VERTEX
  5
237
330
21E
100
AcDbEntity
  8
Hidden (ANSI)
 48
0.0131981344893575
100
AcDbVertex
100
AcDb2dVertex
 10
88.83610102141112
 20
74.70104217173137
 30
0.0
  0
VERTEX
  5
238
330
21E
100
AcDbEntity
  8
Hidden (ANSI)
 48
0.0131981344893575
100
AcDbVertex
100
AcDb2dVertex
 10
88.83613105839748
 20
74.69801143980932
 30
0.0
  0
SEQEND
  5
221
330
21E
100
AcDbEntity
  8
Hidden (ANSI)
 48
0.0131981344893575
  0
LINE
  5
239
330
6C
100
AcDbEntity
  8
Hidden (ANSI)
 48
0.0215442795306444
100
AcDbLine
 10
88.74774415252447
 20
74.78639855937287
 30
0.0
 11
88.74774415252447
 21
74.91139855937288
 31
0.0
  0
POLYLINE
  5
23A
330
6C
100
AcDbEntity
  8
Hidden (ANSI)
 48
0.0131980506703258
100
AcDb2dPolyline
 66
     1
 10
0.0
 20
0.0
 30
0.0
 70
   128
  0
VERTEX
  5
23B
330
23A
100
AcDbEntity
  8
Hidden (ANSI)
 48
0.0131980506703258
100
AcDbVertex
100
AcDb2dVertex
 10
88.82052984769064
 20
74.77079706511691
 30
0.0
  0
VERTEX
  5
23C
330
23A
100
AcDbEntity
  8
Hidden (ANSI)
 48
0.0131980506703258
100
AcDbVertex
100
AcDb2dVertex
 10
88.81750211946721
 20
74.77181832265256
 30
0.0
  0
VERTEX
  5
23E
330
23A
100
AcDbEntity
  8
Hidden (ANSI)
 48
0.0131980506703258
100
AcDbVertex
100
AcDb2dVertex
 10
88.81446838384652
 20
74.77283357279098
 30
0.0
  0
VERTEX
  5
23F
330
23A
100
AcDbEntity
  8
Hidden (ANSI)
 48
0.0131980506703258
100
AcDbVertex
100
AcDb2dVertex
 10
88.81143464822583
 20
74.77384281553213
 30
0.0
  0
VERTEX
  5
240
330
23A
100
AcDbEntity
  8
Hidden (ANSI)
 48
0.0131980506703258
100
AcDbVertex
100
AcDb2dVertex
 10
88.80840091260514
 20
74.77483703978011
 30
0.0
  0
VERTEX
  5
241
330
23A
100
AcDbEntity
  8
Hidden (ANSI)
 48
0.0131980506703258
100
AcDbVertex
100
AcDb2dVertex
 10
88.80536717698445
 20
74.77581324183626
 30
0.0
  0
VERTEX
  5
242
330
23A
100
AcDbEntity
  8
Hidden (ANSI)
 48
0.0131980506703258
100
AcDbVertex
100
AcDb2dVertex
 10
88.80233344136376
 20
74.77676841800198
 30
0.0
  0
VERTEX
  5
243
330
23A
100
AcDbEntity
  8
Hidden (ANSI)
 48
0.0131980506703258
100
AcDbVertex
100
AcDb2dVertex
 10
88.79929970574305
 20
74.77769956457862
 30
0.0
  0
VERTEX
  5
244
330
23A
100
AcDbEntity
  8
Hidden (ANSI)
 48
0.0131980506703258
100
AcDbVertex
100
AcDb2dVertex
 10
88.79627197751963
 20
74.7785976704703
 30
0.0
  0
VERTEX
  5
245
330
23A
100
AcDbEntity
  8
Hidden (ANSI)
 48
0.0131980506703258
100
AcDbVertex
100
AcDb2dVertex
 10
88.79323824189894
 20
74.77946573937564
 30
0.0
  0
VERTEX
  5
246
330
23A
100
AcDbEntity
  8
Hidden (ANSI)
 48
0.0131980506703258
100
AcDbVertex
100
AcDb2dVertex
 10
88.79020450627825
 20
74.78029476019871
 30
0.0
  0
VERTEX
  5
247
330
23A
100
AcDbEntity
  8
Hidden (ANSI)
 48
0.0131980506703258
100
AcDbVertex
100
AcDb2dVertex
 10
88.78717077065756
 20
74.78108473293956
 30
0.0
  0
VERTEX
  5
248
330
23A
100
AcDbEntity
  8
Hidden (ANSI)
 48
0.0131980506703258
100
AcDbVertex
100
AcDb2dVertex
 10
88.78413703503685
 20
74.78182965020086
 30
0.0
  0
VERTEX
  5
249
330
23A
100
AcDbEntity
  8
Hidden (ANSI)
 48
0.0131980506703258
100
AcDbVertex
100
AcDb2dVertex
 10
88.78110329941616
 20
74.78252650828403
 30
0.0
  0
VERTEX
  5
24A
330
23A
100
AcDbEntity
  8
Hidden (ANSI)
 48
0.0131980506703258
100
AcDbVertex
100
AcDb2dVertex
 10
88.77807557119274
 20
74.78317530718905
 30
0.0
  0
VERTEX
  5
24B
330
23A
100
AcDbEntity
  8
Hidden (ANSI)
 48
0.0131980506703258
100
AcDbVertex
100
AcDb2dVertex
 10
88.77504183557205
 20
74.78377003951866
 30
0.0
  0
VERTEX
  5
24C
330
23A
100
AcDbEntity
  8
Hidden (ANSI)
 48
0.0131980506703258
100
AcDbVertex
100
AcDb2dVertex
 10
88.77200809995136
 20
74.78430770157419
 30
0.0
  0
VERTEX
  5
24D
330
23A
100
AcDbEntity
  8
Hidden (ANSI)
 48
0.0131980506703258
100
AcDbVertex
100
AcDb2dVertex
 10
88.76897436433065
 20
74.7847882933557
 30
0.0
  0
VERTEX
  5
24E
330
23A
100
AcDbEntity
  8
Hidden (ANSI)
 48
0.0131980506703258
100
AcDbVertex
100
AcDb2dVertex
 10
88.76594062870998
 20
74.78521181486316
 30
0.0
  0
VERTEX
  5
24F
330
23A
100
AcDbEntity
  8
Hidden (ANSI)
 48
0.0131980506703258
100
AcDbVertex
100
AcDb2dVertex
 10
88.76290689308927
 20
74.78556925500064
 30
0.0
  0
VERTEX
  5
250
330
23A
100
AcDbEntity
  8
Hidden (ANSI)
 48
0.0131980506703258
100
AcDbVertex
100
AcDb2dVertex
 10
88.75987315746858
 20
74.78586662116544
 30
0.0
  0
VERTEX
  5
251
330
23A
100
AcDbEntity
  8
Hidden (ANSI)
 48
0.0131980506703258
100
AcDbVertex
100
AcDb2dVertex
 10
88.75684542924515
 20
74.78609790596028
 30
0.0
  0
VERTEX
  5
252
330
23A
100
AcDbEntity
  8
Hidden (ANSI)
 48
0.0131980506703258
100
AcDbVertex
100
AcDb2dVertex
 10
88.75381169362444
 20
74.7862661130838
 30
0.0
  0
VERTEX
  5
253
330
23A
100
AcDbEntity
  8
Hidden (ANSI)
 48
0.0131980506703258
100
AcDbVertex
100
AcDb2dVertex
 10
88.75077795800377
 20
74.78636523513873
 30
0.0
  0
VERTEX
  5
254
330
23A
100
AcDbEntity
  8
Hidden (ANSI)
 48
0.0131980506703258
100
AcDbVertex
100
AcDb2dVertex
 10
88.74774422238308
 20
74.78639827582371
 30
0.0
  0
SEQEND
  5
23D
330
23A
100
AcDbEntity
  8
Hidden (ANSI)
 48
0.0131980506703258
  0
LINE
  5
255
330
6C
100
AcDbEntity
  8
Hidden (ANSI)
 48
0.0215442795306444
100
AcDbLine
 10
21.17452084782112
 20
74.78639855937284
 30
0.0
 11
21.17452084782112
 21
74.91139855937285
 31
0.0
  0
POLYLINE
  5
256
330
6C
100
AcDbEntity
  8
Hidden (ANSI)
 48
0.0131984949111939
100
AcDb2dPolyline
 66
     1
 10
0.0
 20
0.0
 30
0.0
 70
   128
  0
VERTEX
  5
257
330
256
100
AcDbEntity
  8
Hidden (ANSI)
 48
0.0131984949111939
100
AcDbVertex
100
AcDb2dVertex
 10
21.10173250048295
 20
74.77079706511691
 30
0.0
  0
VERTEX
  5
258
330
256
100
AcDbEntity
  8
Hidden (ANSI)
 48
0.0131984949111939
100
AcDbVertex
100
AcDb2dVertex
 10
21.10476534438061
 20
74.77181832265256
 30
0.0
  0
VERTEX
  5
25A
330
256
100
AcDbEntity
  8
Hidden (ANSI)
 48
0.0131984949111939
100
AcDbVertex
100
AcDb2dVertex
 10
21.10779820001146
 20
74.77283357279098
 30
0.0
  0
VERTEX
  5
25B
330
256
100
AcDbEntity
  8
Hidden (ANSI)
 48
0.0131984949111939
100
AcDbVertex
100
AcDb2dVertex
 10
21.11083104390913
 20
74.77384281553213
 30
0.0
  0
VERTEX
  5
25C
330
256
100
AcDbEntity
  8
Hidden (ANSI)
 48
0.0131984949111939
100
AcDbVertex
100
AcDb2dVertex
 10
21.11386388780679
 20
74.77483703978011
 30
0.0
  0
VERTEX
  5
25D
330
256
100
AcDbEntity
  8
Hidden (ANSI)
 48
0.0131984949111939
100
AcDbVertex
100
AcDb2dVertex
 10
21.11689674343765
 20
74.77581324183626
 30
0.0
  0
VERTEX
  5
25E
330
256
100
AcDbEntity
  8
Hidden (ANSI)
 48
0.0131984949111939
100
AcDbVertex
100
AcDb2dVertex
 10
21.11992958733531
 20
74.77676841800198
 30
0.0
  0
VERTEX
  5
25F
330
256
100
AcDbEntity
  8
Hidden (ANSI)
 48
0.0131984949111939
100
AcDbVertex
100
AcDb2dVertex
 10
21.12296243123298
 20
74.77769956457862
 30
0.0
  0
VERTEX
  5
260
330
256
100
AcDbEntity
  8
Hidden (ANSI)
 48
0.0131984949111939
100
AcDbVertex
100
AcDb2dVertex
 10
21.12599528686383
 20
74.7785976704703
 30
0.0
  0
VERTEX
  5
261
330
256
100
AcDbEntity
  8
Hidden (ANSI)
 48
0.0131984949111939
100
AcDbVertex
100
AcDb2dVertex
 10
21.1290281307615
 20
74.77946573937564
 30
0.0
  0
VERTEX
  5
262
330
256
100
AcDbEntity
  8
Hidden (ANSI)
 48
0.0131984949111939
100
AcDbVertex
100
AcDb2dVertex
 10
21.13206097465916
 20
74.78029476019871
 30
0.0
  0
VERTEX
  5
263
330
256
100
AcDbEntity
  8
Hidden (ANSI)
 48
0.0131984949111939
100
AcDbVertex
100
AcDb2dVertex
 10
21.13509383029002
 20
74.78108473293956
 30
0.0
  0
VERTEX
  5
264
330
256
100
AcDbEntity
  8
Hidden (ANSI)
 48
0.0131984949111939
100
AcDbVertex
100
AcDb2dVertex
 10
21.13812667418768
 20
74.78182965020086
 30
0.0
  0
VERTEX
  5
265
330
256
100
AcDbEntity
  8
Hidden (ANSI)
 48
0.0131984949111939
100
AcDbVertex
100
AcDb2dVertex
 10
21.14115951808534
 20
74.78252650828403
 30
0.0
  0
VERTEX
  5
266
330
256
100
AcDbEntity
  8
Hidden (ANSI)
 48
0.0131984949111939
100
AcDbVertex
100
AcDb2dVertex
 10
21.1441923737162
 20
74.78317530718905
 30
0.0
  0
VERTEX
  5
267
330
256
100
AcDbEntity
  8
Hidden (ANSI)
 48
0.0131984949111939
100
AcDbVertex
100
AcDb2dVertex
 10
21.14722521761386
 20
74.78377003951866
 30
0.0
  0
VERTEX
  5
268
330
256
100
AcDbEntity
  8
Hidden (ANSI)
 48
0.0131984949111939
100
AcDbVertex
100
AcDb2dVertex
 10
21.15025806151153
 20
74.78430770157419
 30
0.0
  0
VERTEX
  5
269
330
256
100
AcDbEntity
  8
Hidden (ANSI)
 48
0.0131984949111939
100
AcDbVertex
100
AcDb2dVertex
 10
21.15329091714238
 20
74.7847882933557
 30
0.0
  0
VERTEX
  5
26A
330
256
100
AcDbEntity
  8
Hidden (ANSI)
 48
0.0131984949111939
100
AcDbVertex
100
AcDb2dVertex
 10
21.15632376104005
 20
74.78521181486316
 30
0.0
  0
VERTEX
  5
26B
330
256
100
AcDbEntity
  8
Hidden (ANSI)
 48
0.0131984949111939
100
AcDbVertex
100
AcDb2dVertex
 10
21.15935661667091
 20
74.78556925500064
 30
0.0
  0
VERTEX
  5
26C
330
256
100
AcDbEntity
  8
Hidden (ANSI)
 48
0.0131984949111939
100
AcDbVertex
100
AcDb2dVertex
 10
21.16238946056856
 20
74.78586662116544
 30
0.0
  0
VERTEX
  5
26D
330
256
100
AcDbEntity
  8
Hidden (ANSI)
 48
0.0131984949111939
100
AcDbVertex
100
AcDb2dVertex
 10
21.16542230446623
 20
74.78609790596028
 30
0.0
  0
VERTEX
  5
26E
330
256
100
AcDbEntity
  8
Hidden (ANSI)
 48
0.0131984949111939
100
AcDbVertex
100
AcDb2dVertex
 10
21.16845514836389
 20
74.7862661130838
 30
0.0
  0
VERTEX
  5
26F
330
256
100
AcDbEntity
  8
Hidden (ANSI)
 48
0.0131984949111939
100
AcDbVertex
100
AcDb2dVertex
 10
21.17148799226155
 20
74.78636523513873
 30
0.0
  0
VERTEX
  5
270
330
256
100
AcDbEntity
  8
Hidden (ANSI)
 48
0.0131984949111939
100
AcDbVertex
100
AcDb2dVertex
 10
21.17452083615921
 20
74.78639827582371
 30
0.0
  0
SEQEND
  5
259
330
256
100
AcDbEntity
  8
Hidden (ANSI)
 48
0.0131984949111939
  0
LINE
  5
271
330
6C
100
AcDbEntity
  8
Hidden (ANSI)
 48
0.0215442795306444
100
AcDbLine
 10
21.0861325001728
 20
74.69801021172457
 30
0.0
 11
20.9611325001728
 21
74.69801021172457
 31
0.0
  0
POLYLINE
  5
272
330
6C
100
AcDbEntity
  8
Hidden (ANSI)
 48
0.0131979743018747
100
AcDb2dPolyline
 66
     1
 10
0.0
 20
0.0
 30
0.0
 70
   128
  0
VERTEX
  5
273
330
272
100
AcDbEntity
  8
Hidden (ANSI)
 48
0.0131979743018747
100
AcDbVertex
100
AcDb2dVertex
 10
21.10173250048295
 20
74.77079706511691
 30
0.0
  0
VERTEX
  5
274
330
272
100
AcDbEntity
  8
Hidden (ANSI)
 48
0.0131979743018747
100
AcDbVertex
100
AcDb2dVertex
 10
21.10071221680268
 20
74.76776633319485
 30
0.0
  0
VERTEX
  5
276
330
272
100
AcDbEntity
  8
Hidden (ANSI)
 48
0.0131979743018747
100
AcDbVertex
100
AcDb2dVertex
 10
21.0996962861388
 20
74.76473259757415
 30
0.0
  0
VERTEX
  5
277
330
272
100
AcDbEntity
  8
Hidden (ANSI)
 48
0.0131979743018747
100
AcDbVertex
100
AcDb2dVertex
 10
21.09868909670727
 20
74.76169886195345
 30
0.0
  0
VERTEX
  5
278
330
272
100
AcDbEntity
  8
Hidden (ANSI)
 48
0.0131979743018747
100
AcDbVertex
100
AcDb2dVertex
 10
21.09769491939209
 20
74.75866813003138
 30
0.0
  0
VERTEX
  5
279
330
272
100
AcDbEntity
  8
Hidden (ANSI)
 48
0.0131979743018747
100
AcDbVertex
100
AcDb2dVertex
 10
21.09671804854365
 20
74.75563439441071
 30
0.0
  0
VERTEX
  5
27A
330
272
100
AcDbEntity
  8
Hidden (ANSI)
 48
0.0131979743018747
100
AcDbVertex
100
AcDb2dVertex
 10
21.09576263771398
 20
74.75260065879002
 30
0.0
  0
VERTEX
  5
27B
330
272
100
AcDbEntity
  8
Hidden (ANSI)
 48
0.0131979743018747
100
AcDbVertex
100
AcDb2dVertex
 10
21.09483279352228
 20
74.74956992686795
 30
0.0
  0
VERTEX
  5
27C
330
272
100
AcDbEntity
  8
Hidden (ANSI)
 48
0.0131979743018747
100
AcDbVertex
100
AcDb2dVertex
 10
21.09393250525582
 20
74.74653619124724
 30
0.0
  0
VERTEX
  5
27D
330
272
100
AcDbEntity
  8
Hidden (ANSI)
 48
0.0131979743018747
100
AcDbVertex
100
AcDb2dVertex
 10
21.09306560967027
 20
74.74350245562655
 30
0.0
  0
VERTEX
  5
27E
330
272
100
AcDbEntity
  8
Hidden (ANSI)
 48
0.0131979743018747
100
AcDbVertex
100
AcDb2dVertex
 10
21.09223582618934
 20
74.74046872000586
 30
0.0
  0
VERTEX
  5
27F
330
272
100
AcDbEntity
  8
Hidden (ANSI)
 48
0.0131979743018747
100
AcDbVertex
100
AcDb2dVertex
 10
21.09144670997194
 20
74.73743798808381
 30
0.0
  0
VERTEX
  5
280
330
272
100
AcDbEntity
  8
Hidden (ANSI)
 48
0.0131979743018747
100
AcDbVertex
100
AcDb2dVertex
 10
21.09070164017905
 20
74.73440425246311
 30
0.0
  0
VERTEX
  5
281
330
272
100
AcDbEntity
  8
Hidden (ANSI)
 48
0.0131979743018747
100
AcDbVertex
100
AcDb2dVertex
 10
21.09000379650727
 20
74.73137051684242
 30
0.0
  0
VERTEX
  5
282
330
272
100
AcDbEntity
  8
Hidden (ANSI)
 48
0.0131979743018747
100
AcDbVertex
100
AcDb2dVertex
 10
21.08935618265523
 20
74.72833978492037
 30
0.0
  0
VERTEX
  5
283
330
272
100
AcDbEntity
  8
Hidden (ANSI)
 48
0.0131979743018747
100
AcDbVertex
100
AcDb2dVertex
 10
21.0887615793908
 20
74.72530604929966
 30
0.0
  0
VERTEX
  5
284
330
272
100
AcDbEntity
  8
Hidden (ANSI)
 48
0.0131979743018747
100
AcDbVertex
100
AcDb2dVertex
 10
21.08822250935152
 20
74.72227231367897
 30
0.0
  0
VERTEX
  5
285
330
272
100
AcDbEntity
  8
Hidden (ANSI)
 48
0.0131979743018747
100
AcDbVertex
100
AcDb2dVertex
 10
21.08774128397734
 20
74.7192415817569
 30
0.0
  0
VERTEX
  5
286
330
272
100
AcDbEntity
  8
Hidden (ANSI)
 48
0.0131979743018747
100
AcDbVertex
100
AcDb2dVertex
 10
21.08731998004428
 20
74.71620784613621
 30
0.0
  0
VERTEX
  5
287
330
272
100
AcDbEntity
  8
Hidden (ANSI)
 48
0.0131979743018747
100
AcDbVertex
100
AcDb2dVertex
 10
21.08696039273159
 20
74.71317411051552
 30
0.0
  0
VERTEX
  5
288
330
272
100
AcDbEntity
  8
Hidden (ANSI)
 48
0.0131979743018747
100
AcDbVertex
100
AcDb2dVertex
 10
21.0866640590882
 20
74.71014037489482
 30
0.0
  0
VERTEX
  5
289
330
272
100
AcDbEntity
  8
Hidden (ANSI)
 48
0.0131979743018747
100
AcDbVertex
100
AcDb2dVertex
 10
21.08643224629946
 20
74.70710964297277
 30
0.0
  0
VERTEX
  5
28A
330
272
100
AcDbEntity
  8
Hidden (ANSI)
 48
0.0131979743018747
100
AcDbVertex
100
AcDb2dVertex
 10
21.08626596342037
 20
74.70407590735208
 30
0.0
  0
VERTEX
  5
28B
330
272
100
AcDbEntity
  8
Hidden (ANSI)
 48
0.0131979743018747
100
AcDbVertex
100
AcDb2dVertex
 10
21.08616590270961
 20
74.70104217173137
 30
0.0
  0
VERTEX
  5
28C
330
272
100
AcDbEntity
  8
Hidden (ANSI)
 48
0.0131979743018747
100
AcDbVertex
100
AcDb2dVertex
 10
21.0861324982955
 20
74.69801143980932
 30
0.0
  0
SEQEND
  5
275
330
272
100
AcDbEntity
  8
Hidden (ANSI)
 48
0.0131979743018747
  0
LINE
  5
28D
330
6C
100
AcDbEntity
  8
Hidden (ANSI)
 48
0.0215442795306444
100
AcDbLine
 10
21.08613250017282
 20
35.24478690702119
 30
0.0
 11
20.96113250017281
 21
35.24478690702119
 31
0.0
  0
POLYLINE
  5
28E
330
6C
100
AcDbEntity
  8
Hidden (ANSI)
 48
0.0131984194740653
100
AcDb2dPolyline
 66
     1
 10
0.0
 20
0.0
 30
0.0
 70
   128
  0
VERTEX
  5
28F
330
28E
100
AcDbEntity
  8
Hidden (ANSI)
 48
0.0131984194740653
100
AcDbVertex
100
AcDb2dVertex
 10
21.10173250048295
 20
35.171998559683
 30
0.0
  0
VERTEX
  5
290
330
28E
100
AcDbEntity
  8
Hidden (ANSI)
 48
0.0131984194740653
100
AcDbVertex
100
AcDb2dVertex
 10
21.10071221680268
 20
35.17503140358066
 30
0.0
  0
VERTEX
  5
292
330
28E
100
AcDbEntity
  8
Hidden (ANSI)
 48
0.0131984194740653
100
AcDbVertex
100
AcDb2dVertex
 10
21.0996962861388
 20
35.17806425921153
 30
0.0
  0
VERTEX
  5
293
330
28E
100
AcDbEntity
  8
Hidden (ANSI)
 48
0.0131984194740653
100
AcDbVertex
100
AcDb2dVertex
 10
21.09868909670727
 20
35.18109710310919
 30
0.0
  0
VERTEX
  5
294
330
28E
100
AcDbEntity
  8
Hidden (ANSI)
 48
0.0131984194740653
100
AcDbVertex
100
AcDb2dVertex
 10
21.09769491939209
 20
35.18412994700685
 30
0.0
  0
VERTEX
  5
295
330
28E
100
AcDbEntity
  8
Hidden (ANSI)
 48
0.0131984194740653
100
AcDbVertex
100
AcDb2dVertex
 10
21.09671804854365
 20
35.18716280263771
 30
0.0
  0
VERTEX
  5
296
330
28E
100
AcDbEntity
  8
Hidden (ANSI)
 48
0.0131984194740653
100
AcDbVertex
100
AcDb2dVertex
 10
21.09576263771398
 20
35.19019564653537
 30
0.0
  0
VERTEX
  5
297
330
28E
100
AcDbEntity
  8
Hidden (ANSI)
 48
0.0131984194740653
100
AcDbVertex
100
AcDb2dVertex
 10
21.09483279352228
 20
35.19322849043303
 30
0.0
  0
VERTEX
  5
298
330
28E
100
AcDbEntity
  8
Hidden (ANSI)
 48
0.0131984194740653
100
AcDbVertex
100
AcDb2dVertex
 10
21.09393250525582
 20
35.19626134606389
 30
0.0
  0
VERTEX
  5
299
330
28E
100
AcDbEntity
  8
Hidden (ANSI)
 48
0.0131984194740653
100
AcDbVertex
100
AcDb2dVertex
 10
21.09306560967027
 20
35.19929418996155
 30
0.0
  0
VERTEX
  5
29A
330
28E
100
AcDbEntity
  8
Hidden (ANSI)
 48
0.0131984194740653
100
AcDbVertex
100
AcDb2dVertex
 10
21.09223582618934
 20
35.20232703385921
 30
0.0
  0
VERTEX
  5
29B
330
28E
100
AcDbEntity
  8
Hidden (ANSI)
 48
0.0131984194740653
100
AcDbVertex
100
AcDb2dVertex
 10
21.09144670997194
 20
35.20535988949007
 30
0.0
  0
VERTEX
  5
29C
330
28E
100
AcDbEntity
  8
Hidden (ANSI)
 48
0.0131984194740653
100
AcDbVertex
100
AcDb2dVertex
 10
21.09070164017905
 20
35.20839273338773
 30
0.0
  0
VERTEX
  5
29D
330
28E
100
AcDbEntity
  8
Hidden (ANSI)
 48
0.0131984194740653
100
AcDbVertex
100
AcDb2dVertex
 10
21.09000379650727
 20
35.2114255772854
 30
0.0
  0
VERTEX
  5
29E
330
28E
100
AcDbEntity
  8
Hidden (ANSI)
 48
0.0131984194740653
100
AcDbVertex
100
AcDb2dVertex
 10
21.08935618265523
 20
35.21445843291626
 30
0.0
  0
VERTEX
  5
29F
330
28E
100
AcDbEntity
  8
Hidden (ANSI)
 48
0.0131984194740653
100
AcDbVertex
100
AcDb2dVertex
 10
21.0887615793908
 20
35.21749127681392
 30
0.0
  0
VERTEX
  5
2A0
330
28E
100
AcDbEntity
  8
Hidden (ANSI)
 48
0.0131984194740653
100
AcDbVertex
100
AcDb2dVertex
 10
21.08822250935152
 20
35.22052412071158
 30
0.0
  0
VERTEX
  5
2A1
330
28E
100
AcDbEntity
  8
Hidden (ANSI)
 48
0.0131984194740653
100
AcDbVertex
100
AcDb2dVertex
 10
21.08774128397734
 20
35.22355697634245
 30
0.0
  0
VERTEX
  5
2A2
330
28E
100
AcDbEntity
  8
Hidden (ANSI)
 48
0.0131984194740653
100
AcDbVertex
100
AcDb2dVertex
 10
21.08731998004428
 20
35.2265898202401
 30
0.0
  0
VERTEX
  5
2A3
330
28E
100
AcDbEntity
  8
Hidden (ANSI)
 48
0.0131984194740653
100
AcDbVertex
100
AcDb2dVertex
 10
21.08696039273159
 20
35.22962267587096
 30
0.0
  0
VERTEX
  5
2A4
330
28E
100
AcDbEntity
  8
Hidden (ANSI)
 48
0.0131984194740653
100
AcDbVertex
100
AcDb2dVertex
 10
21.0866640590882
 20
35.23265551976862
 30
0.0
  0
VERTEX
  5
2A5
330
28E
100
AcDbEntity
  8
Hidden (ANSI)
 48
0.0131984194740653
100
AcDbVertex
100
AcDb2dVertex
 10
21.08643224629946
 20
35.23568836366628
 30
0.0
  0
VERTEX
  5
2A6
330
28E
100
AcDbEntity
  8
Hidden (ANSI)
 48
0.0131984194740653
100
AcDbVertex
100
AcDb2dVertex
 10
21.08626596342037
 20
35.23872120756395
 30
0.0
  0
VERTEX
  5
2A7
330
28E
100
AcDbEntity
  8
Hidden (ANSI)
 48
0.0131984194740653
100
AcDbVertex
100
AcDb2dVertex
 10
21.08616590270961
 20
35.24175405146161
 30
0.0
  0
VERTEX
  5
2A8
330
28E
100
AcDbEntity
  8
Hidden (ANSI)
 48
0.0131984194740653
100
AcDbVertex
100
AcDb2dVertex
 10
21.0861324982955
 20
35.24478689535927
 30
0.0
  0
SEQEND
  5
291
330
28E
100
AcDbEntity
  8
Hidden (ANSI)
 48
0.0131984194740653
  0
LINE
  5
2A9
330
6C
100
AcDbEntity
  8
Hidden (ANSI)
 48
0.0215442795306444
100
AcDbLine
 10
21.17452084782113
 20
35.15639855937287
 30
0.0
 11
21.17452084782113
 21
35.03139855937287
 31
0.0
  0
POLYLINE
  5
2AA
330
6C
100
AcDbEntity
  8
Hidden (ANSI)
 48
0.0131984194740653
100
AcDb2dPolyline
 66
     1
 10
0.0
 20
0.0
 30
0.0
 70
   128
  0
VERTEX
  5
2AB
330
2AA
100
AcDbEntity
  8
Hidden (ANSI)
 48
0.0131984194740653
100
AcDbVertex
100
AcDb2dVertex
 10
21.10173250048295
 20
35.171998559683
 30
0.0
  0
VERTEX
  5
2AC
330
2AA
100
AcDbEntity
  8
Hidden (ANSI)
 48
0.0131984194740653
100
AcDbVertex
100
AcDb2dVertex
 10
21.10476534438061
 20
35.17097827600274
 30
0.0
  0
VERTEX
  5
2AE
330
2AA
100
AcDbEntity
  8
Hidden (ANSI)
 48
0.0131984194740653
100
AcDbVertex
100
AcDb2dVertex
 10
21.10779820001146
 20
35.16996234533885
 30
0.0
  0
VERTEX
  5
2AF
330
2AA
100
AcDbEntity
  8
Hidden (ANSI)
 48
0.0131984194740653
100
AcDbVertex
100
AcDb2dVertex
 10
21.11083104390913
 20
35.16895515590733
 30
0.0
  0
VERTEX
  5
2B0
330
2AA
100
AcDbEntity
  8
Hidden (ANSI)
 48
0.0131984194740653
100
AcDbVertex
100
AcDb2dVertex
 10
21.11386388780679
 20
35.16796097859215
 30
0.0
  0
VERTEX
  5
2B1
330
2AA
100
AcDbEntity
  8
Hidden (ANSI)
 48
0.0131984194740653
100
AcDbVertex
100
AcDb2dVertex
 10
21.11689674343765
 20
35.16698410774372
 30
0.0
  0
VERTEX
  5
2B2
330
2AA
100
AcDbEntity
  8
Hidden (ANSI)
 48
0.0131984194740653
100
AcDbVertex
100
AcDb2dVertex
 10
21.11992958733531
 20
35.16602869691404
 30
0.0
  0
VERTEX
  5
2B3
330
2AA
100
AcDbEntity
  8
Hidden (ANSI)
 48
0.0131984194740653
100
AcDbVertex
100
AcDb2dVertex
 10
21.12296243123298
 20
35.16509885272234
 30
0.0
  0
VERTEX
  5
2B4
330
2AA
100
AcDbEntity
  8
Hidden (ANSI)
 48
0.0131984194740653
100
AcDbVertex
100
AcDb2dVertex
 10
21.12599528686383
 20
35.16419856445588
 30
0.0
  0
VERTEX
  5
2B5
330
2AA
100
AcDbEntity
  8
Hidden (ANSI)
 48
0.0131984194740653
100
AcDbVertex
100
AcDb2dVertex
 10
21.1290281307615
 20
35.16333166887033
 30
0.0
  0
VERTEX
  5
2B6
330
2AA
100
AcDbEntity
  8
Hidden (ANSI)
 48
0.0131984194740653
100
AcDbVertex
100
AcDb2dVertex
 10
21.13206097465916
 20
35.1625018853894
 30
0.0
  0
VERTEX
  5
2B7
330
2AA
100
AcDbEntity
  8
Hidden (ANSI)
 48
0.0131984194740653
100
AcDbVertex
100
AcDb2dVertex
 10
21.13509383029002
 20
35.161712769172
 30
0.0
  0
VERTEX
  5
2B8
330
2AA
100
AcDbEntity
  8
Hidden (ANSI)
 48
0.0131984194740653
100
AcDbVertex
100
AcDb2dVertex
 10
21.13812667418768
 20
35.16096769937912
 30
0.0
  0
VERTEX
  5
2B9
330
2AA
100
AcDbEntity
  8
Hidden (ANSI)
 48
0.0131984194740653
100
AcDbVertex
100
AcDb2dVertex
 10
21.14115951808534
 20
35.16026985570733
 30
0.0
  0
VERTEX
  5
2BA
330
2AA
100
AcDbEntity
  8
Hidden (ANSI)
 48
0.0131984194740653
100
AcDbVertex
100
AcDb2dVertex
 10
21.1441923737162
 20
35.15962224185528
 30
0.0
  0
VERTEX
  5
2BB
330
2AA
100
AcDbEntity
  8
Hidden (ANSI)
 48
0.0131984194740653
100
AcDbVertex
100
AcDb2dVertex
 10
21.14722521761386
 20
35.15902763859085
 30
0.0
  0
VERTEX
  5
2BC
330
2AA
100
AcDbEntity
  8
Hidden (ANSI)
 48
0.0131984194740653
100
AcDbVertex
100
AcDb2dVertex
 10
21.15025806151153
 20
35.15848856855158
 30
0.0
  0
VERTEX
  5
2BD
330
2AA
100
AcDbEntity
  8
Hidden (ANSI)
 48
0.0131984194740653
100
AcDbVertex
100
AcDb2dVertex
 10
21.15329091714238
 20
35.15800734317739
 30
0.0
  0
VERTEX
  5
2BE
330
2AA
100
AcDbEntity
  8
Hidden (ANSI)
 48
0.0131984194740653
100
AcDbVertex
100
AcDb2dVertex
 10
21.15632376104005
 20
35.15758603924434
 30
0.0
  0
VERTEX
  5
2BF
330
2AA
100
AcDbEntity
  8
Hidden (ANSI)
 48
0.0131984194740653
100
AcDbVertex
100
AcDb2dVertex
 10
21.15935661667091
 20
35.15722645193165
 30
0.0
  0
VERTEX
  5
2C0
330
2AA
100
AcDbEntity
  8
Hidden (ANSI)
 48
0.0131984194740653
100
AcDbVertex
100
AcDb2dVertex
 10
21.16238946056856
 20
35.15693011828825
 30
0.0
  0
VERTEX
  5
2C1
330
2AA
100
AcDbEntity
  8
Hidden (ANSI)
 48
0.0131984194740653
100
AcDbVertex
100
AcDb2dVertex
 10
21.16542230446623
 20
35.15669830549951
 30
0.0
  0
VERTEX
  5
2C2
330
2AA
100
AcDbEntity
  8
Hidden (ANSI)
 48
0.0131984194740653
100
AcDbVertex
100
AcDb2dVertex
 10
21.16845514836389
 20
35.15653202262043
 30
0.0
  0
VERTEX
  5
2C3
330
2AA
100
AcDbEntity
  8
Hidden (ANSI)
 48
0.0131984194740653
100
AcDbVertex
100
AcDb2dVertex
 10
21.17148799226155
 20
35.15643196190967
 30
0.0
  0
VERTEX
  5
2C4
330
2AA
100
AcDbEntity
  8
Hidden (ANSI)
 48
0.0131984194740653
100
AcDbVertex
100
AcDb2dVertex
 10
21.17452083615921
 20
35.15639855749557
 30
0.0
  0
SEQEND
  5
2AD
330
2AA
100
AcDbEntity
  8
Hidden (ANSI)
 48
0.0131984194740653
  0
LINE
  5
2C5
330
6C
100
AcDbEntity
  8
Hidden (ANSI)
 48
0.0215442795306444
100
AcDbLine
 10
88.74774415252449
 20
35.15639855937287
 30
0.0
 11
88.74774415252449
 21
35.03139855937287
 31
0.0
  0
POLYLINE
  5
2C6
330
6C
100
AcDbEntity
  8
Hidden (ANSI)
 48
0.0131979743018747
100
AcDb2dPolyline
 66
     1
 10
0.0
 20
0.0
 30
0.0
 70
   128
  0
VERTEX
  5
2C7
330
2C6
100
AcDbEntity
  8
Hidden (ANSI)
 48
0.0131979743018747
100
AcDbVertex
100
AcDb2dVertex
 10
88.82052984769064
 20
35.171998559683
 30
0.0
  0
VERTEX
  5
2C8
330
2C6
100
AcDbEntity
  8
Hidden (ANSI)
 48
0.0131979743018747
100
AcDbVertex
100
AcDb2dVertex
 10
88.81750211946721
 20
35.17097827600274
 30
0.0
  0
VERTEX
  5
2CA
330
2C6
100
AcDbEntity
  8
Hidden (ANSI)
 48
0.0131979743018747
100
AcDbVertex
100
AcDb2dVertex
 10
88.81446838384652
 20
35.16996234533885
 30
0.0
  0
VERTEX
  5
2CB
330
2C6
100
AcDbEntity
  8
Hidden (ANSI)
 48
0.0131979743018747
100
AcDbVertex
100
AcDb2dVertex
 10
88.81143464822583
 20
35.16895515590733
 30
0.0
  0
VERTEX
  5
2CC
330
2C6
100
AcDbEntity
  8
Hidden (ANSI)
 48
0.0131979743018747
100
AcDbVertex
100
AcDb2dVertex
 10
88.80840091260514
 20
35.16796097859215
 30
0.0
  0
VERTEX
  5
2CD
330
2C6
100
AcDbEntity
  8
Hidden (ANSI)
 48
0.0131979743018747
100
AcDbVertex
100
AcDb2dVertex
 10
88.80536717698445
 20
35.16698410774372
 30
0.0
  0
VERTEX
  5
2CE
330
2C6
100
AcDbEntity
  8
Hidden (ANSI)
 48
0.0131979743018747
100
AcDbVertex
100
AcDb2dVertex
 10
88.80233344136376
 20
35.16602869691404
 30
0.0
  0
VERTEX
  5
2CF
330
2C6
100
AcDbEntity
  8
Hidden (ANSI)
 48
0.0131979743018747
100
AcDbVertex
100
AcDb2dVertex
 10
88.79929970574305
 20
35.16509885272234
 30
0.0
  0
VERTEX
  5
2D0
330
2C6
100
AcDbEntity
  8
Hidden (ANSI)
 48
0.0131979743018747
100
AcDbVertex
100
AcDb2dVertex
 10
88.79627197751963
 20
35.16419856445588
 30
0.0
  0
VERTEX
  5
2D1
330
2C6
100
AcDbEntity
  8
Hidden (ANSI)
 48
0.0131979743018747
100
AcDbVertex
100
AcDb2dVertex
 10
88.79323824189894
 20
35.16333166887033
 30
0.0
  0
VERTEX
  5
2D2
330
2C6
100
AcDbEntity
  8
Hidden (ANSI)
 48
0.0131979743018747
100
AcDbVertex
100
AcDb2dVertex
 10
88.79020450627825
 20
35.1625018853894
 30
0.0
  0
VERTEX
  5
2D3
330
2C6
100
AcDbEntity
  8
Hidden (ANSI)
 48
0.0131979743018747
100
AcDbVertex
100
AcDb2dVertex
 10
88.78717077065756
 20
35.161712769172
 30
0.0
  0
VERTEX
  5
2D4
330
2C6
100
AcDbEntity
  8
Hidden (ANSI)
 48
0.0131979743018747
100
AcDbVertex
100
AcDb2dVertex
 10
88.78413703503685
 20
35.16096769937912
 30
0.0
  0
VERTEX
  5
2D5
330
2C6
100
AcDbEntity
  8
Hidden (ANSI)
 48
0.0131979743018747
100
AcDbVertex
100
AcDb2dVertex
 10
88.78110329941616
 20
35.16026985570733
 30
0.0
  0
VERTEX
  5
2D6
330
2C6
100
AcDbEntity
  8
Hidden (ANSI)
 48
0.0131979743018747
100
AcDbVertex
100
AcDb2dVertex
 10
88.77807557119274
 20
35.15962224185528
 30
0.0
  0
VERTEX
  5
2D7
330
2C6
100
AcDbEntity
  8
Hidden (ANSI)
 48
0.0131979743018747
100
AcDbVertex
100
AcDb2dVertex
 10
88.77504183557205
 20
35.15902763859085
 30
0.0
  0
VERTEX
  5
2D8
330
2C6
100
AcDbEntity
  8
Hidden (ANSI)
 48
0.0131979743018747
100
AcDbVertex
100
AcDb2dVertex
 10
88.77200809995136
 20
35.15848856855158
 30
0.0
  0
VERTEX
  5
2D9
330
2C6
100
AcDbEntity
  8
Hidden (ANSI)
 48
0.0131979743018747
100
AcDbVertex
100
AcDb2dVertex
 10
88.76897436433065
 20
35.15800734317739
 30
0.0
  0
VERTEX
  5
2DA
330
2C6
100
AcDbEntity
  8
Hidden (ANSI)
 48
0.0131979743018747
100
AcDbVertex
100
AcDb2dVertex
 10
88.76594062870998
 20
35.15758603924434
 30
0.0
  0
VERTEX
  5
2DB
330
2C6
100
AcDbEntity
  8
Hidden (ANSI)
 48
0.0131979743018747
100
AcDbVertex
100
AcDb2dVertex
 10
88.76290689308927
 20
35.15722645193165
 30
0.0
  0
VERTEX
  5
2DC
330
2C6
100
AcDbEntity
  8
Hidden (ANSI)
 48
0.0131979743018747
100
AcDbVertex
100
AcDb2dVertex
 10
88.75987315746858
 20
35.15693011828825
 30
0.0
  0
VERTEX
  5
2DD
330
2C6
100
AcDbEntity
  8
Hidden (ANSI)
 48
0.0131979743018747
100
AcDbVertex
100
AcDb2dVertex
 10
88.75684542924515
 20
35.15669830549951
 30
0.0
  0
VERTEX
  5
2DE
330
2C6
100
AcDbEntity
  8
Hidden (ANSI)
 48
0.0131979743018747
100
AcDbVertex
100
AcDb2dVertex
 10
88.75381169362444
 20
35.15653202262043
 30
0.0
  0
VERTEX
  5
2DF
330
2C6
100
AcDbEntity
  8
Hidden (ANSI)
 48
0.0131979743018747
100
AcDbVertex
100
AcDb2dVertex
 10
88.75077795800377
 20
35.15643196190967
 30
0.0
  0
VERTEX
  5
2E0
330
2C6
100
AcDbEntity
  8
Hidden (ANSI)
 48
0.0131979743018747
100
AcDbVertex
100
AcDb2dVertex
 10
88.74774422238308
 20
35.15639855749557
 30
0.0
  0
SEQEND
  5
2C9
330
2C6
100
AcDbEntity
  8
Hidden (ANSI)
 48
0.0131979743018747
  0
MTEXT
  5
2E2
330
6C
100
AcDbEntity
  8
Symbol (ANSI)
100
AcDbMText
 10
50.03207680878293
 20
29.71109950073381
 30
0.0
 40
1.320000016313838
 41
0.0
 46
0.0
 71
     7
 72
     1
  1
FRONT VIEW
  7
Text Style153
 73
     1
 44
1.0
  0
LINE
  5
2E4
330
6C
100
AcDbEntity
  8
Symbol (ANSI)
370
    30
100
AcDbLine
 10
49.90007646923069
 20
29.44191148961002
 30
0.0
 11
60.51249151637314
 21
29.44191148961002
 31
0.0
  0
POLYLINE
  5
2E5
330
6C
100
AcDbEntity
  8
Visible (ANSI)
100
AcDb2dPolyline
 66
     1
 10
0.0
 20
0.0
 30
0.0
 70
   128
  0
VERTEX
  5
2E6
330
2E5
100
AcDbEntity
  8
Visible (ANSI)
100
AcDbVertex
100
AcDb2dVertex
 10
108.1703034885481
 20
74.77079706511691
 30
0.0
  0
VERTEX
  5
2E7
330
2E5
100
AcDbEntity
  8
Visible (ANSI)
100
AcDbVertex
100
AcDb2dVertex
 10
108.1706045272039
 20
74.76776633319485
 30
0.0
  0
VERTEX
  5
2E9
330
2E5
100
AcDbEntity
  8
Visible (ANSI)
100
AcDbVertex
100
AcDb2dVertex
 10
108.171506340786
 20
74.76473259757415
 30
0.0
  0
VERTEX
  5
2EA
330
2E5
100
AcDbEntity
  8
Visible (ANSI)
100
AcDbVertex
100
AcDb2dVertex
 10
108.1730050808058
 20
74.76169886195345
 30
0.0
  0
VERTEX
  5
2EB
330
2E5
100
AcDbEntity
  8
Visible (ANSI)
100
AcDbVertex
100
AcDb2dVertex
 10
108.1750943174708
 20
74.75866813003138
 30
0.0
  0
VERTEX
  5
2EC
330
2E5
100
AcDbEntity
  8
Visible (ANSI)
100
AcDbVertex
100
AcDb2dVertex
 10
108.1777651100842
 20
74.75563439441071
 30
0.0
  0
VERTEX
  5
2ED
330
2E5
100
AcDbEntity
  8
Visible (ANSI)
100
AcDbVertex
100
AcDb2dVertex
 10
108.1810060187783
 20
74.75260065879002
 30
0.0
  0
VERTEX
  5
2EE
330
2E5
100
AcDbEntity
  8
Visible (ANSI)
100
AcDbVertex
100
AcDb2dVertex
 10
108.1848031749132
 20
74.74956992686795
 30
0.0
  0
VERTEX
  5
2EF
330
2E5
100
AcDbEntity
  8
Visible (ANSI)
100
AcDbVertex
100
AcDb2dVertex
 10
108.1891403162769
 20
74.74653619124724
 30
0.0
  0
VERTEX
  5
2F0
330
2E5
100
AcDbEntity
  8
Visible (ANSI)
100
AcDbVertex
100
AcDb2dVertex
 10
108.1939988574839
 20
74.74350245562655
 30
0.0
  0
VERTEX
  5
2F1
330
2E5
100
AcDbEntity
  8
Visible (ANSI)
100
AcDbVertex
100
AcDb2dVertex
 10
108.1993580073079
 20
74.74046872000586
 30
0.0
  0
VERTEX
  5
2F2
330
2E5
100
AcDbEntity
  8
Visible (ANSI)
100
AcDbVertex
100
AcDb2dVertex
 10
108.2051948097473
 20
74.73743798808381
 30
0.0
  0
VERTEX
  5
2F3
330
2E5
100
AcDbEntity
  8
Visible (ANSI)
100
AcDbVertex
100
AcDb2dVertex
 10
108.2114842730909
 20
74.73440425246311
 30
0.0
  0
VERTEX
  5
2F4
330
2E5
100
AcDbEntity
  8
Visible (ANSI)
100
AcDbVertex
100
AcDb2dVertex
 10
108.2181994637831
 20
74.73137051684242
 30
0.0
  0
VERTEX
  5
2F5
330
2E5
100
AcDbEntity
  8
Visible (ANSI)
100
AcDbVertex
100
AcDb2dVertex
 10
108.2253116296228
 20
74.72833978492037
 30
0.0
  0
VERTEX
  5
2F6
330
2E5
100
AcDbEntity
  8
Visible (ANSI)
100
AcDbVertex
100
AcDb2dVertex
 10
108.2327903112284
 20
74.72530604929966
 30
0.0
  0
VERTEX
  5
2F7
330
2E5
100
AcDbEntity
  8
Visible (ANSI)
100
AcDbVertex
100
AcDb2dVertex
 10
108.2406034887033
 20
74.72227231367897
 30
0.0
  0
VERTEX
  5
2F8
330
2E5
100
AcDbEntity
  8
Visible (ANSI)
100
AcDbVertex
100
AcDb2dVertex
 10
108.2487176960339
 20
74.7192415817569
 30
0.0
  0
VERTEX
  5
2F9
330
2E5
100
AcDbEntity
  8
Visible (ANSI)
100
AcDbVertex
100
AcDb2dVertex
 10
108.2570981970883
 20
74.71620784613621
 30
0.0
  0
VERTEX
  5
2FA
330
2E5
100
AcDbEntity
  8
Visible (ANSI)
100
AcDbVertex
100
AcDb2dVertex
 10
108.2657090970811
 20
74.71317411051552
 30
0.0
  0
VERTEX
  5
2FB
330
2E5
100
AcDbEntity
  8
Visible (ANSI)
100
AcDbVertex
100
AcDb2dVertex
 10
108.2745135288383
 20
74.71014037489482
 30
0.0
  0
VERTEX
  5
2FC
330
2E5
100
AcDbEntity
  8
Visible (ANSI)
100
AcDbVertex
100
AcDb2dVertex
 10
108.2834737877286
 20
74.70710964297277
 30
0.0
  0
VERTEX
  5
2FD
330
2E5
100
AcDbEntity
  8
Visible (ANSI)
100
AcDbVertex
100
AcDb2dVertex
 10
108.2925515039953
 20
74.70407590735208
 30
0.0
  0
VERTEX
  5
2FE
330
2E5
100
AcDbEntity
  8
Visible (ANSI)
100
AcDbVertex
100
AcDb2dVertex
 10
108.3017078070209
 20
74.70104217173137
 30
0.0
  0
VERTEX
  5
2FF
330
2E5
100
AcDbEntity
  8
Visible (ANSI)
100
AcDbVertex
100
AcDb2dVertex
 10
108.3109034873917
 20
74.69801143980932
 30
0.0
  0
SEQEND
  5
2E8
330
2E5
100
AcDbEntity
  8
Visible (ANSI)
  0
POLYLINE
  5
300
330
6C
100
AcDbEntity
  8
Visible (ANSI)
100
AcDb2dPolyline
 66
     1
 10
0.0
 20
0.0
 30
0.0
 70
   128
  0
VERTEX
  5
301
330
300
100
AcDbEntity
  8
Visible (ANSI)
100
AcDbVertex
100
AcDb2dVertex
 10
108.3109034873917
 20
35.24478689535927
 30
0.0
  0
VERTEX
  5
302
330
300
100
AcDbEntity
  8
Visible (ANSI)
100
AcDbVertex
100
AcDb2dVertex
 10
108.3017078070209
 20
35.24175405146161
 30
0.0
  0
VERTEX
  5
304
330
300
100
AcDbEntity
  8
Visible (ANSI)
100
AcDbVertex
100
AcDb2dVertex
 10
108.2925515039953
 20
35.23872120756395
 30
0.0
  0
VERTEX
  5
305
330
300
100
AcDbEntity
  8
Visible (ANSI)
100
AcDbVertex
100
AcDb2dVertex
 10
108.2834737877286
 20
35.23568836366628
 30
0.0
  0
VERTEX
  5
306
330
300
100
AcDbEntity
  8
Visible (ANSI)
100
AcDbVertex
100
AcDb2dVertex
 10
108.2745135288383
 20
35.23265551976862
 30
0.0
  0
VERTEX
  5
307
330
300
100
AcDbEntity
  8
Visible (ANSI)
100
AcDbVertex
100
AcDb2dVertex
 10
108.2657090970811
 20
35.22962267587096
 30
0.0
  0
VERTEX
  5
308
330
300
100
AcDbEntity
  8
Visible (ANSI)
100
AcDbVertex
100
AcDb2dVertex
 10
108.2570981970883
 20
35.2265898202401
 30
0.0
  0
VERTEX
  5
309
330
300
100
AcDbEntity
  8
Visible (ANSI)
100
AcDbVertex
100
AcDb2dVertex
 10
108.2487176960339
 20
35.22355697634245
 30
0.0
  0
VERTEX
  5
30A
330
300
100
AcDbEntity
  8
Visible (ANSI)
100
AcDbVertex
100
AcDb2dVertex
 10
108.2406034887033
 20
35.22052412071158
 30
0.0
  0
VERTEX
  5
30B
330
300
100
AcDbEntity
  8
Visible (ANSI)
100
AcDbVertex
100
AcDb2dVertex
 10
108.2327903112284
 20
35.21749127681392
 30
0.0
  0
VERTEX
  5
30C
330
300
100
AcDbEntity
  8
Visible (ANSI)
100
AcDbVertex
100
AcDb2dVertex
 10
108.2253116296228
 20
35.21445843291626
 30
0.0
  0
VERTEX
  5
30D
330
300
100
AcDbEntity
  8
Visible (ANSI)
100
AcDbVertex
100
AcDb2dVertex
 10
108.2181994637831
 20
35.2114255772854
 30
0.0
  0
VERTEX
  5
30E
330
300
100
AcDbEntity
  8
Visible (ANSI)
100
AcDbVertex
100
AcDb2dVertex
 10
108.2114842730909
 20
35.20839273338773
 30
0.0
  0
VERTEX
  5
30F
330
300
100
AcDbEntity
  8
Visible (ANSI)
100
AcDbVertex
100
AcDb2dVertex
 10
108.2051948097473
 20
35.20535988949007
 30
0.0
  0
VERTEX
  5
310
330
300
100
AcDbEntity
  8
Visible (ANSI)
100
AcDbVertex
100
AcDb2dVertex
 10
108.1993580073079
 20
35.20232703385921
 30
0.0
  0
VERTEX
  5
311
330
300
100
AcDbEntity
  8
Visible (ANSI)
100
AcDbVertex
100
AcDb2dVertex
 10
108.1939988574839
 20
35.19929418996155
 30
0.0
  0
VERTEX
  5
312
330
300
100
AcDbEntity
  8
Visible (ANSI)
100
AcDbVertex
100
AcDb2dVertex
 10
108.1891403162769
 20
35.19626134606389
 30
0.0
  0
VERTEX
  5
313
330
300
100
AcDbEntity
  8
Visible (ANSI)
100
AcDbVertex
100
AcDb2dVertex
 10
108.1848031749132
 20
35.19322849043303
 30
0.0
  0
VERTEX
  5
314
330
300
100
AcDbEntity
  8
Visible (ANSI)
100
AcDbVertex
100
AcDb2dVertex
 10
108.1810060187783
 20
35.19019564653537
 30
0.0
  0
VERTEX
  5
315
330
300
100
AcDbEntity
  8
Visible (ANSI)
100
AcDbVertex
100
AcDb2dVertex
 10
108.1777651100842
 20
35.18716280263771
 30
0.0
  0
VERTEX
  5
316
330
300
100
AcDbEntity
  8
Visible (ANSI)
100
AcDbVertex
100
AcDb2dVertex
 10
108.1750943174708
 20
35.18412994700685
 30
0.0
  0
VERTEX
  5
317
330
300
100
AcDbEntity
  8
Visible (ANSI)
100
AcDbVertex
100
AcDb2dVertex
 10
108.1730050808058
 20
35.18109710310919
 30
0.0
  0
VERTEX
  5
318
330
300
100
AcDbEntity
  8
Visible (ANSI)
100
AcDbVertex
100
AcDb2dVertex
 10
108.171506340786
 20
35.17806425921153
 30
0.0
  0
VERTEX
  5
319
330
300
100
AcDbEntity
  8
Visible (ANSI)
100
AcDbVertex
100
AcDb2dVertex
 10
108.1706045272039
 20
35.17503140358066
 30
0.0
  0
VERTEX
  5
31A
330
300
100
AcDbEntity
  8
Visible (ANSI)
100
AcDbVertex
100
AcDb2dVertex
 10
108.1703034885481
 20
35.171998559683
 30
0.0
  0
SEQEND
  5
303
330
300
100
AcDbEntity
  8
Visible (ANSI)
  0
LINE
  5
31B
330
6C
100
AcDbEntity
  8
Visible (ANSI)
100
AcDbLine
 10
109.0453034866709
 20
35.2447869070212
 30
0.0
 11
108.3109034866708
 21
35.2447869070212
 31
0.0
  0
LINE
  5
31C
330
6C
100
AcDbEntity
  8
Visible (ANSI)
100
AcDbLine
 10
108.2645649853599
 20
35.17199855937287
 30
0.0
 11
108.1703034866708
 21
35.17199855937287
 31
0.0
  0
LINE
  5
31D
330
6C
100
AcDbEntity
  8
Visible (ANSI)
100
AcDbLine
 10
108.2953034866708
 20
35.17199855937287
 30
0.0
 11
108.2645649853599
 21
35.17199855937287
 31
0.0
  0
POLYLINE
  5
31E
330
6C
100
AcDbEntity
  8
Visible (ANSI)
100
AcDb2dPolyline
 66
     1
 10
0.0
 20
0.0
 30
0.0
 70
   128
  0
VERTEX
  5
31F
330
31E
100
AcDbEntity
  8
Visible (ANSI)
100
AcDbVertex
100
AcDb2dVertex
 10
108.2953034866708
 20
35.171998559683
 30
0.0
  0
VERTEX
  5
320
330
31E
100
AcDbEntity
  8
Visible (ANSI)
100
AcDbVertex
100
AcDb2dVertex
 10
108.295336887467
 20
35.17503140358066
 30
0.0
  0
VERTEX
  5
322
330
31E
100
AcDbEntity
  8
Visible (ANSI)
100
AcDbVertex
100
AcDb2dVertex
 10
108.2954369468343
 20
35.17806425921153
 30
0.0
  0
VERTEX
  5
323
330
31E
100
AcDbEntity
  8
Visible (ANSI)
100
AcDbVertex
100
AcDb2dVertex
 10
108.2956032363018
 20
35.18109710310919
 30
0.0
  0
VERTEX
  5
324
330
31E
100
AcDbEntity
  8
Visible (ANSI)
100
AcDbVertex
100
AcDb2dVertex
 10
108.2958350437969
 20
35.18412994700685
 30
0.0
  0
VERTEX
  5
325
330
31E
100
AcDbEntity
  8
Visible (ANSI)
100
AcDbVertex
100
AcDb2dVertex
 10
108.2961313766153
 20
35.18716280263771
 30
0.0
  0
VERTEX
  5
326
330
31E
100
AcDbEntity
  8
Visible (ANSI)
100
AcDbVertex
100
AcDb2dVertex
 10
108.2964909659446
 20
35.19019564653537
 30
0.0
  0
VERTEX
  5
327
330
31E
100
AcDbEntity
  8
Visible (ANSI)
100
AcDbVertex
100
AcDb2dVertex
 10
108.296912271986
 20
35.19322849043303
 30
0.0
  0
VERTEX
  5
328
330
31E
100
AcDbEntity
  8
Visible (ANSI)
100
AcDbVertex
100
AcDb2dVertex
 10
108.2973934903936
 20
35.19626134606389
 30
0.0
  0
VERTEX
  5
329
330
31E
100
AcDbEntity
  8
Visible (ANSI)
100
AcDbVertex
100
AcDb2dVertex
 10
108.2979325607995
 20
35.19929418996155
 30
0.0
  0
VERTEX
  5
32A
330
31E
100
AcDbEntity
  8
Visible (ANSI)
100
AcDbVertex
100
AcDb2dVertex
 10
108.2985271746972
 20
35.20232703385921
 30
0.0
  0
VERTEX
  5
32B
330
31E
100
AcDbEntity
  8
Visible (ANSI)
100
AcDbVertex
100
AcDb2dVertex
 10
108.2991747856159
 20
35.20535988949007
 30
0.0
  0
VERTEX
  5
32C
330
31E
100
AcDbEntity
  8
Visible (ANSI)
100
AcDbVertex
100
AcDb2dVertex
 10
108.2998726208545
 20
35.20839273338773
 30
0.0
  0
VERTEX
  5
32D
330
31E
100
AcDbEntity
  8
Visible (ANSI)
100
AcDbVertex
100
AcDb2dVertex
 10
108.300617692114
 20
35.2114255772854
 30
0.0
  0
VERTEX
  5
32E
330
31E
100
AcDbEntity
  8
Visible (ANSI)
100
AcDbVertex
100
AcDb2dVertex
 10
108.3014068083314
 20
35.21445843291626
 30
0.0
  0
VERTEX
  5
32F
330
31E
100
AcDbEntity
  8
Visible (ANSI)
100
AcDbVertex
100
AcDb2dVertex
 10
108.3022365907124
 20
35.21749127681392
 30
0.0
  0
VERTEX
  5
330
330
31E
100
AcDbEntity
  8
Visible (ANSI)
100
AcDbVertex
100
AcDb2dVertex
 10
108.3031034870312
 20
35.22052412071158
 30
0.0
  0
VERTEX
  5
331
330
31E
100
AcDbEntity
  8
Visible (ANSI)
100
AcDbVertex
100
AcDb2dVertex
 10
108.3040037833643
 20
35.22355697634245
 30
0.0
  0
VERTEX
  5
332
330
31E
100
AcDbEntity
  8
Visible (ANSI)
100
AcDbVertex
100
AcDb2dVertex
 10
108.304933625356
 20
35.2265898202401
 30
0.0
  0
VERTEX
  5
333
330
31E
100
AcDbEntity
  8
Visible (ANSI)
100
AcDbVertex
100
AcDb2dVertex
 10
108.3058890310524
 20
35.22962267587096
 30
0.0
  0
VERTEX
  5
334
330
31E
100
AcDbEntity
  8
Visible (ANSI)
100
AcDbVertex
100
AcDb2dVertex
 10
108.3068659092341
 20
35.23265551976862
 30
0.0
  0
VERTEX
  5
335
330
31E
100
AcDbEntity
  8
Visible (ANSI)
100
AcDbVertex
100
AcDb2dVertex
 10
108.3078600777493
 20
35.23568836366628
 30
0.0
  0
VERTEX
  5
336
330
31E
100
AcDbEntity
  8
Visible (ANSI)
100
AcDbVertex
100
AcDb2dVertex
 10
108.3088672774474
 20
35.23872120756395
 30
0.0
  0
VERTEX
  5
337
330
31E
100
AcDbEntity
  8
Visible (ANSI)
100
AcDbVertex
100
AcDb2dVertex
 10
108.3098831978448
 20
35.24175405146161
 30
0.0
  0
VERTEX
  5
338
330
31E
100
AcDbEntity
  8
Visible (ANSI)
100
AcDbVertex
100
AcDb2dVertex
 10
108.3109034873916
 20
35.24478689535927
 30
0.0
  0
SEQEND
  5
321
330
31E
100
AcDbEntity
  8
Visible (ANSI)
  0
POLYLINE
  5
339
330
6C
100
AcDbEntity
  8
Visible (ANSI)
100
AcDb2dPolyline
 66
     1
 10
0.0
 20
0.0
 30
0.0
 70
   128
  0
VERTEX
  5
33A
330
339
100
AcDbEntity
  8
Visible (ANSI)
100
AcDbVertex
100
AcDb2dVertex
 10
108.2953034866708
 20
74.77079706511691
 30
0.0
  0
VERTEX
  5
33B
330
339
100
AcDbEntity
  8
Visible (ANSI)
100
AcDbVertex
100
AcDb2dVertex
 10
108.295336887467
 20
74.76776633319485
 30
0.0
  0
VERTEX
  5
33D
330
339
100
AcDbEntity
  8
Visible (ANSI)
100
AcDbVertex
100
AcDb2dVertex
 10
108.2954369468343
 20
74.76473259757415
 30
0.0
  0
VERTEX
  5
33E
330
339
100
AcDbEntity
  8
Visible (ANSI)
100
AcDbVertex
100
AcDb2dVertex
 10
108.2956032363018
 20
74.76169886195345
 30
0.0
  0
VERTEX
  5
33F
330
339
100
AcDbEntity
  8
Visible (ANSI)
100
AcDbVertex
100
AcDb2dVertex
 10
108.2958350437969
 20
74.75866813003138
 30
0.0
  0
VERTEX
  5
340
330
339
100
AcDbEntity
  8
Visible (ANSI)
100
AcDbVertex
100
AcDb2dVertex
 10
108.2961313766153
 20
74.75563439441071
 30
0.0
  0
VERTEX
  5
341
330
339
100
AcDbEntity
  8
Visible (ANSI)
100
AcDbVertex
100
AcDb2dVertex
 10
108.2964909659446
 20
74.75260065879002
 30
0.0
  0
VERTEX
  5
342
330
339
100
AcDbEntity
  8
Visible (ANSI)
100
AcDbVertex
100
AcDb2dVertex
 10
108.296912271986
 20
74.74956992686795
 30
0.0
  0
VERTEX
  5
343
330
339
100
AcDbEntity
  8
Visible (ANSI)
100
AcDbVertex
100
AcDb2dVertex
 10
108.2973934903936
 20
74.74653619124724
 30
0.0
  0
VERTEX
  5
344
330
339
100
AcDbEntity
  8
Visible (ANSI)
100
AcDbVertex
100
AcDb2dVertex
 10
108.2979325607995
 20
74.74350245562655
 30
0.0
  0
VERTEX
  5
345
330
339
100
AcDbEntity
  8
Visible (ANSI)
100
AcDbVertex
100
AcDb2dVertex
 10
108.2985271746972
 20
74.74046872000586
 30
0.0
  0
VERTEX
  5
346
330
339
100
AcDbEntity
  8
Visible (ANSI)
100
AcDbVertex
100
AcDb2dVertex
 10
108.2991747856159
 20
74.73743798808381
 30
0.0
  0
VERTEX
  5
347
330
339
100
AcDbEntity
  8
Visible (ANSI)
100
AcDbVertex
100
AcDb2dVertex
 10
108.2998726208545
 20
74.73440425246311
 30
0.0
  0
VERTEX
  5
348
330
339
100
AcDbEntity
  8
Visible (ANSI)
100
AcDbVertex
100
AcDb2dVertex
 10
108.300617692114
 20
74.73137051684242
 30
0.0
  0
VERTEX
  5
349
330
339
100
AcDbEntity
  8
Visible (ANSI)
100
AcDbVertex
100
AcDb2dVertex
 10
108.3014068083314
 20
74.72833978492037
 30
0.0
  0
VERTEX
  5
34A
330
339
100
AcDbEntity
  8
Visible (ANSI)
100
AcDbVertex
100
AcDb2dVertex
 10
108.3022365907124
 20
74.72530604929966
 30
0.0
  0
VERTEX
  5
34B
330
339
100
AcDbEntity
  8
Visible (ANSI)
100
AcDbVertex
100
AcDb2dVertex
 10
108.3031034870312
 20
74.72227231367897
 30
0.0
  0
VERTEX
  5
34C
330
339
100
AcDbEntity
  8
Visible (ANSI)
100
AcDbVertex
100
AcDb2dVertex
 10
108.3040037833643
 20
74.7192415817569
 30
0.0
  0
VERTEX
  5
34D
330
339
100
AcDbEntity
  8
Visible (ANSI)
100
AcDbVertex
100
AcDb2dVertex
 10
108.304933625356
 20
74.71620784613621
 30
0.0
  0
VERTEX
  5
34E
330
339
100
AcDbEntity
  8
Visible (ANSI)
100
AcDbVertex
100
AcDb2dVertex
 10
108.3058890310524
 20
74.71317411051552
 30
0.0
  0
VERTEX
  5
34F
330
339
100
AcDbEntity
  8
Visible (ANSI)
100
AcDbVertex
100
AcDb2dVertex
 10
108.3068659092341
 20
74.71014037489482
 30
0.0
  0
VERTEX
  5
350
330
339
100
AcDbEntity
  8
Visible (ANSI)
100
AcDbVertex
100
AcDb2dVertex
 10
108.3078600777493
 20
74.70710964297277
 30
0.0
  0
VERTEX
  5
351
330
339
100
AcDbEntity
  8
Visible (ANSI)
100
AcDbVertex
100
AcDb2dVertex
 10
108.3088672774474
 20
74.70407590735208
 30
0.0
  0
VERTEX
  5
352
330
339
100
AcDbEntity
  8
Visible (ANSI)
100
AcDbVertex
100
AcDb2dVertex
 10
108.3098831978448
 20
74.70104217173137
 30
0.0
  0
VERTEX
  5
353
330
339
100
AcDbEntity
  8
Visible (ANSI)
100
AcDbVertex
100
AcDb2dVertex
 10
108.3109034873916
 20
74.69801143980932
 30
0.0
  0
SEQEND
  5
33C
330
339
100
AcDbEntity
  8
Visible (ANSI)
  0
LINE
  5
354
330
6C
100
AcDbEntity
  8
Visible (ANSI)
100
AcDbLine
 10
108.2953034866708
 20
74.77079855937287
 30
0.0
 11
108.2645649853599
 21
74.77079855937287
 31
0.0
  0
LINE
  5
355
330
6C
100
AcDbEntity
  8
Visible (ANSI)
100
AcDbLine
 10
108.2645649853599
 20
74.77079855937287
 30
0.0
 11
108.1703034866708
 21
74.77079855937287
 31
0.0
  0
LINE
  5
356
330
6C
100
AcDbEntity
  8
Visible (ANSI)
100
AcDbLine
 10
108.3109034866708
 20
74.69801021172454
 30
0.0
 11
109.0453034866708
 21
74.69801021172457
 31
0.0
  0
POLYLINE
  5
357
330
6C
100
AcDbEntity
  8
Visible (ANSI)
100
AcDb2dPolyline
 66
     1
 10
0.0
 20
0.0
 30
0.0
 70
   128
  0
VERTEX
  5
358
330
357
100
AcDbEntity
  8
Visible (ANSI)
100
AcDbVertex
100
AcDb2dVertex
 10
108.3109034873916
 20
74.91139719449221
 30
0.0
  0
VERTEX
  5
359
330
357
100
AcDbEntity
  8
Visible (ANSI)
100
AcDbVertex
100
AcDb2dVertex
 10
108.3017078070209
 20
74.91109682462878
 30
0.0
  0
VERTEX
  5
35B
330
357
100
AcDbEntity
  8
Visible (ANSI)
100
AcDbVertex
100
AcDb2dVertex
 10
108.2925515039953
 20
74.91019571503847
 30
0.0
  0
VERTEX
  5
35C
330
357
100
AcDbEntity
  8
Visible (ANSI)
100
AcDbVertex
100
AcDb2dVertex
 10
108.2834737877285
 20
74.90869686941993
 30
0.0
  0
VERTEX
  5
35D
330
357
100
AcDbEntity
  8
Visible (ANSI)
100
AcDbVertex
100
AcDb2dVertex
 10
108.2745135288382
 20
74.90660629517042
 30
0.0
  0
VERTEX
  5
35E
330
357
100
AcDbEntity
  8
Visible (ANSI)
100
AcDbVertex
100
AcDb2dVertex
 10
108.265709097081
 20
74.90393600708448
 30
0.0
  0
VERTEX
  5
35F
330
357
100
AcDbEntity
  8
Visible (ANSI)
100
AcDbVertex
100
AcDb2dVertex
 10
108.2570981970882
 20
74.90069501625803
 30
0.0
  0
VERTEX
  5
360
330
357
100
AcDbEntity
  8
Visible (ANSI)
100
AcDbVertex
100
AcDb2dVertex
 10
108.2487176960338
 20
74.89689834118419
 30
0.0
  0
VERTEX
  5
361
330
357
100
AcDbEntity
  8
Visible (ANSI)
100
AcDbVertex
100
AcDb2dVertex
 10
108.2406034887032
 20
74.89256100035621
 30
0.0
  0
VERTEX
  5
362
330
357
100
AcDbEntity
  8
Visible (ANSI)
100
AcDbVertex
100
AcDb2dVertex
 10
108.2327903112283
 20
74.88770401966445
 30
0.0
  0
VERTEX
  5
363
330
357
100
AcDbEntity
  8
Visible (ANSI)
100
AcDbVertex
100
AcDb2dVertex
 10
108.2253116296227
 20
74.88234542130077
 30
0.0
  0
VERTEX
  5
364
330
357
100
AcDbEntity
  8
Visible (ANSI)
100
AcDbVertex
100
AcDb2dVertex
 10
108.2181994637831
 20
74.8765062311556
 30
0.0
  0
VERTEX
  5
365
330
357
100
AcDbEntity
  8
Visible (ANSI)
100
AcDbVertex
100
AcDb2dVertex
 10
108.2114842730909
 20
74.87021648621527
 30
0.0
  0
VERTEX
  5
366
330
357
100
AcDbEntity
  8
Visible (ANSI)
100
AcDbVertex
100
AcDb2dVertex
 10
108.2051948097473
 20
74.86350321976748
 30
0.0
  0
VERTEX
  5
367
330
357
100
AcDbEntity
  8
Visible (ANSI)
100
AcDbVertex
100
AcDb2dVertex
 10
108.1993580073079
 20
74.85639046140135
 30
0.0
  0
VERTEX
  5
368
330
357
100
AcDbEntity
  8
Visible (ANSI)
100
AcDbVertex
100
AcDb2dVertex
 10
108.1939988574839
 20
74.84891125180181
 30
0.0
  0
VERTEX
  5
369
330
357
100
AcDbEntity
  8
Visible (ANSI)
100
AcDbVertex
100
AcDb2dVertex
 10
108.1891403162768
 20
74.84109863165386
 30
0.0
  0
VERTEX
  5
36A
330
357
100
AcDbEntity
  8
Visible (ANSI)
100
AcDbVertex
100
AcDb2dVertex
 10
108.1848031749132
 20
74.83298564164248
 30
0.0
  0
VERTEX
  5
36B
330
357
100
AcDbEntity
  8
Visible (ANSI)
100
AcDbVertex
100
AcDb2dVertex
 10
108.1810060187783
 20
74.82460532245266
 30
0.0
  0
VERTEX
  5
36C
330
357
100
AcDbEntity
  8
Visible (ANSI)
100
AcDbVertex
100
AcDb2dVertex
 10
108.1777651100842
 20
74.81599371846797
 30
0.0
  0
VERTEX
  5
36D
330
357
100
AcDbEntity
  8
Visible (ANSI)
100
AcDbVertex
100
AcDb2dVertex
 10
108.1750943174707
 20
74.8071898777707
 30
0.0
  0
VERTEX
  5
36E
330
357
100
AcDbEntity
  8
Visible (ANSI)
100
AcDbVertex
100
AcDb2dVertex
 10
108.1730050808058
 20
74.79822684104579
 30
0.0
  0
VERTEX
  5
36F
330
357
100
AcDbEntity
  8
Visible (ANSI)
100
AcDbVertex
100
AcDb2dVertex
 10
108.171506340786
 20
74.78914966377279
 30
0.0
  0
VERTEX
  5
370
330
357
100
AcDbEntity
  8
Visible (ANSI)
100
AcDbVertex
100
AcDb2dVertex
 10
108.1706045272039
 20
74.77999439033529
 30
0.0
  0
VERTEX
  5
371
330
357
100
AcDbEntity
  8
Visible (ANSI)
100
AcDbVertex
100
AcDb2dVertex
 10
108.1703034885481
 20
74.77079706511691
 30
0.0
  0
SEQEND
  5
35A
330
357
100
AcDbEntity
  8
Visible (ANSI)
  0
LINE
  5
372
330
6C
100
AcDbEntity
  8
Visible (ANSI)
100
AcDbLine
 10
108.3109034866708
 20
74.78639855937287
 30
0.0
 11
109.0453034866708
 21
74.78639855937284
 31
0.0
  0
LINE
  5
373
330
6C
100
AcDbEntity
  8
Visible (ANSI)
100
AcDbLine
 10
109.0453034866708
 20
74.91139855937284
 30
0.0
 11
108.3109034866708
 21
74.91139855937288
 31
0.0
  0
LINE
  5
374
330
6C
100
AcDbEntity
  8
Visible (ANSI)
100
AcDbLine
 10
108.3109034866708
 20
74.78639855937287
 30
0.0
 11
108.3109034866708
 21
74.91139855937288
 31
0.0
  0
LINE
  5
375
330
6C
100
AcDbEntity
  8
Visible (ANSI)
100
AcDbLine
 10
109.0453034866708
 20
74.78639855937284
 30
0.0
 11
109.0453034866708
 21
74.91139855937284
 31
0.0
  0
POLYLINE
  5
376
330
6C
100
AcDbEntity
  8
Visible (ANSI)
100
AcDb2dPolyline
 66
     1
 10
0.0
 20
0.0
 30
0.0
 70
   128
  0
VERTEX
  5
377
330
376
100
AcDbEntity
  8
Visible (ANSI)
100
AcDbVertex
100
AcDb2dVertex
 10
108.2953034866708
 20
74.77079706511691
 30
0.0
  0
VERTEX
  5
378
330
376
100
AcDbEntity
  8
Visible (ANSI)
100
AcDbVertex
100
AcDb2dVertex
 10
108.295336887467
 20
74.77181832265256
 30
0.0
  0
VERTEX
  5
37A
330
376
100
AcDbEntity
  8
Visible (ANSI)
100
AcDbVertex
100
AcDb2dVertex
 10
108.2954369468343
 20
74.77283357279098
 30
0.0
  0
VERTEX
  5
37B
330
376
100
AcDbEntity
  8
Visible (ANSI)
100
AcDbVertex
100
AcDb2dVertex
 10
108.2956032363018
 20
74.77384281553213
 30
0.0
  0
VERTEX
  5
37C
330
376
100
AcDbEntity
  8
Visible (ANSI)
100
AcDbVertex
100
AcDb2dVertex
 10
108.2958350437969
 20
74.77483703978011
 30
0.0
  0
VERTEX
  5
37D
330
376
100
AcDbEntity
  8
Visible (ANSI)
100
AcDbVertex
100
AcDb2dVertex
 10
108.2961313766153
 20
74.77581324183626
 30
0.0
  0
VERTEX
  5
37E
330
376
100
AcDbEntity
  8
Visible (ANSI)
100
AcDbVertex
100
AcDb2dVertex
 10
108.2964909659446
 20
74.77676841800198
 30
0.0
  0
VERTEX
  5
37F
330
376
100
AcDbEntity
  8
Visible (ANSI)
100
AcDbVertex
100
AcDb2dVertex
 10
108.296912271986
 20
74.77769956457862
 30
0.0
  0
VERTEX
  5
380
330
376
100
AcDbEntity
  8
Visible (ANSI)
100
AcDbVertex
100
AcDb2dVertex
 10
108.2973934903936
 20
74.7785976704703
 30
0.0
  0
VERTEX
  5
381
330
376
100
AcDbEntity
  8
Visible (ANSI)
100
AcDbVertex
100
AcDb2dVertex
 10
108.2979325607995
 20
74.77946573937564
 30
0.0
  0
VERTEX
  5
382
330
376
100
AcDbEntity
  8
Visible (ANSI)
100
AcDbVertex
100
AcDb2dVertex
 10
108.2985271746972
 20
74.78029476019871
 30
0.0
  0
VERTEX
  5
383
330
376
100
AcDbEntity
  8
Visible (ANSI)
100
AcDbVertex
100
AcDb2dVertex
 10
108.2991747856159
 20
74.78108473293956
 30
0.0
  0
VERTEX
  5
384
330
376
100
AcDbEntity
  8
Visible (ANSI)
100
AcDbVertex
100
AcDb2dVertex
 10
108.2998726208545
 20
74.78182965020086
 30
0.0
  0
VERTEX
  5
385
330
376
100
AcDbEntity
  8
Visible (ANSI)
100
AcDbVertex
100
AcDb2dVertex
 10
108.300617692114
 20
74.78252650828403
 30
0.0
  0
VERTEX
  5
386
330
376
100
AcDbEntity
  8
Visible (ANSI)
100
AcDbVertex
100
AcDb2dVertex
 10
108.3014068083314
 20
74.78317530718905
 30
0.0
  0
VERTEX
  5
387
330
376
100
AcDbEntity
  8
Visible (ANSI)
100
AcDbVertex
100
AcDb2dVertex
 10
108.3022365907123
 20
74.78377003951866
 30
0.0
  0
VERTEX
  5
388
330
376
100
AcDbEntity
  8
Visible (ANSI)
100
AcDbVertex
100
AcDb2dVertex
 10
108.3031034870312
 20
74.78430770157419
 30
0.0
  0
VERTEX
  5
389
330
376
100
AcDbEntity
  8
Visible (ANSI)
100
AcDbVertex
100
AcDb2dVertex
 10
108.3040037833643
 20
74.7847882933557
 30
0.0
  0
VERTEX
  5
38A
330
376
100
AcDbEntity
  8
Visible (ANSI)
100
AcDbVertex
100
AcDb2dVertex
 10
108.304933625356
 20
74.78521181486316
 30
0.0
  0
VERTEX
  5
38B
330
376
100
AcDbEntity
  8
Visible (ANSI)
100
AcDbVertex
100
AcDb2dVertex
 10
108.3058890310524
 20
74.78556925500064
 30
0.0
  0
VERTEX
  5
38C
330
376
100
AcDbEntity
  8
Visible (ANSI)
100
AcDbVertex
100
AcDb2dVertex
 10
108.3068659092341
 20
74.78586662116544
 30
0.0
  0
VERTEX
  5
38D
330
376
100
AcDbEntity
  8
Visible (ANSI)
100
AcDbVertex
100
AcDb2dVertex
 10
108.3078600777493
 20
74.78609790596028
 30
0.0
  0
VERTEX
  5
38E
330
376
100
AcDbEntity
  8
Visible (ANSI)
100
AcDbVertex
100
AcDb2dVertex
 10
108.3088672774474
 20
74.7862661130838
 30
0.0
  0
VERTEX
  5
38F
330
376
100
AcDbEntity
  8
Visible (ANSI)
100
AcDbVertex
100
AcDb2dVertex
 10
108.3098831978448
 20
74.78636523513873
 30
0.0
  0
VERTEX
  5
390
330
376
100
AcDbEntity
  8
Visible (ANSI)
100
AcDbVertex
100
AcDb2dVertex
 10
108.3109034873916
 20
74.78639827582371
 30
0.0
  0
SEQEND
  5
379
330
376
100
AcDbEntity
  8
Visible (ANSI)
  0
POLYLINE
  5
391
330
6C
100
AcDbEntity
  8
Visible (ANSI)
100
AcDb2dPolyline
 66
     1
 10
0.0
 20
0.0
 30
0.0
 70
   128
  0
VERTEX
  5
392
330
391
100
AcDbEntity
  8
Visible (ANSI)
100
AcDbVertex
100
AcDb2dVertex
 10
108.1703034885481
 20
35.171998559683
 30
0.0
  0
VERTEX
  5
393
330
391
100
AcDbEntity
  8
Visible (ANSI)
100
AcDbVertex
100
AcDb2dVertex
 10
108.1706045272039
 20
35.16280287711231
 30
0.0
  0
VERTEX
  5
395
330
391
100
AcDbEntity
  8
Visible (ANSI)
100
AcDbVertex
100
AcDb2dVertex
 10
108.171506340786
 20
35.1536465711534
 30
0.0
  0
VERTEX
  5
396
330
391
100
AcDbEntity
  8
Visible (ANSI)
100
AcDbVertex
100
AcDb2dVertex
 10
108.1730050808058
 20
35.1445688658865
 30
0.0
  0
VERTEX
  5
397
330
391
100
AcDbEntity
  8
Visible (ANSI)
100
AcDbVertex
100
AcDb2dVertex
 10
108.1750943174707
 20
35.13560859819628
 30
0.0
  0
VERTEX
  5
398
330
391
100
AcDbEntity
  8
Visible (ANSI)
100
AcDbVertex
100
AcDb2dVertex
 10
108.1777651100842
 20
35.12680417083911
 30
0.0
  0
VERTEX
  5
399
330
391
100
AcDbEntity
  8
Visible (ANSI)
100
AcDbVertex
100
AcDb2dVertex
 10
108.1810060187783
 20
35.11819327084629
 30
0.0
  0
VERTEX
  5
39A
330
391
100
AcDbEntity
  8
Visible (ANSI)
100
AcDbVertex
100
AcDb2dVertex
 10
108.1848031749132
 20
35.10981276979189
 30
0.0
  0
VERTEX
  5
39B
330
391
100
AcDbEntity
  8
Visible (ANSI)
100
AcDbVertex
100
AcDb2dVertex
 10
108.1891403162768
 20
35.10169855952794
 30
0.0
  0
VERTEX
  5
39C
330
391
100
AcDbEntity
  8
Visible (ANSI)
100
AcDbVertex
100
AcDb2dVertex
 10
108.1939988574839
 20
35.0938853820531
 30
0.0
  0
VERTEX
  5
39D
330
391
100
AcDbEntity
  8
Visible (ANSI)
100
AcDbVertex
100
AcDb2dVertex
 10
108.1993580073079
 20
35.08640670044747
 30
0.0
  0
VERTEX
  5
39E
330
391
100
AcDbEntity
  8
Visible (ANSI)
100
AcDbVertex
100
AcDb2dVertex
 10
108.2051948097473
 20
35.07929453754112
 30
0.0
  0
VERTEX
  5
39F
330
391
100
AcDbEntity
  8
Visible (ANSI)
100
AcDbVertex
100
AcDb2dVertex
 10
108.2114842730909
 20
35.0725793468489
 30
0.0
  0
VERTEX
  5
3A0
330
391
100
AcDbEntity
  8
Visible (ANSI)
100
AcDbVertex
100
AcDb2dVertex
 10
108.2181994637831
 20
35.06628988350532
 30
0.0
  0
VERTEX
  5
3A1
330
391
100
AcDbEntity
  8
Visible (ANSI)
100
AcDbVertex
100
AcDb2dVertex
 10
108.2253116296227
 20
35.06045308106589
 30
0.0
  0
VERTEX
  5
3A2
330
391
100
AcDbEntity
  8
Visible (ANSI)
100
AcDbVertex
100
AcDb2dVertex
 10
108.2327903112283
 20
35.05509393124191
 30
0.0
  0
VERTEX
  5
3A3
330
391
100
AcDbEntity
  8
Visible (ANSI)
100
AcDbVertex
100
AcDb2dVertex
 10
108.2406034887032
 20
35.05023538710157
 30
0.0
  0
VERTEX
  5
3A4
330
391
100
AcDbEntity
  8
Visible (ANSI)
100
AcDbVertex
100
AcDb2dVertex
 10
108.2487176960338
 20
35.04589825160452
 30
0.0
  0
VERTEX
  5
3A5
330
391
100
AcDbEntity
  8
Visible (ANSI)
100
AcDbVertex
100
AcDb2dVertex
 10
108.2570981970882
 20
35.04210109693624
 30
0.0
  0
VERTEX
  5
3A6
330
391
100
AcDbEntity
  8
Visible (ANSI)
100
AcDbVertex
100
AcDb2dVertex
 10
108.265709097081
 20
35.03886018310889
 30
0.0
  0
VERTEX
  5
3A7
330
391
100
AcDbEntity
  8
Visible (ANSI)
100
AcDbVertex
100
AcDb2dVertex
 10
108.2745135288382
 20
35.03618938829547
 30
0.0
  0
VERTEX
  5
3A8
330
391
100
AcDbEntity
  8
Visible (ANSI)
100
AcDbVertex
100
AcDb2dVertex
 10
108.2834737877285
 20
35.03410014888055
 30
0.0
  0
VERTEX
  5
3A9
330
391
100
AcDbEntity
  8
Visible (ANSI)
100
AcDbVertex
100
AcDb2dVertex
 10
108.2925515039953
 20
35.03260141188575
 30
0.0
  0
VERTEX
  5
3AA
330
391
100
AcDbEntity
  8
Visible (ANSI)
100
AcDbVertex
100
AcDb2dVertex
 10
108.3017078070209
 20
35.03169959477445
 30
0.0
  0
VERTEX
  5
3AB
330
391
100
AcDbEntity
  8
Visible (ANSI)
100
AcDbVertex
100
AcDb2dVertex
 10
108.3109034873916
 20
35.03139855937287
 30
0.0
  0
SEQEND
  5
394
330
391
100
AcDbEntity
  8
Visible (ANSI)
  0
LINE
  5
3AC
330
6C
100
AcDbEntity
  8
Visible (ANSI)
100
AcDbLine
 10
108.3109034866708
 20
35.15639855937287
 30
0.0
 11
109.0453034866708
 21
35.15639855937287
 31
0.0
  0
LINE
  5
3AD
330
6C
100
AcDbEntity
  8
Visible (ANSI)
100
AcDbLine
 10
108.3109034866708
 20
35.15639855937287
 30
0.0
 11
108.3109034866708
 21
35.03139855937287
 31
0.0
  0
POLYLINE
  5
3AE
330
6C
100
AcDbEntity
  8
Visible (ANSI)
100
AcDb2dPolyline
 66
     1
 10
0.0
 20
0.0
 30
0.0
 70
   128
  0
VERTEX
  5
3AF
330
3AE
100
AcDbEntity
  8
Visible (ANSI)
100
AcDbVertex
100
AcDb2dVertex
 10
108.2953034866708
 20
35.171998559683
 30
0.0
  0
VERTEX
  5
3B0
330
3AE
100
AcDbEntity
  8
Visible (ANSI)
100
AcDbVertex
100
AcDb2dVertex
 10
108.295336887467
 20
35.17097827600274
 30
0.0
  0
VERTEX
  5
3B2
330
3AE
100
AcDbEntity
  8
Visible (ANSI)
100
AcDbVertex
100
AcDb2dVertex
 10
108.2954369468343
 20
35.16996234533885
 30
0.0
  0
VERTEX
  5
3B3
330
3AE
100
AcDbEntity
  8
Visible (ANSI)
100
AcDbVertex
100
AcDb2dVertex
 10
108.2956032363018
 20
35.16895515590733
 30
0.0
  0
VERTEX
  5
3B4
330
3AE
100
AcDbEntity
  8
Visible (ANSI)
100
AcDbVertex
100
AcDb2dVertex
 10
108.2958350437969
 20
35.16796097859215
 30
0.0
  0
VERTEX
  5
3B5
330
3AE
100
AcDbEntity
  8
Visible (ANSI)
100
AcDbVertex
100
AcDb2dVertex
 10
108.2961313766153
 20
35.16698410774372
 30
0.0
  0
VERTEX
  5
3B6
330
3AE
100
AcDbEntity
  8
Visible (ANSI)
100
AcDbVertex
100
AcDb2dVertex
 10
108.2964909659446
 20
35.16602869691404
 30
0.0
  0
VERTEX
  5
3B7
330
3AE
100
AcDbEntity
  8
Visible (ANSI)
100
AcDbVertex
100
AcDb2dVertex
 10
108.296912271986
 20
35.16509885272234
 30
0.0
  0
VERTEX
  5
3B8
330
3AE
100
AcDbEntity
  8
Visible (ANSI)
100
AcDbVertex
100
AcDb2dVertex
 10
108.2973934903936
 20
35.16419856445588
 30
0.0
  0
VERTEX
  5
3B9
330
3AE
100
AcDbEntity
  8
Visible (ANSI)
100
AcDbVertex
100
AcDb2dVertex
 10
108.2979325607995
 20
35.16333166887033
 30
0.0
  0
VERTEX
  5
3BA
330
3AE
100
AcDbEntity
  8
Visible (ANSI)
100
AcDbVertex
100
AcDb2dVertex
 10
108.2985271746972
 20
35.1625018853894
 30
0.0
  0
VERTEX
  5
3BB
330
3AE
100
AcDbEntity
  8
Visible (ANSI)
100
AcDbVertex
100
AcDb2dVertex
 10
108.2991747856159
 20
35.161712769172
 30
0.0
  0
VERTEX
  5
3BC
330
3AE
100
AcDbEntity
  8
Visible (ANSI)
100
AcDbVertex
100
AcDb2dVertex
 10
108.2998726208545
 20
35.16096769937912
 30
0.0
  0
VERTEX
  5
3BD
330
3AE
100
AcDbEntity
  8
Visible (ANSI)
100
AcDbVertex
100
AcDb2dVertex
 10
108.300617692114
 20
35.16026985570733
 30
0.0
  0
VERTEX
  5
3BE
330
3AE
100
AcDbEntity
  8
Visible (ANSI)
100
AcDbVertex
100
AcDb2dVertex
 10
108.3014068083314
 20
35.15962224185528
 30
0.0
  0
VERTEX
  5
3BF
330
3AE
100
AcDbEntity
  8
Visible (ANSI)
100
AcDbVertex
100
AcDb2dVertex
 10
108.3022365907123
 20
35.15902763859085
 30
0.0
  0
VERTEX
  5
3C0
330
3AE
100
AcDbEntity
  8
Visible (ANSI)
100
AcDbVertex
100
AcDb2dVertex
 10
108.3031034870312
 20
35.15848856855158
 30
0.0
  0
VERTEX
  5
3C1
330
3AE
100
AcDbEntity
  8
Visible (ANSI)
100
AcDbVertex
100
AcDb2dVertex
 10
108.3040037833643
 20
35.15800734317739
 30
0.0
  0
VERTEX
  5
3C2
330
3AE
100
AcDbEntity
  8
Visible (ANSI)
100
AcDbVertex
100
AcDb2dVertex
 10
108.304933625356
 20
35.15758603924434
 30
0.0
  0
VERTEX
  5
3C3
330
3AE
100
AcDbEntity
  8
Visible (ANSI)
100
AcDbVertex
100
AcDb2dVertex
 10
108.3058890310524
 20
35.15722645193165
 30
0.0
  0
VERTEX
  5
3C4
330
3AE
100
AcDbEntity
  8
Visible (ANSI)
100
AcDbVertex
100
AcDb2dVertex
 10
108.3068659092341
 20
35.15693011828825
 30
0.0
  0
VERTEX
  5
3C5
330
3AE
100
AcDbEntity
  8
Visible (ANSI)
100
AcDbVertex
100
AcDb2dVertex
 10
108.3078600777493
 20
35.15669830549951
 30
0.0
  0
VERTEX
  5
3C6
330
3AE
100
AcDbEntity
  8
Visible (ANSI)
100
AcDbVertex
100
AcDb2dVertex
 10
108.3088672774474
 20
35.15653202262043
 30
0.0
  0
VERTEX
  5
3C7
330
3AE
100
AcDbEntity
  8
Visible (ANSI)
100
AcDbVertex
100
AcDb2dVertex
 10
108.3098831978448
 20
35.15643196190967
 30
0.0
  0
VERTEX
  5
3C8
330
3AE
100
AcDbEntity
  8
Visible (ANSI)
100
AcDbVertex
100
AcDb2dVertex
 10
108.3109034873916
 20
35.15639855749557
 30
0.0
  0
SEQEND
  5
3B1
330
3AE
100
AcDbEntity
  8
Visible (ANSI)
  0
LINE
  5
3C9
330
6C
100
AcDbEntity
  8
Visible (ANSI)
100
AcDbLine
 10
108.3109034866708
 20
35.03139855937287
 30
0.0
 11
109.0453034866708
 21
35.03139855937287
 31
0.0
  0
LINE
  5
3CA
330
6C
100
AcDbEntity
  8
Visible (ANSI)
100
AcDbLine
 10
109.0453034866708
 20
35.15639855937287
 30
0.0
 11
109.0453034866708
 21
35.03139855937287
 31
0.0
  0
LINE
  5
3CB
330
6C
100
AcDbEntity
  8
Visible (ANSI)
100
AcDbLine
 10
108.1703034866708
 20
35.17199855937287
 30
0.0
 11
108.1703034866708
 21
74.77079855937287
 31
0.0
  0
LINE
  5
3CC
330
6C
100
AcDbEntity
  8
Hidden (ANSI)
 48
1.088501095771789
100
AcDbLine
 10
108.2953034866708
 20
74.77079855937287
 30
0.0
 11
108.2953034866708
 21
35.17199855937287
 31
0.0
  0
LINE
  5
3CD
330
6C
100
AcDbEntity
  8
Visible (ANSI)
100
AcDbLine
 10
109.0453034866708
 20
74.69801021172457
 30
0.0
 11
109.0453034866709
 21
35.2447869070212
 31
0.0
  0
LINE
  5
3CE
330
6C
100
AcDbEntity
  8
Hidden (ANSI)
 48
0.0215442795306444
100
AcDbLine
 10
108.2953034866706
 20
73.75489855937285
 30
0.0
 11
108.1703034866706
 21
73.75489855937285
 31
0.0
  0
LINE
  5
3CF
330
6C
100
AcDbEntity
  8
Hidden (ANSI)
 48
0.0215442795306444
100
AcDbLine
 10
108.2953034866706
 20
74.31789855937286
 30
0.0
 11
108.1703034866706
 21
74.31789855937286
 31
0.0
  0
LINE
  5
3D0
330
6C
100
AcDbEntity
  8
Hidden (ANSI)
 48
0.0215442795306444
100
AcDbLine
 10
108.2953034866706
 20
35.62489855937287
 30
0.0
 11
108.1703034866706
 21
35.62489855937287
 31
0.0
  0
LINE
  5
3D1
330
6C
100
AcDbEntity
  8
Hidden (ANSI)
 48
0.0215442795306444
100
AcDbLine
 10
108.2953034866706
 20
36.18789855937287
 30
0.0
 11
108.1703034866706
 21
36.18789855937287
 31
0.0
  0
MTEXT
  5
3D2
330
6C
100
AcDbEntity
  8
Symbol (ANSI)
100
AcDbMText
 10
104.4604501124295
 20
29.71965703612643
 30
0.0
 40
1.320000016313838
 41
0.0
 46
0.0
 71
     7
 72
     1
  1
SIDE VIEW
  7
Text Style153
 73
     1
 44
1.0
  0
LINE
  5
3D3
330
6C
100
AcDbEntity
  8
Symbol (ANSI)
370
    30
100
AcDbLine
 10
104.3928659385787
 20
29.44619025831465
 30
0.0
 11
113.3130279630392
 21
29.44619025831465
 31
0.0
  0
ELLIPSE
  5
3D4
330
6C
100
AcDbEntity
  8
Visible (ANSI)
100
AcDbEllipse
 10
147.9520490057917
 20
39.20038481046977
 30
0.0
 11
-0.1404775675610102
 21
0.2439432372748665
 31
0.0
210
0.0
220
0.0
230
1.0
 40
0.578093115915809
 41
0.0
 42
6.283185307179586
  0
ELLIPSE
  5
3D5
330
6C
100
AcDbEntity
  8
Visible (ANSI)
100
AcDbEllipse
 10
148.04043735344
 20
39.25128427469383
 30
0.0
 11
-0.1404775675610102
 21
0.2439432372748667
 31
0.0
210
0.0
220
0.0
230
1.0
 40
0.578093115915809
 41
0.3187556839588597
 42
2.822836969630815
  0
ELLIPSE
  5
3D6
330
6C
100
AcDbEntity
  8
Visible (ANSI)
100
AcDbEllipse
 10
147.9520490057918
 20
70.37345668071572
 30
0.0
 11
-0.1404775675610102
 21
0.2439432372748665
 31
0.0
210
0.0
220
0.0
230
1.0
 40
0.578093115915809
 41
0.0
 42
6.283185307179586
  0
ELLIPSE
  5
3D7
330
6C
100
AcDbEntity
  8
Visible (ANSI)
100
AcDbEllipse
 10
148.0404373534401
 20
70.42435614493975
 30
0.0
 11
-0.1404775675610077
 21
0.2439432372748621
 31
0.0
210
0.0
220
0.0
230
0.9999999999999998
 40
0.578093115915809
 41
0.3187556839588588
 42
2.822836969631002
  0
ELLIPSE
  5
3D8
330
6C
100
AcDbEntity
  8
Visible (ANSI)
100
AcDbEllipse
 10
171.3749611325996
 20
56.88509866134652
 30
0.0
 11
-0.1404775675610102
 21
0.2439432372748665
 31
0.0
210
0.0
220
0.0
230
1.0
 40
0.578093115915809
 41
0.0
 42
6.283185307179586
  0
ELLIPSE
  5
3D9
330
6C
100
AcDbEntity
  8
Visible (ANSI)
100
AcDbEllipse
 10
171.4633494802479
 20
56.93599812557057
 30
0.0
 11
-0.1404775675610115
 21
0.2439432372748687
 31
0.0
210
0.0
220
0.0
230
1.0
 40
0.578093115915809
 41
0.3187556839588295
 42
2.822836969630814
  0
ELLIPSE
  5
3DA
330
6C
100
AcDbEntity
  8
Visible (ANSI)
100
AcDbEllipse
 10
124.5291368789839
 20
83.86181470008491
 30
0.0
 11
-0.1404775675610102
 21
0.2439432372748665
 31
0.0
210
0.0
220
0.0
230
1.0
 40
0.578093115915809
 41
0.0
 42
6.283185307179586
  0
ELLIPSE
  5
3DB
330
6C
100
AcDbEntity
  8
Visible (ANSI)
100
AcDbEllipse
 10
124.6175252266322
 20
83.91271416430896
 30
0.0
 11
-0.14047756756101
 21
0.2439432372748662
 31
0.0
210
0.0
220
0.0
230
1.0
 40
0.5780931159158089
 41
0.3187556839589289
 42
2.822836969630916
  0
ELLIPSE
  5
3DC
330
6C
100
AcDbEntity
  8
Visible (ANSI)
100
AcDbEllipse
 10
124.5291368789839
 20
52.688742829839
 30
0.0
 11
-0.1404775675610102
 21
0.2439432372748665
 31
0.0
210
0.0
220
0.0
230
1.0
 40
0.578093115915809
 41
0.0
 42
6.283185307179586
  0
ELLIPSE
  5
3DD
330
6C
100
AcDbEntity
  8
Visible (ANSI)
100
AcDbEllipse
 10
124.6175252266322
 20
52.73964229406305
 30
0.0
 11
-0.1404775675610101
 21
0.2439432372748664
 31
0.0
210
0.0
220
0.0
230
0.9999999999999998
 40
0.578093115915809
 41
0.3187556839589582
 42
2.8228369696309
  0
ELLIPSE
  5
3DE
330
6C
100
AcDbEntity
  8
Visible (ANSI)
100
AcDbEllipse
 10
171.3749611325996
 20
25.71202679110061
 30
0.0
 11
-0.1404775675610102
 21
0.2439432372748665
 31
0.0
210
0.0
220
0.0
230
1.0
 40
0.578093115915809
 41
0.0
 42
6.283185307179586
  0
ELLIPSE
  5
3DF
330
6C
100
AcDbEntity
  8
Visible (ANSI)
100
AcDbEllipse
 10
171.4633494802479
 20
25.76292625532465
 30
0.0
 11
-0.1404775675610108
 21
0.2439432372748679
 31
0.0
210
0.0
220
0.0
230
0.9999999999999998
 40
0.578093115915809
 41
0.3187556839588446
 42
2.822836969630808
  0
LINE
  5
3E0
330
6C
100
AcDbEntity
  8
Visible Narrow (ANSI)
100
AcDbLine
 10
172.0930987795727
 20
57.12695283327992
 30
0.0
 11
172.0930987795727
 21
24.87208355474912
 31
0.0
  0
LINE
  5
3E1
330
6C
100
AcDbEntity
  8
Visible Narrow (ANSI)
100
AcDbLine
 10
171.8942603527031
 20
24.81257565040719
 30
0.0
 11
171.8942603527031
 21
57.18646073762184
 31
0.0
  0
LINE
  5
3E2
330
6C
100
AcDbEntity
  8
Visible Narrow (ANSI)
100
AcDbLine
 10
124.1607260065288
 20
84.90382558071399
 30
0.0
 11
171.9422104319244
 21
57.38829868391035
 31
0.0
  0
LINE
  5
3E3
330
6C
100
AcDbEntity
  8
Visible Narrow (ANSI)
100
AcDbLine
 10
171.8942603527031
 20
57.18646073762184
 30
0.0
 11
124.0098376588805
 21
84.76126584077833
 31
0.0
  0
LINE
  5
3E4
330
6C
100
AcDbEntity
  8
Visible Narrow (ANSI)
100
AcDbLine
 10
124.0098376588805
 20
84.76126584077833
 30
0.0
 11
124.0098376588804
 21
52.38738075356367
 31
0.0
  0
LINE
  5
3E5
330
6C
100
AcDbEntity
  8
Visible Narrow (ANSI)
100
AcDbLine
 10
124.0098376588804
 20
52.38738075356367
 30
0.0
 11
171.8942603527031
 21
24.81257565040719
 31
0.0
  0
LINE
  5
3E6
330
6C
100
AcDbEntity
  8
Visible (ANSI)
100
AcDbLine
 10
123.9686568723153
 20
84.78876360596657
 30
0.0
 11
123.9686568723152
 21
52.47438642309386
 31
0.0
  0
LINE
  5
3E7
330
6C
100
AcDbEntity
  8
Visible (ANSI)
100
AcDbLine
 10
124.0648908708826
 20
52.30793480137951
 30
0.0
 11
171.8977177096729
 21
24.76284177506571
 31
0.0
  0
POLYLINE
  5
3E8
330
6C
100
AcDbEntity
  8
Visible (ANSI)
100
AcDb2dPolyline
 66
     1
 10
0.0
 20
0.0
 30
0.0
 70
   128
  0
VERTEX
  5
3E9
330
3E8
100
AcDbEntity
  8
Visible (ANSI)
100
AcDbVertex
100
AcDb2dVertex
 10
171.8942584784425
 20
57.18646059684097
 30
0.0
  0
VERTEX
  5
3EA
330
3E8
100
AcDbEntity
  8
Visible (ANSI)
100
AcDbVertex
100
AcDb2dVertex
 10
171.900974835948
 20
57.18036030091493
 30
0.0
  0
VERTEX
  5
3EC
330
3E8
100
AcDbEntity
  8
Visible (ANSI)
100
AcDbVertex
100
AcDb2dVertex
 10
171.9080862703786
 20
57.17451930560365
 30
0.0
  0
VERTEX
  5
3ED
330
3E8
100
AcDbEntity
  8
Visible (ANSI)
100
AcDbVertex
100
AcDb2dVertex
 10
171.9155645732136
 20
57.16895317660266
 30
0.0
  0
VERTEX
  5
3EE
330
3E8
100
AcDbEntity
  8
Visible (ANSI)
100
AcDbVertex
100
AcDb2dVertex
 10
171.9233797106751
 20
57.16367642851174
 30
0.0
  0
VERTEX
  5
3EF
330
3E8
100
AcDbEntity
  8
Visible (ANSI)
100
AcDbVertex
100
AcDb2dVertex
 10
171.9314956256364
 20
57.15869763269207
 30
0.0
  0
VERTEX
  5
3F0
330
3E8
100
AcDbEntity
  8
Visible (ANSI)
100
AcDbVertex
100
AcDb2dVertex
 10
171.93987449379
 20
57.15403170984863
 30
0.0
  0
VERTEX
  5
3F1
330
3E8
100
AcDbEntity
  8
Visible (ANSI)
100
AcDbVertex
100
AcDb2dVertex
 10
171.9484852691698
 20
57.14968769932802
 30
0.0
  0
VERTEX
  5
3F2
330
3E8
100
AcDbEntity
  8
Visible (ANSI)
100
AcDbVertex
100
AcDb2dVertex
 10
171.9572909654275
 20
57.14566874501528
 30
0.0
  0
VERTEX
  5
3F3
330
3E8
100
AcDbEntity
  8
Visible (ANSI)
100
AcDbVertex
100
AcDb2dVertex
 10
171.9662487056114
 20
57.14198685799133
 30
0.0
  0
VERTEX
  5
3F4
330
3E8
100
AcDbEntity
  8
Visible (ANSI)
100
AcDbVertex
100
AcDb2dVertex
 10
171.9753267966191
 20
57.13864335690352
 30
0.0
  0
VERTEX
  5
3F5
330
3E8
100
AcDbEntity
  8
Visible (ANSI)
100
AcDbVertex
100
AcDb2dVertex
 10
171.9844835188781
 20
57.13564602695011
 30
0.0
  0
VERTEX
  5
3F6
330
3E8
100
AcDbEntity
  8
Visible (ANSI)
100
AcDbVertex
100
AcDb2dVertex
 10
171.9936799612232
 20
57.13299201121516
 30
0.0
  0
VERTEX
  5
3F7
330
3E8
100
AcDbEntity
  8
Visible (ANSI)
100
AcDbVertex
100
AcDb2dVertex
 10
172.0028758393978
 20
57.13068502906755
 30
0.0
  0
VERTEX
  5
3F8
330
3E8
100
AcDbEntity
  8
Visible (ANSI)
100
AcDbVertex
100
AcDb2dVertex
 10
172.0120295831689
 20
57.12872805933148
 30
0.0
  0
VERTEX
  5
3F9
330
3E8
100
AcDbEntity
  8
Visible (ANSI)
100
AcDbVertex
100
AcDb2dVertex
 10
172.0211111587586
 20
57.12710868011983
 30
0.0
  0
VERTEX
  5
3FA
330
3E8
100
AcDbEntity
  8
Visible (ANSI)
100
AcDbVertex
100
AcDb2dVertex
 10
172.0300681895812
 20
57.125833432038
 30
0.0
  0
VERTEX
  5
3FB
330
3E8
100
AcDbEntity
  8
Visible (ANSI)
100
AcDbVertex
100
AcDb2dVertex
 10
172.0388727637204
 20
57.12489358972041
 30
0.0
  0
VERTEX
  5
3FC
330
3E8
100
AcDbEntity
  8
Visible (ANSI)
100
AcDbVertex
100
AcDb2dVertex
 10
172.0474833275364
 20
57.12427988217824
 30
0.0
  0
VERTEX
  5
3FD
330
3E8
100
AcDbEntity
  8
Visible (ANSI)
100
AcDbVertex
100
AcDb2dVertex
 10
172.0558660038403
 20
57.1239850412468
 30
0.0
  0
VERTEX
  5
3FE
330
3E8
100
AcDbEntity
  8
Visible (ANSI)
100
AcDbVertex
100
AcDb2dVertex
 10
172.0639777321179
 20
57.12400383951647
 30
0.0
  0
VERTEX
  5
3FF
330
3E8
100
AcDbEntity
  8
Visible (ANSI)
100
AcDbVertex
100
AcDb2dVertex
 10
172.0717918511688
 20
57.12432337948826
 30
0.0
  0
VERTEX
  5
400
330
3E8
100
AcDbEntity
  8
Visible (ANSI)
100
AcDbVertex
100
AcDb2dVertex
 10
172.0792727337352
 20
57.12492801820417
 30
0.0
  0
VERTEX
  5
401
330
3E8
100
AcDbEntity
  8
Visible (ANSI)
100
AcDbVertex
100
AcDb2dVertex
 10
172.0863843983971
 20
57.12580927575332
 30
0.0
  0
VERTEX
  5
402
330
3E8
100
AcDbEntity
  8
Visible (ANSI)
100
AcDbVertex
100
AcDb2dVertex
 10
172.0930991199122
 20
57.1269536418957
 30
0.0
  0
SEQEND
  5
3EB
330
3E8
100
AcDbEntity
  8
Visible (ANSI)
  0
POLYLINE
  5
403
330
6C
100
AcDbEntity
  8
Visible (ANSI)
100
AcDb2dPolyline
 66
     1
 10
0.0
 20
0.0
 30
0.0
 70
   128
  0
VERTEX
  5
404
330
403
100
AcDbEntity
  8
Visible (ANSI)
100
AcDbVertex
100
AcDb2dVertex
 10
172.0930991199121
 20
24.87208334981355
 30
0.0
  0
VERTEX
  5
405
330
403
100
AcDbEntity
  8
Visible (ANSI)
100
AcDbVertex
100
AcDb2dVertex
 10
172.086384398397
 20
24.8659817246935
 30
0.0
  0
VERTEX
  5
407
330
403
100
AcDbEntity
  8
Visible (ANSI)
100
AcDbVertex
100
AcDb2dVertex
 10
172.0792727337351
 20
24.8601407525015
 30
0.0
  0
VERTEX
  5
408
330
403
100
AcDbEntity
  8
Visible (ANSI)
100
AcDbVertex
100
AcDb2dVertex
 10
172.0717918511687
 20
24.85457639914272
 30
0.0
  0
VERTEX
  5
409
330
403
100
AcDbEntity
  8
Visible (ANSI)
100
AcDbVertex
100
AcDb2dVertex
 10
172.0639777321178
 20
24.84929960019324
 30
0.0
  0
VERTEX
  5
40A
330
403
100
AcDbEntity
  8
Visible (ANSI)
100
AcDbVertex
100
AcDb2dVertex
 10
172.0558660038402
 20
24.84432108728071
 30
0.0
  0
VERTEX
  5
40B
330
403
100
AcDbEntity
  8
Visible (ANSI)
100
AcDbVertex
100
AcDb2dVertex
 10
172.0474833275363
 20
24.83965620397686
 30
0.0
  0
VERTEX
  5
40C
330
403
100
AcDbEntity
  8
Visible (ANSI)
100
AcDbVertex
100
AcDb2dVertex
 10
172.0388727637204
 20
24.83531019687616
 30
0.0
  0
VERTEX
  5
40D
330
403
100
AcDbEntity
  8
Visible (ANSI)
100
AcDbVertex
100
AcDb2dVertex
 10
172.0300681895811
 20
24.83129277062364
 30
0.0
  0
VERTEX
  5
40E
330
403
100
AcDbEntity
  8
Visible (ANSI)
100
AcDbVertex
100
AcDb2dVertex
 10
172.0211111587585
 20
24.8276083040626
 30
0.0
  0
VERTEX
  5
40F
330
403
100
AcDbEntity
  8
Visible (ANSI)
100
AcDbVertex
100
AcDb2dVertex
 10
172.0120295831689
 20
24.82426796863139
 30
0.0
  0
VERTEX
  5
410
330
403
100
AcDbEntity
  8
Visible (ANSI)
100
AcDbVertex
100
AcDb2dVertex
 10
172.0028758393977
 20
24.82126766979734
 30
0.0
  0
VERTEX
  5
411
330
403
100
AcDbEntity
  8
Visible (ANSI)
100
AcDbVertex
100
AcDb2dVertex
 10
171.9936799612231
 20
24.81861493730209
 30
0.0
  0
VERTEX
  5
412
330
403
100
AcDbEntity
  8
Visible (ANSI)
100
AcDbVertex
100
AcDb2dVertex
 10
171.984483518878
 20
24.81630923839419
 30
0.0
  0
VERTEX
  5
413
330
403
100
AcDbEntity
  8
Visible (ANSI)
100
AcDbVertex
100
AcDb2dVertex
 10
171.975326796619
 20
24.81434929977746
 30
0.0
  0
VERTEX
  5
414
330
403
100
AcDbEntity
  8
Visible (ANSI)
100
AcDbVertex
100
AcDb2dVertex
 10
171.9662487056114
 20
24.81273308622242
 30
0.0
  0
VERTEX
  5
415
330
403
100
AcDbEntity
  8
Visible (ANSI)
100
AcDbVertex
100
AcDb2dVertex
 10
171.9572909654274
 20
24.81145525860352
 30
0.0
  0
VERTEX
  5
416
330
403
100
AcDbEntity
  8
Visible (ANSI)
100
AcDbVertex
100
AcDb2dVertex
 10
171.9484852691698
 20
24.81051448868095
 30
0.0
  0
VERTEX
  5
417
330
403
100
AcDbEntity
  8
Visible (ANSI)
100
AcDbVertex
100
AcDb2dVertex
 10
171.9398744937899
 20
24.80990124022389
 30
0.0
  0
VERTEX
  5
418
330
403
100
AcDbEntity
  8
Visible (ANSI)
100
AcDbVertex
100
AcDb2dVertex
 10
171.9314956256363
 20
24.80960744842447
 30
0.0
  0
VERTEX
  5
419
330
403
100
AcDbEntity
  8
Visible (ANSI)
100
AcDbVertex
100
AcDb2dVertex
 10
171.923379710675
 20
24.80962652000882
 30
0.0
  0
VERTEX
  5
41A
330
403
100
AcDbEntity
  8
Visible (ANSI)
100
AcDbVertex
100
AcDb2dVertex
 10
171.9155645732135
 20
24.80994600912206
 30
0.0
  0
VERTEX
  5
41B
330
403
100
AcDbEntity
  8
Visible (ANSI)
100
AcDbVertex
100
AcDb2dVertex
 10
171.9080862703785
 20
24.8105524234802
 30
0.0
  0
VERTEX
  5
41C
330
403
100
AcDbEntity
  8
Visible (ANSI)
100
AcDbVertex
100
AcDb2dVertex
 10
171.9009748359479
 20
24.81143369455617
 30
0.0
  0
VERTEX
  5
41D
330
403
100
AcDbEntity
  8
Visible (ANSI)
100
AcDbVertex
100
AcDb2dVertex
 10
171.8942584784424
 20
24.81257673150454
 30
0.0
  0
SEQEND
  5
406
330
403
100
AcDbEntity
  8
Visible (ANSI)
  0
LINE
  5
41E
330
6C
100
AcDbEntity
  8
Visible (ANSI)
100
AcDbLine
 10
172.0081154630178
 20
57.17981312450132
 30
0.0
 11
172.5240096520277
 21
57.47689682971309
 31
0.0
  0
LINE
  5
41F
330
6C
100
AcDbEntity
  8
Visible (ANSI)
100
AcDbLine
 10
172.6123979996761
 20
25.17112808695823
 30
0.0
 11
172.0930987795727
 21
24.87208355474912
 31
0.0
  0
LINE
  5
420
330
6C
100
AcDbEntity
  8
Visible (ANSI)
100
AcDbLine
 10
172.0265728011381
 20
57.165262596381
 30
0.0
 11
172.0930987795727
 21
57.12695283327992
 31
0.0
  0
POLYLINE
  5
421
330
6C
100
AcDbEntity
  8
Visible (ANSI)
100
AcDb2dPolyline
 66
     1
 10
0.0
 20
0.0
 30
0.0
 70
   128
  0
VERTEX
  5
422
330
421
100
AcDbEntity
  8
Visible (ANSI)
100
AcDbVertex
100
AcDb2dVertex
 10
171.9826468247633
 20
57.23736006030058
 30
0.0
  0
VERTEX
  5
423
330
421
100
AcDbEntity
  8
Visible (ANSI)
100
AcDbVertex
100
AcDb2dVertex
 10
171.9831283933759
 20
57.23547849614596
 30
0.0
  0
VERTEX
  5
425
330
421
100
AcDbEntity
  8
Visible (ANSI)
100
AcDbVertex
100
AcDb2dVertex
 10
171.9836300534437
 20
57.23360604622575
 30
0.0
  0
VERTEX
  5
426
330
421
100
AcDbEntity
  8
Visible (ANSI)
100
AcDbVertex
100
AcDb2dVertex
 10
171.9841475021334
 20
57.23174758074098
 30
0.0
  0
VERTEX
  5
427
330
421
100
AcDbEntity
  8
Visible (ANSI)
100
AcDbVertex
100
AcDb2dVertex
 10
171.9846848958416
 20
57.22990305649374
 30
0.0
  0
VERTEX
  5
428
330
421
100
AcDbEntity
  8
Visible (ANSI)
100
AcDbVertex
100
AcDb2dVertex
 10
171.9852378588449
 20
57.22806993471485
 30
0.0
  0
VERTEX
  5
429
330
421
100
AcDbEntity
  8
Visible (ANSI)
100
AcDbVertex
100
AcDb2dVertex
 10
171.9858019792676
 20
57.22625302281221
 30
0.0
  0
VERTEX
  5
42A
330
421
100
AcDbEntity
  8
Visible (ANSI)
100
AcDbVertex
100
AcDb2dVertex
 10
171.9863855531178
 20
57.22444731339339
 30
0.0
  0
VERTEX
  5
42B
330
421
100
AcDbEntity
  8
Visible (ANSI)
100
AcDbVertex
100
AcDb2dVertex
 10
171.9869798493495
 20
57.22266001899427
 30
0.0
  0
VERTEX
  5
42C
330
421
100
AcDbEntity
  8
Visible (ANSI)
100
AcDbVertex
100
AcDb2dVertex
 10
171.9875888455132
 20
57.22088362643065
 30
0.0
  0
VERTEX
  5
42D
330
421
100
AcDbEntity
  8
Visible (ANSI)
100
AcDbVertex
100
AcDb2dVertex
 10
171.9882079889013
 20
57.21912286201067
 30
0.0
  0
VERTEX
  5
42E
330
421
100
AcDbEntity
  8
Visible (ANSI)
100
AcDbVertex
100
AcDb2dVertex
 10
171.9888369406489
 20
57.21737753059485
 30
0.0
  0
VERTEX
  5
42F
330
421
100
AcDbEntity
  8
Visible (ANSI)
100
AcDbVertex
100
AcDb2dVertex
 10
171.9894753286391
 20
57.21564987356071
 30
0.0
  0
VERTEX
  5
430
330
421
100
AcDbEntity
  8
Visible (ANSI)
100
AcDbVertex
100
AcDb2dVertex
 10
171.9901185000219
 20
57.21393719255242
 30
0.0
  0
VERTEX
  5
431
330
421
100
AcDbEntity
  8
Visible (ANSI)
100
AcDbVertex
100
AcDb2dVertex
 10
171.9907702659291
 20
57.21223924554723
 30
0.0
  0
VERTEX
  5
432
330
421
100
AcDbEntity
  8
Visible (ANSI)
100
AcDbVertex
100
AcDb2dVertex
 10
171.9914259103781
 20
57.21055820916433
 30
0.0
  0
VERTEX
  5
433
330
421
100
AcDbEntity
  8
Visible (ANSI)
100
AcDbVertex
100
AcDb2dVertex
 10
171.9920891829246
 20
57.20889380592138
 30
0.0
  0
VERTEX
  5
434
330
421
100
AcDbEntity
  8
Visible (ANSI)
100
AcDbVertex
100
AcDb2dVertex
 10
171.9927510603419
 20
57.20724571310316
 30
0.0
  0
VERTEX
  5
435
330
421
100
AcDbEntity
  8
Visible (ANSI)
100
AcDbVertex
100
AcDb2dVertex
 10
171.9934194819804
 20
57.20561117359701
 30
0.0
  0
VERTEX
  5
436
330
421
100
AcDbEntity
  8
Visible (ANSI)
100
AcDbVertex
100
AcDb2dVertex
 10
171.9940853687411
 20
57.20399474384315
 30
0.0
  0
VERTEX
  5
437
330
421
100
AcDbEntity
  8
Visible (ANSI)
100
AcDbVertex
100
AcDb2dVertex
 10
171.9947481105629
 20
57.20239852819593
 30
0.0
  0
VERTEX
  5
438
330
421
100
AcDbEntity
  8
Visible (ANSI)
100
AcDbVertex
100
AcDb2dVertex
 10
171.9954113201068
 20
57.20081480334534
 30
0.0
  0
VERTEX
  5
439
330
421
100
AcDbEntity
  8
Visible (ANSI)
100
AcDbVertex
100
AcDb2dVertex
 10
171.9960743383098
 20
57.19924564542736
 30
0.0
  0
VERTEX
  5
43A
330
421
100
AcDbEntity
  8
Visible (ANSI)
100
AcDbVertex
100
AcDb2dVertex
 10
171.9967279872913
 20
57.19769555399768
 30
0.0
  0
VERTEX
  5
43B
330
421
100
AcDbEntity
  8
Visible (ANSI)
100
AcDbVertex
100
AcDb2dVertex
 10
171.9973800588772
 20
57.19616168698999
 30
0.0
  0
SEQEND
  5
424
330
421
100
AcDbEntity
  8
Visible (ANSI)
  0
LINE
  5
43C
330
6C
100
AcDbEntity
  8
Visible (ANSI)
100
AcDbLine
 10
171.9826487003514
 20
57.23736020184589
 30
0.0
 11
171.960913297631
 21
57.22484361586371
 31
0.0
  0
LINE
  5
43D
330
6C
100
AcDbEntity
  8
Visible (ANSI)
100
AcDbLine
 10
171.960913297631
 20
57.22484361586371
 30
0.0
 11
171.8942603527031
 21
57.18646073762184
 31
0.0
  0
LINE
  5
43E
330
6C
100
AcDbEntity
  8
Visible (ANSI)
100
AcDbLine
 10
172.0930987795727
 20
57.12695283327992
 30
0.0
 11
172.6123979996761
 21
57.42599736548904
 31
0.0
  0
LINE
  5
43F
330
6C
100
AcDbEntity
  8
Visible (ANSI)
100
AcDbLine
 10
172.5240096520277
 20
57.47689682971309
 30
0.0
 11
172.6123979996761
 21
57.42599736548904
 31
0.0
  0
POLYLINE
  5
440
330
6C
100
AcDbEntity
  8
Visible (ANSI)
100
AcDb2dPolyline
 66
     1
 10
0.0
 20
0.0
 30
0.0
 70
   128
  0
VERTEX
  5
441
330
440
100
AcDbEntity
  8
Visible (ANSI)
100
AcDbVertex
100
AcDb2dVertex
 10
124.0098376604272
 20
84.76126461979182
 30
0.0
  0
VERTEX
  5
442
330
440
100
AcDbEntity
  8
Visible (ANSI)
100
AcDbVertex
100
AcDb2dVertex
 10
124.0121950713884
 20
84.7676714871949
 30
0.0
  0
VERTEX
  5
444
330
440
100
AcDbEntity
  8
Visible (ANSI)
100
AcDbVertex
100
AcDb2dVertex
 10
124.0149773026707
 20
84.77428860348274
 30
0.0
  0
VERTEX
  5
445
330
440
100
AcDbEntity
  8
Visible (ANSI)
100
AcDbVertex
100
AcDb2dVertex
 10
124.0181816163882
 20
84.78108494314037
 30
0.0
  0
VERTEX
  5
446
330
440
100
AcDbEntity
  8
Visible (ANSI)
100
AcDbVertex
100
AcDb2dVertex
 10
124.0218034742878
 20
84.78802841522403
 30
0.0
  0
VERTEX
  5
447
330
440
100
AcDbEntity
  8
Visible (ANSI)
100
AcDbVertex
100
AcDb2dVertex
 10
124.0258365626389
 20
84.79507853936484
 30
0.0
  0
VERTEX
  5
448
330
440
100
AcDbEntity
  8
Visible (ANSI)
100
AcDbVertex
100
AcDb2dVertex
 10
124.03027277564
 20
84.80220365453609
 30
0.0
  0
VERTEX
  5
449
330
440
100
AcDbEntity
  8
Visible (ANSI)
100
AcDbVertex
100
AcDb2dVertex
 10
124.0351023149785
 20
84.809366185062
 30
0.0
  0
VERTEX
  5
44A
330
440
100
AcDbEntity
  8
Visible (ANSI)
100
AcDbVertex
100
AcDb2dVertex
 10
124.0403136898306
 20
84.81653003627965
 30
0.0
  0
VERTEX
  5
44B
330
440
100
AcDbEntity
  8
Visible (ANSI)
100
AcDbVertex
100
AcDb2dVertex
 10
124.0458937417511
 20
84.82366063753815
 30
0.0
  0
VERTEX
  5
44C
330
440
100
AcDbEntity
  8
Visible (ANSI)
100
AcDbVertex
100
AcDb2dVertex
 10
124.0518277774194
 20
84.83072250564452
 30
0.0
  0
VERTEX
  5
44D
330
440
100
AcDbEntity
  8
Visible (ANSI)
100
AcDbVertex
100
AcDb2dVertex
 10
124.0580995727877
 20
84.83767927591861
 30
0.0
  0
VERTEX
  5
44E
330
440
100
AcDbEntity
  8
Visible (ANSI)
100
AcDbVertex
100
AcDb2dVertex
 10
124.0646914394543
 20
84.84449376908111
 30
0.0
  0
VERTEX
  5
44F
330
440
100
AcDbEntity
  8
Visible (ANSI)
100
AcDbVertex
100
AcDb2dVertex
 10
124.071584340816
 20
84.85113536780451
 30
0.0
  0
VERTEX
  5
450
330
440
100
AcDbEntity
  8
Visible (ANSI)
100
AcDbVertex
100
AcDb2dVertex
 10
124.0787579542931
 20
84.85757025855136
 30
0.0
  0
VERTEX
  5
451
330
440
100
AcDbEntity
  8
Visible (ANSI)
100
AcDbVertex
100
AcDb2dVertex
 10
124.0861907252571
 20
84.86376149129567
 30
0.0
  0
VERTEX
  5
452
330
440
100
AcDbEntity
  8
Visible (ANSI)
100
AcDbVertex
100
AcDb2dVertex
 10
124.0938600205185
 20
84.86967883323876
 30
0.0
  0
VERTEX
  5
453
330
440
100
AcDbEntity
  8
Visible (ANSI)
100
AcDbVertex
100
AcDb2dVertex
 10
124.1017421843289
 20
84.87529391839457
 30
0.0
  0
VERTEX
  5
454
330
440
100
AcDbEntity
  8
Visible (ANSI)
100
AcDbVertex
100
AcDb2dVertex
 10
124.1098126379405
 20
84.88057542225819
 30
0.0
  0
VERTEX
  5
455
330
440
100
AcDbEntity
  8
Visible (ANSI)
100
AcDbVertex
100
AcDb2dVertex
 10
124.1180460165005
 20
84.88549644074554
 30
0.0
  0
VERTEX
  5
456
330
440
100
AcDbEntity
  8
Visible (ANSI)
100
AcDbVertex
100
AcDb2dVertex
 10
124.1264162343868
 20
84.89002969293085
 30
0.0
  0
VERTEX
  5
457
330
440
100
AcDbEntity
  8
Visible (ANSI)
100
AcDbVertex
100
AcDb2dVertex
 10
124.1348966386956
 20
84.89415245387668
 30
0.0
  0
VERTEX
  5
458
330
440
100
AcDbEntity
  8
Visible (ANSI)
100
AcDbVertex
100
AcDb2dVertex
 10
124.1434600979119
 20
84.89783927692183
 30
0.0
  0
VERTEX
  5
459
330
440
100
AcDbEntity
  8
Visible (ANSI)
100
AcDbVertex
100
AcDb2dVertex
 10
124.1520791263582
 20
84.90106942278705
 30
0.0
  0
VERTEX
  5
45A
330
440
100
AcDbEntity
  8
Visible (ANSI)
100
AcDbVertex
100
AcDb2dVertex
 10
124.1607259987922
 20
84.9038244699019
 30
0.0
  0
SEQEND
  5
443
330
440
100
AcDbEntity
  8
Visible (ANSI)
  0
POLYLINE
  5
45B
330
6C
100
AcDbEntity
  8
Visible (ANSI)
100
AcDb2dPolyline
 66
     1
 10
0.0
 20
0.0
 30
0.0
 70
   128
  0
VERTEX
  5
45C
330
45B
100
AcDbEntity
  8
Visible (ANSI)
100
AcDbVertex
100
AcDb2dVertex
 10
171.9422104818316
 20
57.38829753990346
 30
0.0
  0
VERTEX
  5
45D
330
45B
100
AcDbEntity
  8
Visible (ANSI)
100
AcDbVertex
100
AcDb2dVertex
 10
171.9378533289136
 20
57.38307220761132
 30
0.0
  0
VERTEX
  5
45F
330
45B
100
AcDbEntity
  8
Visible (ANSI)
100
AcDbVertex
100
AcDb2dVertex
 10
171.9335240199832
 20
57.37737177656887
 30
0.0
  0
VERTEX
  5
460
330
45B
100
AcDbEntity
  8
Visible (ANSI)
100
AcDbVertex
100
AcDb2dVertex
 10
171.9292502802831
 20
57.37121466834647
 30
0.0
  0
VERTEX
  5
461
330
45B
100
AcDbEntity
  8
Visible (ANSI)
100
AcDbVertex
100
AcDb2dVertex
 10
171.9250553476189
 20
57.36462406840979
 30
0.0
  0
VERTEX
  5
462
330
45B
100
AcDbEntity
  8
Visible (ANSI)
100
AcDbVertex
100
AcDb2dVertex
 10
171.9209748492487
 20
57.35762053104723
 30
0.0
  0
VERTEX
  5
463
330
45B
100
AcDbEntity
  8
Visible (ANSI)
100
AcDbVertex
100
AcDb2dVertex
 10
171.9170311985013
 20
57.35022922260492
 30
0.0
  0
VERTEX
  5
464
330
45B
100
AcDbEntity
  8
Visible (ANSI)
100
AcDbVertex
100
AcDb2dVertex
 10
171.9132504644058
 20
57.34247743356404
 30
0.0
  0
VERTEX
  5
465
330
45B
100
AcDbEntity
  8
Visible (ANSI)
100
AcDbVertex
100
AcDb2dVertex
 10
171.909658028408
 20
57.33439205845326
 30
0.0
  0
VERTEX
  5
466
330
45B
100
AcDbEntity
  8
Visible (ANSI)
100
AcDbVertex
100
AcDb2dVertex
 10
171.9062784526627
 20
57.32600443133294
 30
0.0
  0
VERTEX
  5
467
330
45B
100
AcDbEntity
  8
Visible (ANSI)
100
AcDbVertex
100
AcDb2dVertex
 10
171.9031354012147
 20
57.31734291341137
 30
0.0
  0
VERTEX
  5
468
330
45B
100
AcDbEntity
  8
Visible (ANSI)
100
AcDbVertex
100
AcDb2dVertex
 10
171.9002472676789
 20
57.30844017889597
 30
0.0
  0
VERTEX
  5
469
330
45B
100
AcDbEntity
  8
Visible (ANSI)
100
AcDbVertex
100
AcDb2dVertex
 10
171.8976440858332
 20
57.29932829499531
 30
0.0
  0
VERTEX
  5
46A
330
45B
100
AcDbEntity
  8
Visible (ANSI)
100
AcDbVertex
100
AcDb2dVertex
 10
171.8953419386827
 20
57.29004351665555
 30
0.0
  0
VERTEX
  5
46B
330
45B
100
AcDbEntity
  8
Visible (ANSI)
100
AcDbVertex
100
AcDb2dVertex
 10
171.8933598711271
 20
57.2806164564265
 30
0.0
  0
VERTEX
  5
46C
330
45B
100
AcDbEntity
  8
Visible (ANSI)
100
AcDbVertex
100
AcDb2dVertex
 10
171.8917155549748
 20
57.27108430314289
 30
0.0
  0
VERTEX
  5
46D
330
45B
100
AcDbEntity
  8
Visible (ANSI)
100
AcDbVertex
100
AcDb2dVertex
 10
171.8904252225704
 20
57.26148341670712
 30
0.0
  0
VERTEX
  5
46E
330
45B
100
AcDbEntity
  8
Visible (ANSI)
100
AcDbVertex
100
AcDb2dVertex
 10
171.8894993276596
 20
57.25185172172095
 30
0.0
  0
VERTEX
  5
46F
330
45B
100
AcDbEntity
  8
Visible (ANSI)
100
AcDbVertex
100
AcDb2dVertex
 10
171.8889595078371
 20
57.24221890601777
 30
0.0
  0
VERTEX
  5
470
330
45B
100
AcDbEntity
  8
Visible (ANSI)
100
AcDbVertex
100
AcDb2dVertex
 10
171.888813014352
 20
57.23262350566926
 30
0.0
  0
VERTEX
  5
471
330
45B
100
AcDbEntity
  8
Visible (ANSI)
100
AcDbVertex
100
AcDb2dVertex
 10
171.8890696538136
 20
57.22310309157348
 30
0.0
  0
VERTEX
  5
472
330
45B
100
AcDbEntity
  8
Visible (ANSI)
100
AcDbVertex
100
AcDb2dVertex
 10
171.88973751543
 20
57.21368933431258
 30
0.0
  0
VERTEX
  5
473
330
45B
100
AcDbEntity
  8
Visible (ANSI)
100
AcDbVertex
100
AcDb2dVertex
 10
171.8908229212285
 20
57.2044227094777
 30
0.0
  0
VERTEX
  5
474
330
45B
100
AcDbEntity
  8
Visible (ANSI)
100
AcDbVertex
100
AcDb2dVertex
 10
171.8923304177589
 20
57.1953353032349
 30
0.0
  0
VERTEX
  5
475
330
45B
100
AcDbEntity
  8
Visible (ANSI)
100
AcDbVertex
100
AcDb2dVertex
 10
171.8942584784425
 20
57.18646059684097
 30
0.0
  0
SEQEND
  5
45E
330
45B
100
AcDbEntity
  8
Visible (ANSI)
  0
LINE
  5
476
330
6C
100
AcDbEntity
  8
Visible (ANSI)
100
AcDbLine
 10
171.9456021734675
 20
57.28805846735934
 30
0.0
 11
172.4615096520278
 21
57.58514982551414
 31
0.0
  0
LINE
  5
477
330
6C
100
AcDbEntity
  8
Visible (ANSI)
100
AcDbLine
 10
172.4615096520278
 20
57.68734321611945
 30
0.0
 11
171.9422104319244
 21
57.38829868391035
 31
0.0
  0
LINE
  5
478
330
6C
100
AcDbEntity
  8
Visible (ANSI)
100
AcDbLine
 10
171.9422104319244
 20
57.31123546667371
 30
0.0
 11
171.9422104319244
 21
57.38829868391035
 31
0.0
  0
LINE
  5
479
330
6C
100
AcDbEntity
  8
Visible (ANSI)
100
AcDbLine
 10
172.4615096520278
 20
57.58514982551414
 30
0.0
 11
172.4615096520278
 21
57.68734321611945
 31
0.0
  0
POLYLINE
  5
47A
330
6C
100
AcDbEntity
  8
Visible (ANSI)
100
AcDb2dPolyline
 66
     1
 10
0.0
 20
0.0
 30
0.0
 70
   128
  0
VERTEX
  5
47B
330
47A
100
AcDbEntity
  8
Visible (ANSI)
100
AcDbVertex
100
AcDb2dVertex
 10
171.9826468247633
 20
57.23736006030058
 30
0.0
  0
VERTEX
  5
47C
330
47A
100
AcDbEntity
  8
Visible (ANSI)
100
AcDbVertex
100
AcDb2dVertex
 10
171.9812593198964
 20
57.23871579772194
 30
0.0
  0
VERTEX
  5
47E
330
47A
100
AcDbEntity
  8
Visible (ANSI)
100
AcDbVertex
100
AcDb2dVertex
 10
171.9798918863469
 20
57.24008063778105
 30
0.0
  0
VERTEX
  5
47F
330
47A
100
AcDbEntity
  8
Visible (ANSI)
100
AcDbVertex
100
AcDb2dVertex
 10
171.97854446927
 20
57.24145700456015
 30
0.0
  0
VERTEX
  5
480
330
47A
100
AcDbEntity
  8
Visible (ANSI)
100
AcDbVertex
100
AcDb2dVertex
 10
171.9772169773493
 20
57.2428399341432
 30
0.0
  0
VERTEX
  5
481
330
47A
100
AcDbEntity
  8
Visible (ANSI)
100
AcDbVertex
100
AcDb2dVertex
 10
171.9759050351568
 20
57.24423179926167
 30
0.0
  0
VERTEX
  5
482
330
47A
100
AcDbEntity
  8
Visible (ANSI)
100
AcDbVertex
100
AcDb2dVertex
 10
171.9746169747309
 20
57.24563006893685
 30
0.0
  0
VERTEX
  5
483
330
47A
100
AcDbEntity
  8
Visible (ANSI)
100
AcDbVertex
100
AcDb2dVertex
 10
171.9733483488544
 20
57.24703216322915
 30
0.0
  0
VERTEX
  5
484
330
47A
100
AcDbEntity
  8
Visible (ANSI)
100
AcDbVertex
100
AcDb2dVertex
 10
171.972098922694
 20
57.24844040257223
 30
0.0
  0
VERTEX
  5
485
330
47A
100
AcDbEntity
  8
Visible (ANSI)
100
AcDbVertex
100
AcDb2dVertex
 10
171.970868426512
 20
57.24984972030423
 30
0.0
  0
VERTEX
  5
486
330
47A
100
AcDbEntity
  8
Visible (ANSI)
100
AcDbVertex
100
AcDb2dVertex
 10
171.9696523081846
 20
57.25126238740406
 30
0.0
  0
VERTEX
  5
487
330
47A
100
AcDbEntity
  8
Visible (ANSI)
100
AcDbVertex
100
AcDb2dVertex
 10
171.9684587252372
 20
57.25267577239782
 30
0.0
  0
VERTEX
  5
488
330
47A
100
AcDbEntity
  8
Visible (ANSI)
100
AcDbVertex
100
AcDb2dVertex
 10
171.9672830585247
 20
57.25408965200433
 30
0.0
  0
VERTEX
  5
489
330
47A
100
AcDbEntity
  8
Visible (ANSI)
100
AcDbVertex
100
AcDb2dVertex
 10
171.9661249036515
 20
57.25549888201727
 30
0.0
  0
VERTEX
  5
48A
330
47A
100
AcDbEntity
  8
Visible (ANSI)
100
AcDbVertex
100
AcDb2dVertex
 10
171.9649838249151
 20
57.25690812286272
 30
0.0
  0
VERTEX
  5
48B
330
47A
100
AcDbEntity
  8
Visible (ANSI)
100
AcDbVertex
100
AcDb2dVertex
 10
171.963855107111
 20
57.25831709594258
 30
0.0
  0
VERTEX
  5
48C
330
47A
100
AcDbEntity
  8
Visible (ANSI)
100
AcDbVertex
100
AcDb2dVertex
 10
171.9627467487029
 20
57.25971816685494
 30
0.0
  0
VERTEX
  5
48D
330
47A
100
AcDbEntity
  8
Visible (ANSI)
100
AcDbVertex
100
AcDb2dVertex
 10
171.9616539752433
 20
57.26111347855113
 30
0.0
  0
VERTEX
  5
48E
330
47A
100
AcDbEntity
  8
Visible (ANSI)
100
AcDbVertex
100
AcDb2dVertex
 10
171.9605762318953
 20
57.2625002558567
 30
0.0
  0
VERTEX
  5
48F
330
47A
100
AcDbEntity
  8
Visible (ANSI)
100
AcDbVertex
100
AcDb2dVertex
 10
171.9595129355619
 20
57.26388061865359
 30
0.0
  0
VERTEX
  5
490
330
47A
100
AcDbEntity
  8
Visible (ANSI)
100
AcDbVertex
100
AcDb2dVertex
 10
171.9584592301256
 20
57.26525666286248
 30
0.0
  0
VERTEX
  5
491
330
47A
100
AcDbEntity
  8
Visible (ANSI)
100
AcDbVertex
100
AcDb2dVertex
 10
171.9574229774151
 20
57.26661821973346
 30
0.0
  0
VERTEX
  5
492
330
47A
100
AcDbEntity
  8
Visible (ANSI)
100
AcDbVertex
100
AcDb2dVertex
 10
171.9563992712737
 20
57.26796735637167
 30
0.0
  0
VERTEX
  5
493
330
47A
100
AcDbEntity
  8
Visible (ANSI)
100
AcDbVertex
100
AcDb2dVertex
 10
171.9553874311193
 20
57.26930613652095
 30
0.0
  0
VERTEX
  5
494
330
47A
100
AcDbEntity
  8
Visible (ANSI)
100
AcDbVertex
100
AcDb2dVertex
 10
171.9543825062006
 20
57.27063660160627
 30
0.0
  0
SEQEND
  5
47D
330
47A
100
AcDbEntity
  8
Visible (ANSI)
  0
LINE
  5
495
330
6C
100
AcDbEntity
  8
Visible (ANSI)
100
AcDbLine
 10
124.1607260065288
 20
84.90382558071399
 30
0.0
 11
124.6800252266321
 21
85.20287011292309
 31
0.0
  0
POLYLINE
  5
496
330
6C
100
AcDbEntity
  8
Visible (ANSI)
100
AcDb2dPolyline
 66
     1
 10
0.0
 20
0.0
 30
0.0
 70
   128
  0
VERTEX
  5
497
330
496
100
AcDbEntity
  8
Visible (ANSI)
100
AcDbVertex
100
AcDb2dVertex
 10
124.0098376604272
 20
52.38738075445537
 30
0.0
  0
VERTEX
  5
498
330
496
100
AcDbEntity
  8
Visible (ANSI)
100
AcDbVertex
100
AcDb2dVertex
 10
124.0066379845223
 20
52.390524379216
 30
0.0
  0
VERTEX
  5
49A
330
496
100
AcDbEntity
  8
Visible (ANSI)
100
AcDbVertex
100
AcDb2dVertex
 10
124.0035481973986
 20
52.39372727144248
 30
0.0
  0
VERTEX
  5
49B
330
496
100
AcDbEntity
  8
Visible (ANSI)
100
AcDbVertex
100
AcDb2dVertex
 10
124.0005716011124
 20
52.39698732894338
 30
0.0
  0
VERTEX
  5
49C
330
496
100
AcDbEntity
  8
Visible (ANSI)
100
AcDbVertex
100
AcDb2dVertex
 10
123.9977113898638
 20
52.40030239700948
 30
0.0
  0
VERTEX
  5
49D
330
496
100
AcDbEntity
  8
Visible (ANSI)
100
AcDbVertex
100
AcDb2dVertex
 10
123.9949706251069
 20
52.40367023482177
 30
0.0
  0
VERTEX
  5
49E
330
496
100
AcDbEntity
  8
Visible (ANSI)
100
AcDbVertex
100
AcDb2dVertex
 10
123.9923522521432
 20
52.407088573006
 30
0.0
  0
VERTEX
  5
49F
330
496
100
AcDbEntity
  8
Visible (ANSI)
100
AcDbVertex
100
AcDb2dVertex
 10
123.9898590420449
 20
52.41055508004079
 30
0.0
  0
VERTEX
  5
4A0
330
496
100
AcDbEntity
  8
Visible (ANSI)
100
AcDbVertex
100
AcDb2dVertex
 10
123.9874936995114
 20
52.41406737662759
 30
0.0
  0
VERTEX
  5
4A1
330
496
100
AcDbEntity
  8
Visible (ANSI)
100
AcDbVertex
100
AcDb2dVertex
 10
123.9852587467164
 20
52.41762301658001
 30
0.0
  0
VERTEX
  5
4A2
330
496
100
AcDbEntity
  8
Visible (ANSI)
100
AcDbVertex
100
AcDb2dVertex
 10
123.9831565647908
 20
52.42121953941552
 30
0.0
  0
VERTEX
  5
4A3
330
496
100
AcDbEntity
  8
Visible (ANSI)
100
AcDbVertex
100
AcDb2dVertex
 10
123.981189418713
 20
52.4248543985418
 30
0.0
  0
VERTEX
  5
4A4
330
496
100
AcDbEntity
  8
Visible (ANSI)
100
AcDbVertex
100
AcDb2dVertex
 10
123.9793594075286
 20
52.42852503792215
 30
0.0
  0
VERTEX
  5
4A5
330
496
100
AcDbEntity
  8
Visible (ANSI)
100
AcDbVertex
100
AcDb2dVertex
 10
123.9776685016859
 20
52.43222886087236
 30
0.0
  0
VERTEX
  5
4A6
330
496
100
AcDbEntity
  8
Visible (ANSI)
100
AcDbVertex
100
AcDb2dVertex
 10
123.9761184932555
 20
52.4359632205423
 30
0.0
  0
VERTEX
  5
4A7
330
496
100
AcDbEntity
  8
Visible (ANSI)
100
AcDbVertex
100
AcDb2dVertex
 10
123.9747110581555
 20
52.43972545097097
 30
0.0
  0
VERTEX
  5
4A8
330
496
100
AcDbEntity
  8
Visible (ANSI)
100
AcDbVertex
100
AcDb2dVertex
 10
123.9734477022231
 20
52.44351285995705
 30
0.0
  0
VERTEX
  5
4A9
330
496
100
AcDbEntity
  8
Visible (ANSI)
100
AcDbVertex
100
AcDb2dVertex
 10
123.9723297695113
 20
52.44732269546673
 30
0.0
  0
VERTEX
  5
4AA
330
496
100
AcDbEntity
  8
Visible (ANSI)
100
AcDbVertex
100
AcDb2dVertex
 10
123.9713584588822
 20
52.45115222229932
 30
0.0
  0
VERTEX
  5
4AB
330
496
100
AcDbEntity
  8
Visible (ANSI)
100
AcDbVertex
100
AcDb2dVertex
 10
123.9705348157104
 20
52.45499865982885
 30
0.0
  0
VERTEX
  5
4AC
330
496
100
AcDbEntity
  8
Visible (ANSI)
100
AcDbVertex
100
AcDb2dVertex
 10
123.9698597235864
 20
52.45885922504048
 30
0.0
  0
VERTEX
  5
4AD
330
496
100
AcDbEntity
  8
Visible (ANSI)
100
AcDbVertex
100
AcDb2dVertex
 10
123.9693339001681
 20
52.46273110147544
 30
0.0
  0
VERTEX
  5
4AE
330
496
100
AcDbEntity
  8
Visible (ANSI)
100
AcDbVertex
100
AcDb2dVertex
 10
123.9689579075518
 20
52.4666114906284
 30
0.0
  0
VERTEX
  5
4AF
330
496
100
AcDbEntity
  8
Visible (ANSI)
100
AcDbVertex
100
AcDb2dVertex
 10
123.968732152272
 20
52.4704975401337
 30
0.0
  0
VERTEX
  5
4B0
330
496
100
AcDbEntity
  8
Visible (ANSI)
100
AcDbVertex
100
AcDb2dVertex
 10
123.9686568728567
 20
52.47438642281975
 30
0.0
  0
SEQEND
  5
499
330
496
100
AcDbEntity
  8
Visible (ANSI)
  0
POLYLINE
  5
4B1
330
6C
100
AcDbEntity
  8
Visible (ANSI)
100
AcDb2dPolyline
 66
     1
 10
0.0
 20
0.0
 30
0.0
 70
   128
  0
VERTEX
  5
4B2
330
4B1
100
AcDbEntity
  8
Visible (ANSI)
100
AcDbVertex
100
AcDb2dVertex
 10
124.0098376593901
 20
84.81626237546548
 30
0.0
  0
VERTEX
  5
4B3
330
4B1
100
AcDbEntity
  8
Visible (ANSI)
100
AcDbVertex
100
AcDb2dVertex
 10
124.0035481956162
 20
84.81487311967695
 30
0.0
  0
VERTEX
  5
4B5
330
4B1
100
AcDbEntity
  8
Visible (ANSI)
100
AcDbVertex
100
AcDb2dVertex
 10
123.997711392651
 20
84.81325771810263
 30
0.0
  0
VERTEX
  5
4B6
330
4B1
100
AcDbEntity
  8
Visible (ANSI)
100
AcDbVertex
100
AcDb2dVertex
 10
123.9923522450133
 20
84.81143125350163
 30
0.0
  0
VERTEX
  5
4B7
330
4B1
100
AcDbEntity
  8
Visible (ANSI)
100
AcDbVertex
100
AcDb2dVertex
 10
123.9874937005486
 20
84.8094097113212
 30
0.0
  0
VERTEX
  5
4B8
330
4B1
100
AcDbEntity
  8
Visible (ANSI)
100
AcDbVertex
100
AcDb2dVertex
 10
123.9831565642724
 20
84.80721727008113
 30
0.0
  0
VERTEX
  5
4B9
330
4B1
100
AcDbEntity
  8
Visible (ANSI)
100
AcDbVertex
100
AcDb2dVertex
 10
123.9793594106399
 20
84.80487148412711
 30
0.0
  0
VERTEX
  5
4BA
330
4B1
100
AcDbEntity
  8
Visible (ANSI)
100
AcDbVertex
100
AcDb2dVertex
 10
123.9761184953297
 20
84.80239301674705
 30
0.0
  0
VERTEX
  5
4BB
330
4B1
100
AcDbEntity
  8
Visible (ANSI)
100
AcDbVertex
100
AcDb2dVertex
 10
123.9734477022232
 20
84.79980064948568
 30
0.0
  0
VERTEX
  5
4BC
330
4B1
100
AcDbEntity
  8
Visible (ANSI)
100
AcDbVertex
100
AcDb2dVertex
 10
123.9713584609564
 20
84.79712100059185
 30
0.0
  0
VERTEX
  5
4BD
330
4B1
100
AcDbEntity
  8
Visible (ANSI)
100
AcDbVertex
100
AcDb2dVertex
 10
123.9698597256607
 20
84.79437371249355
 30
0.0
  0
VERTEX
  5
4BE
330
4B1
100
AcDbEntity
  8
Visible (ANSI)
100
AcDbVertex
100
AcDb2dVertex
 10
123.9689579075519
 20
84.79157871428133
 30
0.0
  0
VERTEX
  5
4BF
330
4B1
100
AcDbEntity
  8
Visible (ANSI)
100
AcDbVertex
100
AcDb2dVertex
 10
123.9686568728567
 20
84.78876349673283
 30
0.0
  0
VERTEX
  5
4C0
330
4B1
100
AcDbEntity
  8
Visible (ANSI)
100
AcDbVertex
100
AcDb2dVertex
 10
123.9689579075519
 20
84.78594827918433
 30
0.0
  0
VERTEX
  5
4C1
330
4B1
100
AcDbEntity
  8
Visible (ANSI)
100
AcDbVertex
100
AcDb2dVertex
 10
123.9698597235865
 20
84.78315328216652
 30
0.0
  0
VERTEX
  5
4C2
330
4B1
100
AcDbEntity
  8
Visible (ANSI)
100
AcDbVertex
100
AcDb2dVertex
 10
123.9713584588823
 20
84.78040599406822
 30
0.0
  0
VERTEX
  5
4C3
330
4B1
100
AcDbEntity
  8
Visible (ANSI)
100
AcDbVertex
100
AcDb2dVertex
 10
123.9734477022232
 20
84.77772634636883
 30
0.0
  0
VERTEX
  5
4C4
330
4B1
100
AcDbEntity
  8
Visible (ANSI)
100
AcDbVertex
100
AcDb2dVertex
 10
123.9761184932556
 20
84.77513643118937
 30
0.0
  0
VERTEX
  5
4C5
330
4B1
100
AcDbEntity
  8
Visible (ANSI)
100
AcDbVertex
100
AcDb2dVertex
 10
123.9793594075287
 20
84.7726555075469
 30
0.0
  0
VERTEX
  5
4C6
330
4B1
100
AcDbEntity
  8
Visible (ANSI)
100
AcDbVertex
100
AcDb2dVertex
 10
123.9831565647909
 20
84.77030972368314
 30
0.0
  0
VERTEX
  5
4C7
330
4B1
100
AcDbEntity
  8
Visible (ANSI)
100
AcDbVertex
100
AcDb2dVertex
 10
123.9874936995115
 20
84.7681172851305
 30
0.0
  0
VERTEX
  5
4C8
330
4B1
100
AcDbEntity
  8
Visible (ANSI)
100
AcDbVertex
100
AcDb2dVertex
 10
123.9923522521432
 20
84.76609574048659
 30
0.0
  0
VERTEX
  5
4C9
330
4B1
100
AcDbEntity
  8
Visible (ANSI)
100
AcDbVertex
100
AcDb2dVertex
 10
123.9977113898639
 20
84.76426927913292
 30
0.0
  0
VERTEX
  5
4CA
330
4B1
100
AcDbEntity
  8
Visible (ANSI)
100
AcDbVertex
100
AcDb2dVertex
 10
124.0035481973987
 20
84.76265387780122
 30
0.0
  0
VERTEX
  5
4CB
330
4B1
100
AcDbEntity
  8
Visible (ANSI)
100
AcDbVertex
100
AcDb2dVertex
 10
124.0098376604272
 20
84.76126461979182
 30
0.0
  0
SEQEND
  5
4B4
330
4B1
100
AcDbEntity
  8
Visible (ANSI)
  0
LINE
  5
4CC
330
6C
100
AcDbEntity
  8
Visible (ANSI)
100
AcDbLine
 10
124.4495802151813
 20
52.71282406064307
 30
0.0
 11
124.617525226632
 21
52.8095371606091
 31
0.0
  0
LINE
  5
4CD
330
6C
100
AcDbEntity
  8
Visible (ANSI)
100
AcDbLine
 10
124.0735655038804
 20
84.85295979637667
 30
0.0
 11
124.0098376588804
 21
84.81626137115481
 31
0.0
  0
LINE
  5
4CE
330
6C
100
AcDbEntity
  8
Visible (ANSI)
100
AcDbLine
 10
124.0313615440361
 20
84.8038665900373
 30
0.0
 11
124.0098376588804
 21
84.81626137115481
 31
0.0
  0
POLYLINE
  5
4CF
330
6C
100
AcDbEntity
  8
Visible (ANSI)
100
AcDb2dPolyline
 66
     1
 10
0.0
 20
0.0
 30
0.0
 70
   128
  0
VERTEX
  5
4D0
330
4CF
100
AcDbEntity
  8
Visible (ANSI)
100
AcDbVertex
100
AcDb2dVertex
 10
171.8942584784424
 20
24.81257673150454
 30
0.0
  0
VERTEX
  5
4D1
330
4CF
100
AcDbEntity
  8
Visible (ANSI)
100
AcDbVertex
100
AcDb2dVertex
 10
171.8923304177588
 20
24.8064142872633
 30
0.0
  0
VERTEX
  5
4D3
330
4CF
100
AcDbEntity
  8
Visible (ANSI)
100
AcDbVertex
100
AcDb2dVertex
 10
171.8908229212285
 20
24.80053111441924
 30
0.0
  0
VERTEX
  5
4D4
330
4CF
100
AcDbEntity
  8
Visible (ANSI)
100
AcDbVertex
100
AcDb2dVertex
 10
171.8897375154299
 20
24.79495526723177
 30
0.0
  0
VERTEX
  5
4D5
330
4CF
100
AcDbEntity
  8
Visible (ANSI)
100
AcDbVertex
100
AcDb2dVertex
 10
171.8890696538135
 20
24.78971587850041
 30
0.0
  0
VERTEX
  5
4D6
330
4CF
100
AcDbEntity
  8
Visible (ANSI)
100
AcDbVertex
100
AcDb2dVertex
 10
171.8888130143519
 20
24.78484070367482
 30
0.0
  0
VERTEX
  5
4D7
330
4CF
100
AcDbEntity
  8
Visible (ANSI)
100
AcDbVertex
100
AcDb2dVertex
 10
171.888959507837
 20
24.78035589541394
 30
0.0
  0
VERTEX
  5
4D8
330
4CF
100
AcDbEntity
  8
Visible (ANSI)
100
AcDbVertex
100
AcDb2dVertex
 10
171.8894993276595
 20
24.77628595071643
 30
0.0
  0
VERTEX
  5
4D9
330
4CF
100
AcDbEntity
  8
Visible (ANSI)
100
AcDbVertex
100
AcDb2dVertex
 10
171.8904252225703
 20
24.77265114477326
 30
0.0
  0
VERTEX
  5
4DA
330
4CF
100
AcDbEntity
  8
Visible (ANSI)
100
AcDbVertex
100
AcDb2dVertex
 10
171.8917155549747
 20
24.76947720528914
 30
0.0
  0
VERTEX
  5
4DB
330
4CF
100
AcDbEntity
  8
Visible (ANSI)
100
AcDbVertex
100
AcDb2dVertex
 10
171.893359871127
 20
24.76678057762427
 30
0.0
  0
VERTEX
  5
4DC
330
4CF
100
AcDbEntity
  8
Visible (ANSI)
100
AcDbVertex
100
AcDb2dVertex
 10
171.8953419386826
 20
24.76457809436588
 30
0.0
  0
VERTEX
  5
4DD
330
4CF
100
AcDbEntity
  8
Visible (ANSI)
100
AcDbVertex
100
AcDb2dVertex
 10
171.8976440858332
 20
24.76288447617978
 30
0.0
  0
VERTEX
  5
4DE
330
4CF
100
AcDbEntity
  8
Visible (ANSI)
100
AcDbVertex
100
AcDb2dVertex
 10
171.9002472676789
 20
24.76171226451512
 30
0.0
  0
VERTEX
  5
4DF
330
4CF
100
AcDbEntity
  8
Visible (ANSI)
100
AcDbVertex
100
AcDb2dVertex
 10
171.9031354012146
 20
24.7610693248633
 30
0.0
  0
VERTEX
  5
4E0
330
4CF
100
AcDbEntity
  8
Visible (ANSI)
100
AcDbVertex
100
AcDb2dVertex
 10
171.9062784526626
 20
24.76096857856926
 30
0.0
  0
VERTEX
  5
4E1
330
4CF
100
AcDbEntity
  8
Visible (ANSI)
100
AcDbVertex
100
AcDb2dVertex
 10
171.909658028408
 20
24.76141330629677
 30
0.0
  0
VERTEX
  5
4E2
330
4CF
100
AcDbEntity
  8
Visible (ANSI)
100
AcDbVertex
100
AcDb2dVertex
 10
171.9132504644057
 20
24.7624068882285
 30
0.0
  0
VERTEX
  5
4E3
330
4CF
100
AcDbEntity
  8
Visible (ANSI)
100
AcDbVertex
100
AcDb2dVertex
 10
171.9170311985013
 20
24.76395036359718
 30
0.0
  0
VERTEX
  5
4E4
330
4CF
100
AcDbEntity
  8
Visible (ANSI)
100
AcDbVertex
100
AcDb2dVertex
 10
171.9209748492486
 20
24.76604240952626
 30
0.0
  0
VERTEX
  5
4E5
330
4CF
100
AcDbEntity
  8
Visible (ANSI)
100
AcDbVertex
100
AcDb2dVertex
 10
171.9250553476188
 20
24.76867935992091
 30
0.0
  0
VERTEX
  5
4E6
330
4CF
100
AcDbEntity
  8
Visible (ANSI)
100
AcDbVertex
100
AcDb2dVertex
 10
171.929250280283
 20
24.77185276521384
 30
0.0
  0
VERTEX
  5
4E7
330
4CF
100
AcDbEntity
  8
Visible (ANSI)
100
AcDbVertex
100
AcDb2dVertex
 10
171.9335240199832
 20
24.77555920838923
 30
0.0
  0
VERTEX
  5
4E8
330
4CF
100
AcDbEntity
  8
Visible (ANSI)
100
AcDbVertex
100
AcDb2dVertex
 10
171.9378533289135
 20
24.7797856618905
 30
0.0
  0
VERTEX
  5
4E9
330
4CF
100
AcDbEntity
  8
Visible (ANSI)
100
AcDbVertex
100
AcDb2dVertex
 10
171.9422104818315
 20
24.78451931703734
 30
0.0
  0
SEQEND
  5
4D2
330
4CF
100
AcDbEntity
  8
Visible (ANSI)
  0
POLYLINE
  5
4EA
330
6C
100
AcDbEntity
  8
Visible (ANSI)
100
AcDb2dPolyline
 66
     1
 10
0.0
 20
0.0
 30
0.0
 70
   128
  0
VERTEX
  5
4EB
330
4EA
100
AcDbEntity
  8
Visible (ANSI)
100
AcDbVertex
100
AcDb2dVertex
 10
124.0648908736952
 20
52.30793480101401
 30
0.0
  0
VERTEX
  5
4EC
330
4EA
100
AcDbEntity
  8
Visible (ANSI)
100
AcDbVertex
100
AcDb2dVertex
 10
124.0615434473668
 20
52.30994975189469
 30
0.0
  0
VERTEX
  5
4EE
330
4EA
100
AcDbEntity
  8
Visible (ANSI)
100
AcDbVertex
100
AcDb2dVertex
 10
124.0582739595216
 20
52.31209431936332
 30
0.0
  0
VERTEX
  5
4EF
330
4EA
100
AcDbEntity
  8
Visible (ANSI)
100
AcDbVertex
100
AcDb2dVertex
 10
124.055084795439
 20
52.31436685306761
 30
0.0
  0
VERTEX
  5
4F0
330
4EA
100
AcDbEntity
  8
Visible (ANSI)
100
AcDbVertex
100
AcDb2dVertex
 10
124.0519782076523
 20
52.3167655828978
 30
0.0
  0
VERTEX
  5
4F1
330
4EA
100
AcDbEntity
  8
Visible (ANSI)
100
AcDbVertex
100
AcDb2dVertex
 10
124.0489563989151
 20
52.31928858312617
 30
0.0
  0
VERTEX
  5
4F2
330
4EA
100
AcDbEntity
  8
Visible (ANSI)
100
AcDbVertex
100
AcDb2dVertex
 10
124.0460214599766
 20
52.3219338106564
 30
0.0
  0
VERTEX
  5
4F3
330
4EA
100
AcDbEntity
  8
Visible (ANSI)
100
AcDbVertex
100
AcDb2dVertex
 10
124.0431753778782
 20
52.32469909072753
 30
0.0
  0
VERTEX
  5
4F4
330
4EA
100
AcDbEntity
  8
Visible (ANSI)
100
AcDbVertex
100
AcDb2dVertex
 10
124.0404200774366
 20
52.32758209774754
 30
0.0
  0
VERTEX
  5
4F5
330
4EA
100
AcDbEntity
  8
Visible (ANSI)
100
AcDbVertex
100
AcDb2dVertex
 10
124.0377573673156
 20
52.33058041514435
 30
0.0
  0
VERTEX
  5
4F6
330
4EA
100
AcDbEntity
  8
Visible (ANSI)
100
AcDbVertex
100
AcDb2dVertex
 10
124.0351889400267
 20
52.33369147312596
 30
0.0
  0
VERTEX
  5
4F7
330
4EA
100
AcDbEntity
  8
Visible (ANSI)
100
AcDbVertex
100
AcDb2dVertex
 10
124.0327164134114
 20
52.33691258227255
 30
0.0
  0
VERTEX
  5
4F8
330
4EA
100
AcDbEntity
  8
Visible (ANSI)
100
AcDbVertex
100
AcDb2dVertex
 10
124.030341280862
 20
52.34024095257327
 30
0.0
  0
VERTEX
  5
4F9
330
4EA
100
AcDbEntity
  8
Visible (ANSI)
100
AcDbVertex
100
AcDb2dVertex
 10
124.0280649693977
 20
52.34367366961171
 30
0.0
  0
VERTEX
  5
4FA
330
4EA
100
AcDbEntity
  8
Visible (ANSI)
100
AcDbVertex
100
AcDb2dVertex
 10
124.0258887401054
 20
52.34720768973268
 30
0.0
  0
VERTEX
  5
4FB
330
4EA
100
AcDbEntity
  8
Visible (ANSI)
100
AcDbVertex
100
AcDb2dVertex
 10
124.0238137876988
 20
52.35083989748577
 30
0.0
  0
VERTEX
  5
4FC
330
4EA
100
AcDbEntity
  8
Visible (ANSI)
100
AcDbVertex
100
AcDb2dVertex
 10
124.0218411990358
 20
52.35456703868196
 30
0.0
  0
VERTEX
  5
4FD
330
4EA
100
AcDbEntity
  8
Visible (ANSI)
100
AcDbVertex
100
AcDb2dVertex
 10
124.0199719365246
 20
52.35838577776303
 30
0.0
  0
VERTEX
  5
4FE
330
4EA
100
AcDbEntity
  8
Visible (ANSI)
100
AcDbVertex
100
AcDb2dVertex
 10
124.0182068381242
 20
52.36229265474674
 30
0.0
  0
VERTEX
  5
4FF
330
4EA
100
AcDbEntity
  8
Visible (ANSI)
100
AcDbVertex
100
AcDb2dVertex
 10
124.0165466671241
 20
52.36628414757767
 30
0.0
  0
VERTEX
  5
500
330
4EA
100
AcDbEntity
  8
Visible (ANSI)
100
AcDbVertex
100
AcDb2dVertex
 10
124.0149920457709
 20
52.37035662405393
 30
0.0
  0
VERTEX
  5
501
330
4EA
100
AcDbEntity
  8
Visible (ANSI)
100
AcDbVertex
100
AcDb2dVertex
 10
124.0135434884555
 20
52.37450635164178
 30
0.0
  0
VERTEX
  5
502
330
4EA
100
AcDbEntity
  8
Visible (ANSI)
100
AcDbVertex
100
AcDb2dVertex
 10
124.0122014017122
 20
52.37872954517863
 30
0.0
  0
VERTEX
  5
503
330
4EA
100
AcDbEntity
  8
Visible (ANSI)
100
AcDbVertex
100
AcDb2dVertex
 10
124.0109660593298
 20
52.38302233346612
 30
0.0
  0
VERTEX
  5
504
330
4EA
100
AcDbEntity
  8
Visible (ANSI)
100
AcDbVertex
100
AcDb2dVertex
 10
124.0098376604272
 20
52.38738075445537
 30
0.0
  0
SEQEND
  5
4ED
330
4EA
100
AcDbEntity
  8
Visible (ANSI)
  0
LINE
  5
505
330
6C
100
AcDbEntity
  8
Visible (ANSI)
100
AcDbLine
 10
124.5123994955998
 20
52.60475492620692
 30
0.0
 11
124.680025226632
 21
52.70128416480806
 31
0.0
  0
LINE
  5
506
330
6C
100
AcDbEntity
  8
Visible (ANSI)
100
AcDbLine
 10
171.9422104319243
 20
24.81003704176478
 30
0.0
 11
171.9422104319243
 21
24.78451934518995
 31
0.0
  0
LINE
  5
507
330
6C
100
AcDbEntity
  8
Visible (ANSI)
100
AcDbLine
 10
171.9422104319243
 20
24.78451934518995
 30
0.0
 11
172.0100552604921
 21
24.82358858357207
 31
0.0
  0
LINE
  5
508
330
6C
100
AcDbEntity
  8
Visible (ANSI)
100
AcDbLine
 10
172.0912648820959
 20
24.87035409440519
 30
0.0
 11
172.4615096520277
 21
25.08356387739909
 31
0.0
  0
LINE
  5
509
330
6C
100
AcDbEntity
  8
Visible (ANSI)
100
AcDbLine
 10
172.4615096520277
 20
25.08423726642255
 30
0.0
 11
172.4615096520277
 21
25.08356387739909
 31
0.0
  0
POLYLINE
  5
50A
330
6C
100
AcDbEntity
  8
Visible (ANSI)
100
AcDb2dPolyline
 66
     1
 10
0.0
 20
0.0
 30
0.0
 70
   128
  0
VERTEX
  5
50B
330
50A
100
AcDbEntity
  8
Visible (ANSI)
100
AcDbVertex
100
AcDb2dVertex
 10
171.9973800588772
 20
57.19616168698999
 30
0.0
  0
VERTEX
  5
50C
330
50A
100
AcDbEntity
  8
Visible (ANSI)
100
AcDbVertex
100
AcDb2dVertex
 10
172.0025554243082
 20
57.18677365145436
 30
0.0
  0
VERTEX
  5
50E
330
50A
100
AcDbEntity
  8
Visible (ANSI)
100
AcDbVertex
100
AcDb2dVertex
 10
172.0094982739374
 20
57.1783569932699
 30
0.0
  0
VERTEX
  5
50F
330
50A
100
AcDbEntity
  8
Visible (ANSI)
100
AcDbVertex
100
AcDb2dVertex
 10
172.0177134159999
 20
57.1711279712866
 30
0.0
  0
VERTEX
  5
510
330
50A
100
AcDbEntity
  8
Visible (ANSI)
100
AcDbVertex
100
AcDb2dVertex
 10
172.0265732067628
 20
57.1652633674015
 30
0.0
  0
SEQEND
  5
50D
330
50A
100
AcDbEntity
  8
Visible (ANSI)
  0
POLYLINE
  5
511
330
6C
100
AcDbEntity
  8
Visible (ANSI)
100
AcDb2dPolyline
 66
     1
 10
0.0
 20
0.0
 30
0.0
 70
   128
  0
VERTEX
  5
512
330
511
100
AcDbEntity
  8
Visible (ANSI)
100
AcDbVertex
100
AcDb2dVertex
 10
171.9422104818316
 20
57.31123631081436
 30
0.0
  0
VERTEX
  5
513
330
511
100
AcDbEntity
  8
Visible (ANSI)
100
AcDbVertex
100
AcDb2dVertex
 10
171.9428750844305
 20
57.30065238416243
 30
0.0
  0
VERTEX
  5
515
330
511
100
AcDbEntity
  8
Visible (ANSI)
100
AcDbVertex
100
AcDb2dVertex
 10
171.9450293821165
 20
57.28997347985151
 30
0.0
  0
VERTEX
  5
516
330
511
100
AcDbEntity
  8
Visible (ANSI)
100
AcDbVertex
100
AcDb2dVertex
 10
171.9488543426612
 20
57.27977046250508
 30
0.0
  0
VERTEX
  5
517
330
511
100
AcDbEntity
  8
Visible (ANSI)
100
AcDbVertex
100
AcDb2dVertex
 10
171.9543825062006
 20
57.27063660160627
 30
0.0
  0
SEQEND
  5
514
330
511
100
AcDbEntity
  8
Visible (ANSI)
  0
LINE
  5
518
330
6C
100
AcDbEntity
  8
Visible (ANSI)
100
AcDbLine
 10
172.6123979996761
 20
57.42599736548904
 30
0.0
 11
172.6123979996761
 21
25.17112808695823
 31
0.0
  0
LINE
  5
519
330
6C
100
AcDbEntity
  8
Visible (ANSI)
100
AcDbLine
 10
124.6800252266321
 20
85.20287011292309
 30
0.0
 11
172.4615096520278
 21
57.68734321611945
 31
0.0
  0
LINE
  5
51A
330
6C
100
AcDbEntity
  8
Visible (ANSI)
100
AcDbLine
 10
124.617525226632
 20
52.8095371606091
 30
0.0
 11
124.617525226632
 21
52.84404886403133
 31
0.0
  0
LINE
  5
51B
330
6C
100
AcDbEntity
  8
Visible (ANSI)
100
AcDbLine
 10
124.6175252266321
 20
83.68257464866589
 30
0.0
 11
124.6175252266321
 21
84.01712073427727
 31
0.0
  0
LINE
  5
51C
330
6C
100
AcDbEntity
  8
Visible (ANSI)
100
AcDbLine
 10
171.5544746536427
 20
25.70808398502745
 30
0.0
 11
171.2643094476425
 21
25.8751790141214
 31
0.0
  0
LINE
  5
51D
330
6C
100
AcDbEntity
  8
Visible (ANSI)
100
AcDbLine
 10
148.1315625268349
 20
39.19644200439663
 30
0.0
 11
147.8413973208347
 21
39.36353703349058
 31
0.0
  0
LINE
  5
51E
330
6C
100
AcDbEntity
  8
Visible (ANSI)
100
AcDbLine
 10
124.708650400027
 20
52.68480002376585
 30
0.0
 11
124.680025226632
 21
52.70128416480806
 31
0.0
  0
SPLINE
  5
51F
330
6C
100
AcDbEntity
  8
Visible (ANSI)
100
AcDbSpline
210
0.0
220
0.0
230
1.0
 70
     8
 71
     3
 72
    11
 73
     7
 74
     0
 42
0.0000000001
 43
0.0000000001
 40
0.0
 40
0.0
 40
0.0
 40
0.0
 40
1.018582815488891
 40
1.018582815488891
 40
1.018582815488891
 40
1.570796326794115
 40
1.570796326794115
 40
1.570796326794115
 40
1.570796326794115
 10
88.82053250018621
 20
99.71150128133482
 30
0.0
 10
88.86827008147212
 20
99.7115012813348
 30
0.0
 10
88.91519263675434
 20
99.73770418691394
 30
0.0
 10
88.94023448391649
 20
99.77834631478316
 30
0.0
 10
88.95381064693507
 20
99.80037999903178
 30
0.0
 10
88.9611325001862
 20
99.82622087477151
 30
0.0
 10
88.96113250018622
 20
99.85210128133468
 30
0.0
  0
LINE
  5
520
330
6C
100
AcDbEntity
  8
Visible (ANSI)
100
AcDbLine
 10
88.83613250018617
 20
99.85210128133473
 30
0.0
 11
88.83613250018624
 21
100.5865012813347
 31
0.0
  0
LINE
  5
521
330
6C
100
AcDbEntity
  8
Visible (ANSI)
100
AcDbLine
 10
88.83613250018617
 20
99.85210128133473
 30
0.0
 11
88.96113250018618
 21
99.85210128133473
 31
0.0
  0
SPLINE
  5
522
330
6C
100
AcDbEntity
  8
Visible (ANSI)
100
AcDbSpline
210
0.0
220
0.0
230
1.0
 70
     8
 71
     3
 72
     8
 73
     4
 74
     0
 42
0.0000000001
 43
0.0000000001
 40
0.0
 40
0.0
 40
0.0
 40
0.0
 40
1.570796326794115
 40
1.570796326794115
 40
1.570796326794115
 40
1.570796326794115
 10
88.82053250018621
 20
99.83650128133483
 30
0.0
 10
88.82870064108555
 20
99.83650128133483
 30
0.0
 10
88.83613250018621
 20
99.84393314043545
 30
0.0
 10
88.83613250018623
 20
99.85210128133479
 30
0.0
  0
LINE
  5
523
330
6C
100
AcDbEntity
  8
Visible (ANSI)
100
AcDbLine
 10
88.82053250018621
 20
99.83650128133483
 30
0.0
 11
88.82053250018621
 21
99.80576278002393
 31
0.0
  0
LINE
  5
524
330
6C
100
AcDbEntity
  8
Visible (ANSI)
100
AcDbLine
 10
88.82053250018621
 20
99.80576278002393
 30
0.0
 11
88.82053250018621
 21
99.71150128133482
 31
0.0
  0
LINE
  5
525
330
6C
100
AcDbEntity
  8
Visible (ANSI)
100
AcDbLine
 10
88.96113250018618
 20
99.85210128133473
 30
0.0
 11
88.96113250018625
 21
100.5865012813347
 31
0.0
  0
LINE
  5
526
330
6C
100
AcDbEntity
  8
Visible (ANSI)
100
AcDbLine
 10
88.83613250018624
 20
100.5865012813347
 30
0.0
 11
88.96113250018625
 21
100.5865012813347
 31
0.0
  0
SPLINE
  5
527
330
6C
100
AcDbEntity
  8
Visible (ANSI)
100
AcDbSpline
210
0.0
220
0.0
230
1.0
 70
     8
 71
     3
 72
    11
 73
     7
 74
     0
 42
0.0000000001
 43
0.0000000001
 40
0.0
 40
0.0
 40
0.0
 40
0.0
 40
1.018582815488494
 40
1.018582815488494
 40
1.018582815488494
 40
1.57079632679492
 40
1.57079632679492
 40
1.57079632679492
 40
1.57079632679492
 10
21.10173250018622
 20
99.71150128133482
 30
0.0
 10
21.11746570056314
 20
99.71150128133482
 30
0.0
 10
21.13319890094006
 20
99.73770418691396
 30
0.0
 10
21.14893210131698
 20
99.77834631478316
 30
0.0
 10
21.1574616834895
 20
99.80037999903181
 30
0.0
 10
21.16599126566202
 20
99.82622087477162
 30
0.0
 10
21.17452084783454
 20
99.85210128133486
 30
0.0
  0
SPLINE
  5
528
330
6C
100
AcDbEntity
  8
Visible (ANSI)
100
AcDbSpline
210
0.0
220
0.0
230
1.0
 70
     8
 71
     3
 72
    11
 73
     7
 74
     0
 42
0.0000000001
 43
0.0000000001
 40
0.0
 40
0.0
 40
0.0
 40
0.0
 40
1.018582815488745
 40
1.018582815488745
 40
1.018582815488745
 40
1.570796326795323
 40
1.570796326795323
 40
1.570796326795323
 40
1.570796326795323
 10
88.74774415253789
 20
99.85210128133488
 30
0.0
 10
88.7634773529148
 20
99.80436370004898
 30
0.0
 10
88.77921055329172
 20
99.75744114476675
 30
0.0
 10
88.79494375366864
 20
99.73239929760456
 30
0.0
 10
88.80347333584117
 20
99.71882313458594
 30
0.0
 10
88.81200291801368
 20
99.7115012813348
 30
0.0
 10
88.8205325001862
 20
99.7115012813348
 30
0.0
  0
LINE
  5
529
330
6C
100
AcDbEntity
  8
Visible (ANSI)
100
AcDbLine
 10
88.74774415253789
 20
100.5865012813349
 30
0.0
 11
88.74774415253789
 21
99.85210128133488
 31
0.0
  0
SPLINE
  5
52A
330
6C
100
AcDbEntity
  8
Visible (ANSI)
100
AcDbSpline
210
0.0
220
0.0
230
1.0
 70
     8
 71
     3
 72
     8
 73
     4
 74
     0
 42
0.0000000001
 43
0.0000000001
 40
0.0
 40
0.0
 40
0.0
 40
0.0
 40
1.570796326795323
 40
1.570796326795323
 40
1.570796326795323
 40
1.570796326795323
 10
88.82053250018618
 20
99.83650128133483
 30
0.0
 10
88.79626971763675
 20
99.83650128133483
 30
0.0
 10
88.77200693508731
 20
99.84393314043549
 30
0.0
 10
88.74774415253787
 20
99.85210128133482
 30
0.0
  0
SPLINE
  5
52B
330
6C
100
AcDbEntity
  8
Visible (ANSI)
100
AcDbSpline
210
0.0
220
0.0
230
1.0
 70
     8
 71
     3
 72
     8
 73
     4
 74
     0
 42
0.0000000001
 43
0.0000000001
 40
0.0
 40
0.0
 40
0.0
 40
0.0
 40
1.57079632679492
 40
1.57079632679492
 40
1.57079632679492
 40
1.57079632679492
 10
21.10173250018622
 20
99.83650128133483
 30
0.0
 10
21.12599528273566
 20
99.83650128133483
 30
0.0
 10
21.1502580652851
 20
99.84393314043549
 30
0.0
 10
21.17452084783454
 20
99.85210128133482
 30
0.0
  0
LINE
  5
52C
330
6C
100
AcDbEntity
  8
Visible (ANSI)
100
AcDbLine
 10
21.10173250018622
 20
99.83650128133483
 30
0.0
 11
21.10173250018622
 21
99.80576278002393
 31
0.0
  0
LINE
  5
52D
330
6C
100
AcDbEntity
  8
Visible (ANSI)
100
AcDbLine
 10
21.10173250018622
 20
99.80576278002393
 30
0.0
 11
21.10173250018622
 21
99.71150128133482
 31
0.0
  0
LINE
  5
52E
330
6C
100
AcDbEntity
  8
Visible (ANSI)
100
AcDbLine
 10
21.17452084783454
 20
99.85210128133486
 30
0.0
 11
21.17452084783454
 21
100.5865012813348
 31
0.0
  0
SPLINE
  5
52F
330
6C
100
AcDbEntity
  8
Visible (ANSI)
100
AcDbSpline
210
0.0
220
0.0
230
1.0
 70
     8
 71
     3
 72
    11
 73
     7
 74
     0
 42
0.0000000001
 43
0.0000000001
 40
0.0
 40
0.0
 40
0.0
 40
0.0
 40
1.018582815488559
 40
1.018582815488559
 40
1.018582815488559
 40
1.570796326794912
 40
1.570796326794912
 40
1.570796326794912
 40
1.570796326794912
 10
20.96113250018622
 20
99.85210128133481
 30
0.0
 10
20.96113250018622
 20
99.80436370004891
 30
0.0
 10
20.98733540576535
 20
99.75744114476672
 30
0.0
 10
21.02797753363452
 20
99.73239929760454
 30
0.0
 10
21.05001121788319
 20
99.71882313458594
 30
0.0
 10
21.07585209362299
 20
99.7115012813348
 30
0.0
 10
21.10173250018622
 20
99.71150128133482
 30
0.0
  0
LINE
  5
530
330
6C
100
AcDbEntity
  8
Visible (ANSI)
100
AcDbLine
 10
21.08613250018622
 20
99.85210128133481
 30
0.0
 11
21.08613250018622
 21
100.5865012813348
 31
0.0
  0
LINE
  5
531
330
6C
100
AcDbEntity
  8
Visible (ANSI)
100
AcDbLine
 10
20.96113250018622
 20
100.5865012813348
 30
0.0
 11
20.96113250018622
 21
99.85210128133481
 31
0.0
  0
LINE
  5
532
330
6C
100
AcDbEntity
  8
Visible (ANSI)
100
AcDbLine
 10
21.08613250018622
 20
99.85210128133481
 30
0.0
 11
20.96113250018622
 21
99.85210128133481
 31
0.0
  0
LINE
  5
533
330
6C
100
AcDbEntity
  8
Visible (ANSI)
100
AcDbLine
 10
21.08613250018622
 20
100.5865012813348
 30
0.0
 11
20.96113250018622
 21
100.5865012813348
 31
0.0
  0
SPLINE
  5
534
330
6C
100
AcDbEntity
  8
Visible (ANSI)
100
AcDbSpline
210
0.0
220
0.0
230
1.0
 70
     8
 71
     3
 72
     8
 73
     4
 74
     0
 42
0.0000000001
 43
0.0000000001
 40
0.0
 40
0.0
 40
0.0
 40
0.0
 40
1.570796326794912
 40
1.570796326794912
 40
1.570796326794912
 40
1.570796326794912
 10
21.10173250018622
 20
99.83650128133483
 30
0.0
 10
21.09356435928688
 20
99.83650128133483
 30
0.0
 10
21.08613250018622
 20
99.84393314043547
 30
0.0
 10
21.08613250018622
 20
99.85210128133481
 30
0.0
  0
LINE
  5
535
330
6C
100
AcDbEntity
  8
Visible (ANSI)
100
AcDbLine
 10
88.82053250018621
 20
99.71150128133482
 30
0.0
 11
21.10173250018622
 21
99.71150128133482
 31
0.0
  0
LINE
  5
536
330
6C
100
AcDbEntity
  8
Hidden (ANSI)
 48
1.1030935049057
100
AcDbLine
 10
21.10173250018622
 20
99.83650128133483
 30
0.0
 11
88.82053250018621
 21
99.83650128133483
 31
0.0
  0
LINE
  5
537
330
6C
100
AcDbEntity
  8
Visible (ANSI)
100
AcDbLine
 10
21.17452084783454
 20
100.5865012813348
 30
0.0
 11
88.74774415253789
 21
100.5865012813349
 31
0.0
  0
LINE
  5
538
330
6C
100
AcDbEntity
  8
Hidden (ANSI)
 48
0.0215442795306444
100
AcDbLine
 10
55.24263250018622
 20
99.8365012813346
 30
0.0
 11
55.24263250018622
 21
99.7115012813346
 31
0.0
  0
LINE
  5
539
330
6C
100
AcDbEntity
  8
Hidden (ANSI)
 48
0.0215442795306444
100
AcDbLine
 10
54.67963250018622
 20
99.8365012813346
 30
0.0
 11
54.67963250018622
 21
99.7115012813346
 31
0.0
  0
LINE
  5
53A
330
6C
100
AcDbEntity
  8
Hidden (ANSI)
 48
0.0215442795306444
100
AcDbLine
 10
88.36763250018618
 20
99.8365012813346
 30
0.0
 11
88.36763250018618
 21
99.7115012813346
 31
0.0
  0
LINE
  5
53B
330
6C
100
AcDbEntity
  8
Hidden (ANSI)
 48
0.0215442795306444
100
AcDbLine
 10
87.80463250018618
 20
99.8365012813346
 30
0.0
 11
87.80463250018618
 21
99.7115012813346
 31
0.0
  0
LINE
  5
53C
330
6C
100
AcDbEntity
  8
Hidden (ANSI)
 48
0.0215442795306444
100
AcDbLine
 10
22.11763250018622
 20
99.8365012813346
 30
0.0
 11
22.11763250018622
 21
99.7115012813346
 31
0.0
  0
LINE
  5
53D
330
6C
100
AcDbEntity
  8
Hidden (ANSI)
 48
0.0215442795306444
100
AcDbLine
 10
21.55463250018621
 20
99.8365012813346
 30
0.0
 11
21.55463250018621
 21
99.7115012813346
 31
0.0
  0
MTEXT
  5
53E
330
6C
100
AcDbEntity
  8
Symbol (ANSI)
100
AcDbMText
 10
50.67323554284413
 20
94.03306774332234
 30
0.0
 40
1.320000016313838
 41
0.0
 46
0.0
 71
     7
 72
     1
  1
TOP VIEW
  7
Text Style153
 73
     1
 44
1.0
  0
LINE
  5
53F
330
6C
100
AcDbEntity
  8
Symbol (ANSI)
370
    30
100
AcDbLine
 10
50.67429154556054
 20
93.76387973219854
 30
0.0
 11
59.00291379660558
 21
93.76387973219854
 31
0.0
  0
LINE
  5
540
330
6C
100
AcDbEntity
  8
Center Mark (ANSI)
  6
CHAIN
 48
0.1672141253948212
100
AcDbLine
 10
21.8361325001728
 20
75.69289855937284
 30
0.0
 11
21.8361325001728
 21
72.37989855937286
 31
0.0
  0
LINE
  5
541
330
6C
100
AcDbEntity
  8
Center Mark (ANSI)
  6
CHAIN
 48
0.1672141253948212
100
AcDbLine
 10
88.08613250017277
 20
75.69289855937284
 30
0.0
 11
88.08613250017277
 21
72.37989855937286
 31
0.0
  0
LINE
  5
542
330
6C
100
AcDbEntity
  8
Centerline (ANSI)
  6
CHAIN
 48
0.9524481296539306
100
AcDbLine
 10
20.17963250017281
 20
74.03639855937285
 30
0.0
 11
89.74263250017276
 21
74.03639855937285
 31
0.0
  0
LINE
  5
543
330
6C
100
AcDbEntity
  8
Center Mark (ANSI)
  6
CHAIN
 48
0.1672141253948212
100
AcDbLine
 10
89.74263250017276
 20
74.03639855937285
 30
0.0
 11
86.42963250017277
 21
74.03639855937285
 31
0.0
  0
LINE
  5
544
330
6C
100
AcDbEntity
  8
Center Mark (ANSI)
  6
CHAIN
 48
0.1672141253948212
100
AcDbLine
 10
89.74263250017276
 20
35.90639855937286
 30
0.0
 11
86.42963250017277
 21
35.90639855937286
 31
0.0
  0
LINE
  5
545
330
6C
100
AcDbEntity
  8
Centerline (ANSI)
  6
CHAIN
 48
0.9524481296539306
100
AcDbLine
 10
88.08613250017277
 20
75.69289855937284
 30
0.0
 11
88.08613250017277
 21
34.24989855937286
 31
0.0
  0
LINE
  5
546
330
6C
100
AcDbEntity
  8
Center Mark (ANSI)
  6
CHAIN
 48
0.1672141253948212
100
AcDbLine
 10
88.08613250017277
 20
34.24989855937286
 30
0.0
 11
88.08613250017277
 21
37.56289855937286
 31
0.0
  0
LINE
  5
547
330
6C
100
AcDbEntity
  8
Center Mark (ANSI)
  6
CHAIN
 48
0.1672141253948212
100
AcDbLine
 10
21.83613250017279
 20
34.24989855937287
 30
0.0
 11
21.83613250017279
 21
37.56289855937287
 31
0.0
  0
LINE
  5
548
330
6C
100
AcDbEntity
  8
Centerline (ANSI)
  6
CHAIN
 48
0.9524481296539306
100
AcDbLine
 10
89.74263250017276
 20
35.90639855937286
 30
0.0
 11
20.17963250017279
 21
35.90639855937287
 31
0.0
  0
LINE
  5
549
330
6C
100
AcDbEntity
  8
Center Mark (ANSI)
  6
CHAIN
 48
0.1672141253948212
100
AcDbLine
 10
20.17963250017279
 20
35.90639855937287
 30
0.0
 11
23.49263250017279
 21
35.90639855937287
 31
0.0
  0
LINE
  5
54A
330
6C
100
AcDbEntity
  8
Center Mark (ANSI)
  6
CHAIN
 48
0.1672141253948212
100
AcDbLine
 10
20.1796325001728
 20
74.03639855937285
 30
0.0
 11
23.4926325001728
 21
74.03639855937285
 31
0.0
  0
LINE
  5
54B
330
6C
100
AcDbEntity
  8
Centerline (ANSI)
  6
CHAIN
 48
0.9524481296539306
100
AcDbLine
 10
21.83613250017279
 20
34.24989855937287
 30
0.0
 11
21.8361325001728
 21
75.69289855937284
 31
0.0
  0
DIMENSION
  5
54C
330
6C
100
AcDbEntity
  8
Dimension (ANSI)
100
AcDbDimension
280
     0
  2
*D4
 10
88.96113250017277
 20
84.9641027978172
 30
0.0
 11
54.96113250017278
 21
84.9641027978172
 31
0.0
 70
   160
  1
<>
 42
67.99999999999997
 73
     0
 74
     0
 75
     0
  3
Default (ANSI)
100
AcDbAlignedDimension
 13
20.9611325001728
 23
74.69801021172454
 33
0.0
 14
88.96113250017277
 24
74.69801021172454
 34
0.0
100
AcDbRotatedDimension
1001
ACAD
1000
DSTYLE
1002
{
1070
   289
1070
     1
1070
    73
1070
     0
1070
    74
1070
     0
1070
   271
1070
     2
1070
   272
1070
     2
1070
    48
1040
0.0
1070
    47
1040
0.0
1002
}
  0
DIMENSION
  5
638
330
6C
100
AcDbEntity
  8
Dimension (ANSI)
100
AcDbDimension
280
     0
  2
*D5
 10
21.8361325001728
 20
77.45499283471291
 30
0.0
 11
16.1528817725165
 21
77.45499283471291
 31
0.0
 70
   160
  1
<>
 42
0.875
 73
     0
 74
     0
 75
     0
  3
Default (ANSI)
100
AcDbAlignedDimension
 13
20.9611325001728
 23
74.69801021172454
 33
0.0
 14
21.8361325001728
 24
75.69289855937284
 34
0.0
100
AcDbRotatedDimension
1001
ACAD
1000
DSTYLE
1002
{
1070
   289
1070
     1
1070
    73
1070
     0
1070
    74
1070
     0
1070
   271
1070
     2
1070
   272
1070
     2
1070
    48
1040
0.0
1070
    47
1040
0.0
1002
}
  0
DIMENSION
  5
722
330
6C
100
AcDbEntity
  8
Dimension (ANSI)
100
AcDbDimension
280
     0
  2
*D6
 10
88.08613250017277
 20
81.14612044507898
 30
0.0
 11
54.96113250017278
 21
81.14612044507898
 31
0.0
 70
   160
  1
<>
 42
66.24999999999997
 73
     0
 74
     0
 75
     0
  3
Default (ANSI)
100
AcDbAlignedDimension
 13
21.8361325001728
 23
75.69289855937284
 33
0.0
 14
88.08613250017277
 24
75.69289855937284
 34
0.0
 50
180.0
100
AcDbRotatedDimension
1001
ACAD
1000
DSTYLE
1002
{
1070
   289
1070
     1
1070
    73
1070
     0
1070
    74
1070
     0
1070
   271
1070
     2
1070
   272
1070
     2
1070
    48
1040
0.0
1070
    47
1040
0.0
1002
}
  0
DIMENSION
  5
80C
330
6C
100
AcDbEntity
  8
Dimension (ANSI)
100
AcDbDimension
280
     0
  2
*D7
 10
19.36364568879963
 20
35.90639855937287
 30
0.0
 11
16.24262462615705
 21
31.87442423466933
 31
0.0
 70
   160
  1
<>
 42
0.875
 73
     0
 74
     0
 75
     0
  3
Default (ANSI)
100
AcDbAlignedDimension
 13
21.17452084782113
 23
35.03139855937287
 33
0.0
 14
20.17963250017279
 24
35.90639855937287
 34
0.0
 50
90.0
100
AcDbRotatedDimension
1001
ACAD
1000
DSTYLE
1002
{
1070
   289
1070
     1
1070
   271
1070
     2
1070
   272
1070
     2
1070
    48
1040
0.0
1070
    47
1040
0.0
1002
}
  0
DIMENSION
  5
90C
330
6C
100
AcDbEntity
  8
Dimension (ANSI)
100
AcDbDimension
280
     0
  2
*D8
 10
16.24262462615706
 20
74.03639855937285
 30
0.0
 11
16.24262462615705
 21
54.97139855937287
 31
0.0
 70
   160
  1
<>
 42
38.12999999999998
 73
     0
 74
     0
 75
     0
  3
Default (ANSI)
100
AcDbAlignedDimension
 13
20.17963250017279
 23
35.90639855937287
 33
0.0
 14
20.17963250017281
 24
74.03639855937285
 34
0.0
 50
90.0
100
AcDbRotatedDimension
1001
ACAD
1000
DSTYLE
1002
{
1070
   289
1070
     1
1070
   271
1070
     2
1070
   272
1070
     2
1070
    48
1040
0.0
1070
    47
1040
0.0
1002
}
  0
DIMENSION
  5
9F6
330
6C
100
AcDbEntity
  8
Dimension (ANSI)
100
AcDbDimension
280
     0
  2
*D9
 10
10.15089880057705
 20
74.91139855937284
 30
0.0
 11
10.15089880057704
 21
54.97139855937287
 31
0.0
 70
   160
  1
<>
 42
39.87999999999997
 73
     0
 74
     0
 75
     0
  3
Default (ANSI)
100
AcDbAlignedDimension
 13
21.17452084782113
 23
35.03139855937287
 33
0.0
 14
21.17452084782113
 24
74.91139855937284
 34
0.0
 50
90.0
100
AcDbRotatedDimension
1001
ACAD
1000
DSTYLE
1002
{
1070
   289
1070
     1
1070
   271
1070
     2
1070
   272
1070
     2
1070
    48
1040
0.0
1070
    47
1040
0.0
1002
}
  0
DIMENSION
  5
AE0
330
6C
100
AcDbEntity
  8
Dimension (ANSI)
100
AcDbDimension
280
     0
  2
*D10
 10
87.91412262335976
 20
36.12923224685923
 30
0.0
 11
95.03338919186791
 21
32.91907818922464
 31
0.0
 70
   163
  1
<>{\P(6 PL.)}
 71
     4
 42
0.5629999999999999
 73
     0
 74
     0
 75
     0
  3
Default (ANSI)
100
AcDbDiametricDimension
 15
88.25814237698581
 25
35.6835648718865
 35
0.0
 40
0.0
1001
ACAD
1000
DSTYLE
1002
{
1070
   144
1040
0.9999999999999705
1070
   271
1070
     3
1070
   272
1070
     3
1070
    48
1040
0.0
1070
    47
1040
0.0
1002
}
1001
ACAD_DSTYLE_DIMRADIAL_EXTENSION
1070
   387
1070
     1
1070
   388
1040
0.0
1070
   390
1040
0.0
  0
DIMENSION
  5
B9A
330
6C
100
AcDbEntity
  8
Dimension (ANSI)
100
AcDbDimension
280
     0
  2
*D11
 10
77.46999913082193
 20
99.71150128133482
 30
0.0
 11
80.64288050412233
 21
105.2284756243915
 31
0.0
 70
   160
  1
<>{\PTYP.}
 71
     5
 42
0.875000000000071
 73
     0
 74
     0
 75
     0
  3
Default (ANSI)
100
AcDbAlignedDimension
 13
80.64288050412233
 23
100.5865012813349
 33
0.0
 14
80.60688054811825
 24
99.71150128133482
 34
0.0
 50
270.0
100
AcDbRotatedDimension
1001
ACAD
1000
DSTYLE
1002
{
1070
   289
1070
     1
1070
   271
1070
     2
1070
    76
1070
     1
1070
    75
1070
     1
1070
   272
1070
     2
1070
    48
1040
0.0
1070
    47
1040
0.0
1002
}
  0
DIMENSION
  5
CA3
330
6C
100
AcDbEntity
  8
Dimension (ANSI)
100
AcDbDimension
280
     0
  2
*D12
 10
108.1703034866708
 20
72.83731445828127
 30
0.0
 11
113.910308506283
 21
72.83731445828127
 31
0.0
 70
   160
  1
<>{\PTYP.}
 71
     4
 42
0.8749999999999715
 73
     0
 74
     0
 75
     0
  3
Default (ANSI)
100
AcDbAlignedDimension
 13
109.0453034866708
 23
72.83731445828127
 33
0.0
 14
108.1703034866708
 24
72.87691860557997
 34
0.0
 50
180.0
100
AcDbRotatedDimension
1001
ACAD
1000
DSTYLE
1002
{
1070
   289
1070
     1
1070
    73
1070
     0
1070
    74
1070
     0
1070
   271
1070
     2
1070
    76
1070
     1
1070
    75
1070
     1
1070
   272
1070
     2
1070
    48
1040
0.0
1070
    47
1040
0.0
1002
}
  0
LINE
  5
D92
330
6C
100
AcDbEntity
  8
Center Mark (ANSI)
  6
CHAIN
 48
0.1672141253948212
100
AcDbLine
 10
56.6176325001728
 20
74.03639855937285
 30
0.0
 11
53.3046325001728
 21
74.03639855937285
 31
0.0
  0
LINE
  5
D93
330
6C
100
AcDbEntity
  8
Center Mark (ANSI)
  6
CHAIN
 48
0.1672141253948212
100
AcDbLine
 10
56.61763250017283
 20
35.90639855937286
 30
0.0
 11
53.30463250017283
 21
35.90639855937286
 31
0.0
  0
LINE
  5
D94
330
6C
100
AcDbEntity
  8
Centerline (ANSI)
  6
CHAIN
 48
0.9524481296539306
100
AcDbLine
 10
54.9611325001728
 20
75.69289855937284
 30
0.0
 11
54.96113250017284
 21
34.24989855937286
 31
0.0
  0
DIMENSION
  5
D95
330
6C
100
AcDbEntity
  8
Dimension (ANSI)
100
AcDbDimension
280
     0
  2
*D13
 10
54.9611325001728
 20
77.45499283471291
 30
0.0
 11
38.3986325001728
 21
77.45499283471291
 31
0.0
 70
   160
  1
<>
 42
33.125
 73
     0
 74
     0
 75
     0
  3
Default (ANSI)
100
AcDbAlignedDimension
 13
21.8361325001728
 23
75.69289855937284
 33
0.0
 14
54.9611325001728
 24
75.69289855937284
 34
0.0
 50
180.0
100
AcDbRotatedDimension
1001
ACAD
1000
DSTYLE
1002
{
1070
   289
1070
     1
1070
    73
1070
     0
1070
    74
1070
     0
1070
   271
1070
     2
1070
   272
1070
     2
1070
    48
1040
0.0
1070
    47
1040
0.0
1002
}
  0
MTEXT
  5
E7F
102
{ACAD_XDICTIONARY
360
E86
102
}
330
6C
100
AcDbEntity
  8
Symbol (ANSI)
100
AcDbMText
 10
101.2529170657151
 20
12.61888068419971
 30
0.0
 40
1.100000035105727
 41
81.21725818303627
 46
0.0
 71
     4
 72
     1
  3
{\fRomanS|b0|i0|c0|p2;\H2x;PART#: WA90P72F2G\P(DATA SUBJECT TO CHANGE WITHOUT NOTICE)\H1.6157x; \H0.61894x;\P \H1.352x; \H0.73963x;\P\H0.6x;THIS DRAWING IS PROPERTY OF HUBBELL INC. WIEGMANN\H1.5633x; \H0.63966x;\PALL INFORMATION IS PROPRIETARY AND NO
  1
T TO BE DUPLICATED\H1.234x; \H0.81039x;\P\H1.2571x; }
  7
Note Text (ANSI)
 73
     1
 44
0.8026435375213623
  0
ENDSEC
  0
SECTION
  2
OBJECTS
  0
DICTIONARY
  5
C
330
0
100
AcDbDictionary
281
     1
  3
ACAD_CIP_PREVIOUS_PRODUCT_INFO
350
E81
  3
ACAD_COLOR
350
63
  3
ACAD_GROUP
350
D
  3
ACAD_LAYOUT
350
62
  3
ACAD_MATERIAL
350
10
  3
ACAD_MLEADERSTYLE
350
66
  3
ACAD_MLINESTYLE
350
5F
  3
ACAD_PLOTSETTINGS
350
61
  3
ACAD_PLOTSTYLENAME
350
E
  3
ACAD_SCALELIST
350
42
  3
ACAD_TABLESTYLE
350
64
  3
ACAD_VISUALSTYLE
350
29
  3
ACDB_RECOMPOSE_DATA
350
E88
  3
AcDbVariableDictionary
350
76
  0
DICTIONARY
  5
E86
330
E7F
100
AcDbDictionary
280
     1
281
     1
  3
ACAD_MTEXT_2008_RT
360
E87
  0
XRECORD
  5
E81
102
{ACAD_REACTORS
330
C
102
}
330
C
100
AcDbXrecord
280
     1
300
INVNTOR
300
2012
300
PDSP_F_S
  0
DICTIONARY
  5
63
102
{ACAD_REACTORS
330
C
102
}
330
C
100
AcDbDictionary
281
     1
  0
DICTIONARY
  5
D
102
{ACAD_REACTORS
330
C
102
}
330
C
100
AcDbDictionary
281
     1
  0
DICTIONARY
  5
62
102
{ACAD_REACTORS
330
C
102
}
330
C
100
AcDbDictionary
281
     1
  3
Layout1
350
6B
  3
Layout2
350
73
  3
Model
350
6F
  0
DICTIONARY
  5
10
102
{ACAD_REACTORS
330
C
102
}
330
C
100
AcDbDictionary
281
     1
  3
ByBlock
350
19
  3
ByLayer
350
11
  3
Global
350
21
  0
DICTIONARY
  5
66
102
{ACAD_REACTORS
330
C
102
}
330
C
100
AcDbDictionary
281
     1
  3
Standard
350
67
  0
DICTIONARY
  5
5F
102
{ACAD_REACTORS
330
C
102
}
330
C
100
AcDbDictionary
281
     1
  3
Standard
350
60
  0
DICTIONARY
  5
61
102
{ACAD_REACTORS
330
C
102
}
330
C
100
AcDbDictionary
281
     1
  0
ACDBDICTIONARYWDFLT
  5
E
102
{ACAD_REACTORS
330
C
102
}
330
C
100
AcDbDictionary
281
     1
  3
Normal
350
F
100
AcDbDictionaryWithDefault
340
F
  0
DICTIONARY
  5
42
102
{ACAD_REACTORS
330
C
102
}
330
C
100
AcDbDictionary
281
     1
  3
A0
350
43
  3
A1
350
44
  3
A2
350
45
  3
A3
350
46
  3
A4
350
47
  3
A5
350
48
  3
A6
350
49
  3
A7
350
4A
  3
A8
350
4B
  3
A9
350
4C
  3
B0
350
4D
  3
B1
350
4E
  3
B2
350
4F
  3
B3
350
50
  3
B4
350
51
  3
B5
350
52
  3
B6
350
53
  0
DICTIONARY
  5
64
102
{ACAD_REACTORS
330
C
102
}
330
C
100
AcDbDictionary
281
     1
  3
Standard
350
65
  0
DICTIONARY
  5
29
102
{ACAD_REACTORS
330
C
102
}
330
C
100
AcDbDictionary
281
     1
  3
2dWireframe
350
2F
  3
Basic
350
2E
  3
Brighten
350
35
  3
ColorChange
350
39
  3
Conceptual
350
32
  3
Dim
350
34
  3
EdgeColorOff
350
41
  3
Facepattern
350
38
  3
Flat
350
2A
  3
FlatWithEdges
350
2B
  3
Gouraud
350
2C
  3
GouraudWithEdges
350
2D
  3
Hidden
350
31
  3
JitterOff
350
3F
  3
Linepattern
350
37
  3
OverhangOff
350
40
  3
Realistic
350
33
  3
Shaded
350
3E
  3
Shaded with edges
350
3D
  3
Shades of Gray
350
3A
  3
Sketchy
350
3B
  3
Thicken
350
36
  3
Wireframe
350
30
  3
X-Ray
350
3C
  0
XRECORD
  5
E88
102
{ACAD_REACTORS
330
C
102
}
330
C
100
AcDbXrecord
280
     1
 90
        1
330
65
330
E7F
  0
DICTIONARY
  5
76
102
{ACAD_REACTORS
330
C
102
}
330
C
100
AcDbDictionary
281
     1
  3
CANNOSCALE
350
79
  3
CMLEADERSTYLE
350
78
  3
CTABLESTYLE
350
77
  0
XRECORD
  5
E87
102
{ACAD_REACTORS
330
E86
102
}
330
E86
100
AcDbXrecord
280
     1
 40
3109231.0
  1
\pxsm0.94;{\fRomanS|b0|i0;\H2.2000;PART#: WA90P72F2G\P(DATA SUBJECT TO CHANGE WITHOUT NOTICE)\P \P\fRomanS|b0|i0;\H1.3200;THIS DRAWING IS PROPERTY OF HUBBELL INC. WIEGMANN\PALL INFORMATION IS PROPRIETARY AND NOT TO BE DUPLICATED\P}
  0
LAYOUT
  5
6B
102
{ACAD_REACTORS
330
62
102
}
330
62
100
AcDbPlotSettings
  1

  2

  4

  6

 40
0.0
 41
0.0
 42
0.0
 43
0.0
 44
0.0
 45
0.0
 46
0.0
 47
0.0
 48
0.0
 49
0.0
140
0.0
141
0.0
142
1.0
143
1.0
 70
   688
 72
     0
 73
     0
 74
     5
  7

 75
    16
147
1.0
 76
     0
 77
     2
 78
   300
148
0.0
149
0.0
100
AcDbLayout
  1
Layout1
 70
     1
 71
     1
 10
0.0
 20
0.0
 11
12.0
 21
9.0
 12
0.0
 22
0.0
 32
0.0
 14
0.0
 24
0.0
 34
0.0
 15
0.0
 25
0.0
 35
0.0
146
0.0
 13
0.0
 23
0.0
 33
0.0
 16
1.0
 26
0.0
 36
0.0
 17
0.0
 27
1.0
 37
0.0
 76
     0
330
68
  0
LAYOUT
  5
73
102
{ACAD_REACTORS
330
62
102
}
330
62
100
AcDbPlotSettings
  1

  2

  4

  6

 40
0.0
 41
0.0
 42
0.0
 43
0.0
 44
0.0
 45
0.0
 46
0.0
 47
0.0
 48
0.0
 49
0.0
140
0.0
141
0.0
142
1.0
143
1.0
 70
   688
 72
     0
 73
     0
 74
     5
  7

 75
    16
147
1.0
 76
     0
 77
     2
 78
   300
148
0.0
149
0.0
100
AcDbLayout
  1
Layout2
 70
     1
 71
     2
 10
0.0
 20
0.0
 11
12.0
 21
9.0
 12
0.0
 22
0.0
 32
0.0
 14
0.0
 24
0.0
 34
0.0
 15
0.0
 25
0.0
 35
0.0
146
0.0
 13
0.0
 23
0.0
 33
0.0
 16
1.0
 26
0.0
 36
0.0
 17
0.0
 27
1.0
 37
0.0
 76
     0
330
70
  0
LAYOUT
  5
6F
102
{ACAD_REACTORS
330
62
102
}
330
62
100
AcDbPlotSettings
  1

  2

  4

  6

 40
0.0
 41
0.0
 42
0.0
 43
0.0
 44
0.0
 45
0.0
 46
0.0
 47
0.0
 48
0.0
 49
0.0
140
0.0
141
0.0
142
1.0
143
1.0
 70
  1712
 72
     0
 73
     0
 74
     0
  7

 75
     0
147
1.0
 76
     0
 77
     2
 78
   300
148
0.0
149
0.0
100
AcDbLayout
  1
Model
 70
     1
 71
     0
 10
0.0
 20
0.0
 11
12.0
 21
9.0
 12
0.0
 22
0.0
 32
0.0
 14
0.0
 24
0.0
 34
0.0
 15
0.0
 25
0.0
 35
0.0
146
0.0
 13
0.0
 23
0.0
 33
0.0
 16
1.0
 26
0.0
 36
0.0
 17
0.0
 27
1.0
 37
0.0
 76
     0
330
6C
  0
MATERIAL
  5
19
102
{ACAD_XDICTIONARY
360
1A
102
}
102
{ACAD_REACTORS
330
10
102
}
330
10
100
AcDbMaterial
  1
ByBlock
 72
     0
 43
0.0208333333333333
 43
0.0
 43
0.0
 43
0.0
 43
0.0
 43
0.0208333333333333
 43
0.0
 43
0.0
 43
0.0
 43
0.0
 43
1.0
 43
0.0
 43
0.0
 43
0.0
 43
0.0
 43
1.0
 77
     0
 47
0.0208333333333333
 47
0.0
 47
0.0
 47
0.0
 47
0.0
 47
0.0208333333333333
 47
0.0
 47
0.0
 47
0.0
 47
0.0
 47
1.0
 47
0.0
 47
0.0
 47
0.0
 47
0.0
 47
1.0
171
     0
 49
0.0208333333333333
 49
0.0
 49
0.0
 49
0.0
 49
0.0
 49
0.0208333333333333
 49
0.0
 49
0.0
 49
0.0
 49
0.0
 49
1.0
 49
0.0
 49
0.0
 49
0.0
 49
0.0
 49
1.0
175
     0
142
0.0208333333333333
142
0.0
142
0.0
142
0.0
142
0.0
142
0.0208333333333333
142
0.0
142
0.0
142
0.0
142
0.0
142
1.0
142
0.0
142
0.0
142
0.0
142
0.0
142
1.0
179
     0
144
0.0208333333333333
144
0.0
144
0.0
144
0.0
144
0.0
144
0.0208333333333333
144
0.0
144
0.0
144
0.0
144
0.0
144
1.0
144
0.0
144
0.0
144
0.0
144
0.0
144
1.0
147
0.0208333333333333
147
0.0
147
0.0
147
0.0
147
0.0
147
0.0208333333333333
147
0.0
147
0.0
147
0.0
147
0.0
147
1.0
147
0.0
147
0.0
147
0.0
147
0.0
147
1.0
  0
MATERIAL
  5
11
102
{ACAD_XDICTIONARY
360
12
102
}
102
{ACAD_REACTORS
330
10
102
}
330
10
100
AcDbMaterial
  1
ByLayer
 72
     0
 43
0.0208333333333333
 43
0.0
 43
0.0
 43
0.0
 43
0.0
 43
0.0208333333333333
 43
0.0
 43
0.0
 43
0.0
 43
0.0
 43
1.0
 43
0.0
 43
0.0
 43
0.0
 43
0.0
 43
1.0
 77
     0
 47
0.0208333333333333
 47
0.0
 47
0.0
 47
0.0
 47
0.0
 47
0.0208333333333333
 47
0.0
 47
0.0
 47
0.0
 47
0.0
 47
1.0
 47
0.0
 47
0.0
 47
0.0
 47
0.0
 47
1.0
171
     0
 49
0.0208333333333333
 49
0.0
 49
0.0
 49
0.0
 49
0.0
 49
0.0208333333333333
 49
0.0
 49
0.0
 49
0.0
 49
0.0
 49
1.0
 49
0.0
 49
0.0
 49
0.0
 49
0.0
 49
1.0
175
     0
142
0.0208333333333333
142
0.0
142
0.0
142
0.0
142
0.0
142
0.0208333333333333
142
0.0
142
0.0
142
0.0
142
0.0
142
1.0
142
0.0
142
0.0
142
0.0
142
0.0
142
1.0
179
     0
144
0.0208333333333333
144
0.0
144
0.0
144
0.0
144
0.0
144
0.0208333333333333
144
0.0
144
0.0
144
0.0
144
0.0
144
1.0
144
0.0
144
0.0
144
0.0
144
0.0
144
1.0
147
0.0208333333333333
147
0.0
147
0.0
147
0.0
147
0.0
147
0.0208333333333333
147
0.0
147
0.0
147
0.0
147
0.0
147
1.0
147
0.0
147
0.0
147
0.0
147
0.0
147
1.0
  0
MATERIAL
  5
21
102
{ACAD_XDICTIONARY
360
22
102
}
102
{ACAD_REACTORS
330
10
102
}
330
10
100
AcDbMaterial
  1
Global
 72
     0
 43
0.0208333333333333
 43
0.0
 43
0.0
 43
0.0
 43
0.0
 43
0.0208333333333333
 43
0.0
 43
0.0
 43
0.0
 43
0.0
 43
1.0
 43
0.0
 43
0.0
 43
0.0
 43
0.0
 43
1.0
 77
     0
 47
0.0208333333333333
 47
0.0
 47
0.0
 47
0.0
 47
0.0
 47
0.0208333333333333
 47
0.0
 47
0.0
 47
0.0
 47
0.0
 47
1.0
 47
0.0
 47
0.0
 47
0.0
 47
0.0
 47
1.0
171
     0
 49
0.0208333333333333
 49
0.0
 49
0.0
 49
0.0
 49
0.0
 49
0.0208333333333333
 49
0.0
 49
0.0
 49
0.0
 49
0.0
 49
1.0
 49
0.0
 49
0.0
 49
0.0
 49
0.0
 49
1.0
175
     0
142
0.0208333333333333
142
0.0
142
0.0
142
0.0
142
0.0
142
0.0208333333333333
142
0.0
142
0.0
142
0.0
142
0.0
142
1.0
142
0.0
142
0.0
142
0.0
142
0.0
142
1.0
179
     0
144
0.0208333333333333
144
0.0
144
0.0
144
0.0
144
0.0
144
0.0208333333333333
144
0.0
144
0.0
144
0.0
144
0.0
144
1.0
144
0.0
144
0.0
144
0.0
144
0.0
144
1.0
147
0.0208333333333333
147
0.0
147
0.0
147
0.0
147
0.0
147
0.0208333333333333
147
0.0
147
0.0
147
0.0
147
0.0
147
1.0
147
0.0
147
0.0
147
0.0
147
0.0
147
1.0
  0
MLEADERSTYLE
  5
67
102
{ACAD_XDICTIONARY
360
E84
102
}
102
{ACAD_REACTORS
330
66
102
}
330
66
100
AcDbMLeaderStyle
179
     2
170
     2
171
     1
172
     0
 90
        2
 40
0.0
 41
0.0
173
     1
 91
-1056964608
340
5B
 92
       -2
290
     1
 42
0.09
291
     1
 43
0.36
  3
Standard
 44
0.18
300

342
55
174
     1
178
     6
175
     1
176
     0
 93
-1056964608
 45
0.18
292
     0
297
     0
 46
0.18
 94
-1056964608
 47
1.0
 49
1.0
140
1.0
293
     1
141
0.0
294
     1
177
     0
142
1.0
295
     0
296
     0
143
0.125
271
     0
272
     9
273
     9
  0
MLINESTYLE
  5
60
102
{ACAD_REACTORS
330
5F
102
}
330
5F
100
AcDbMlineStyle
  2
STANDARD
 70
     0
  3

 62
   256
 51
90.0
 52
90.0
 71
     2
 49
0.5
 62
   256
  6
BYLAYER
 49
-0.5
 62
   256
  6
BYLAYER
  0
ACDBPLACEHOLDER
  5
F
102
{ACAD_REACTORS
330
E
102
}
330
E
  0
SCALE
  5
43
102
{ACAD_REACTORS
330
42
102
}
330
42
100
AcDbScale
 70
     0
300
1:1
140
1.0
141
1.0
290
     1
  0
SCALE
  5
44
102
{ACAD_REACTORS
330
42
102
}
330
42
100
AcDbScale
 70
     0
300
1/128" = 1'-0"
140
0.0078125
141
12.0
290
     0
  0
SCALE
  5
45
102
{ACAD_REACTORS
330
42
102
}
330
42
100
AcDbScale
 70
     0
300
1/64" = 1'-0"
140
0.015625
141
12.0
290
     0
  0
SCALE
  5
46
102
{ACAD_REACTORS
330
42
102
}
330
42
100
AcDbScale
 70
     0
300
1/32" = 1'-0"
140
0.03125
141
12.0
290
     0
  0
SCALE
  5
47
102
{ACAD_REACTORS
330
42
102
}
330
42
100
AcDbScale
 70
     0
300
1/16" = 1'-0"
140
0.0625
141
12.0
290
     0
  0
SCALE
  5
48
102
{ACAD_REACTORS
330
42
102
}
330
42
100
AcDbScale
 70
     0
300
3/32" = 1'-0"
140
0.09375
141
12.0
290
     0
  0
SCALE
  5
49
102
{ACAD_REACTORS
330
42
102
}
330
42
100
AcDbScale
 70
     0
300
1/8" = 1'-0"
140
0.125
141
12.0
290
     0
  0
SCALE
  5
4A
102
{ACAD_REACTORS
330
42
102
}
330
42
100
AcDbScale
 70
     0
300
3/16" = 1'-0"
140
0.1875
141
12.0
290
     0
  0
SCALE
  5
4B
102
{ACAD_REACTORS
330
42
102
}
330
42
100
AcDbScale
 70
     0
300
1/4" = 1'-0"
140
0.25
141
12.0
290
     0
  0
SCALE
  5
4C
102
{ACAD_REACTORS
330
42
102
}
330
42
100
AcDbScale
 70
     0
300
3/8" = 1'-0"
140
0.375
141
12.0
290
     0
  0
SCALE
  5
4D
102
{ACAD_REACTORS
330
42
102
}
330
42
100
AcDbScale
 70
     0
300
1/2" = 1'-0"
140
0.5
141
12.0
290
     0
  0
SCALE
  5
4E
102
{ACAD_REACTORS
330
42
102
}
330
42
100
AcDbScale
 70
     0
300
3/4" = 1'-0"
140
0.75
141
12.0
290
     0
  0
SCALE
  5
4F
102
{ACAD_REACTORS
330
42
102
}
330
42
100
AcDbScale
 70
     0
300
1" = 1'-0"
140
1.0
141
12.0
290
     0
  0
SCALE
  5
50
102
{ACAD_REACTORS
330
42
102
}
330
42
100
AcDbScale
 70
     0
300
1-1/2" = 1'-0"
140
1.5
141
12.0
290
     0
  0
SCALE
  5
51
102
{ACAD_REACTORS
330
42
102
}
330
42
100
AcDbScale
 70
     0
300
3" = 1'-0"
140
3.0
141
12.0
290
     0
  0
SCALE
  5
52
102
{ACAD_REACTORS
330
42
102
}
330
42
100
AcDbScale
 70
     0
300
6" = 1'-0"
140
6.0
141
12.0
290
     0
  0
SCALE
  5
53
102
{ACAD_REACTORS
330
42
102
}
330
42
100
AcDbScale
 70
     0
300
1'-0" = 1'-0"
140
12.0
141
12.0
290
     0
  0
TABLESTYLE
  5
65
102
{ACAD_XDICTIONARY
360
E82
102
}
102
{ACAD_REACTORS
330
64
102
}
330
64
100
AcDbTableStyle
280
     0
  3
Standard
 70
     0
 71
     0
 40
0.06
 41
0.06
280
     0
281
     0
  7
Standard
140
0.18
170
     2
 62
     0
 63
     7
283
     0
 90
      512
 91
        0
  1

274
    -2
284
     1
 64
     0
275
    -2
285
     1
 65
     0
276
    -2
286
     1
 66
     0
277
    -2
287
     1
 67
     0
278
    -2
288
     1
 68
     0
279
    -2
289
     1
 69
     0
  7
Standard
140
0.25
170
     5
 62
     0
 63
     7
283
     0
 90
      512
 91
        0
  1

274
    -2
284
     1
 64
     0
275
    -2
285
     1
 65
     0
276
    -2
286
     1
 66
     0
277
    -2
287
     1
 67
     0
278
    -2
288
     1
 68
     0
279
    -2
289
     1
 69
     0
  7
Standard
140
0.18
170
     5
 62
     0
 63
     7
283
     0
 90
      512
 91
        0
  1

274
    -2
284
     1
 64
     0
275
    -2
285
     1
 65
     0
276
    -2
286
     1
 66
     0
277
    -2
287
     1
 67
     0
278
    -2
288
     1
 68
     0
279
    -2
289
     1
 69
     0
  0
VISUALSTYLE
  5
2F
102
{ACAD_REACTORS
330
29
102
}
330
29
100
AcDbVisualStyle
  2
2dWireframe
 70
     4
177
     2
291
     0
 71
     0
176
     1
 72
     2
176
     1
 73
     0
176
     1
 90
        0
176
     1
 40
0.6
176
     1
 41
30.0
176
     1
 63
     7
421
 16777215
176
     1
 74
     1
176
     1
 91
        4
176
     1
 64
     7
176
     1
 65
   257
176
     1
 75
     1
176
     1
175
     1
176
     1
 42
1.0
176
     1
 92
        0
176
     1
 66
   257
176
     1
 43
1.0
176
     1
 76
     1
176
     1
 77
     6
176
     1
 78
     2
176
     1
 67
     7
176
     1
 79
     5
176
     1
170
     0
176
     1
171
     0
176
     1
290
     0
176
     1
 93
        1
176
     1
 44
0.0
176
     1
173
     0
176
     1
  0
VISUALSTYLE
  5
2E
102
{ACAD_REACTORS
330
29
102
}
330
29
100
AcDbVisualStyle
  2
Basic
 70
     7
177
     2
291
     1
 71
     1
176
     1
 72
     0
176
     1
 73
     1
176
     1
 90
        0
176
     1
 40
0.6
176
     1
 41
30.0
176
     1
 63
     7
421
 16777215
176
     1
 74
     0
176
     1
 91
        4
176
     1
 64
     7
176
     1
 65
   257
176
     1
 75
     1
176
     1
175
     1
176
     1
 42
1.0
176
     1
 92
        8
176
     1
 66
     7
176
     1
 43
1.0
176
     1
 76
     1
176
     1
 77
     6
176
     1
 78
     2
176
     1
 67
     7
176
     1
 79
     5
176
     1
170
     0
176
     1
171
     0
176
     1
290
     0
176
     1
 93
        1
176
     1
 44
0.0
176
     1
173
     0
176
     1
  0
VISUALSTYLE
  5
35
102
{ACAD_REACTORS
330
29
102
}
330
29
100
AcDbVisualStyle
  2
Brighten
 70
    12
177
     2
291
     1
 71
     2
176
     1
 72
     2
176
     1
 73
     0
176
     1
 90
        0
176
     1
 40
0.6
176
     1
 41
30.0
176
     1
 63
     7
421
 16777215
176
     1
 74
     1
176
     1
 91
        4
176
     1
 64
     7
176
     1
 65
   257
176
     1
 75
     1
176
     1
175
     1
176
     1
 42
1.0
176
     1
 92
        8
176
     1
 66
     7
176
     1
 43
1.0
176
     1
 76
     1
176
     1
 77
     6
176
     1
 78
     2
176
     1
 67
     7
176
     1
 79
     5
176
     1
170
     0
176
     1
171
     0
176
     1
290
     0
176
     1
 93
        1
176
     1
 44
50.0
176
     1
173
     0
176
     1
  0
VISUALSTYLE
  5
39
102
{ACAD_REACTORS
330
29
102
}
330
29
100
AcDbVisualStyle
  2
ColorChange
 70
    16
177
     2
291
     1
 71
     2
176
     1
 72
     2
176
     1
 73
     3
176
     1
 90
        0
176
     1
 40
0.6
176
     1
 41
30.0
176
     1
 63
     8
421
  8421504
176
     1
 74
     1
176
     1
 91
        4
176
     1
 64
     7
176
     1
 65
   257
176
     1
 75
     1
176
     1
175
     1
176
     1
 42
1.0
176
     1
 92
        8
176
     1
 66
     8
424
  8421504
176
     1
 43
1.0
176
     1
 76
     1
176
     1
 77
     6
176
     1
 78
     2
176
     1
 67
     7
176
     1
 79
     5
176
     1
170
     0
176
     1
171
     0
176
     1
290
     0
176
     1
 93
        1
176
     1
 44
0.0
176
     1
173
     0
176
     1
  0
VISUALSTYLE
  5
32
102
{ACAD_REACTORS
330
29
102
}
330
29
100
AcDbVisualStyle
  2
Conceptual
 70
     9
177
     2
291
     0
 71
     3
176
     1
 72
     2
176
     1
 73
     0
176
     1
 90
        0
176
     1
 40
0.6
176
     1
 41
30.0
176
     1
 63
     7
421
 16777215
176
     1
 74
     2
176
     1
 91
        2
176
     1
 64
     7
176
     1
 65
   257
176
     1
 75
     1
176
     1
175
     1
176
     1
 42
179.0
176
     1
 92
        8
176
     1
 66
     7
176
     1
 43
1.0
176
     1
 76
     1
176
     1
 77
     6
176
     1
 78
     2
176
     1
 67
     7
176
     1
 79
     3
176
     1
170
     0
176
     1
171
     0
176
     1
290
     0
176
     1
 93
        1
176
     1
 44
0.0
176
     1
173
     0
176
     1
  0
VISUALSTYLE
  5
34
102
{ACAD_REACTORS
330
29
102
}
330
29
100
AcDbVisualStyle
  2
Dim
 70
    11
177
     2
291
     1
 71
     2
176
     1
 72
     2
176
     1
 73
     0
176
     1
 90
        0
176
     1
 40
0.6
176
     1
 41
30.0
176
     1
 63
     7
421
 16777215
176
     1
 74
     1
176
     1
 91
        4
176
     1
 64
     7
176
     1
 65
   257
176
     1
 75
     1
176
     1
175
     1
176
     1
 42
1.0
176
     1
 92
        8
176
     1
 66
     7
176
     1
 43
1.0
176
     1
 76
     1
176
     1
 77
     6
176
     1
 78
     2
176
     1
 67
     7
176
     1
 79
     5
176
     1
170
     0
176
     1
171
     0
176
     1
290
     0
176
     1
 93
        1
176
     1
 44
-50.0
176
     1
173
     0
176
     1
  0
VISUALSTYLE
  5
41
102
{ACAD_REACTORS
330
29
102
}
330
29
100
AcDbVisualStyle
  2
EdgeColorOff
 70
    22
177
     2
291
     1
 71
     2
176
     0
 72
     2
176
     0
 73
     0
176
     0
 90
        0
176
     0
 40
0.6
176
     0
 41
30.0
176
     0
 63
     7
421
 16777215
176
     0
 74
     1
176
     0
 91
        4
176
     0
 64
     7
176
     0
 65
   257
176
     0
 75
     1
176
     0
175
     1
176
     0
 42
1.0
176
     0
 92
        8
176
     2
 66
     7
176
     0
 43
1.0
176
     0
 76
     1
176
     0
 77
     6
176
     0
 78
     2
176
     0
 67
     7
176
     0
 79
     5
176
     0
170
     0
176
     0
171
     0
176
     0
290
     0
176
     0
 93
        1
176
     0
 44
0.0
176
     0
173
     0
176
     0
  0
VISUALSTYLE
  5
38
102
{ACAD_REACTORS
330
29
102
}
330
29
100
AcDbVisualStyle
  2
Facepattern
 70
    15
177
     2
291
     1
 71
     2
176
     1
 72
     2
176
     1
 73
     0
176
     1
 90
        0
176
     1
 40
0.6
176
     1
 41
30.0
176
     1
 63
     7
421
 16777215
176
     1
 74
     1
176
     1
 91
        4
176
     1
 64
     7
176
     1
 65
   257
176
     1
 75
     1
176
     1
175
     1
176
     1
 42
1.0
176
     1
 92
        8
176
     1
 66
     7
176
     1
 43
1.0
176
     1
 76
     1
176
     1
 77
     6
176
     1
 78
     2
176
     1
 67
     7
176
     1
 79
     5
176
     1
170
     0
176
     1
171
     0
176
     1
290
     0
176
     1
 93
        1
176
     1
 44
0.0
176
     1
173
     0
176
     1
  0
VISUALSTYLE
  5
2A
102
{ACAD_REACTORS
330
29
102
}
330
29
100
AcDbVisualStyle
  2
Flat
 70
     0
177
     2
291
     1
 71
     2
176
     1
 72
     1
176
     1
 73
     1
176
     1
 90
        2
176
     1
 40
0.6
176
     1
 41
30.0
176
     1
 63
     7
421
 16777215
176
     1
 74
     0
176
     1
 91
        0
176
     1
 64
     7
176
     1
 65
   257
176
     1
 75
     1
176
     1
175
     1
176
     1
 42
1.0
176
     1
 92
        8
176
     1
 66
     7
176
     1
 43
1.0
176
     1
 76
     1
176
     1
 77
     6
176
     1
 78
     2
176
     1
 67
     7
176
     1
 79
     5
176
     1
170
     0
176
     1
171
     0
176
     1
290
     0
176
     1
 93
       13
176
     1
 44
0.0
176
     1
173
     0
176
     1
  0
VISUALSTYLE
  5
2B
102
{ACAD_REACTORS
330
29
102
}
330
29
100
AcDbVisualStyle
  2
FlatWithEdges
 70
     1
177
     2
291
     1
 71
     2
176
     1
 72
     1
176
     1
 73
     1
176
     1
 90
        2
176
     1
 40
0.6
176
     1
 41
30.0
176
     1
 63
     7
421
 16777215
176
     1
 74
     1
176
     1
 91
        0
176
     1
 64
     7
176
     1
 65
   257
176
     1
 75
     1
176
     1
175
     1
176
     1
 42
1.0
176
     1
 92
        0
176
     1
 66
   257
176
     1
 43
1.0
176
     1
 76
     1
176
     1
 77
     6
176
     1
 78
     2
176
     1
 67
     7
176
     1
 79
     5
176
     1
170
     0
176
     1
171
     0
176
     1
290
     0
176
     1
 93
       13
176
     1
 44
0.0
176
     1
173
     0
176
     1
  0
VISUALSTYLE
  5
2C
102
{ACAD_REACTORS
330
29
102
}
330
29
100
AcDbVisualStyle
  2
Gouraud
 70
     2
177
     2
291
     1
 71
     2
176
     1
 72
     2
176
     1
 73
     1
176
     1
 90
        2
176
     1
 40
0.6
176
     1
 41
30.0
176
     1
 63
     7
421
 16777215
176
     1
 74
     0
176
     1
 91
        0
176
     1
 64
     7
176
     1
 65
   257
176
     1
 75
     1
176
     1
175
     1
176
     1
 42
1.0
176
     1
 92
        0
176
     1
 66
     7
176
     1
 43
1.0
176
     1
 76
     1
176
     1
 77
     6
176
     1
 78
     2
176
     1
 67
     7
176
     1
 79
     5
176
     1
170
     0
176
     1
171
     0
176
     1
290
     0
176
     1
 93
       13
176
     1
 44
0.0
176
     1
173
     0
176
     1
  0
VISUALSTYLE
  5
2D
102
{ACAD_REACTORS
330
29
102
}
330
29
100
AcDbVisualStyle
  2
GouraudWithEdges
 70
     3
177
     2
291
     1
 71
     2
176
     1
 72
     2
176
     1
 73
     1
176
     1
 90
        2
176
     1
 40
0.6
176
     1
 41
30.0
176
     1
 63
     7
421
 16777215
176
     1
 74
     1
176
     1
 91
        0
176
     1
 64
     7
176
     1
 65
   257
176
     1
 75
     1
176
     1
175
     1
176
     1
 42
1.0
176
     1
 92
        0
176
     1
 66
   257
176
     1
 43
1.0
176
     1
 76
     1
176
     1
 77
     6
176
     1
 78
     2
176
     1
 67
     7
176
     1
 79
     5
176
     1
170
     0
176
     1
171
     0
176
     1
290
     0
176
     1
 93
       13
176
     1
 44
0.0
176
     1
173
     0
176
     1
  0
VISUALSTYLE
  5
31
102
{ACAD_REACTORS
330
29
102
}
330
29
100
AcDbVisualStyle
  2
Hidden
 70
     6
177
     2
291
     0
 71
     1
176
     1
 72
     2
176
     1
 73
     2
176
     1
 90
        0
176
     1
 40
0.6
176
     1
 41
30.0
176
     1
 63
     7
421
 16777215
176
     1
 74
     2
176
     1
 91
        2
176
     1
 64
     7
176
     1
 65
   257
176
     1
 75
     2
176
     1
175
     1
176
     1
 42
40.0
176
     1
 92
        0
176
     1
 66
   257
176
     1
 43
1.0
176
     1
 76
     1
176
     1
 77
     6
176
     1
 78
     2
176
     1
 67
     7
176
     1
 79
     3
176
     1
170
     0
176
     1
171
     0
176
     1
290
     0
176
     1
 93
        1
176
     1
 44
0.0
176
     1
173
     0
176
     1
  0
VISUALSTYLE
  5
3F
102
{ACAD_REACTORS
330
29
102
}
330
29
100
AcDbVisualStyle
  2
JitterOff
 70
    20
177
     2
291
     1
 71
     2
176
     0
 72
     2
176
     0
 73
     0
176
     0
 90
        0
176
     0
 40
0.6
176
     0
 41
30.0
176
     0
 63
     7
421
 16777215
176
     0
 74
     1
176
     0
 91
        4
176
     0
 64
     7
176
     0
 65
   257
176
     0
 75
     1
176
     0
175
     1
176
     0
 42
1.0
176
     0
 92
       10
176
     2
 66
     7
176
     0
 43
1.0
176
     0
 76
     1
176
     0
 77
     6
176
     0
 78
     2
176
     0
 67
     7
176
     0
 79
     5
176
     0
170
     0
176
     0
171
     0
176
     0
290
     0
176
     0
 93
        1
176
     0
 44
0.0
176
     0
173
     0
176
     0
  0
VISUALSTYLE
  5
37
102
{ACAD_REACTORS
330
29
102
}
330
29
100
AcDbVisualStyle
  2
Linepattern
 70
    14
177
     2
291
     1
 71
     2
176
     1
 72
     2
176
     1
 73
     0
176
     1
 90
        0
176
     1
 40
0.6
176
     1
 41
30.0
176
     1
 63
     7
421
 16777215
176
     1
 74
     1
176
     1
 91
        4
176
     1
 64
     7
176
     1
 65
   257
176
     1
 75
     7
176
     1
175
     7
176
     1
 42
1.0
176
     1
 92
        8
176
     1
 66
     7
176
     1
 43
1.0
176
     1
 76
     1
176
     1
 77
     6
176
     1
 78
     2
176
     1
 67
     7
176
     1
 79
     5
176
     1
170
     0
176
     1
171
     0
176
     1
290
     0
176
     1
 93
        1
176
     1
 44
0.0
176
     1
173
     0
176
     1
  0
VISUALSTYLE
  5
40
102
{ACAD_REACTORS
330
29
102
}
330
29
100
AcDbVisualStyle
  2
OverhangOff
 70
    21
177
     2
291
     1
 71
     2
176
     0
 72
     2
176
     0
 73
     0
176
     0
 90
        0
176
     0
 40
0.6
176
     0
 41
30.0
176
     0
 63
     7
421
 16777215
176
     0
 74
     1
176
     0
 91
        4
176
     0
 64
     7
176
     0
 65
   257
176
     0
 75
     1
176
     0
175
     1
176
     0
 42
1.0
176
     0
 92
        9
176
     2
 66
     7
176
     0
 43
1.0
176
     0
 76
     1
176
     0
 77
     6
176
     0
 78
     2
176
     0
 67
     7
176
     0
 79
     5
176
     0
170
     0
176
     0
171
     0
176
     0
290
     0
176
     0
 93
        1
176
     0
 44
0.0
176
     0
173
     0
176
     0
  0
VISUALSTYLE
  5
33
102
{ACAD_REACTORS
330
29
102
}
330
29
100
AcDbVisualStyle
  2
Realistic
 70
     8
177
     2
291
     0
 71
     2
176
     1
 72
     3
176
     1
 73
     0
176
     1
 90
        2
176
     1
 40
0.6
176
     1
 41
30.0
176
     1
 63
     7
421
 16777215
176
     1
 74
     0
176
     1
 91
        0
176
     1
 64
     7
176
     1
 65
   257
176
     1
 75
     1
176
     1
175
     1
176
     1
 42
1.0
176
     1
 92
        8
176
     1
 66
   257
176
     1
 43
1.0
176
     1
 76
     1
176
     1
 77
     6
176
     1
 78
     2
176
     1
 67
     7
176
     1
 79
     3
176
     1
170
     0
176
     1
171
     0
176
     1
290
     0
176
     1
 93
       13
176
     1
 44
0.0
176
     1
173
     0
176
     1
  0
VISUALSTYLE
  5
3E
102
{ACAD_REACTORS
330
29
102
}
330
29
100
AcDbVisualStyle
  2
Shaded
 70
    27
177
     2
291
     0
 71
     2
176
     1
 72
     2
176
     1
 73
     1
176
     1
 90
        2
176
     1
 40
0.6
176
     1
 41
30.0
176
     1
 63
     7
421
 16777215
176
     1
 74
     0
176
     1
 91
        4
176
     1
 64
     7
176
     1
 65
   257
176
     1
 75
     1
176
     1
175
     1
176
     1
 42
1.0
176
     1
 92
        8
176
     1
 66
   257
176
     1
 43
1.0
176
     1
 76
     1
176
     1
 77
     6
176
     1
 78
     2
176
     1
 67
     8
425
  7895160
176
     1
 79
     3
176
     1
170
     0
176
     1
171
     0
176
     1
290
     0
176
     1
 93
        5
176
     1
 44
0.0
176
     1
173
     0
176
     1
  0
VISUALSTYLE
  5
3D
102
{ACAD_REACTORS
330
29
102
}
330
29
100
AcDbVisualStyle
  2
Shaded with edges
 70
    26
177
     2
291
     0
 71
     2
176
     1
 72
     2
176
     1
 73
     1
176
     1
 90
        2
176
     1
 40
0.6
176
     1
 41
30.0
176
     1
 63
     7
421
 16777215
176
     1
 74
     1
176
     1
 91
       10
176
     1
 64
     7
176
     1
 65
   257
176
     1
 75
     2
176
     1
175
     1
176
     1
 42
1.0
176
     1
 92
        8
176
     1
 66
   257
176
     1
 43
1.0
176
     1
 76
     1
176
     1
 77
     6
176
     1
 78
     2
176
     1
 67
     7
176
     1
 79
     3
176
     1
170
     0
176
     1
171
     0
176
     1
290
     0
176
     1
 93
        5
176
     1
 44
0.0
176
     1
173
     0
176
     1
  0
VISUALSTYLE
  5
3A
102
{ACAD_REACTORS
330
29
102
}
330
29
100
AcDbVisualStyle
  2
Shades of Gray
 70
    23
177
     2
291
     0
 71
     2
176
     1
 72
     2
176
     1
 73
     3
176
     1
 90
        0
176
     1
 40
0.6
176
     1
 41
30.0
176
     1
 63
     7
421
 16777215
176
     1
 74
     2
176
     1
 91
        2
176
     1
 64
     7
176
     1
 65
     7
176
     1
 75
     1
176
     1
175
     1
176
     1
 42
40.0
176
     1
 92
        8
176
     1
 66
     7
176
     1
 43
1.0
176
     1
 76
     1
176
     1
 77
     6
176
     1
 78
     2
176
     1
 67
     7
176
     1
 79
     3
176
     1
170
     0
176
     1
171
     0
176
     1
290
     0
176
     1
 93
        1
176
     1
 44
0.0
176
     1
173
     0
176
     1
  0
VISUALSTYLE
  5
3B
102
{ACAD_REACTORS
330
29
102
}
330
29
100
AcDbVisualStyle
  2
Sketchy
 70
    24
177
     2
291
     0
 71
     1
176
     1
 72
     2
176
     1
 73
     2
176
     1
 90
        0
176
     1
 40
0.6
176
     1
 41
30.0
176
     1
 63
     7
421
 16777215
176
     1
 74
     2
176
     1
 91
        2
176
     1
 64
     7
176
     1
 65
     7
176
     1
 75
     1
176
     1
175
     1
176
     1
 42
40.0
176
     1
 92
       11
176
     1
 66
     7
176
     1
 43
1.0
176
     1
 76
     1
176
     1
 77
     6
176
     1
 78
     2
176
     1
 67
     7
176
     1
 79
     6
176
     1
170
     0
176
     1
171
     0
176
     1
290
     0
176
     1
 93
        1
176
     1
 44
0.0
176
     1
173
     0
176
     1
  0
VISUALSTYLE
  5
36
102
{ACAD_REACTORS
330
29
102
}
330
29
100
AcDbVisualStyle
  2
Thicken
 70
    13
177
     2
291
     1
 71
     2
176
     1
 72
     2
176
     1
 73
     0
176
     1
 90
        0
176
     1
 40
0.6
176
     1
 41
30.0
176
     1
 63
     7
421
 16777215
176
     1
 74
     1
176
     1
 91
        4
176
     1
 64
     7
176
     1
 65
   257
176
     1
 75
     1
176
     1
175
     1
176
     1
 42
1.0
176
     1
 92
       12
176
     1
 66
     7
176
     1
 43
1.0
176
     1
 76
     1
176
     1
 77
     6
176
     1
 78
     2
176
     1
 67
     7
176
     1
 79
     5
176
     1
170
     0
176
     1
171
     0
176
     1
290
     0
176
     1
 93
        1
176
     1
 44
0.0
176
     1
173
     0
176
     1
  0
VISUALSTYLE
  5
30
102
{ACAD_REACTORS
330
29
102
}
330
29
100
AcDbVisualStyle
  2
Wireframe
 70
     5
177
     2
291
     0
 71
     0
176
     1
 72
     2
176
     1
 73
     0
176
     1
 90
        0
176
     1
 40
0.6
176
     1
 41
30.0
176
     1
 63
     7
421
 16777215
176
     1
 74
     1
176
     1
 91
        4
176
     1
 64
     7
176
     1
 65
   257
176
     1
 75
     1
176
     1
175
     1
176
     1
 42
1.0
176
     1
 92
        0
176
     1
 66
   257
176
     1
 43
1.0
176
     1
 76
     1
176
     1
 77
     6
176
     1
 78
     2
176
     1
 67
     7
176
     1
 79
     3
176
     1
170
     0
176
     1
171
     0
176
     1
290
     0
176
     1
 93
        1
176
     1
 44
0.0
176
     1
173
     0
176
     1
  0
VISUALSTYLE
  5
3C
102
{ACAD_REACTORS
330
29
102
}
330
29
100
AcDbVisualStyle
  2
X-Ray
 70
    25
177
     2
291
     0
 71
     2
176
     1
 72
     2
176
     1
 73
     1
176
     1
 90
        1
176
     1
 40
0.5
176
     1
 41
30.0
176
     1
 63
     7
421
 16777215
176
     1
 74
     1
176
     1
 91
        0
176
     1
 64
     7
176
     1
 65
   257
176
     1
 75
     1
176
     1
175
     1
176
     1
 42
1.0
176
     1
 92
        8
176
     1
 66
     7
176
     1
 43
1.0
176
     1
 76
     1
176
     1
 77
     6
176
     1
 78
     2
176
     1
 67
     7
176
     1
 79
     3
176
     1
170
     0
176
     1
171
     0
176
     1
290
     0
176
     1
 93
       13
176
     1
 44
0.0
176
     1
173
     0
176
     1
  0
DICTIONARYVAR
  5
79
102
{ACAD_REACTORS
330
76
102
}
330
76
100
DictionaryVariables
280
     0
  1
1:1
  0
DICTIONARYVAR
  5
78
102
{ACAD_REACTORS
330
76
102
}
330
76
100
DictionaryVariables
280
     0
  1
STANDARD
  0
DICTIONARYVAR
  5
77
102
{ACAD_REACTORS
330
76
102
}
330
76
100
DictionaryVariables
280
     0
  1
STANDARD
  0
DICTIONARY
  5
1A
330
19
100
AcDbDictionary
280
     1
281
     1
  3
BUMPTILE
360
1C
  3
DIFFUSETILE
360
1B
  3
OPACITYTILE
360
1F
  3
REFLECTIONTILE
360
1E
  3
REFRACTIONTILE
360
20
  3
SPECULARTILE
360
1D
  0
DICTIONARY
  5
12
330
11
100
AcDbDictionary
280
     1
281
     1
  3
BUMPTILE
360
14
  3
DIFFUSETILE
360
13
  3
FBXASSET
360
109
  3
OPACITYTILE
360
17
  3
REFLECTIONTILE
360
16
  3
REFRACTIONTILE
360
18
  3
SPECULARTILE
360
15
  0
DICTIONARY
  5
22
330
21
100
AcDbDictionary
280
     1
281
     1
  3
BUMPTILE
360
24
  3
DIFFUSETILE
360
23
  3
FBXASSET
360
BA
  3
OPACITYTILE
360
27
  3
REFLECTIONTILE
360
26
  3
REFRACTIONTILE
360
28
  3
SPECULARTILE
360
25
  0
DICTIONARY
  5
E84
330
67
100
AcDbDictionary
280
     1
281
     1
  3
ACAD_XREC_ROUNDTRIP
360
E85
  0
DICTIONARY
  5
E82
330
65
100
AcDbDictionary
280
     1
281
     1
  3
ACAD_ROUNDTRIP_2008_TABLESTYLE_CELLSTYLEMAP
360
E83
  0
XRECORD
  5
1C
102
{ACAD_REACTORS
330
1A
102
}
330
1A
100
AcDbXrecord
280
     1
270
     1
271
     1
  0
XRECORD
  5
1B
102
{ACAD_REACTORS
330
1A
102
}
330
1A
100
AcDbXrecord
280
     1
270
     1
271
     1
  0
XRECORD
  5
1F
102
{ACAD_REACTORS
330
1A
102
}
330
1A
100
AcDbXrecord
280
     1
270
     1
271
     1
  0
XRECORD
  5
1E
102
{ACAD_REACTORS
330
1A
102
}
330
1A
100
AcDbXrecord
280
     1
270
     1
271
     1
  0
XRECORD
  5
20
102
{ACAD_REACTORS
330
1A
102
}
330
1A
100
AcDbXrecord
280
     1
270
     1
271
     1
  0
XRECORD
  5
1D
102
{ACAD_REACTORS
330
1A
102
}
330
1A
100
AcDbXrecord
280
     1
270
     1
271
     1
  0
XRECORD
  5
14
102
{ACAD_REACTORS
330
12
102
}
330
12
100
AcDbXrecord
280
     1
270
     1
271
     1
  0
XRECORD
  5
13
102
{ACAD_REACTORS
330
12
102
}
330
12
100
AcDbXrecord
280
     1
270
     1
271
     1
  0
XRECORD
  5
109
102
{ACAD_REACTORS
330
12
102
}
330
12
100
AcDbXrecord
280
     1
 70
     1
 90
1959938040
 71
     1
  1
1398E7A7-F20C-4097-933A-2A24E7A8E583
311
504B03040A0000080000339BD5423DEE336E79000000790000001B0000006175746F6465736B2D64657369676E2D7061636B6167652E786D6C3C3F786D6C2076657273696F6E3D22312E302220656E636F64696E673D227574662D3822203F3E3C666F726D6174733E3C666F726D61743E687474703A2F2F736368656D612E
311
6175746F6465736B2E636F6D2F64657369676E2D7061636B6167652F323030393C2F666F726D61743E3C2F666F726D6174733E504B0304140006080800339BD542D486FD9CA0000000F4000000130000005B436F6E74656E745F54797065735D2E786D6C7D8EC10E82300C865F65E91D8A1E8C310C0EEA1BF002731658846E
311
D98AC1B77784ABF1D8FE5FBFBF75BBCE937A534CCEB38643598122B6FEE978D0B0485F9C41B54DDD7D022595594E1A469170414C76A4D9A4D207E29CF43ECE46F218070CC6BECC4078ACAA135ACF422C856C0E68EA1BF5669944DDD7BCDE7B1F8E415D77AECB980613C2E4AC91FC167A2B244592486606FC29C8FD7F045B9A
311
EF7053A7E60B504B0304140006080800339BD542E3377C95EB0000007C01000008000000636F72652E786D6C8D904D6EC3201085AF82665B61F3E3386E848964B73E412F8030715162B00C543D7E71E248EDAE1B66F478DFCCE889F3F77C435F660DD6BB1668410019A7FD68DDD4428A17DC003A4BB17A1F7FD90039359B16
311
3619A498569F965DD2DE45E362569D1FCD2EAA104C04A46FB96921E84F33AB42A5981DE15A2C4A5FD5640AFAEC329C921DD163891DF33C7BB16605D90FDD400E9CE063C51B5CF575879B7AE8F0FB1BAF38E98FAC67B52837588A68E7E77EBD1A15CD089211CA31A931A31FF4F5C40E27DEBC90FC12516EF63F505AC67F42C9
311
BAC8D97EEE030B20693EE4FE2145B96591CB3DA85CB7DCE40F504B0304140006080800339BD54255019EA25F0000007C00000007000000636E782E786D6C4DCB3B0E80201045D1AD90E915ED2CF8AC45050C11660C8261F98AB1B07AC9C97D42D718D865D3E909258CFD00CCE24AC6E326A164D74DC0B4128928FF32603847
311
2BA13128B1252AC747C6BAB984FC68F0B87FE8960A5C09FE86CFB69FBA01504B0304140006080800339BD542C013ED7367010000020300000C0000006662782F636F72652E786D6C8D525B6E833010BC8AE5DFCAD83C42D2C838526873825EC00187A2808D8C8D72FC2E8F88A68AA20AC958333BBBB303FC706B1B3428DBD7
311
4667380C18464A17A6AC759561EF2E6487D141706B8CFB55869196ADCAF00863C12B6B7CB74085D14E6907A836A55A40D9F7CA61543470C9705F7CAB5606D23BA8E8AF41278BABAC54100640439DE0BDB36000CD43C6138BCBF9C6E98C0BEE7D5D2E6C5DC2B4FA522B8B457E3A9ED82666649BC43B92E4E991ECD2D3917C7E
311
C449CCF26D944729A7A3587057B777778555D2A9128B888531612989C2AFF07D1F6DF6F1EE8DC1C9381DCB1F44BE2BFF29F2B57671B4D89D653D16211899883FDB42440EF572003F54703A8608AF29E1C7A0211008D9C97373DFE30AD0A00A676C024C69FC4A0DB2F10AA632343D9CCE2C749E1AC0664FFB442FFABCEE011F
311
50EA0AAC4907D7B377E3743E4F5DA2E8942583BB216D6C2B9BD5DC6C713DD7414FE585698CFD8F9A2EABD2254C3AFEBDE207504B0304140006080800339BD54268517AD77E0000009D0000000B0000006662782F636E782E786D6C4DCCD10A83201886E15B91FFDCA52DDB023594CDFB886521990EA76397BF1A1DECE88387
311
8F97F79FD5A3B74D2F1783007A22806C78C4D1855940C913BE02EA254F31E6BF1BA030AC56C0CE20F99C62791E34DA69283E6FEA5D580E6CE94DD38E28AC3B6A7073270C2B726E31ADB5318AB0E6C26AA824AF7EA56DF7B0FC02504B0304140006080800339BD542CFFFECB12A01000014020000310000006662782F363144
311
42313930412D423931462D344530352D413033362D3132424646413035343735322F636F72652E786D6C8D515B6EC32010BC0AE22B55651BF0230F61A2446D4ED00BB8405294182C1E558EDFA576A4F62F3F2C9A9D991DEDF2FD7DBCA16FED8371B6C7B42418692B9D32F6D2E314CFC506A3BDE0DEB9F88786911D46DDE30C
311
63C12FDEA56981A4B351DB08A8754A2FE010828E18C91B7C7A1CE4971E8772481118E15A4E83BC0E175DD212DAC0133C440F01D03C24BF5874F4ED48B7E4501CB7F45434EFA42D0EA4EE0ACA8EA7D381B4CDBA65BC9A8582A764D422370AE298B3D1FE59932C163C9AF1115F7A3D44ADB06084D605E90A463FE876C7DA5DBD
311
7925F0125E65FA3F519AD493A2646CACD9127796052C28AFE686E0CAA5CFDB238CBE4FCE4794E7AD82962F58909250BADEAC1948662A2C003CBB66F10CD17958F0EAFA096CDACEC65D2378956F04E5F78050F33DC50F504B0304140006080800339BD542175C48964D01000033030000300000006662782F36314442313930
311
412D423931462D344530352D413033362D3132424646413035343735322F636E782E786D6CD593BB6E023110457FC5721BED138208F21A2945BE20455AAF3D8083D75EF91185BFCF180CA1A1489966B4BA7367EEE8C8CBB6DF93215FE0837676A05DDD5202563AA5ED7EA029EEAA35255BCEBC73F1CE468915130C34CB94B3
311
BD77692E92829D4826A26AB43D16D14370C94B0828E749629C14061780AD128A308DA014287233E2D70E3C9E82E27822F100E4EDF583B8F113640CACC95B386B720667B996A43B1325D28810061AE40126518B149D8270AC9588A2EEEA6BD6839B7E37913C708D4C5E931C3ED05C292F17D5C89135D8E42C448FF48A299E66
311
A05CCCB3D1524484DC9C8D170F6749DBB85A16AF46F01EDDDD6AB15CE2B2738FB3A827280EE941445094F76DB7A8DA55D577EFDDCBA67FDE2CD64F2DD69635D9CED9E89C2943B806BC9B897436828D9477ACC9ED47F88A8F28ED91B5F3A73F80440025F542E7B6E33FF369CEEF1B7179FC0BF80F504B030414000608080033
311
9BD542216FB5DFA305000081100000340000006662782F36314442313930412D423931462D344530352D413033362D3132424646413035343735322F6F626A656374732E786D6CAD57D96EDB3814FD1541F332F3E045B6D3D8034585632785D1A62D6AB4980703062D510A27D402924A9DF9FA3914295972EDD433E88B162E
311
97F79E7BEE42FFED3EE5CE331592E5D98DEBF587AE43B3308F5896DCB8A58A7B53D7791BF822CF556B99EB6424A537AE1E76033F117959D8A188C6A4E4EA68F4FEF62F478634A3AE137222E58D2BC3479A923E29551E51F9D48F8822FD24DEF7BDBE59D8159B08523C1E092D88A09982A618CF20C5314A79DDDFA13B08FC81
311
9E0F7CFDB4ABC6E7570D2A7BBAE7B34C2A92853F1C762466EC4D9677A3AB59EF6A3219F7266F465EEFF6FE76D9F3AEC7C3C59BC56236BF9BE160A90424594D048DDDE01DB0112CF407662AF04B96A9F1C82EB10E1A08FACCB4A7DC60E478FEC0AC69ACB3469E523FCCB38C86155640A3B2CF8A8E6841B3083E675442B31642
311
C3EEAFA7716C4D8FF5BF3DB23D7C1902ED1D2D41B5EEF5BBAD69BEFB1B26C84B182424D50C34585A430D578707847779CEED1C934E4A14158C7087B39D20E2C50DB0542F09FC8E18CD64A1A3415BE006F08299EED20561F4739E9FD2322E39D73476832A0AB68815AA64A519FB878A83F66D64A0137CA5D930B506A99782BA
311
C1CC50647AC42603A4137392C0E53053EF1C8F8E0C5DE8385D2DDDE0FDFD6EBFD6B17BFAF042E405154AD307D4AA1D57BF354A5627EF22CFE90DEE912A0750BE00F98F08F5832AF09B60FBC97E624F51826432CE450ADF3843A737C463E878D5537FB7BEFC41B3B9EBBD7378C2D91AAA5F8067D786B62F5B7006FE33089F8B
311
B1356D1D128EB4F1C03200A449E2F01C43C8C3F16EEF062B64396465EC223CF06032D47DC6A73FB0629028AA935AEF0C581EA5C50B123460AB1809350CF9AD82073FFD90CEAA83EDB273F05EFD12BACE97EBF7EB52C424A40F36A69734661953287107DEB415EA60DEB1E889BE7CCF4504437FC47BDDC63BB54749A0AD31D7
311
C027754ED73F87933B0784D897E43ADDF83F390146E8C2DA92FFC06448392719CDCBFADC57EB07CA86815807BB667253600E8505A43133473188221D0A5668109B6AD524CDFE19EBBEAE3E82916E70FBF281BCB4B3D7EE907BC39CE762BB7BD99AB47412EA6F5D6E5B0C065A0AE85E05491DFF16F46DC4E2B89448822770FD
311
B65AB47DA7D30252442DD544CB04F623B888B0A4ADE5A25A0B824A9A675B86BA89B83B79405B3E20B50CA8049ED358521E6F19E765BA8D194735DAA6A43803C7FFD77F57A6C596A47999A933B23BAAA33A7475EFB0577E272A7C748375F5EEDD22F746343A43065D4B4E60D575ED7836BDBB9E5FF7EE47C3456F329C5DF766
311
E3F1BC379A8F26189FDE5D4DC7B59F8C26815F979A7644C34B286D7E299875DFD715E2C726013778204A6EDE99F0ACDF5F577DF4C2FE007B502F9B8DF3E8197D1F8D7E2EE0B0F2A4A0555A709AD24C111D430FFA837F21E8333ACA98F1554A127A81944FEFD647C660E4827D9F75BCD3EF477BEDE84207E44921EAB14C7719
311
61FC68636290EC175962F1AB7DD2BC4DA1A97FF59F750C3A53997316210F464E42F3942A64C30B8A9048A904F5DA3D7D64EF1E17EC7E361DA2223B4E6B4D1E099A642E1116A05619AAEEB8F31B9A3ADD57DDB828B7FD273C6CA6701D70E6C64593AE5848657F8702AD5BA14A38B8D4EEE4D1F8932CE1E8B5CDA6E6BFD9A5B1
311
E994E466C925FD93B5CBA4706B00D24881BE010D11BC532913F8956E763EFC4F86D7EA3844E17357AAC696C340634C750C42D418656F0B68629EECD17B04EAEB6679FD6A4D07918B6E59AF92C048ED292292EAA6A0F5B32ACD979F07E8509CD527A7E065025F5E2EA92728C85CEA00078BC00A2BB3200A545DFCB9F92C72DC
311
6453E79E8102CEEFFBE99B3F368B3C4DF3CC0C6DE6F63EECAC1F71BB8D36480E545F4BE46634F4469BEA3A606F28DB1D91B44F22F984017856B006E88EFBC14B7367441D3213CDBA8176C51143574BC716B609845ABAB473AB06078D47461DC490BE52EA88692F285EBD110CAAA55041A0970FFE05504B0304140006080000
311
339BD542000000000000000000000000350000006662782F36314442313930412D423931462D344530352D413033362D3132424646413035343735322F76657274696365732E62696E504B0304140006080800339BD542F270F1330600000004000000360000006662782F36314442313930412D423931462D344530352D41
311
3033362D3132424646413035343735322F747269616E676C65732E62696E636660600000504B0304140006080000339BD542000000000000000000000000370000006662782F36314442313930412D423931462D344530352D413033362D3132424646413035343735322F617474726962757465732E62696E504B03041400
311
06080800339BD542D5987DFC8F00000041010000360000006662782F36314442313930412D423931462D344530352D413033362D3132424646413035343735322F6469726563746F72792E786D6C858F410EC2201045AF4266AF15DDB800BA74E7C21B903225242D6328188F2FA5C4183471359997F9FF81E89FF3C41E1816
311
475E02DF1F80A11FC8386F25A438EECEC07A250251FC3803E6F58C12560C4AD840E95E91C151A72936F496F35732D860FE635F62C8F2DA16B505C545B74125BAA2FA9E05D7CC053D063734D5C7665FD55B6B8D15D5E9BFEAFD8490FFA45E504B0304140006080800339BD54267DAA232FD000000A00100003B000000666278
311
2F36314442313930412D423931462D344530352D413033362D3132424646413035343735322F7265736F75726365732F636F72652E786D6C8D504B6E833010BD0A9A6D65308610121947829613F4029699502BC146FE543D7E4D42A576D7CDCCE87D344F8F5FBE967BF689CE6B6B3A28730A191A65276DE60E62B89216B28B
311
E0CEDAF04B0699910B76B0C120F8EC6C5C77485913D084841A3BE10E4AEF3140A6EEE9E8C0AB0F5C642E63480A7FCB57A96E72C6BCCC139D7482FBE05280ECF9649B201C7A1B9D42CF8B272B788C7ADA357A4A3FF555A303318CFD480F6C24C7BA6A493D343D699BB1276FAF555DD1E1C806D6F062330B1EF4F29351399401
311
27108C9615A10D61E57B793AB3C3B96A5F689A94179BFC8F29AED33F4D519B50B13DEED3E6419429C88310BCD8FA4AEB5166DA5BB7E21B504B010214000A0000080000339BD5423DEE336E79000000790000001B00000000000000000000000000000000006175746F6465736B2D64657369676E2D7061636B6167652E786D
311
6C504B01021400140006080800339BD542D486FD9CA0000000F40000001300000000000000000000000000B20000005B436F6E74656E745F54797065735D2E786D6C504B01021400140006080800339BD542E3377C95EB0000007C010000080000000000000000000000000083010000636F72652E786D6C504B0102140014
311
0006080800339BD54255019EA25F0000007C000000070000000000000000000000000094020000636E782E786D6C504B01021400140006080800339BD542C013ED7367010000020300000C00000000000000000000000000180300006662782F636F72652E786D6C504B01021400140006080800339BD54268517AD77E0000
311
009D0000000B00000000000000000000000000A90400006662782F636E782E786D6C504B01021400140006080800339BD542CFFFECB12A010000140200003100000000000000000000000000500500006662782F36314442313930412D423931462D344530352D413033362D3132424646413035343735322F636F72652E78
311
6D6C504B01021400140006080800339BD542175C48964D010000330300003000000000000000000000000000C90600006662782F36314442313930412D423931462D344530352D413033362D3132424646413035343735322F636E782E786D6C504B01021400140006080800339BD542216FB5DFA305000081100000340000
311
0000000000000000000000640800006662782F36314442313930412D423931462D344530352D413033362D3132424646413035343735322F6F626A656374732E786D6C504B01021400140006080000339BD5420000000000000000000000003500000000000000000000000000590E00006662782F36314442313930412D42
311
3931462D344530352D413033362D3132424646413035343735322F76657274696365732E62696E504B01021400140006080800339BD542F270F13306000000040000003600000000000000000000000000AC0E00006662782F36314442313930412D423931462D344530352D413033362D3132424646413035343735322F74
311
7269616E676C65732E62696E504B01021400140006080000339BD5420000000000000000000000003700000000000000000000000000060F00006662782F36314442313930412D423931462D344530352D413033362D3132424646413035343735322F617474726962757465732E62696E504B01021400140006080800339B
311
D542D5987DFC8F0000004101000036000000000000000000000000005B0F00006662782F36314442313930412D423931462D344530352D413033362D3132424646413035343735322F6469726563746F72792E786D6C504B01021400140006080800339BD54267DAA232FD000000A00100003B000000000000000000000000
311
003E1000006662782F36314442313930412D423931462D344530352D413033362D3132424646413035343735322F7265736F75726365732F636F72652E786D6C504B0506000000000E000E0080040000941100000000
310
504B03040A0000080000339BD5423DEE336E79000000790000001B0000006175746F6465736B2D64657369676E2D7061636B6167652E786D6C3C3F786D6C2076657273696F6E3D22312E302220656E636F64696E673D227574662D3822203F3E3C666F726D6174733E3C666F726D61743E687474703A2F2F736368656D612E
310
6175746F6465736B2E636F6D2F64657369676E2D7061636B6167652F323030393C2F666F726D61743E3C2F666F726D6174733E504B0304140006080800339BD542D486FD9CA0000000F4000000130000005B436F6E74656E745F54797065735D2E786D6C7D8EC10E82300C865F65E91D8A1E8C310C0EEA1BF002731658846E
310
D98AC1B77784ABF1D8FE5FBFBF75BBCE937A534CCEB38643598122B6FEE978D0B0485F9C41B54DDD7D022595594E1A469170414C76A4D9A4D207E29CF43ECE46F218070CC6BECC4078ACAA135ACF422C856C0E68EA1BF5669944DDD7BCDE7B1F8E415D77AECB980613C2E4AC91FC167A2B244592486606FC29C8FD7F045B9A
310
EF7053A7E60B504B0304140006080800339BD542D474F3D8EC0000007C01000008000000636F72652E786D6C8D90D18E832010457F85CCEB0605ADD6364853DBF50BF607085097B48211D8F4F38BAD4D76DFF685995CEE99995C76B88F37F4A3676F9C6D81660490B6D22963871662B8E006D081B3D9B9F0CB06C88A51B7B0
310
C8C0D930BB38AD927436681B926A9DD2AB28BCD70190BCA5A6052FBFF52832114372F86B3609791583CEE8BB4B708C46A1D712A3D23C73317A067EEA4FC76DDD1C71F7D910BC215D8DBBED99E0AA6FCABEEC767D75DEB07C81390B667CEF97B316412BE005A12526352EE817DDED8B6A5F361F24BD84E58BFD0F1427F54F28
310
1A1BCA623DF78579E0341DF2FCE02C5FB248E51954AA4B6EFC01504B0304140006080800339BD54255019EA25F0000007C00000007000000636E782E786D6C4DCB3B0E80201045D1AD90E915ED2CF8AC45050C11660C8261F98AB1B07AC9C97D42D718D865D3E909258CFD00CCE24AC6E326A164D74DC0B4128928FF326038
310
472BA13128B1252AC747C6BAB984FC68F0B87FE8960A5C09FE86CFB69FBA01504B0304140006080800339BD542877002E068010000020300000C0000006662782F636F72652E786D6C8D525B6E833010BC8AE5DF0A6C200F121947212927E8051C70280AD8C8D828C7EFF28868AA28AA908C35B3B33B3BC00EF7A646BD345D
310
A55582039F622455AE8B4A950976F6EAC5181D38335ADB5F651829D1C8040F30E6AC34DAB533946B65A5B2802A5DC819145D272D46790D970477F9B76C842F9C858AEEE6B722BF8952FA810F34D471D6590306D034643831BF5EEE8C4C3867CE55C5CC56054CABAE9534989FB2D371BB898F5EFA19536F45D38D976ECFD45B
310
67719445E92E5B9F578C0C62CE6CD53CDCE5460A2B0BCC431A441EDD7861F015ECF6E17A1FC51F144ECAC850FE24726DF14F91AB948DC2D9EE24EB300FC0C848FCD91622B2A8133DF8219C912144788D093F070D8140C8565CEAC71E37807A995B6D56C014DA2D542F6A27612A45E3C3C8C442E7B1016CF6B24FF8A6CFFB1E
310
F001852AC19AB070BD383B4C67D3D4398A561AAFB777A4B46944BD989B2C2EE732E8A53CD7B536FF5193795532874986BF97FF00504B0304140006080800339BD5424971363E7D0000009D0000000B0000006662782F636E782E786D6C4DCCD10A83201886E15B91FFDC65E2367F50230FBC8F581632D3703676F9ABD1C18E
310
3E78F87855F7592279FBF20A3969682F0C884F8F3C86346BD8EA442590CEA89273FDBB0149C3E2351C0C46CD256FEB49A39F862DD65D6348CF13F9555A27ACA378733D15C81CB50291CA3B43E48CF52DE7D018D5FC4AFB1E61F305504B0304140006080800339BD542348D30E22A01000014020000310000006662782F3235
310
3842463442462D393646412D343930462D423439392D3837303939323030413132322F636F72652E786D6C8D51CB6E833010FC15E453AA0AB08110888CA3E4C017F4071CDB49AC041BF951E5F3BB2E446A6FB978ADD999D9D12E3D3CA747F6AD9CD7D60C88141865CA082BB5B90E28864BDEA1ECC0A8B336FCA1A1CCF0490D
310
28C188D1ABB3715E21614D5026006AAC542BC8BD570165E2019F01797153132F780CC0F0F762E6E2CEAFAA2005B481C7A80F0E0264CB90F422566DBBD3D89CC6BC6FC763DEF478CC4F4DDFE7DD0EF77D85F19154152D1721A3316AB9CAB58438FAA2957BD72489190D7A7AC5174EF1A024E831A973DCE615F922FDBEDAEEEB
310
EE13C38B6999E8FF4471966F8AA236A1AED6B88BCC234668B9341895369E1FAF30EA395B17B2346FE395F8400C179890AEDDD55B5A2E54580078B6CDEAE98375B0E0CDFD0CEC7A356E1B46CB742328BF07849AEEC97E00504B0304140006080800339BD54271FB87815501000033030000300000006662782F323538424634
310
42462D393646412D343930462D423439392D3837303939323030413132322F636E782E786D6CBD934D6EC3201085AF82D856FE4FAD34C244EAA227E8A25B0C9386068305B86A6EDF212169365954AABA19596FDECC1B7DC26CFB3519F2093E686707DA94352560A553DABE0F7489BB624DC99633EF5CBCB15162C504034D32
310
E5ECDDBB65CE92829D584C44D5687BC8A287E0162F21A09C26897152185C00B65850846904A54091AB11BF76E0F11414C723897B202FCF6FC48D1F20636055DAC2599532384B3527DD982891468430D020F73089522CD1290887528928CAA6BC64DDB9E96713490397C8C56B92C2079A2AE5F9A21239B20A9B9C85E8915E36
310
C5E30C948B79365A8A8890AB93F1ECE16CD136F6ABECD508DEA3BB6BFBF51A979D7A9C453D4176480F2282A2BCAD9BAEA8FBA26D5E9BA74DFBB8E9D60F35D69A55C9CED9E89CC943B806BC9B897436828D9437AC4AED7BF8B28F28ED91B5F3C75F80440039F54CE7BAE32FF9347DB75AFD239FEAF4BE1197C7BF807F03504B
310
0304140006080800339BD5426127CFFB630700009A1B0000340000006662782F32353842463442462D393646412D343930462D423439392D3837303939323030413132322F6F626A656374732E786D6CED59DD739B3810FF5718EEE5EEC1D8D84E9BDC103A89D3743CBDB49DFADAB907CF3032C8441721184924F1FDF5B7FA
310
00033109BEE6DEFA6003425AEDFEF6534BF0EE31A3CE3DE682E4ECDCF5BD89EB6016E70961E9B95BCAEDE8D475DE8501CF73D998E63A0C65F8DC55C36E18A43C2F0B3B94E02D2AA9EC8C5E5FFEE5881833EC3A3145429CBB22BEC519F25029F3048B3B2F411279E9F6D1F33D33B14D36E5A8B8ED102D10C74C02A730CE808A
310
6398F2DB8F13771C0663F53E0CD4BF9D351B346BDE3F6BACA56E7349989088C54F58EA90990D6269E6CFAFDE4F4FCE4627F3F96C347F33F54797D7975723FFED6CB278B3589C5DBC3F03F636794EAD4C092E304B407F3B37F483B17A538B6E1138C4759C3386630D2440A5C5EA122458C0560DF826ED475F49D478AD256C3C
310
CFD57BCB426378D6A6D2376B18102DBA2088DDAE92B8BA36E5CB377F83E0628851728125702B2407ED5A783878851B4E82B1190D83CD5E17443819929813441D4A361C71500A4C5553C2C02CB06494737020E52809B4E6CCEBB66D8167BEEC3A87B8DC96942ACF7043ED5811B81F96427346FEC17CCF7D1319E009A42D0993
310
A7964BB92BB01B9E05633D1806EA329BDA970648674B512A3422E66D47D08572FDE5951B7EBCDE3CAE543838BC79C1F30273A98C4EE951F305866CAF0A25BBAD3F48736A01086340B52BF7A07C05E43F41F4D8B3027AE3E471FE38B77325474C6C739E816E9C89339AC0DFC4F1F5BFBA6FDC05E37A715B7B7D78829B2AA84E
310
7F1CCFB60C1A2BCB7F03CE30B80783CFF9CCBE5AC588823DDF100600292371680E4310DAB79B47375C42E084400FAB100D7D1019D8BD87DB606CC9ECB552B997F53A0688DA3D66439404B0698B04367AF4F401B20727F15E4D4D11FBE03D791573BDB85A7D5C957C8B627C637DFA0A6F092312B2E661865A98B724BAC3BB87
310
9C2720E853BC574DBC33BB9500B415E60AF8B402413DEC776E6D10C3BA3457E1267861071042E5EA06FD1B22624C2962382FAB7DEBE8A60CB5F6785B33B8E1D4403C9B764C98E37BA2AA0A709AFD8C16A390F7634E0A05A21B7E3092D541D3EB91EEDBF21358643DBF67D69241E86588FEA983D6011C5A965D216D81A805DE
310
ECC3799CD39C479B5D64229D0BB504B0D1F696EF2DA210EB8D921415F020ED775548498DB45142B6DB52405C3DC0E2F7E5A2690E136FE69F38CDFF8E33CE21DA82EF226EFDAEB347443294E2688B92BEED9ABBD5B48526D9439AE32D05B9C83D91BB08C96892E0F418688E227EF6AAD4539A0B41181690AF0E82DF4463E241
310
2031DAAC58565AED004D44946189E8310828323DE0EAB4A36BDC184A879779ACADF7398D3589FE4F16C111D492398B0894A290435E64DCF74E2086B4D1352877F0056BAB686B3168092544BC8B1E30496FE531A81BF23DB8C77024296594172806B31E40F689AF28A57678DFA0F84EE58F282EE96B1988C0741B114ACB2C82
310
1F6170F218E2DA75607A1685067113FB24CEA02843B2E4433679733279B28FA919BA21B0B1D1965008DB51868A1ED45B0151D7234E0DBEA5DEA3D44D991511CAF2920D32146FD6F5264BBEAB56457620BFAA5484B2B1226C09860161B2CEAA55CC0653D78115DC4807AA5D24505650730A7B21F1F8B53769CABD1B70EBA7AF
310
BB4106855F8FF69A11755EC160796C1506E201C9F8D60D57FA3ABA84FA3BC1C93ED557B566B30204C454242F39B12AFAB684F2C6D6686E7883A4587F3059B7BA7E5B7AD0FD08C6B0066A977AE152019D612691AA4C6ED40DFD8A2004B76898F1A5CAA9C750B948125D35227A4DFAD4D92A235A9B66C42B6E31CB33F8B13561
310
312D13BC4689B88B6E248D5644B16EA5F4325261FCAC809F3FAC3AF0C0C80091BEA8020F3F74D6DAD1852A970E1291B765B6618840106C89961ADD78054BAD462A2DD75775A680BA0B0CCCAA78FEF364D16C47FC3C59A4D6307EE86471B9FB03ED9A7D91463A8F955D1F750CA8F393A2F21AC700DD76A8A9D659C424732BBF
310
75A608826215E507576355D03004FB38FECF59BB2F0B9AED3AFC1F97B5FD2715C75159A5355975A90E54AECB660EF36767A7EFDF5EBC1D5D4F278BD17C72F67674369B5D8CA617D3398C9FBE3F39DD9711DA51C3A00E663A77C1B3096AD5B07AB218405756E49424709A4F9C1443CC9770A61FD03EE71916903C9BCDEEC436
310
E507ACBE377D4E893614579CDC2268105301691D302A63D91E777E81D6A48483F6B90B4D23EF0EFEAC55BA0E649E73175A0592C458781B6833A9869E260E2957E77E4B0CF0412C5529D12CAA9FEB550A9B56F8AFA70C490356AE560F030AB702BA5FAD0E85E6CDF2141F2578C58E8324DC6E4A09D59A91653F500BA3B7D9AB
310
DFC84609BBB35B3F82EB3E2F96EFE9392D44067D3278D6080CD591443CD5FD6EC59865E9E2EACB18FA6CCEF2B353D032055D0EA734E2188CB954051558115885A5592009A6BAF87DFD85E7F08927737455E4FCFA78FAE6B7F522CFB29C99A1F5059CCA12F850E4AC6EE1B34FB286E201ABE6BA584F27FE74AD9BDAB6CF1E6D
310
90C09EAA8A60A02A2694201D9303BB7CD2A0B2EDCBB1524567FAF2CAB141149A01C68E9EF478CD472E077C487D4E511EA3FDBC92F6D9BEF6584F059BE0D0910EFF05504B0304140006080000339BD542000000000000000000000000350000006662782F32353842463442462D393646412D343930462D423439392D383730
310
3939323030413132322F76657274696365732E62696E504B0304140006080800339BD542F270F1330600000004000000360000006662782F32353842463442462D393646412D343930462D423439392D3837303939323030413132322F747269616E676C65732E62696E636660600000504B0304140006080000339BD54200
310
0000000000000000000000370000006662782F32353842463442462D393646412D343930462D423439392D3837303939323030413132322F617474726962757465732E62696E504B0304140006080800339BD542D5987DFC8F00000041010000360000006662782F32353842463442462D393646412D343930462D42343939
310
2D3837303939323030413132322F6469726563746F72792E786D6C858F410EC2201045AF4266AF15DDB800BA74E7C21B903225242D6328188F2FA5C4183471359997F9FF81E89FF3C41E1816475E02DF1F80A11FC8386F25A438EECEC07A250251FC3803E6F58C12560C4AD840E95E91C151A72936F496F35732D860FE635F
310
62C8F2DA16B505C545B74125BAA2FA9E05D7CC053D063734D5C7665FD55B6B8D15D5E9BFEAFD8490FFA45E504B0304140006080800339BD54269BD9019FE000000A00100003B0000006662782F32353842463442462D393646412D343930462D423439392D3837303939323030413132322F7265736F75726365732F636F72
310
652E786D6C8D504B6E833010BD0A9A6D6530100844C65149CA097A01CB4CA89560237FAA1EBF2650A9DD7533337A1FCDD363E7AFF9917CA275CAE80EF29442825A9A51E9A983E06FA481E4CC9935C6FF9241A2C58C1DAC3070365913961D92467BD43EA2DA8CB883C239F490C8473C3A70F20367918AE0A3C2DDD345C8BB98
310
30CDD348471D67CEDB1820D99EAC13B845678295E858B6B19C85A0C65DA3C6F853DD145AE097E1F27AAC9B96F46F0D2507DAD7A43F5E29A986A61CCABE1DAAEB8165AB9933AFE69F8CD2A2F038022F685E125A93227FCFDB53519DCAE685C64959B6CAFF98C232FED31494F665B1C7DD6C0E781E833C09CEB2B5AFB89E65C6
310
BD76CBBF01504B010214000A0000080000339BD5423DEE336E79000000790000001B00000000000000000000000000000000006175746F6465736B2D64657369676E2D7061636B6167652E786D6C504B01021400140006080800339BD542D486FD9CA0000000F40000001300000000000000000000000000B20000005B436F
310
6E74656E745F54797065735D2E786D6C504B01021400140006080800339BD542D474F3D8EC0000007C010000080000000000000000000000000083010000636F72652E786D6C504B01021400140006080800339BD54255019EA25F0000007C000000070000000000000000000000000095020000636E782E786D6C504B0102
310
1400140006080800339BD542877002E068010000020300000C00000000000000000000000000190300006662782F636F72652E786D6C504B01021400140006080800339BD5424971363E7D0000009D0000000B00000000000000000000000000AB0400006662782F636E782E786D6C504B01021400140006080800339BD542
310
348D30E22A010000140200003100000000000000000000000000510500006662782F32353842463442462D393646412D343930462D423439392D3837303939323030413132322F636F72652E786D6C504B01021400140006080800339BD54271FB878155010000330300003000000000000000000000000000CA0600006662
310
782F32353842463442462D393646412D343930462D423439392D3837303939323030413132322F636E782E786D6C504B01021400140006080800339BD5426127CFFB630700009A1B000034000000000000000000000000006D0800006662782F32353842463442462D393646412D343930462D423439392D38373039393230
310
30413132322F6F626A656374732E786D6C504B01021400140006080000339BD5420000000000000000000000003500000000000000000000000000221000006662782F32353842463442462D393646412D343930462D423439392D3837303939323030413132322F76657274696365732E62696E504B010214001400060808
310
00339BD542F270F13306000000040000003600000000000000000000000000751000006662782F32353842463442462D393646412D343930462D423439392D3837303939323030413132322F747269616E676C65732E62696E504B01021400140006080000339BD54200000000000000000000000037000000000000000000
310
00000000CF1000006662782F32353842463442462D393646412D343930462D423439392D3837303939323030413132322F617474726962757465732E62696E504B01021400140006080800339BD542D5987DFC8F000000410100003600000000000000000000000000241100006662782F32353842463442462D393646412D
310
343930462D423439392D3837303939323030413132322F6469726563746F72792E786D6C504B01021400140006080800339BD54269BD9019FE000000A00100003B00000000000000000000000000071200006662782F32353842463442462D393646412D343930462D423439392D3837303939323030413132322F7265736F
310
75726365732F636F72652E786D6C504B0506000000000E000E00800400005E1300000000
  0
XRECORD
  5
17
102
{ACAD_REACTORS
330
12
102
}
330
12
100
AcDbXrecord
280
     1
270
     1
271
     1
  0
XRECORD
  5
16
102
{ACAD_REACTORS
330
12
102
}
330
12
100
AcDbXrecord
280
     1
270
     1
271
     1
  0
XRECORD
  5
18
102
{ACAD_REACTORS
330
12
102
}
330
12
100
AcDbXrecord
280
     1
270
     1
271
     1
  0
XRECORD
  5
15
102
{ACAD_REACTORS
330
12
102
}
330
12
100
AcDbXrecord
280
     1
270
     1
271
     1
  0
XRECORD
  5
24
102
{ACAD_REACTORS
330
22
102
}
330
22
100
AcDbXrecord
280
     1
270
     1
271
     1
  0
XRECORD
  5
23
102
{ACAD_REACTORS
330
22
102
}
330
22
100
AcDbXrecord
280
     1
270
     1
271
     1
  0
XRECORD
  5
BA
102
{ACAD_REACTORS
330
22
102
}
330
22
100
AcDbXrecord
280
     1
 70
     1
 90
1959938040
 71
     1
  1
B7D25108-2AFE-4534-A729-C0CE06B1B71B
311
504B03040A0000080000319BD5423DEE336E79000000790000001B0000006175746F6465736B2D64657369676E2D7061636B6167652E786D6C3C3F786D6C2076657273696F6E3D22312E302220656E636F64696E673D227574662D3822203F3E3C666F726D6174733E3C666F726D61743E687474703A2F2F736368656D612E
311
6175746F6465736B2E636F6D2F64657369676E2D7061636B6167652F323030393C2F666F726D61743E3C2F666F726D6174733E504B0304140006080800319BD542D486FD9CA0000000F4000000130000005B436F6E74656E745F54797065735D2E786D6C7D8EC10E82300C865F65E91D8A1E8C310C0EEA1BF002731658846E
311
D98AC1B77784ABF1D8FE5FBFBF75BBCE937A534CCEB38643598122B6FEE978D0B0485F9C41B54DDD7D022595594E1A469170414C76A4D9A4D207E29CF43ECE46F218070CC6BECC4078ACAA135ACF422C856C0E68EA1BF5669944DDD7BCDE7B1F8E415D77AECB980613C2E4AC91FC167A2B244592486606FC29C8FD7F045B9A
311
EF7053A7E60B504B0304140006080800319BD54220EBA425EA0000007C01000008000000636F72652E786D6C8D904D6EC3201085AF82665B6183FF6A4798C88EDA13F402088883128365A0EAF18313476A77DD30A3C7FB66468F1D7FE61BFAD6AB37CEF6403302485BE994B1530F319C710BE8C8D9EA5CF8650364C5AC7BD8
311
64E06C5A5D5C76493A1BB40D49B54EE95D14DEEB0048DE52D38397173D8B4CC4901CFE9A2D425EC5A433FAEA121CA351E8B9C4A834CF9C8D5E811352D723ED065C5635C1D5E77B89DB71AC30FD18BAA6AD9AE64406966F3067C1CCAFFD72D5226805BC20B4C4A4C105FDA2DDA1A80F65FD46D24B58BED9FF407151FF84A2B1
311
A12CF6739F98074ED3218F0FCEF22D8B541E41A5BAE5C6EF504B0304140006080800319BD54255019EA25F0000007C00000007000000636E782E786D6C4DCB3B0E80201045D1AD90E915ED2CF8AC45050C11660C8261F98AB1B07AC9C97D42D718D865D3E909258CFD00CCE24AC6E326A164D74DC0B4128928FF326038472B
311
A13128B1252AC747C6BAB984FC68F0B87FE8960A5C09FE86CFB69FBA01504B0304140006080800319BD5422611FA3C66010000020300000C0000006662782F636F72652E786D6C8D525B6E833010BC8AE5DFCAD83C9B44C65152B527E8051C70280AD8C8D828C7EFF28868AA288A908C35B3B33B3BC0F7D7B64183B27D6D74
311
8EC38061A47461CA5A5739F6EE4C3618ED05B7C6B83F651869D9AA1C8F3016BCB2C6770B5418ED9476806A53AA05947DAF1C464503971CF7C58F6A6520BD838AFE1274B2B8C84A05610034D409DE3B0B06D03C643CB1389FAE9CCEB8E0DED7E5C2D6254CABCFB5B2583096A6C7707B20719232927CBDC764733C2624FC3C6C
311
B34D92651FECC0E92816DCD5EDCD5D619574AAC42262614C5846A2F03BDCEEA27417A76F0C4EC6E9587E27F25DF9A2C8D7DAC5D1627796F55884606422FE6D0B1139D4CB01FC50C1E91822BCA684EF8386402064274FCD6D8F0B40832A9CB10930A5F12B35C8C62B98CAD0F4703AB3D0796A009B3DEC133DE9F3BC077C40A9
311
2BB0261D5C4FDE8DD3F93C7589A253960CEE8AB4B1AD6C5673B3C5F55C073D9417A631F615355D56A54B9874FC7BC52F504B0304140006080800319BD542ACEA6C2C7D0000009D0000000B0000006662782F636E782E786D6C4DCCD10A83201886E15B91FFDC652A64A0866EBB90581632D3703A76F9ABD1C18E3E78F878E5
311
F059037ABBFCF2292A682F04908B8F34F9B828A865C602D0A0654EA9FCDD00C571750A0E062D979CEA76D2E4E6B186B26BF0F179A26546B4C412DCD92BC35CB01BEEADB198737A2786B61DA73D345A36BFD2BE47587F01504B0304140006080800319BD542D98BE6B02B01000014020000310000006662782F423341383130
311
42302D374243332D343833442D394241422D3434324530413231373432392F636F72652E786D6C8D515B6EC32010BC0AE22B55850DD8499C0813C56D6FD00B38405294182C1E558EDF75ED48ED5F7E58343B333BDA1587FB7043DF2644EB5D8B594131324E796DDDA5C5399D4983D1418AE07DFA43C3C8F58369F10463292E
311
C1E771819477C9B804A8F3DA2C601FA34918A91B7C5A1CD59719FAA2CF0918F15A8CBDBAF61753B002DAC09322A60001D03C647AB1ECAA63C36847C9B67BAB48DD54EF64D71D3B52D7FC831E39DBD67C27CA592845CE562F72AB218E3D5B139E3599C452243B3CE2AB60FA6434969CB28AD00DE1EC93EDF67CBDAFD6AF145E
311
2ACA89FE4F9447FDA4285B972ABEC49D65114B26CAB92185F6F9747B8431F7D18784A679AB68D40B96B4A08C35B09D5A94331516009E9B7AF18CC90758F0EA7A02365BCFC69B5A8A72BA1194DF03429DEE297F00504B0304140006080800319BD542D9BF6FC04D01000033030000300000006662782F42334138313042302D
311
374243332D343833442D394241422D3434324530413231373432392F636E782E786D6CD593BB6E032110457F05D146FBF44389C5622945BE20455A16C636310B2B1E51FCF7196CECB8719132CD6875E7CEDCD111CBB6DF93215FE0837676A05DDD5202563AA5ED7EA029EEAA674AB69C79E7E29D8D122B2618689629677BEF
311
D25C24053B914C44D5687B2CA287E092971050CE93C438290C2E005B2514611A412950E466C4AF1D783C05C5F144E201C8DBEB0771E327C8185893B770D6E40CCE722D4977264AA411210C34C8034CA216293A05E1582B1145DDD5D7AC0737FD6E2279E01A99BC26397CA0B9525E2EAA91236BB0C959881EE915533CCD40B9
311
9867A3A58808B9391B2F1ECE92B671BD2C5E8DE03DBABBF562B9C465E71E67514F501CD28388A028EFDB6E51B5EBAAEFDEBB974DBFDA2C564F2DD69635D9CED9E89C2943B806BC9B897436828D9477ACC9ED47F88A8F28ED91B5F3A73F80440025F542E7B6E33FF369CEEF1B7179FC0BF80F504B0304140006080800319BD5
311
42CBCFA31EA405000080100000340000006662782F42334138313042302D374243332D343833442D394241422D3434324530413231373432392F6F626A656374732E786D6CAD575B8F9B3814FE2B887DD97DC88524735B31549364A68AAA69AB46ADF6215264C030DE31181933CDECAFDFCFD81048936976D59710CCF1F139
311
DFF9CEC5FEBB5DC69D172A4B26F25BD71B8E5D87E69188599EDEBA954A06D7AEF32EF0A510AA23E63A39C9E8ADAB97DDC04FA5A80ABB14D384545C1DAC3ECCFF72CA88E6D475224ECAF2D62DA3279A9121A9948869F93C8C8922C334D90DBDA111ECAB4D25299E0E941644D25CC152ACE7D0E218A3BCFEEBD81D05FE487F0F
311
7CFD6BA5A6A7A546B53FFDF3595E2A92473F1C76A066EACD96F7938B9BC1C56C361DCC2E27DE60FE305F0EBCABE97871B958DCDCDDDFE0E0524968B296489AB8C17B602359E48FCCA7C0AF58AEA6132B62033492F485E948B9C1C4F1FC919169BDB34E1E333F12794EA31A2BA051FB6755C7B4A0798C98335AC2B20E42E3FE
311
ABA771EC7C9EEA777B6477F93C04BA3B3A8A1ADB9B67D75211FE0D17CA7318244BAA1968B0B48E1AAE8EF708874270FB8D954E4614958C7087B35012F9EA0610D52281DF53A3992C7536680FDC0051309FFB74411AFD9CE7C7AC4C2ACE358DDDA0CE822D7285AAB2B68CFD43E5DEFA2E32B009B1D26CB8B60EA9D782BAC18D
311
A1C8F5019B0C904EC2498A90C34DBD733A397074A1F374B574830F0FE16EAD73F7F8E1851405954AD307D46A02D73C354AD626EFACC8E90DEE81297B50BE00F98F48F5BD29889B64BBD96E664F5192E465226486D838636730C6CFD8F1EA5FFDBFF3CF1FB59BFBD13B852782ADA1FA0578F67DE8C6B20367E0BF80F0424EAD
311
6BEB8870948D479603204D12870B2CA10E27E1CE0D56A872A8CAD84578E0C16598FB82BFFEC8AA41A1A84FEA3C7360795016CF28D080AD6624CC30E4B706EEE3F44339AB0FB662A7E0BDF82574BD5BAE3FAC2B9990883EDA9C5ED284E54CA1C5ED79D335A88779CFA367FAFA5DC8188EFE88F7BA8B77668F2A81B6C65C039F
311
36355DBFEC4FEE1D10615F2A74B9F17F72029CD08DB5A3FF919511E59CE45454CDB96FF60FB40D03B14E76CDE4B6C1EC1B0B4863BE1CE4209A742459A1416CBB555B348727BCFBBAFA0846429E8B90F0BD50B82FBD91E0426EC3D7ADA94A4791FED6A7B68560A4B580ED758E34E96F31DFC62C49AA1235F008ACDF568B6EE8
311
7455408568B49A6499C17DE4169196B38D5E346B49D04845BE65689B48BBA30774F503514B805AE1298B4BCA932DE3BCCAB609E36846DB8C1427E0F8FFF68755566C4926AA5C9DD0DD331DCDA16F7B8FBCE577A2A2273758D7CFC11CA537A6F13ECC3D61DD4A8E60D50BEDFC6A39B9F0C6D783C9DDC3FD6076319D0DEEAE26
311
3783C578713FBE9C7BF32B6FDEC4C9280FFCA6D374131A514267F32BC96CF8BEAE903EB606B8C12351E5E6BDC9CEE6F97535C428EC8FB007EDB2DD7817BF60ECA3F1CF15EC258F2A5A6505A719CD15D129F4A8FFF02F046346CF18B3BECA484ACFD0F2E9FDFAC019AC9CB1EFB34E77FAFD60AF5D5DE8843CAA443D55599813
311
C60F36A606C96191A716BF2626EDD3F499E655BFD9C060302D056731CA60ECA4546454A1189ED18364464B50AF3BD2C7F6EA71C6EE1733202A1272DA58F2443023F31269016A5591EAAF3BBF61A6D363D5AD8B6E3B7CC68FAD14AE03CEDCBA98D1158B68390CD19FF524542B0797BA833CE67E92A71CA3B6D9D4BEB7BB3436
311
BD8EDC8A9C333E59BF4C05B70EA08C14181B300F213AB531815FDB66BF47FFC9F1C61C8728FC0D2BD5FAB25F689DA98F418A1AA7EC650133CCB33D7A87447DDB2D6F58CBF41039EB92F526098CD6812232AD2F0ADA3E6BD2DDF2F308038AB3FAE414BC4A11CBF3350D2405992B9DE06011586175164481AA8B3F379FA5C045
311
36731E1828E0FCBEBBBEFC63B310592672B3B4B9B3D76167FD84CB6DBC4171A0FA56526E26636FB2A96F03F682B20D494987242E9FB180C84AD602DD0B3F7869AE8CE843E6432B37D2A13860E86AE9D8C63683524B976E6DD5E060EEC8A9831CD2374A9D315D81E2CD0BC1A816850912A37CF02F504B030414000608000031
311
9BD542000000000000000000000000350000006662782F42334138313042302D374243332D343833442D394241422D3434324530413231373432392F76657274696365732E62696E504B0304140006080800319BD542F270F1330600000004000000360000006662782F42334138313042302D374243332D343833442D3942
311
41422D3434324530413231373432392F747269616E676C65732E62696E636660600000504B0304140006080000319BD542000000000000000000000000370000006662782F42334138313042302D374243332D343833442D394241422D3434324530413231373432392F617474726962757465732E62696E504B0304140006
311
080800319BD542D5987DFC8F00000041010000360000006662782F42334138313042302D374243332D343833442D394241422D3434324530413231373432392F6469726563746F72792E786D6C858F410EC2201045AF4266AF15DDB800BA74E7C21B903225242D6328188F2FA5C4183471359997F9FF81E89FF3C41E181647
311
5E02DF1F80A11FC8386F25A438EECEC07A250251FC3803E6F58C12560C4AD840E95E91C151A72936F496F35732D860FE635F62C8F2DA16B505C545B74125BAA2FA9E05D7CC053D063734D5C7665FD55B6B8D15D5E9BFEAFD8490FFA45E504B0304140006080800319BD5429D22C7E4FC000000A00100003B0000006662782F
311
42334138313042302D374243332D343833442D394241422D3434324530413231373432392F7265736F75726365732F636F72652E786D6C8D50596E833010BD0A9ADFCA60B31522E32854ED097A01CB4CA89560232F558F5F13A8D4FEF56766F416CDD3E3E7AFE59E7DA2F3DA9A01584E2143A3ECA4CD3C400C57D2417616DC
311
591B7EC9203372C1013618049F9D8DEB01296B029A905063273C40E93D06C8D43D1D0378F5818BCC650C49E16FF92AD54DCE98B33CD14927B80F2E05C8F627DB04E1D0DBE8147A5EECACE031EAE9D0E829FDD4578D0E04A54D33B2BE2755DD5052BF3D57A41BC79AB0D74BDF7675DBBED00B2F36B3E0412F3F199543197002
311
51525611DA9292BDB3FE5436A7AA79A269525E6CF23FA6B84EFF34456D42551E71779B07C15290072178B1F595D6A3CCB4B76EC537504B010214000A0000080000319BD5423DEE336E79000000790000001B00000000000000000000000000000000006175746F6465736B2D64657369676E2D7061636B6167652E786D6C50
311
4B01021400140006080800319BD542D486FD9CA0000000F40000001300000000000000000000000000B20000005B436F6E74656E745F54797065735D2E786D6C504B01021400140006080800319BD54220EBA425EA0000007C010000080000000000000000000000000083010000636F72652E786D6C504B01021400140006
311
080800319BD54255019EA25F0000007C000000070000000000000000000000000093020000636E782E786D6C504B01021400140006080800319BD5422611FA3C66010000020300000C00000000000000000000000000170300006662782F636F72652E786D6C504B01021400140006080800319BD542ACEA6C2C7D0000009D
311
0000000B00000000000000000000000000A70400006662782F636E782E786D6C504B01021400140006080800319BD542D98BE6B02B0100001402000031000000000000000000000000004D0500006662782F42334138313042302D374243332D343833442D394241422D3434324530413231373432392F636F72652E786D6C
311
504B01021400140006080800319BD542D9BF6FC04D010000330300003000000000000000000000000000C70600006662782F42334138313042302D374243332D343833442D394241422D3434324530413231373432392F636E782E786D6C504B01021400140006080800319BD542CBCFA31EA4050000801000003400000000
311
000000000000000000620800006662782F42334138313042302D374243332D343833442D394241422D3434324530413231373432392F6F626A656374732E786D6C504B01021400140006080000319BD5420000000000000000000000003500000000000000000000000000580E00006662782F42334138313042302D374243
311
332D343833442D394241422D3434324530413231373432392F76657274696365732E62696E504B01021400140006080800319BD542F270F13306000000040000003600000000000000000000000000AB0E00006662782F42334138313042302D374243332D343833442D394241422D3434324530413231373432392F747269
311
616E676C65732E62696E504B01021400140006080000319BD5420000000000000000000000003700000000000000000000000000050F00006662782F42334138313042302D374243332D343833442D394241422D3434324530413231373432392F617474726962757465732E62696E504B01021400140006080800319BD542
311
D5987DFC8F0000004101000036000000000000000000000000005A0F00006662782F42334138313042302D374243332D343833442D394241422D3434324530413231373432392F6469726563746F72792E786D6C504B01021400140006080800319BD5429D22C7E4FC000000A00100003B000000000000000000000000003D
311
1000006662782F42334138313042302D374243332D343833442D394241422D3434324530413231373432392F7265736F75726365732F636F72652E786D6C504B0506000000000E000E0080040000921100000000
310
504B03040A0000080000319BD5423DEE336E79000000790000001B0000006175746F6465736B2D64657369676E2D7061636B6167652E786D6C3C3F786D6C2076657273696F6E3D22312E302220656E636F64696E673D227574662D3822203F3E3C666F726D6174733E3C666F726D61743E687474703A2F2F736368656D612E
310
6175746F6465736B2E636F6D2F64657369676E2D7061636B6167652F323030393C2F666F726D61743E3C2F666F726D6174733E504B0304140006080800319BD542D486FD9CA0000000F4000000130000005B436F6E74656E745F54797065735D2E786D6C7D8EC10E82300C865F65E91D8A1E8C310C0EEA1BF002731658846E
310
D98AC1B77784ABF1D8FE5FBFBF75BBCE937A534CCEB38643598122B6FEE978D0B0485F9C41B54DDD7D022595594E1A469170414C76A4D9A4D207E29CF43ECE46F218070CC6BECC4078ACAA135ACF422C856C0E68EA1BF5669944DDD7BCDE7B1F8E415D77AECB980613C2E4AC91FC167A2B244592486606FC29C8FD7F045B9A
310
EF7053A7E60B504B0304140006080800319BD5422381499EEA0000007C01000008000000636F72652E786D6C8D50416EC32010FC0ADA6B850DD871EC08133575FB827E0001715062B00C547D7E71E248EDAD97DDD5ECCCEE68F8F17BBAA12FB304EB5D0FB420808C535E5B37F690E219B7808E822FDEC75F34404E4EA68715
310
06C1C7C5A779839477D1B89851E7B5D94019828980D42D0F3D047531932C648A9911AEC52CD5558EA6A0CF298B53B21A3D9E589DEFD9B3350B08BAAF2B46BA06EFDF488DEB8FD7169F4EC3805B5ABF376CA8DB8E56BC5CC582473B3DFFABC5C8683408466885498319FDA4DD81ED0ED5EE85E44A78B9D2FF88D2ACFF294AD6
310
C58A6D761FB290BD6623F785E0E59A456EF7A0725F73133F504B0304140006080800319BD54255019EA25F0000007C00000007000000636E782E786D6C4DCB3B0E80201045D1AD90E915ED2CF8AC45050C11660C8261F98AB1B07AC9C97D42D718D865D3E909258CFD00CCE24AC6E326A164D74DC0B4128928FF326038472B
310
A13128B1252AC747C6BAB984FC68F0B87FE8960A5C09FE86CFB69FBA01504B0304140006080800319BD5429100BF0467010000020300000C0000006662782F636F72652E786D6C8D525B6E833010BC8AE5DF0A6C1E4948641C354D7B825EC00187A2808DFC40397E9747445345518464AC999DDDD901B6BFB60DEAA5B1B556
310
398E428A9154852E6B55E5D8BB739061B4E7CC68EDFE9461A4442B733CC098B3CA68DFCD50A19593CA01AA74296750582B1D464503971CDBE247B62214DE4185BD849D282EA2926114020D759C5967C0009A860C27E6E7D3959109E7CCFBBA9CD9BA8469F5B99606F368932631DDAE83CD074D83F4EB3D0B0E87E331C8A2F4
310
731D1FD36C1B258C0C62CE5CDDDEDC15460A274BCC631A25015D0771F41D6D77F16A97ACDE289C9491A1FC4EE4BBF24591AF954BE2D9EE24B3E0158C8CC4BF6D212287ACE8C10FE18C0C21C26B4CF83E6808044276E2D4DCF6B800D4CBC2699302536ABF50BD68BC84A9148D0F23130B9DC706B0D9C33EF1933ECF7BC00714
310
AA026BC2C1F5E4DD309D4D53E7283A6982DE5D91D2A615CD626EB2B89CCBA087F24237DABCA226F3AA640E930C7F2FFF05504B0304140006080800319BD542CED3835F7D0000009D0000000B0000006662782F636E782E786D6C4DCCD10A83201886E15B91FFDCA54BC903356ACDFB886521331DA66397BF1A1DECE883878F
310
57B69FD5A3B74D9B8B4101BD1040363CE2E4C2A2A0E4190B40AD9629C6FC770314C6D52A3818B45C522CAF93263B8FC5E75DBD0BCF13FB81D71DA702D35A3498914E604139C537C3AEE66E9A8119029596D5AFB4EF11D65F504B0304140006080800319BD5422846E9B32A01000014020000310000006662782F4244353341
310
3531382D313338372D343041382D383135312D4346343246454637443446302F636F72652E786D6C8D515B6EC32010BC0AE2AB55651BFC8A1B61A2B4A94FD00B38405294182C1E558EDFA576A4F62F3F2C9A9D991DEDB2DD6DBAA26FE5BCB6A6C73427182923ACD4E6DCE3184E5987D18E33676DF843C3C88C93EA71823167
310
6767E3BC42C29AA04C00D458A95670F45E058CC4153E3DF6E24B4D633EC6000C7FC9E7515CC6B3CA690E6DE071E68383006819925ECCDF0E4DB56F6897D1AADB6435D97759471B9ABD0F75397C0C9B433D10562C42CE62D472956B0971F4492BF7A849127316F4748F2F9C1A8392989784561969B3927ED2D76DD96CABE685
310
C00B9313FD9F28CEF24151D42654E51A779179CC292B960667D2C6E3F51E46DD66EB024AF39EBC12CF98931C62B5645376AC58A8B000F06CEBD5D307EB60C14F9723B0ABD5B8AD392BD28DA0FC1E106ABA27FF01504B0304140006080800319BD542BF18A0D75501000033030000300000006662782F42443533413531382D
310
313338372D343041382D383135312D4346343246454637443446302F636E782E786D6CBD93CF6E022110C65F85706DF6BF1A6B584C7AE813F4D02B0BA35259D800DBD4B7EFA068BD7868D2F432D97CF3CD7C935F58B6FD1A0DF9041FB4B33D6DCA9A12B0D2296DF73D9DE3AE5853B2E5CC3B17EF6C945831424F934C39DB7B
310
374F5952B013B389A81A6D8F59F410DCEC250494D324314E0A830BC016338A300EA014287233E2D70E3C9E82E27022F100E4F5E59DB8E103640CAC4A5B38AB520667A9E6A43B1325D288107A1AE40146518A393A05E1582A1145D994D7AC0737FD6C2269E01A397B4D52784F53A53C5F542247566193B3103DD2CBA6789A80
310
72314D464B11117275365E3C9CCDDAC6D5227B3582F7E8EEDAD57A8DCBCE3DCEA21E213BA407114151DED64D57D4ABA26DDE9AE74DBBDC74CBA71A6BCDAA64E76C70CEE4215C03DE4D443A1BC146CA1B56A5F6237CD94794F6C8DAF9D32F4022809C7AA173DBF1977C9A55B758FC239FEAFCBE1197C7BF807F03504B030414
310
0006080800319BD542CF95469762070000991B0000340000006662782F42443533413531382D313338372D343041382D383135312D4346343246454637443446302F6F626A656374732E786D6CED595B73A33614FE2B0C7D691F8C8DEDDC3A844EE2243B9E9DECEEACBB3B7DF00C23834CD408C1482297FEFA1E5DC0404C82
310
BBE9DB3ED880908ECEF9CE5587E08FA78C3A0F980B92B373D7F726AE83599C2784A5E76E29B7A353D7F9230C789ECBC634D76128C3E7AE1A76C320E57959D8A1046F51496567F4E6F22F47C49861D7892912E2DC15F11DCE90874A992758DC7B0992C84BB74F9EEF99896DB22947C55D87688138661238857106541CC394DF
310
7E9CB8E33018ABF761A0FEEDACD9A059F3FE59632D759B4BC284442C7EC15287CC6C104B337F7E753D3D3A1B1DCDE7B3D1FC78EA8F2E6F2EAF46FEC96CB2385E2CCE2EAECF80BD4D9E532B53820BCC12D0DFB31BFAC158BDA945B708ECE33ACE19C3B10612A0D2627509122C60AB067C93F6A3AF246ABCD612369EE7EABD65
310
A1313C6B53E99B350C88165D10C46E57495C5D9BF2E59BBF417031C428B9C012B8159283762D3C1CBCC20D27C1D88C86C166A70B229C0C49CC09A20E251B8E382805A6AA296160165832CA3938907294045A73E675DBB6C033DF769D7D5C6E4B4A9567B8A176AC08DC0F4BA13923FF60BEE3BE890CF004D29684C953CBA57C
310
2EB01B9E05633D1806EA329BDA970648674B512A3422E66D47D08572FDE5951B7EBCD93CAD5438D8BF79C1F30273A98C4EE951F305866CAF0A25BBAD3F48736A01086340B52B77A07C05E43F41F4D8B1027AE3E469FE34B77325474C6C739E816E9C89339AC0DFC4F1F5BFBA6FDC05E37A715B7B7D78829B2AA84E7F1CCFB6
310
0C1A2BCB7F03CE30780083CFF9CCBE5AC588823DDF120600292371680E4310DAB79B27375C42E084400FAB100D7D1019D87D80DB606CC9ECB452B997F53A0688DA3D66439404B0698B04367AF4F401B20727F14E4D4D11FBE03D7A1773BDB85A7D5C957C8B627C6B7DFA0A6F092312B2E67E865A98B724BAC7CF8F394F40D0
310
9778AF9A7867762B01682BCC15F06905827AD8EDDCDA20867569AEC24DF0C60E2084CAD50DFAB744C49852C4705E56FBD6D14D196AEDF1B66670C3A9817836ED9830C70F445515E034BB192D4621EFC79C140A4437FC6024AB83A6D723DDB7E527B0C87A7ECFAC2583D0CB10FD5307AD3D38B42CBB42DA02510BBCD985F338
310
A7398F36CF9189742ED412C046DB5BBEB78842AC374A5254C083B4DF55212535D24609D96E4B0171750F8BDF978BA6394CBC997FE434FF3BCE3887680BBE8BB8F5BBCE1E11C9508AA32D4AFAB66BEE56D3169A640F698EB714E4220F443E4748469304A787407310F1B377A59ED25C08C2B0807CB517FC261A130F0289D166
310
C5B2D26A076822A20C4B440F414091E90157A71D5DE3C6503ABCCD636DBDAF69AC49F47FB2088EA096CC5944A014851CF226E3BE770431A48DAE41B9832F585B455B8B414B2821E2E7E81193F44E1E82BA21DF837B0C4792524679816230EB01645FF88A526A87F70D8AEF55FE88E292BE9781084CB711A1B4CC22F8110627
310
8F21AE5D07A65751681037B14FE20C8A32244B3E6493E3A3C98B7D4CCDD00D818D8DB68442D88E3254F4A0DE0A88BA1E716AF02DF51EA56ECAAC885096976C90A178B3AE3759F25DB52AB203F955A522948D15614B300C08937556AD623698BA0EACE0463A503D4702650535A7B037128F5F7B93A6DCBB01B77EFABE1B6450
310
F8F568AF1951E7150C96C75661201E918CEFDC70A5AFA34BA8BF139CEC527D556B362B40404C45F29213ABA26F4B286F6C8DE686B7488AF5079375ABEBB7A507DD8F600C6BA076A9172E15D0196612A9CAE456DDD0AF0842708B86195FAA9C7A08958B24D15523A237A44F9DAD32A2B56946BCE20EB33C831F5B1316D332C1
310
6B9488FBE856D2684514EB564A2F2315C6AF0AF8F9C3AA030F8C0C10E98B2AF0F06367AD1D5DA872692F117957661B860804C19668A9D18D57B0D46AA4D2727D55670AA8BBC0C0AC8AE73F4F16CD76C4CF93456A0DE3C74E1634DF20BA8B368D6C1E2BB33EE81450A72745E53D4E01BAEB5053AD9388C9E5567CEB4B11C4C4
310
2AC80F2EC6AA986108F671FC9F93765F1234DB75F83F2C69FB2F0A8E83924A6BB26A52ED295C97CD14767972353DF227A7A3E9C5CDF5687E349B8F2E4EA667A3C564713D39BEF42F4FFCCB1A4DEDA76150C7329DBAE0D9C4B46A583D590CA0292B724A1238CC274E8A21E44B38D20FE89EF30C0BC89DCD5E77627BF203563F
310
9836A7441B8A2B4EEE10F487A980AC0E1895B16C8F3BBF406752C239FBDC859E91770F7FD62A5D0712CFB90B9D0249622CBC0D7499543F4F13878CAB53BF2506F82096AA8C6816D5CFF52A854D2BFAD7538664012B57AB8501755B01CDAF568342F366798A0F12BC62C741126E37A58462CDC8B21BA885D1DBECD46F64A384
310
DDDBAD9FC0755F17CBF7F49C162283BE18BC6A0486EA48229EEA76B762CCB27471F5650C6D3667F9D9296899822E87531A710CC65CAA7A0AAC08ACC2D22C9004535DFCBEFEC273F8C29339BA28727E7D3A3DFE6DBDC8B32C6766687D0187B204BE1339AB3BF8EA93ACA176C0AAB72ED6D3893F5DEB9EB66DB3471B24B0A78A
310
2218A86A092548C7E4C02E5FF4A76CF772AC54D199BEBC726C10855E80B1A3172D5EF38DCB011F525F5394C7683FAFA47DB5AD3DD653C1263834A4C37F01504B0304140006080000319BD542000000000000000000000000350000006662782F42443533413531382D313338372D343041382D383135312D43463432464546
310
37443446302F76657274696365732E62696E504B0304140006080800319BD542F270F1330600000004000000360000006662782F42443533413531382D313338372D343041382D383135312D4346343246454637443446302F747269616E676C65732E62696E636660600000504B0304140006080000319BD5420000000000
310
00000000000000370000006662782F42443533413531382D313338372D343041382D383135312D4346343246454637443446302F617474726962757465732E62696E504B0304140006080800319BD542D5987DFC8F00000041010000360000006662782F42443533413531382D313338372D343041382D383135312D434634
310
3246454637443446302F6469726563746F72792E786D6C858F410EC2201045AF4266AF15DDB800BA74E7C21B903225242D6328188F2FA5C4183471359997F9FF81E89FF3C41E1816475E02DF1F80A11FC8386F25A438EECEC07A250251FC3803E6F58C12560C4AD840E95E91C151A72936F496F35732D860FE635F62C8F2DA
310
16B505C545B74125BAA2FA9E05D7CC053D063734D5C7665FD55B6B8D15D5E9BFEAFD8490FFA45E504B0304140006080800319BD5424B6B14AFFD000000A00100003B0000006662782F42443533413531382D313338372D343041382D383135312D4346343246454637443446302F7265736F75726365732F636F72652E786D
310
6C8D504B6E833010BD0AF2B632D80612888CA3A6B427E8052C33A156828DFCA97AFCDA814AEDAE9B99D1FB689E1E3F7F2DF7E2139CD7D60C8896041560949DB4990714C31577A8380BEEAC0DBF64A8307281016518093E3B1BD71D52D6043021A1C64EB083D27B08A850F7740CC8AB0F58642963480A7F2B57A96E72869296
310
894E3AC17D702940B13DC9130907DE46A7C0F36A63058F514FBB464FE9A7BE6A7048D0635333D2B7F8F8421ADCBC3D77F8721947DCD1E6F5C0C6A6EB69CDAB6C163CE8E527A37220034C4830426B4C0E98D177DA9F587BAADB279226E15596FF31C575FAA7296A136AB6C7DD6C3E654D411E84E055EE2BAD479969E76EC537
310
504B010214000A0000080000319BD5423DEE336E79000000790000001B00000000000000000000000000000000006175746F6465736B2D64657369676E2D7061636B6167652E786D6C504B01021400140006080800319BD542D486FD9CA0000000F40000001300000000000000000000000000B20000005B436F6E74656E74
310
5F54797065735D2E786D6C504B01021400140006080800319BD5422381499EEA0000007C010000080000000000000000000000000083010000636F72652E786D6C504B01021400140006080800319BD54255019EA25F0000007C000000070000000000000000000000000093020000636E782E786D6C504B01021400140006
310
080800319BD5429100BF0467010000020300000C00000000000000000000000000170300006662782F636F72652E786D6C504B01021400140006080800319BD542CED3835F7D0000009D0000000B00000000000000000000000000A80400006662782F636E782E786D6C504B01021400140006080800319BD5422846E9B32A
310
0100001402000031000000000000000000000000004E0500006662782F42443533413531382D313338372D343041382D383135312D4346343246454637443446302F636F72652E786D6C504B01021400140006080800319BD542BF18A0D755010000330300003000000000000000000000000000C70600006662782F424435
310
33413531382D313338372D343041382D383135312D4346343246454637443446302F636E782E786D6C504B01021400140006080800319BD542CF95469762070000991B000034000000000000000000000000006A0800006662782F42443533413531382D313338372D343041382D383135312D434634324645463744344630
310
2F6F626A656374732E786D6C504B01021400140006080000319BD54200000000000000000000000035000000000000000000000000001E1000006662782F42443533413531382D313338372D343041382D383135312D4346343246454637443446302F76657274696365732E62696E504B01021400140006080800319BD542
310
F270F13306000000040000003600000000000000000000000000711000006662782F42443533413531382D313338372D343041382D383135312D4346343246454637443446302F747269616E676C65732E62696E504B01021400140006080000319BD5420000000000000000000000003700000000000000000000000000CB
310
1000006662782F42443533413531382D313338372D343041382D383135312D4346343246454637443446302F617474726962757465732E62696E504B01021400140006080800319BD542D5987DFC8F000000410100003600000000000000000000000000201100006662782F42443533413531382D313338372D343041382D
310
383135312D4346343246454637443446302F6469726563746F72792E786D6C504B01021400140006080800319BD5424B6B14AFFD000000A00100003B00000000000000000000000000031200006662782F42443533413531382D313338372D343041382D383135312D4346343246454637443446302F7265736F7572636573
310
2F636F72652E786D6C504B0506000000000E000E0080040000591300000000
  0
XRECORD
  5
27
102
{ACAD_REACTORS
330
22
102
}
330
22
100
AcDbXrecord
280
     1
270
     1
271
     1
  0
XRECORD
  5
26
102
{ACAD_REACTORS
330
22
102
}
330
22
100
AcDbXrecord
280
     1
270
     1
271
     1
  0
XRECORD
  5
28
102
{ACAD_REACTORS
330
22
102
}
330
22
100
AcDbXrecord
280
     1
270
     1
271
     1
  0
XRECORD
  5
25
102
{ACAD_REACTORS
330
22
102
}
330
22
100
AcDbXrecord
280
     1
270
     1
271
     1
  0
XRECORD
  5
E85
102
{ACAD_REACTORS
330
E84
102
}
330
E84
100
AcDbXrecord
280
     1
102
ACAD_ROUNDTRIP_2012_MLEADER_STYLE
298
     1
  0
CELLSTYLEMAP
  5
E83
102
{ACAD_REACTORS
330
E82
102
}
330
E82
100
AcDbCellStyleMap
 90
        3
300
CELLSTYLE
  1
TABLEFORMAT_BEGIN
 90
        5
170
     1
 91
        0
 92
    32768
 62
   257
 93
        1
300
CONTENTFORMAT
  1
CONTENTFORMAT_BEGIN
 90
        0
 91
        0
 92
      512
 93
        0
300

 40
0.0
140
1.0
 94
        5
 62
     0
340
55
144
0.25
309
CONTENTFORMAT_END
171
     0
 94
        0
309
TABLEFORMAT_END
  1
CELLSTYLE_BEGIN
 90
        1
 91
        1
300
_TITLE
309
CELLSTYLE_END
300
CELLSTYLE
  1
TABLEFORMAT_BEGIN
 90
        5
170
     1
 91
        0
 92
        0
 62
   257
 93
        1
300
CONTENTFORMAT
  1
CONTENTFORMAT_BEGIN
 90
        0
 91
        0
 92
      512
 93
        0
300

 40
0.0
140
1.0
 94
        5
 62
     0
340
55
144
0.18
309
CONTENTFORMAT_END
171
     0
 94
        0
309
TABLEFORMAT_END
  1
CELLSTYLE_BEGIN
 90
        2
 91
        1
300
_HEADER
309
CELLSTYLE_END
300
CELLSTYLE
  1
TABLEFORMAT_BEGIN
 90
        5
170
     1
 91
        0
 92
        0
 62
   257
 93
        1
300
CONTENTFORMAT
  1
CONTENTFORMAT_BEGIN
 90
        0
 91
        0
 92
      512
 93
        0
300

 40
0.0
140
1.0
 94
        2
 62
     0
340
55
144
0.18
309
CONTENTFORMAT_END
171
     0
 94
        0
309
TABLEFORMAT_END
  1
CELLSTYLE_BEGIN
 90
        3
 91
        2
300
_DATA
309
CELLSTYLE_END
  0
ENDSEC
  0
EOF
