  0
SECTION
  2
HEADER
  9
$ACADVER
  1
AC1024
  9
$ACADMAINTVER
 70
    63
  9
$DWGCODEPAGE
  3
ANSI_1252
  9
$AUTHOR
  1
PR
  9
$REVISIONNUMBER
  1
-
  9
$CUSTOMPROPERTYTAG
  1
Manager
  9
$CUSTOMPROPERTY
  1

  9
$CUSTOMPROPERTYTAG
  1
Company
  9
$CUSTOMPROPERTY
  1

  9
$CUSTOMPROPERTYTAG
  1
Category
  9
$CUSTOMPROPERTY
  1

  9
$CUSTOMPROPERTYTAG
  1
Part Number
  9
$CUSTOMPROPERTY
  1
WA90SMP14-S
  9
$CUSTOMPROPERTYTAG
  1
Description
  9
$CUSTOMPROPERTY
  1
N1P PANEL MASTER VIEW
  9
$CUSTOMPROPERTYTAG
  1
Project
  9
$CUSTOMPROPERTY
  1

  9
$CUSTOMPROPERTYTAG
  1
Designer
  9
$CUSTOMPROPERTY
  1
PR
  9
$CUSTOMPROPERTYTAG
  1
Engineer
  9
$CUSTOMPROPERTY
  1

  9
$CUSTOMPROPERTYTAG
  1
Authority
  9
$CUSTOMPROPERTY
  1

  9
$CUSTOMPROPERTYTAG
  1
Cost Center
  9
$CUSTOMPROPERTY
  1

  9
$CUSTOMPROPERTYTAG
  1
Vendor
  9
$CUSTOMPROPERTY
  1

  9
$CUSTOMPROPERTYTAG
  1
User Status
  9
$CUSTOMPROPERTY
  1

  9
$CUSTOMPROPERTYTAG
  1
Design Status
  9
$CUSTOMPROPERTY
  1
WorkInProgress
  9
$CUSTOMPROPERTYTAG
  1
Checked by
  9
$CUSTOMPROPERTY
  1
NJ
  9
$CUSTOMPROPERTYTAG
  1
Engr Approved by
  9
$CUSTOMPROPERTY
  1

  9
$CUSTOMPROPERTYTAG
  1
Date Eng Approved
  9
$CUSTOMPROPERTY
  1
06/24/2013
  9
$CUSTOMPROPERTYTAG
  1
Mfg Approved by
  9
$CUSTOMPROPERTY
  1

  9
$CUSTOMPROPERTYTAG
  1
DWG. NO
  9
$CUSTOMPROPERTY
  1

  9
$CUSTOMPROPERTYTAG
  1
NUMBER OF SHEETS
  9
$CUSTOMPROPERTY
  1
1
  9
$CUSTOMPROPERTYTAG
  1
DRAWING #
  9
$CUSTOMPROPERTY
  1
1
  9
$INSBASE
 10
0.0
 20
0.0
 30
0.0
  9
$EXTMIN
 10
0.0
 20
0.0
 30
0.0
  9
$EXTMAX
 10
229.5
 20
148.5
 30
0.0
  9
$LIMMIN
 10
0.0
 20
0.0
  9
$LIMMAX
 10
229.5
 20
148.5
  9
$ORTHOMODE
 70
     0
  9
$REGENMODE
 70
     1
  9
$FILLMODE
 70
     1
  9
$QTEXTMODE
 70
     0
  9
$MIRRTEXT
 70
     0
  9
$LTSCALE
 40
13.5
  9
$ATTMODE
 70
     1
  9
$TEXTSIZE
 40
0.2
  9
$TRACEWID
 40
0.05
  9
$TEXTSTYLE
  7
Standard
  9
$CLAYER
  8
0
  9
$CELTYPE
  6
ByLayer
  9
$CECOLOR
 62
   256
  9
$CELTSCALE
 40
1.0
  9
$DISPSILH
 70
     0
  9
$DIMSCALE
 40
1.0
  9
$DIMASZ
 40
0.0708661417322835
  9
$DIMEXO
 40
0.0625
  9
$DIMDLI
 40
0.38
  9
$DIMRND
 40
0.0
  9
$DIMDLE
 40
0.0
  9
$DIMEXE
 40
0.18
  9
$DIMTP
 40
0.0
  9
$DIMTM
 40
0.0
  9
$DIMTXT
 40
0.0708661417322835
  9
$DIMCEN
 40
0.09
  9
$DIMTSZ
 40
0.0
  9
$DIMTOL
 70
     0
  9
$DIMLIM
 70
     0
  9
$DIMTIH
 70
     1
  9
$DIMTOH
 70
     1
  9
$DIMSE1
 70
     0
  9
$DIMSE2
 70
     0
  9
$DIMTAD
 70
     0
  9
$DIMZIN
 70
     0
  9
$DIMBLK
  1

  9
$DIMASO
 70
     1
  9
$DIMSHO
 70
     1
  9
$DIMPOST
  1

  9
$DIMAPOST
  1

  9
$DIMALT
 70
     0
  9
$DIMALTD
 70
     2
  9
$DIMALTF
 40
25.4
  9
$DIMLFAC
 40
1.0
  9
$DIMTOFL
 70
     0
  9
$DIMTVP
 40
0.0
  9
$DIMTIX
 70
     0
  9
$DIMSOXD
 70
     0
  9
$DIMSAH
 70
     0
  9
$DIMBLK1
  1

  9
$DIMBLK2
  1

  9
$DIMSTYLE
  2
STANDARD
  9
$DIMCLRD
 70
     0
  9
$DIMCLRE
 70
     0
  9
$DIMCLRT
 70
     0
  9
$DIMTFAC
 40
1.0
  9
$DIMGAP
 40
0.09
  9
$DIMJUST
 70
     0
  9
$DIMSD1
 70
     0
  9
$DIMSD2
 70
     0
  9
$DIMTOLJ
 70
     1
  9
$DIMTZIN
 70
     0
  9
$DIMALTZ
 70
     0
  9
$DIMALTTZ
 70
     0
  9
$DIMUPT
 70
     0
  9
$DIMDEC
 70
     4
  9
$DIMTDEC
 70
     4
  9
$DIMALTU
 70
     2
  9
$DIMALTTD
 70
     2
  9
$DIMTXSTY
  7
Standard
  9
$DIMAUNIT
 70
     0
  9
$DIMADEC
 70
     0
  9
$DIMALTRND
 40
0.0
  9
$DIMAZIN
 70
     0
  9
$DIMDSEP
 70
    46
  9
$DIMATFIT
 70
     3
  9
$DIMFRAC
 70
     0
  9
$DIMLDRBLK
  1

  9
$DIMLUNIT
 70
     2
  9
$DIMLWD
 70
    -2
  9
$DIMLWE
 70
    -2
  9
$DIMTMOVE
 70
     0
  9
$DIMFXL
 40
1.0
  9
$DIMFXLON
 70
     0
  9
$DIMJOGANG
 40
0.7853981633974483
  9
$DIMTFILL
 70
     0
  9
$DIMTFILLCLR
 70
     0
  9
$DIMARCSYM
 70
     0
  9
$DIMLTYPE
  6

  9
$DIMLTEX1
  6

  9
$DIMLTEX2
  6

  9
$DIMTXTDIRECTION
 70
     0
  9
$LUNITS
 70
     2
  9
$LUPREC
 70
     4
  9
$SKETCHINC
 40
0.1
  9
$FILLETRAD
 40
0.0
  9
$AUNITS
 70
     0
  9
$AUPREC
 70
     0
  9
$MENU
  1
.
  9
$ELEVATION
 40
0.0
  9
$PELEVATION
 40
0.0
  9
$THICKNESS
 40
0.0
  9
$LIMCHECK
 70
     0
  9
$CHAMFERA
 40
0.0
  9
$CHAMFERB
 40
0.0
  9
$CHAMFERC
 40
0.0
  9
$CHAMFERD
 40
0.0
  9
$SKPOLY
 70
     0
  9
$TDCREATE
 40
2456471.293404422
  9
$TDUCREATE
 40
2456471.064237755
  9
$TDUPDATE
 40
2456471.293404433
  9
$TDUUPDATE
 40
2456471.064237767
  9
$TDINDWG
 40
0.0000486227
  9
$TDUSRTIMER
 40
0.0000486227
  9
$USRTIMER
 70
     1
  9
$ANGBASE
 50
0.0
  9
$ANGDIR
 70
     0
  9
$PDMODE
 70
     0
  9
$PDSIZE
 40
0.0
  9
$PLINEWID
 40
0.0
  9
$SPLFRAME
 70
     0
  9
$SPLINETYPE
 70
     6
  9
$SPLINESEGS
 70
     8
  9
$HANDSEED
  5
B16
  9
$SURFTAB1
 70
     6
  9
$SURFTAB2
 70
     6
  9
$SURFTYPE
 70
     6
  9
$SURFU
 70
     6
  9
$SURFV
 70
     6
  9
$UCSBASE
  2

  9
$UCSNAME
  2

  9
$UCSORG
 10
0.0
 20
0.0
 30
0.0
  9
$UCSXDIR
 10
1.0
 20
0.0
 30
0.0
  9
$UCSYDIR
 10
0.0
 20
1.0
 30
0.0
  9
$UCSORTHOREF
  2

  9
$UCSORTHOVIEW
 70
     0
  9
$UCSORGTOP
 10
0.0
 20
0.0
 30
0.0
  9
$UCSORGBOTTOM
 10
0.0
 20
0.0
 30
0.0
  9
$UCSORGLEFT
 10
0.0
 20
0.0
 30
0.0
  9
$UCSORGRIGHT
 10
0.0
 20
0.0
 30
0.0
  9
$UCSORGFRONT
 10
0.0
 20
0.0
 30
0.0
  9
$UCSORGBACK
 10
0.0
 20
0.0
 30
0.0
  9
$PUCSBASE
  2

  9
$PUCSNAME
  2

  9
$PUCSORG
 10
0.0
 20
0.0
 30
0.0
  9
$PUCSXDIR
 10
1.0
 20
0.0
 30
0.0
  9
$PUCSYDIR
 10
0.0
 20
1.0
 30
0.0
  9
$PUCSORTHOREF
  2

  9
$PUCSORTHOVIEW
 70
     0
  9
$PUCSORGTOP
 10
0.0
 20
0.0
 30
0.0
  9
$PUCSORGBOTTOM
 10
0.0
 20
0.0
 30
0.0
  9
$PUCSORGLEFT
 10
0.0
 20
0.0
 30
0.0
  9
$PUCSORGRIGHT
 10
0.0
 20
0.0
 30
0.0
  9
$PUCSORGFRONT
 10
0.0
 20
0.0
 30
0.0
  9
$PUCSORGBACK
 10
0.0
 20
0.0
 30
0.0
  9
$USERI1
 70
     0
  9
$USERI2
 70
     0
  9
$USERI3
 70
     0
  9
$USERI4
 70
     0
  9
$USERI5
 70
     0
  9
$USERR1
 40
0.0
  9
$USERR2
 40
0.0
  9
$USERR3
 40
0.0
  9
$USERR4
 40
0.0
  9
$USERR5
 40
0.0
  9
$WORLDVIEW
 70
     1
  9
$SHADEDGE
 70
     3
  9
$SHADEDIF
 70
    70
  9
$TILEMODE
 70
     1
  9
$MAXACTVP
 70
    64
  9
$PINSBASE
 10
0.0
 20
0.0
 30
0.0
  9
$PLIMCHECK
 70
     0
  9
$PEXTMIN
 10
0.0
 20
0.0
 30
0.0
  9
$PEXTMAX
 10
229.5
 20
148.5
 30
0.0
  9
$PLIMMIN
 10
0.0
 20
0.0
  9
$PLIMMAX
 10
229.5
 20
148.5
  9
$UNITMODE
 70
     0
  9
$VISRETAIN
 70
     1
  9
$PLINEGEN
 70
     0
  9
$PSLTSCALE
 70
     1
  9
$TREEDEPTH
 70
  3020
  9
$CMLSTYLE
  2
Standard
  9
$CMLJUST
 70
     0
  9
$CMLSCALE
 40
1.0
  9
$PROXYGRAPHICS
 70
     1
  9
$MEASUREMENT
 70
     0
  9
$CELWEIGHT
370
    -1
  9
$ENDCAPS
280
     0
  9
$JOINSTYLE
280
     0
  9
$LWDISPLAY
290
     0
  9
$INSUNITS
 70
     1
  9
$HYPERLINKBASE
  1

  9
$STYLESHEET
  1

  9
$XEDIT
290
     1
  9
$CEPSNTYPE
380
     0
  9
$PSTYLEMODE
290
     1
  9
$FINGERPRINTGUID
  2
{72A5AFED-C4E7-4D8F-A361-70598E2CBCA5}
  9
$VERSIONGUID
  2
{BDF017EC-EE46-4BC8-BCC1-4D65464EE023}
  9
$EXTNAMES
290
     1
  9
$PSVPSCALE
 40
0.0
  9
$OLESTARTUP
290
     0
  9
$SORTENTS
280
   127
  9
$INDEXCTL
280
     0
  9
$HIDETEXT
280
     1
  9
$XCLIPFRAME
280
     2
  9
$HALOGAP
280
     0
  9
$OBSCOLOR
 70
   257
  9
$OBSLTYPE
280
     0
  9
$INTERSECTIONDISPLAY
280
     0
  9
$INTERSECTIONCOLOR
 70
   257
  9
$DIMASSOC
280
     1
  9
$PROJECTNAME
  1

  9
$CAMERADISPLAY
290
     0
  9
$LENSLENGTH
 40
50.0
  9
$CAMERAHEIGHT
 40
0.0
  9
$STEPSPERSEC
 40
2.0
  9
$STEPSIZE
 40
6.0
  9
$3DDWFPREC
 40
2.0
  9
$PSOLWIDTH
 40
0.25
  9
$PSOLHEIGHT
 40
4.0
  9
$LOFTANG1
 40
1.570796326794896
  9
$LOFTANG2
 40
1.570796326794896
  9
$LOFTMAG1
 40
0.0
  9
$LOFTMAG2
 40
0.0
  9
$LOFTPARAM
 70
     7
  9
$LOFTNORMALS
280
     1
  9
$LATITUDE
 40
37.795
  9
$LONGITUDE
 40
-122.394
  9
$NORTHDIRECTION
 40
0.0
  9
$TIMEZONE
 70
 -8000
  9
$LIGHTGLYPHDISPLAY
280
     1
  9
$TILEMODELIGHTSYNCH
280
     1
  9
$CMATERIAL
347
11
  9
$SOLIDHIST
280
     0
  9
$SHOWHIST
280
     1
  9
$DWFFRAME
280
     2
  9
$DGNFRAME
280
     0
  9
$REALWORLDSCALE
290
     1
  9
$INTERFERECOLOR
 62
     1
  9
$INTERFEREOBJVS
345
33
  9
$INTERFEREVPVS
346
30
  9
$CSHADOW
280
     0
  9
$SHADOWPLANELOCATION
 40
0.0
  0
ENDSEC
  0
SECTION
  2
CLASSES
  0
CLASS
  1
ACDBDICTIONARYWDFLT
  2
AcDbDictionaryWithDefault
  3
ObjectDBX Classes
 90
        0
 91
        1
280
     0
281
     0
  0
CLASS
  1
MATERIAL
  2
AcDbMaterial
  3
ObjectDBX Classes
 90
     1153
 91
        3
280
     0
281
     0
  0
CLASS
  1
VISUALSTYLE
  2
AcDbVisualStyle
  3
ObjectDBX Classes
 90
     4095
 91
       24
280
     0
281
     0
  0
CLASS
  1
SCALE
  2
AcDbScale
  3
ObjectDBX Classes
 90
     1153
 91
       17
280
     0
281
     0
  0
CLASS
  1
TABLESTYLE
  2
AcDbTableStyle
  3
ObjectDBX Classes
 90
     4095
 91
        1
280
     0
281
     0
  0
CLASS
  1
MLEADERSTYLE
  2
AcDbMLeaderStyle
  3
ACDB_MLEADERSTYLE_CLASS
 90
     4095
 91
        1
280
     0
281
     0
  0
CLASS
  1
DICTIONARYVAR
  2
AcDbDictionaryVar
  3
ObjectDBX Classes
 90
        0
 91
        3
280
     0
281
     0
  0
CLASS
  1
CELLSTYLEMAP
  2
AcDbCellStyleMap
  3
ObjectDBX Classes
 90
     1152
 91
        1
280
     0
281
     0
  0
ENDSEC
  0
SECTION
  2
TABLES
  0
TABLE
  2
VPORT
  5
8
330
0
100
AcDbSymbolTable
 70
     1
  0
VPORT
  5
57
330
8
100
AcDbSymbolTableRecord
100
AcDbViewportTableRecord
  2
*Active
 70
     0
 10
0.0
 20
0.0
 11
1.0
 21
1.0
 12
114.75
 22
74.25
 13
0.0
 23
0.0
 14
1.0
 24
1.0
 15
0.0
 25
0.0
 16
0.0
 26
0.0
 36
1.0
 17
0.0
 27
0.0
 37
0.0
 40
148.5
 41
1.545454545454545
 42
50.0
 43
0.0
 44
0.0
 50
0.0
 51
0.0
 71
     0
 72
   100
 73
     1
 74
     1
 75
     0
 76
     0
 77
     0
 78
     0
281
     0
 65
     1
110
0.0
120
0.0
130
0.0
111
1.0
121
0.0
131
0.0
112
0.0
122
1.0
132
0.0
 79
     0
146
0.0
 60
     3
 61
     5
292
     1
282
     1
141
0.0
142
0.0
 63
   250
421
  3355443
  0
ENDTAB
  0
TABLE
  2
LTYPE
  5
5
330
0
100
AcDbSymbolTable
 70
    59
  0
LTYPE
  5
5B
330
5
100
AcDbSymbolTableRecord
100
AcDbLinetypeTableRecord
  2
ByBlock
 70
     0
  3

 72
    65
 73
     0
 40
0.0
  0
LTYPE
  5
5C
330
5
100
AcDbSymbolTableRecord
100
AcDbLinetypeTableRecord
  2
ByLayer
 70
     0
  3

 72
    65
 73
     0
 40
0.0
  0
LTYPE
  5
5D
330
5
100
AcDbSymbolTableRecord
100
AcDbLinetypeTableRecord
  2
Continuous
 70
     0
  3
Solid line
 72
    65
 73
     0
 40
0.0
  0
LTYPE
  5
7C
330
5
100
AcDbSymbolTableRecord
100
AcDbLinetypeTableRecord
  2
BY_STANDARD
 70
     0
  3
By Standard ____________    ____    ____   _
 72
    65
 73
     6
 40
1.240299999999999
 49
0.6614
 74
     0
 49
-0.0827
 74
     0
 49
0.1654
 74
     0
 49
-0.0827
 74
     0
 49
0.1654
 74
     0
 49
-0.0827
 74
     0
  0
LTYPE
  5
7D
330
5
100
AcDbSymbolTableRecord
100
AcDbLinetypeTableRecord
  2
CHAIN
 70
     0
  3
Chain ____ _ ____ _ ____ _ ____ _ ____ _ ____
 72
    65
 73
     4
 40
0.7087
 49
0.4724000000000001
 74
     0
 49
-0.0591
 74
     0
 49
0.1181
 74
     0
 49
-0.0591
 74
     0
  0
LTYPE
  5
7E
330
5
100
AcDbSymbolTableRecord
100
AcDbLinetypeTableRecord
  2
DASH_DOT
 70
     0
  3
Dash dot __ . __ . __ . __ . __ . __ . __ . __
 72
    65
 73
     4
 40
0.37
 49
0.24
 74
     0
 49
-0.06
 74
     0
 49
0.01
 74
     0
 49
-0.06
 74
     0
  0
LTYPE
  5
7F
330
5
100
AcDbSymbolTableRecord
100
AcDbLinetypeTableRecord
  2
DOUBLE_DASH_DOT
 70
     0
  3
Double-Dash Dot __ __ . __ __ . __ __ . __ _
 72
    65
 73
     6
 40
0.4398
 49
0.24
 74
     0
 49
-0.06
 74
     0
 49
0.0098
 74
     0
 49
-0.06
 74
     0
 49
0.01
 74
     0
 49
-0.06
 74
     0
  0
LTYPE
  5
80
330
5
100
AcDbSymbolTableRecord
100
AcDbLinetypeTableRecord
  2
DASH_TRIPLE_DOT
 70
     0
  3
Dash Triple-Dot _ . . . _ . . . _ . . . _
 72
    65
 73
     8
 40
0.51
 49
0.24
 74
     0
 49
-0.06
 74
     0
 49
0.01
 74
     0
 49
-0.06
 74
     0
 49
0.01
 74
     0
 49
-0.06
 74
     0
 49
0.01
 74
     0
 49
-0.06
 74
     0
  0
LTYPE
  5
81
330
5
100
AcDbSymbolTableRecord
100
AcDbLinetypeTableRecord
  2
DASHED
 70
     0
  3
Dashed __ __ __ __ __ __ __ __ __ __ __ __ __ _
 72
    65
 73
     2
 40
0.2067
 49
0.1654
 74
     0
 49
-0.0413
 74
     0
  0
LTYPE
  5
82
330
5
100
AcDbSymbolTableRecord
100
AcDbLinetypeTableRecord
  2
DASH_DOUBLE_DOT
 70
     0
  3
Dash Double-Dot __ . . __ . . __ . . __ . .
 72
    65
 73
     6
 40
0.4398
 49
0.24
 74
     0
 49
-0.06
 74
     0
 49
0.0098
 74
     0
 49
-0.06
 74
     0
 49
0.01
 74
     0
 49
-0.06
 74
     0
  0
LTYPE
  5
83
330
5
100
AcDbSymbolTableRecord
100
AcDbLinetypeTableRecord
  2
DASHED_SPACE
 70
     0
  3
Dashed Space __ __ __ __ __ __ __ __ __ __ __ _
 72
    65
 73
     2
 40
0.2067
 49
0.1654
 74
     0
 49
-0.0413
 74
     0
  0
LTYPE
  5
84
330
5
100
AcDbSymbolTableRecord
100
AcDbLinetypeTableRecord
  2
DOTTED
 70
     0
  3
Dotted . . . . . . . . . . . . . . . . . . . . 
 72
    65
 73
     2
 40
0.0482
 49
0.0069
 74
     0
 49
-0.0413
 74
     0
  0
LTYPE
  5
85
330
5
100
AcDbSymbolTableRecord
100
AcDbLinetypeTableRecord
  2
DOUBLE_DASH_CHAIN
 70
     0
  3
Double-Dash Chain ______  __  __  ______  __  _
 72
    65
 73
     6
 40
1.240299999999999
 49
0.6614
 74
     0
 49
-0.0827
 74
     0
 49
0.1654
 74
     0
 49
-0.0827
 74
     0
 49
0.1654
 74
     0
 49
-0.0827
 74
     0
  0
LTYPE
  5
87
330
5
100
AcDbSymbolTableRecord
100
AcDbLinetypeTableRecord
  2
DOUBLE_DASH_DOUBLE_DOT
 70
     0
  3
Double-Dash Double-dot _ _ . . _ _ . . _
 72
    65
 73
     8
 40
0.7400000000000001
 49
0.24
 74
     0
 49
-0.06
 74
     0
 49
0.24
 74
     0
 49
-0.06
 74
     0
 49
0.01
 74
     0
 49
-0.06
 74
     0
 49
0.01
 74
     0
 49
-0.06
 74
     0
  0
LTYPE
  5
88
330
5
100
AcDbSymbolTableRecord
100
AcDbLinetypeTableRecord
  2
DOUBLE_DASH_TRIPLE_DOT
 70
     0
  3
Double Dash Triple Dot __ __ . . . __ __ . .
 72
    65
 73
    10
 40
0.8100000000000001
 49
0.24
 74
     0
 49
-0.06
 74
     0
 49
0.24
 74
     0
 49
-0.06
 74
     0
 49
0.01
 74
     0
 49
-0.06
 74
     0
 49
0.01
 74
     0
 49
-0.06
 74
     0
 49
0.01
 74
     0
 49
-0.06
 74
     0
  0
LTYPE
  5
89
330
5
100
AcDbSymbolTableRecord
100
AcDbLinetypeTableRecord
  2
LONG_DASH_DOTTED
 70
     0
  3
Long Dash Dotted ____ . ____ . ____ . ____ . _
 72
    65
 73
     4
 40
0.3543
 49
0.2362
 74
     0
 49
-0.0295
 74
     0
 49
0.0591
 74
     0
 49
-0.0295
 74
     0
  0
LTYPE
  5
8A
330
5
100
AcDbSymbolTableRecord
100
AcDbLinetypeTableRecord
  2
LONG_DASH_DOUBLE_DOT
 70
     0
  3
Long Dash Double Dot ________  .  .  ________  
 72
    65
 73
     6
 40
0.6799999999999999
 49
0.48
 74
     0
 49
-0.06
 74
     0
 49
0.01
 74
     0
 49
-0.06
 74
     0
 49
0.01
 74
     0
 49
-0.06
 74
     0
  0
LTYPE
  5
8B
330
5
100
AcDbSymbolTableRecord
100
AcDbLinetypeTableRecord
  2
LONG_DASH_TRIPLE_DOT
 70
     0
  3
Long Dash Triple Dot ____ ... ____ ... ____
 72
    65
 73
     8
 40
0.3689
 49
0.2362
 74
     0
 49
-0.0295
 74
     0
 49
0.0049
 74
     0
 49
-0.0295
 74
     0
 49
0.0049
 74
     0
 49
-0.0295
 74
     0
 49
0.0049
 74
     0
 49
-0.0295
 74
     0
  0
LTYPE
  5
8C
330
5
100
AcDbSymbolTableRecord
100
AcDbLinetypeTableRecord
  2
BORDER
 70
     0
  3
Border __ __ . __ __ . __ __ . __ __ . __ __ .
 72
    65
 73
     6
 40
1.75
 49
0.5
 74
     0
 49
-0.25
 74
     0
 49
0.5
 74
     0
 49
-0.25
 74
     0
 49
0.0
 74
     0
 49
-0.25
 74
     0
  0
LTYPE
  5
8D
330
5
100
AcDbSymbolTableRecord
100
AcDbLinetypeTableRecord
  2
BORDER2
 70
     0
  3
Border (.5x) __.__.__.__.__.__.__.__.__.__.__.
 72
    65
 73
     6
 40
0.875
 49
0.25
 74
     0
 49
-0.125
 74
     0
 49
0.25
 74
     0
 49
-0.125
 74
     0
 49
0.0
 74
     0
 49
-0.125
 74
     0
  0
LTYPE
  5
8E
330
5
100
AcDbSymbolTableRecord
100
AcDbLinetypeTableRecord
  2
BORDERX2
 70
     0
  3
Border (2x) ____  ____  .  ____  ____  .  ___
 72
    65
 73
     6
 40
3.5
 49
1.0
 74
     0
 49
-0.5
 74
     0
 49
1.0
 74
     0
 49
-0.5
 74
     0
 49
0.0
 74
     0
 49
-0.5
 74
     0
  0
LTYPE
  5
8F
330
5
100
AcDbSymbolTableRecord
100
AcDbLinetypeTableRecord
  2
CENTER
 70
     0
  3
Center ____ _ ____ _ ____ _ ____ _ ____ _ ____
 72
    65
 73
     4
 40
2.0
 49
1.25
 74
     0
 49
-0.25
 74
     0
 49
0.25
 74
     0
 49
-0.25
 74
     0
  0
LTYPE
  5
90
330
5
100
AcDbSymbolTableRecord
100
AcDbLinetypeTableRecord
  2
CENTER2
 70
     0
  3
Center (.5x) ___ _ ___ _ ___ _ ___ _ ___ _ ___
 72
    65
 73
     4
 40
1.125
 49
0.75
 74
     0
 49
-0.125
 74
     0
 49
0.125
 74
     0
 49
-0.125
 74
     0
  0
LTYPE
  5
91
330
5
100
AcDbSymbolTableRecord
100
AcDbLinetypeTableRecord
  2
CENTERX2
 70
     0
  3
Center (2x) ________  __  ________  __  _____
 72
    65
 73
     4
 40
4.0
 49
2.5
 74
     0
 49
-0.5
 74
     0
 49
0.5
 74
     0
 49
-0.5
 74
     0
  0
LTYPE
  5
92
330
5
100
AcDbSymbolTableRecord
100
AcDbLinetypeTableRecord
  2
DASHDOT2
 70
     0
  3
Dash dot (.5x) _._._._._._._._._._._._._._._.
 72
    65
 73
     4
 40
0.5
 49
0.25
 74
     0
 49
-0.125
 74
     0
 49
0.0
 74
     0
 49
-0.125
 74
     0
  0
LTYPE
  5
93
330
5
100
AcDbSymbolTableRecord
100
AcDbLinetypeTableRecord
  2
DASHDOTX2
 70
     0
  3
Dash dot (2x) ____  .  ____  .  ____  .  ___
 72
    65
 73
     4
 40
2.0
 49
1.0
 74
     0
 49
-0.5
 74
     0
 49
0.0
 74
     0
 49
-0.5
 74
     0
  0
LTYPE
  5
95
330
5
100
AcDbSymbolTableRecord
100
AcDbLinetypeTableRecord
  2
DASHED2
 70
     0
  3
Dashed (.5x) _ _ _ _ _ _ _ _ _ _ _ _ _ _ _ _ _
 72
    65
 73
     2
 40
0.375
 49
0.25
 74
     0
 49
-0.125
 74
     0
  0
LTYPE
  5
96
330
5
100
AcDbSymbolTableRecord
100
AcDbLinetypeTableRecord
  2
DASHEDX2
 70
     0
  3
Dashed (2x) ____  ____  ____  ____  ____  ___
 72
    65
 73
     2
 40
1.5
 49
1.0
 74
     0
 49
-0.5
 74
     0
  0
LTYPE
  5
97
330
5
100
AcDbSymbolTableRecord
100
AcDbLinetypeTableRecord
  2
DIVIDE
 70
     0
  3
Divide ____ . . ____ . . ____ . . ____ . . ____
 72
    65
 73
     6
 40
1.25
 49
0.5
 74
     0
 49
-0.25
 74
     0
 49
0.0
 74
     0
 49
-0.25
 74
     0
 49
0.0
 74
     0
 49
-0.25
 74
     0
  0
LTYPE
  5
98
330
5
100
AcDbSymbolTableRecord
100
AcDbLinetypeTableRecord
  2
DIVIDE2
 70
     0
  3
Divide (.5x) __..__..__..__..__..__..__..__.._
 72
    65
 73
     6
 40
0.625
 49
0.25
 74
     0
 49
-0.125
 74
     0
 49
0.0
 74
     0
 49
-0.125
 74
     0
 49
0.0
 74
     0
 49
-0.125
 74
     0
  0
LTYPE
  5
99
330
5
100
AcDbSymbolTableRecord
100
AcDbLinetypeTableRecord
  2
DIVIDEX2
 70
     0
  3
Divide (2x) ________  .  .  ________  .  .  _
 72
    65
 73
     6
 40
2.5
 49
1.0
 74
     0
 49
-0.5
 74
     0
 49
0.0
 74
     0
 49
-0.5
 74
     0
 49
0.0
 74
     0
 49
-0.5
 74
     0
  0
LTYPE
  5
9A
330
5
100
AcDbSymbolTableRecord
100
AcDbLinetypeTableRecord
  2
DOT
 70
     0
  3
Dot . . . . . . . . . . . . . . . . . . . . . .
 72
    65
 73
     2
 40
0.25
 49
0.0
 74
     0
 49
-0.25
 74
     0
  0
LTYPE
  5
9B
330
5
100
AcDbSymbolTableRecord
100
AcDbLinetypeTableRecord
  2
DOT2
 70
     0
  3
Dot (.5x) .....................................
 72
    65
 73
     2
 40
0.125
 49
0.0
 74
     0
 49
-0.125
 74
     0
  0
LTYPE
  5
9C
330
5
100
AcDbSymbolTableRecord
100
AcDbLinetypeTableRecord
  2
DOTX2
 70
     0
  3
Dot (2x) .  .  .  .  .  .  .  .  .  .  .  .  . 
 72
    65
 73
     2
 40
0.5
 49
0.0
 74
     0
 49
-0.5
 74
     0
  0
LTYPE
  5
9D
330
5
100
AcDbSymbolTableRecord
100
AcDbLinetypeTableRecord
  2
HIDDEN
 70
     0
  3
Hidden __ __ __ __ __ __ __ __ __ __ __ __ __ _
 72
    65
 73
     2
 40
0.375
 49
0.25
 74
     0
 49
-0.125
 74
     0
  0
LTYPE
  5
9E
330
5
100
AcDbSymbolTableRecord
100
AcDbLinetypeTableRecord
  2
HIDDEN2
 70
     0
  3
Hidden (.5x) _ _ _ _ _ _ _ _ _ _ _ _ _ _ _ _ _
 72
    65
 73
     2
 40
0.1875
 49
0.125
 74
     0
 49
-0.0625
 74
     0
  0
LTYPE
  5
9F
330
5
100
AcDbSymbolTableRecord
100
AcDbLinetypeTableRecord
  2
HIDDENX2
 70
     0
  3
Hidden (2x) ____ ____ ____ ____ ____ ____ ____
 72
    65
 73
     2
 40
0.75
 49
0.5
 74
     0
 49
-0.25
 74
     0
  0
LTYPE
  5
A0
330
5
100
AcDbSymbolTableRecord
100
AcDbLinetypeTableRecord
  2
PHANTOM
 70
     0
  3
Phantom ______  __  __  ______  __  __  ______
 72
    65
 73
     6
 40
2.5
 49
1.25
 74
     0
 49
-0.25
 74
     0
 49
0.25
 74
     0
 49
-0.25
 74
     0
 49
0.25
 74
     0
 49
-0.25
 74
     0
  0
LTYPE
  5
A1
330
5
100
AcDbSymbolTableRecord
100
AcDbLinetypeTableRecord
  2
PHANTOM2
 70
     0
  3
Phantom (.5x) ___ _ _ ___ _ _ ___ _ _ ___ _ _
 72
    65
 73
     6
 40
1.25
 49
0.625
 74
     0
 49
-0.125
 74
     0
 49
0.125
 74
     0
 49
-0.125
 74
     0
 49
0.125
 74
     0
 49
-0.125
 74
     0
  0
LTYPE
  5
A2
330
5
100
AcDbSymbolTableRecord
100
AcDbLinetypeTableRecord
  2
PHANTOMX2
 70
     0
  3
Phantom (2x) ____________    ____    ____   _
 72
    65
 73
     6
 40
5.0
 49
2.5
 74
     0
 49
-0.5
 74
     0
 49
0.5
 74
     0
 49
-0.5
 74
     0
 49
0.5
 74
     0
 49
-0.5
 74
     0
  0
LTYPE
  5
A3
330
5
100
AcDbSymbolTableRecord
100
AcDbLinetypeTableRecord
  2
ACAD_ISO02W100
 70
     0
  3
ISO dash __ __ __ __ __ __ __ __ __ __ __ __ __
 72
    65
 73
     2
 40
0.59
 49
0.47
 74
     0
 49
-0.12
 74
     0
  0
LTYPE
  5
A4
330
5
100
AcDbSymbolTableRecord
100
AcDbLinetypeTableRecord
  2
ACAD_ISO03W100
 70
     0
  3
ISO dash space __    __    __    __    __    __
 72
    65
 73
     2
 40
1.179999999999999
 49
0.47
 74
     0
 49
-0.71
 74
     0
  0
LTYPE
  5
A5
330
5
100
AcDbSymbolTableRecord
100
AcDbLinetypeTableRecord
  2
ACAD_ISO04W100
 70
     0
  3
ISO long-dash dot ____ . ____ . ____ . ____ . _
 72
    65
 73
     4
 40
1.179999999999999
 49
0.9399999999999998
 74
     0
 49
-0.12
 74
     0
 49
0.0
 74
     0
 49
-0.12
 74
     0
  0
LTYPE
  5
A6
330
5
100
AcDbSymbolTableRecord
100
AcDbLinetypeTableRecord
  2
ACAD_ISO05W100
 70
     0
  3
ISO long-dash double-dot ____ .. ____ .. ____ .
 72
    65
 73
     6
 40
1.299999999999999
 49
0.9399999999999998
 74
     0
 49
-0.12
 74
     0
 49
0.0
 74
     0
 49
-0.12
 74
     0
 49
0.0
 74
     0
 49
-0.12
 74
     0
  0
LTYPE
  5
A7
330
5
100
AcDbSymbolTableRecord
100
AcDbLinetypeTableRecord
  2
ACAD_ISO06W100
 70
     0
  3
ISO long-dash triple-dot ____ ... ____ ... ____
 72
    65
 73
     8
 40
1.419999999999999
 49
0.9399999999999998
 74
     0
 49
-0.12
 74
     0
 49
0.0
 74
     0
 49
-0.12
 74
     0
 49
0.0
 74
     0
 49
-0.12
 74
     0
 49
0.0
 74
     0
 49
-0.12
 74
     0
  0
LTYPE
  5
A8
330
5
100
AcDbSymbolTableRecord
100
AcDbLinetypeTableRecord
  2
ACAD_ISO07W100
 70
     0
  3
ISO dot . . . . . . . . . . . . . . . . . . . .
 72
    65
 73
     2
 40
0.12
 49
0.0
 74
     0
 49
-0.12
 74
     0
  0
LTYPE
  5
A9
330
5
100
AcDbSymbolTableRecord
100
AcDbLinetypeTableRecord
  2
ACAD_ISO08W100
 70
     0
  3
ISO long-dash short-dash ____ __ ____ __ ____ _
 72
    65
 73
     4
 40
0.95
 49
0.47
 74
     0
 49
-0.12
 74
     0
 49
0.24
 74
     0
 49
-0.12
 74
     0
  0
LTYPE
  5
AA
330
5
100
AcDbSymbolTableRecord
100
AcDbLinetypeTableRecord
  2
ACAD_ISO09W100
 70
     0
  3
ISO long-dash double-short-dash ____ __ __ ____
 72
    65
 73
     6
 40
1.31
 49
0.47
 74
     0
 49
-0.12
 74
     0
 49
0.24
 74
     0
 49
-0.12
 74
     0
 49
0.24
 74
     0
 49
-0.12
 74
     0
  0
LTYPE
  5
AB
330
5
100
AcDbSymbolTableRecord
100
AcDbLinetypeTableRecord
  2
ACAD_ISO10W100
 70
     0
  3
ISO dash dot __ . __ . __ . __ . __ . __ . __ .
 72
    65
 73
     4
 40
0.71
 49
0.47
 74
     0
 49
-0.12
 74
     0
 49
0.0
 74
     0
 49
-0.12
 74
     0
  0
LTYPE
  5
AC
330
5
100
AcDbSymbolTableRecord
100
AcDbLinetypeTableRecord
  2
ACAD_ISO11W100
 70
     0
  3
ISO double-dash dot __ __ . __ __ . __ __ . __ 
 72
    65
 73
     6
 40
1.299999999999999
 49
0.47
 74
     0
 49
-0.12
 74
     0
 49
0.47
 74
     0
 49
-0.12
 74
     0
 49
0.0
 74
     0
 49
-0.12
 74
     0
  0
LTYPE
  5
AD
330
5
100
AcDbSymbolTableRecord
100
AcDbLinetypeTableRecord
  2
ACAD_ISO12W100
 70
     0
  3
ISO dash double-dot __ . . __ . . __ . . __ . .
 72
    65
 73
     6
 40
0.8299999999999998
 49
0.47
 74
     0
 49
-0.12
 74
     0
 49
0.0
 74
     0
 49
-0.12
 74
     0
 49
0.0
 74
     0
 49
-0.12
 74
     0
  0
LTYPE
  5
AE
330
5
100
AcDbSymbolTableRecord
100
AcDbLinetypeTableRecord
  2
ACAD_ISO13W100
 70
     0
  3
ISO double-dash double-dot __ __ . . __ __ . . 
 72
    65
 73
     8
 40
1.419999999999999
 49
0.47
 74
     0
 49
-0.12
 74
     0
 49
0.47
 74
     0
 49
-0.12
 74
     0
 49
0.0
 74
     0
 49
-0.12
 74
     0
 49
0.0
 74
     0
 49
-0.12
 74
     0
  0
LTYPE
  5
AF
330
5
100
AcDbSymbolTableRecord
100
AcDbLinetypeTableRecord
  2
ACAD_ISO14W100
 70
     0
  3
ISO dash triple-dot __ . . . __ . . . __ . . . 
 72
    65
 73
     8
 40
0.95
 49
0.47
 74
     0
 49
-0.12
 74
     0
 49
0.0
 74
     0
 49
-0.12
 74
     0
 49
0.0
 74
     0
 49
-0.12
 74
     0
 49
0.0
 74
     0
 49
-0.12
 74
     0
  0
LTYPE
  5
B0
330
5
100
AcDbSymbolTableRecord
100
AcDbLinetypeTableRecord
  2
ACAD_ISO15W100
 70
     0
  3
ISO double-dash triple-dot __ __ . . . __ __ . 
 72
    65
 73
    10
 40
1.539999999999999
 49
0.47
 74
     0
 49
-0.12
 74
     0
 49
0.47
 74
     0
 49
-0.12
 74
     0
 49
0.0
 74
     0
 49
-0.12
 74
     0
 49
0.0
 74
     0
 49
-0.12
 74
     0
 49
0.0
 74
     0
 49
-0.12
 74
     0
  0
LTYPE
  5
B3
330
5
100
AcDbSymbolTableRecord
100
AcDbLinetypeTableRecord
  2
FENCELINE1
 70
     0
  3
Fenceline circle ----0-----0----0-----0----0---
 72
    65
 73
     4
 40
1.45
 49
0.25
 74
     0
 49
-0.1
 74
     4
 75
   133
340
B2
 46
0.1
 50
0.0
 44
-0.1
 45
0.0
 49
-0.1
 74
     0
 49
1.0
 74
     0
  0
LTYPE
  5
B4
330
5
100
AcDbSymbolTableRecord
100
AcDbLinetypeTableRecord
  2
FENCELINE2
 70
     0
  3
Fenceline square ----[]-----[]----[]-----[]----
 72
    65
 73
     4
 40
1.45
 49
0.25
 74
     0
 49
-0.1
 74
     4
 75
   132
340
B2
 46
0.1
 50
0.0
 44
-0.1
 45
0.0
 49
-0.1
 74
     0
 49
1.0
 74
     0
  0
LTYPE
  5
B5
330
5
100
AcDbSymbolTableRecord
100
AcDbLinetypeTableRecord
  2
TRACKS
 70
     0
  3
Tracks -|-|-|-|-|-|-|-|-|-|-|-|-|-|-|-|-|-|-|-|
 72
    65
 73
     2
 40
0.3
 49
0.15
 74
     4
 75
   130
340
B2
 46
0.25
 50
0.0
 44
0.0
 45
0.0
 49
0.15
 74
     0
  0
LTYPE
  5
B6
330
5
100
AcDbSymbolTableRecord
100
AcDbLinetypeTableRecord
  2
BATTING
 70
     0
  3
Batting SSSSSSSSSSSSSSSSSSSSSSSSSSSSSSSSSSSSSSS
 72
    65
 73
     4
 40
0.4001000000000001
 49
0.0001
 74
     0
 49
-0.1
 74
     4
 75
   134
340
B2
 46
0.1
 50
0.0
 44
-0.1
 45
0.0
 49
-0.2
 74
     4
 75
   134
340
B2
 46
0.1
 50
180.0
 44
0.1
 45
0.0
 49
-0.1
 74
     0
  0
LTYPE
  5
B7
330
5
100
AcDbSymbolTableRecord
100
AcDbLinetypeTableRecord
  2
HOT_WATER_SUPPLY
 70
     0
  3
Hot water supply ---- HW ---- HW ---- HW ----
 72
    65
 73
     3
 40
0.9
 49
0.5
 74
     0
 49
-0.2
 74
     2
 75
     0
340
55
 46
0.1
 50
0.0
 44
-0.1
 45
-0.05
  9
HW
 49
-0.2
 74
     0
  0
LTYPE
  5
B8
330
5
100
AcDbSymbolTableRecord
100
AcDbLinetypeTableRecord
  2
GAS_LINE
 70
     0
  3
Gas line ----GAS----GAS----GAS----GAS----GAS---
 72
    65
 73
     3
 40
0.95
 49
0.5
 74
     0
 49
-0.2
 74
     2
 75
     0
340
55
 46
0.1
 50
0.0
 44
-0.1
 45
-0.05
  9
GAS
 49
-0.25
 74
     0
  0
LTYPE
  5
B9
330
5
100
AcDbSymbolTableRecord
100
AcDbLinetypeTableRecord
  2
ZIGZAG
 70
     0
  3
Zig zag /\/\/\/\/\/\/\/\/\/\/\/\/\/\/\/\/\/\/\/
 72
    65
 73
     4
 40
0.8001000000000001
 49
0.0001
 74
     0
 49
-0.2
 74
     4
 75
   131
340
B2
 46
0.2
 50
0.0
 44
-0.2
 45
0.0
 49
-0.4
 74
     4
 75
   131
340
B2
 46
0.2
 50
180.0
 44
0.2
 45
0.0
 49
-0.2
 74
     0
  0
ENDTAB
  0
TABLE
  2
LAYER
  5
2
330
0
100
AcDbSymbolTable
 70
    27
  0
LAYER
  5
54
330
2
100
AcDbSymbolTableRecord
100
AcDbLayerTableRecord
  2
0
 70
     0
 62
     7
  6
Continuous
370
    18
390
F
347
21
  0
LAYER
  5
C0
330
2
100
AcDbSymbolTableRecord
100
AcDbLayerTableRecord
  2
Center Mark (ANSI)
 70
     0
 62
     7
  6
Continuous
370
    15
390
F
347
21
  0
LAYER
  5
C1
330
2
100
AcDbSymbolTableRecord
100
AcDbLayerTableRecord
  2
Centerline (ANSI)
 70
     0
 62
     7
  6
Continuous
370
    15
390
F
347
21
  0
LAYER
  5
C3
330
2
100
AcDbSymbolTableRecord
100
AcDbLayerTableRecord
  2
Dimension (ANSI)
 70
     0
 62
     7
  6
Continuous
370
    13
390
F
347
21
  0
LAYER
  5
C5
330
2
100
AcDbSymbolTableRecord
100
AcDbLayerTableRecord
  2
Hidden (ANSI)
 70
     0
 62
     7
  6
DASHED
370
    15
390
F
347
21
  0
LAYER
  5
CC
330
2
100
AcDbSymbolTableRecord
100
AcDbLayerTableRecord
  2
Symbol (ANSI)
 70
     0
 62
     7
  6
Continuous
370
    18
390
F
347
21
  0
LAYER
  5
CF
330
2
100
AcDbSymbolTableRecord
100
AcDbLayerTableRecord
  2
Visible (ANSI)
 70
     0
 62
     7
  6
Continuous
370
    13
390
F
347
21
  0
LAYER
  5
D0
330
2
100
AcDbSymbolTableRecord
100
AcDbLayerTableRecord
  2
Visible Narrow (ANSI)
 70
     0
 62
     7
  6
Continuous
370
    18
390
F
347
21
  0
LAYER
  5
1D0
330
2
100
AcDbSymbolTableRecord
100
AcDbLayerTableRecord
  2
Defpoints
 70
     0
 62
     7
  6
Continuous
290
     0
370
    -3
390
F
347
21
  0
ENDTAB
  0
TABLE
  2
STYLE
  5
3
330
0
100
AcDbSymbolTable
 70
    18
  0
STYLE
  5
55
330
3
100
AcDbSymbolTableRecord
100
AcDbTextStyleTableRecord
  2
Standard
 70
     0
 40
0.0
 41
1.0
 50
0.0
 71
     0
 42
0.2
  3
txt
  4

  0
STYLE
  5
5A
330
3
100
AcDbSymbolTableRecord
100
AcDbTextStyleTableRecord
  2
Annotative
 70
     0
 40
0.0
 41
1.0
 50
0.0
 71
     0
 42
0.2
  3
txt
  4

1001
AcadAnnotative
1000
AnnotativeData
1002
{
1070
     1
1070
     1
1002
}
  0
STYLE
  5
B2
330
3
100
AcDbSymbolTableRecord
100
AcDbTextStyleTableRecord
  2

 70
     1
 40
0.0
 41
1.0
 50
0.0
 71
     0
 42
0.2
  3
ltypeshp.shx
  4

  0
STYLE
  5
D4
330
3
100
AcDbSymbolTableRecord
100
AcDbTextStyleTableRecord
  2
ITALICC_120
 70
     0
 40
0.0
 41
1.0
 50
0.0
 71
     0
 42
0.2
  3
italicc.shx
  4

  0
STYLE
  5
D5
330
3
100
AcDbSymbolTableRecord
100
AcDbTextStyleTableRecord
  2
Label Text (ANSI)
 70
     0
 40
0.0
 41
1.0
 50
0.0
 71
     0
 42
0.2
  3
tahoma.ttf
  4

1001
ACAD
1000
Tahoma
1071
      256
  0
STYLE
  5
D6
330
3
100
AcDbSymbolTableRecord
100
AcDbTextStyleTableRecord
  2
Note Text (ANSI)
 70
     0
 40
0.0
 41
1.0
 50
0.0
 71
     0
 42
0.2
  3
tahoma.ttf
  4

1001
ACAD
1000
Tahoma
1071
      256
  0
STYLE
  5
D7
330
3
100
AcDbSymbolTableRecord
100
AcDbTextStyleTableRecord
  2
ROMANS
 70
     0
 40
0.0
 41
1.0
 50
0.0
 71
     0
 42
0.2
  3
romans.shx
  4

  0
STYLE
  5
D8
330
3
100
AcDbSymbolTableRecord
100
AcDbTextStyleTableRecord
  2
SANSSERIF_114
 70
     0
 40
0.0
 41
1.0
 50
0.0
 71
     0
 42
0.2
  3
tahoma.ttf
  4

1001
ACAD
1000
Tahoma
1071
      256
  0
STYLE
  5
D9
330
3
100
AcDbSymbolTableRecord
100
AcDbTextStyleTableRecord
  2
SANSSERIF_117
 70
     0
 40
0.0
 41
1.0
 50
0.0
 71
     0
 42
0.2
  3
tahoma.ttf
  4

1001
ACAD
1000
Tahoma
1071
      256
  0
STYLE
  5
DA
330
3
100
AcDbSymbolTableRecord
100
AcDbTextStyleTableRecord
  2
STANDARDAM_ANSI
 70
     0
 40
0.0
 41
1.0
 50
0.0
 71
     0
 42
0.2
  3
txt.shx
  4

  0
STYLE
  5
DB
330
3
100
AcDbSymbolTableRecord
100
AcDbTextStyleTableRecord
  2
StandardAM_ANSI$0
 70
     0
 40
0.0
 41
1.0
 50
0.0
 71
     0
 42
0.2
  3
txt.shx
  4

  0
STYLE
  5
DC
330
3
100
AcDbSymbolTableRecord
100
AcDbTextStyleTableRecord
  2
STANDARDAM_ANSI$3
 70
     0
 40
0.0
 41
1.0
 50
0.0
 71
     0
 42
0.2
  3
txt.shx
  4

  0
STYLE
  5
DD
330
3
100
AcDbSymbolTableRecord
100
AcDbTextStyleTableRecord
  2
STANDARDAM_ANSI$4
 70
     0
 40
0.0
 41
1.0
 50
0.0
 71
     0
 42
0.2
  3
txt.shx
  4

  0
STYLE
  5
DE
330
3
100
AcDbSymbolTableRecord
100
AcDbTextStyleTableRecord
  2
STANDARDAM_ANSI$7
 70
     0
 40
0.0
 41
1.0
 50
0.0
 71
     0
 42
0.2
  3
txt.shx
  4

  0
STYLE
  5
DF
330
3
100
AcDbSymbolTableRecord
100
AcDbTextStyleTableRecord
  2
STANDARDAM_ANSI$SF
 70
     0
 40
0.0
 41
1.0
 50
0.0
 71
     0
 42
0.2
  3
txt.shx
  4

  0
STYLE
  5
E0
330
3
100
AcDbSymbolTableRecord
100
AcDbTextStyleTableRecord
  2
STANDARDAM_ANSI$SH
 70
     0
 40
0.0
 41
1.0
 50
0.0
 71
     0
 42
0.2
  3
txt.shx
  4

  0
STYLE
  5
E1
330
3
100
AcDbSymbolTableRecord
100
AcDbTextStyleTableRecord
  2
STANDARDSTANDARD
 70
     0
 40
0.0
 41
1.0
 50
0.0
 71
     0
 42
0.2
  3
txt.shx
  4

  0
STYLE
  5
143
330
3
100
AcDbSymbolTableRecord
100
AcDbTextStyleTableRecord
  2
Text Style153
 70
     0
 40
0.0
 41
1.0
 50
0.0
 71
     0
 42
0.2
  3
tahoma.ttf
  4

1001
ACAD
1000
Tahoma
1071
      256
  0
ENDTAB
  0
TABLE
  2
VIEW
  5
6
330
0
100
AcDbSymbolTable
 70
     0
  0
ENDTAB
  0
TABLE
  2
UCS
  5
7
330
0
100
AcDbSymbolTable
 70
     0
  0
ENDTAB
  0
TABLE
  2
APPID
  5
9
330
0
100
AcDbSymbolTable
 70
     3
  0
APPID
  5
56
330
9
100
AcDbSymbolTableRecord
100
AcDbRegAppTableRecord
  2
ACAD
 70
     0
  0
APPID
  5
5E
330
9
100
AcDbSymbolTableRecord
100
AcDbRegAppTableRecord
  2
AcadAnnotative
 70
     0
  0
APPID
  5
734
330
9
100
AcDbSymbolTableRecord
100
AcDbRegAppTableRecord
  2
ACAD_DSTYLE_DIMRADIAL_EXTENSION
 70
     0
  0
ENDTAB
  0
TABLE
  2
DIMSTYLE
  5
A
330
0
100
AcDbSymbolTable
 70
    27
100
AcDbDimStyleTable
 71
     2
340
F6
340
58
  0
DIMSTYLE
105
58
330
A
100
AcDbSymbolTableRecord
100
AcDbDimStyleTableRecord
  2
STANDARD
 70
     0
 41
0.1800000071525573
 42
0.0625
140
0.1800000071525574
144
1.0
147
0.0900000035762787
176
   256
177
   256
178
   256
274
     3
340
55
371
    -1
372
    -1
  0
DIMSTYLE
105
59
330
A
100
AcDbSymbolTableRecord
100
AcDbDimStyleTableRecord
  2
Annotative
 70
     0
340
55
1001
AcadAnnotative
1000
AnnotativeData
1002
{
1070
     1
1070
     1
1002
}
  0
DIMSTYLE
105
E2
330
A
100
AcDbSymbolTableRecord
100
AcDbDimStyleTableRecord
  2
AM_ANSI
 70
     0
  4
 mm
 40
13.5
 41
0.119999997317791
 42
0.05
 43
0.5
 44
0.1
 45
0.00000001
 78
     4
 79
     2
140
0.1200000047683716
146
0.7099999189376831
147
0.0599999986588955
176
   256
177
   256
178
     2
284
     4
340
DA
371
    -1
372
    -1
  0
DIMSTYLE
105
E3
330
A
100
AcDbSymbolTableRecord
100
AcDbDimStyleTableRecord
  2
AM_ANSI$7
 70
     0
  4
 mm
 40
13.5
 41
0.119999997317791
 42
0.05
 43
0.5
 44
0.1
 45
0.00000001
 78
     4
 79
     2
140
0.1200000047683716
146
0.7099999189376831
147
0.0599999986588955
176
   256
177
   256
178
     2
284
     4
340
DA
371
    -1
372
    -1
  0
DIMSTYLE
105
E4
330
A
100
AcDbSymbolTableRecord
100
AcDbDimStyleTableRecord
  2
AM_ANSI$0
 70
     0
  4
 mm
 40
13.5
 41
0.119999997317791
 42
0.05
 43
0.5
 44
0.1
 45
0.00000001
 78
     4
 79
     2
140
0.1200000047683716
146
0.7099999189376831
147
0.0599999986588955
176
   256
177
   256
178
     2
284
     4
340
DB
371
    -1
372
    -1
  0
DIMSTYLE
105
E5
330
A
100
AcDbSymbolTableRecord
100
AcDbDimStyleTableRecord
  2
AM_ANSI$0$7
 70
     0
  4
 mm
 40
13.5
 41
0.119999997317791
 42
0.05
 43
0.5
 44
0.1
 45
0.00000001
 78
     4
 79
     2
140
0.1200000047683716
146
0.7099999189376831
147
0.0599999986588955
176
   256
177
   256
178
     2
284
     4
340
DB
371
    -1
372
    -1
  0
DIMSTYLE
105
E6
330
A
100
AcDbSymbolTableRecord
100
AcDbDimStyleTableRecord
  2
AM_ANSI$3
 70
     0
  4
 mm
 40
13.5
 41
0.119999997317791
 42
0.05
 43
0.5
 44
0.1
 45
0.00000001
 78
     4
 79
     2
140
0.1200000047683716
146
0.7099999189376831
147
0.0599999986588955
176
   256
177
   256
178
     2
284
     4
340
DC
371
    -1
372
    -1
  0
DIMSTYLE
105
E7
330
A
100
AcDbSymbolTableRecord
100
AcDbDimStyleTableRecord
  2
AM_ANSI$3$7
 70
     0
  4
 mm
 40
13.5
 41
0.119999997317791
 42
0.05
 43
0.5
 44
0.1
 45
0.00000001
 78
     4
 79
     2
140
0.1200000047683716
146
0.7099999189376831
147
0.0599999986588955
176
   256
177
   256
178
     2
284
     4
340
DC
371
    -1
372
    -1
  0
DIMSTYLE
105
E8
330
A
100
AcDbSymbolTableRecord
100
AcDbDimStyleTableRecord
  2
AM_ANSI$4
 70
     0
  4
 mm
 40
13.5
 41
0.119999997317791
 42
0.05
 43
0.5
 44
0.1
 45
0.00000001
 78
     4
 79
     2
140
0.1200000047683716
146
0.7099999189376831
147
0.0599999986588955
176
   256
177
   256
178
     2
284
     4
340
DD
371
    -1
372
    -1
  0
DIMSTYLE
105
E9
330
A
100
AcDbSymbolTableRecord
100
AcDbDimStyleTableRecord
  2
AM_ANSI$4$7
 70
     0
  4
 mm
 40
13.5
 41
0.119999997317791
 42
0.05
 43
0.5
 44
0.1
 45
0.00000001
 78
     4
 79
     2
140
0.1200000047683716
146
0.7099999189376831
147
0.0599999986588955
176
   256
177
   256
178
     2
284
     4
340
DD
371
    -1
372
    -1
  0
DIMSTYLE
105
EA
330
A
100
AcDbSymbolTableRecord
100
AcDbDimStyleTableRecord
  2
AM_ANSI$SF
 70
     0
  4
 mm
 40
13.5
 41
0.119999997317791
 42
0.05
 43
0.5
 44
0.1
 45
0.00000001
 75
     1
 76
     1
 78
     4
 79
     2
140
0.1200000047683716
146
0.7099999189376831
147
0.0599999986588955
176
   256
177
   256
178
     2
284
     4
340
DF
371
    -1
372
    -1
  0
DIMSTYLE
105
EB
330
A
100
AcDbSymbolTableRecord
100
AcDbDimStyleTableRecord
  2
AM_ANSI$SF$7
 70
     0
  4
 mm
 40
13.5
 41
0.119999997317791
 42
0.05
 43
0.5
 44
0.1
 45
0.00000001
 75
     1
 76
     1
 78
     4
 79
     2
140
0.1200000047683716
146
0.7099999189376831
147
0.0599999986588955
176
   256
177
   256
178
     2
284
     4
340
DF
371
    -1
372
    -1
  0
DIMSTYLE
105
EC
330
A
100
AcDbSymbolTableRecord
100
AcDbDimStyleTableRecord
  2
AM_ANSI$SH
 70
     0
  4
 mm
 40
13.5
 41
0.119999997317791
 42
0.05
 43
0.5
 44
0.1
 45
0.00000001
 75
     1
 76
     1
 78
     4
 79
     2
140
0.1200000047683716
146
0.7099999189376831
147
0.0599999986588955
176
   256
177
   256
178
     2
284
     4
340
E0
371
    -1
372
    -1
  0
DIMSTYLE
105
ED
330
A
100
AcDbSymbolTableRecord
100
AcDbDimStyleTableRecord
  2
AM_ANSI$SH$7
 70
     0
  4
 mm
 40
13.5
 41
0.119999997317791
 42
0.05
 43
0.5
 44
0.1
 45
0.00000001
 75
     1
 76
     1
 78
     4
 79
     2
140
0.1200000047683716
146
0.7099999189376831
147
0.0599999986588955
176
   256
177
   256
178
     2
284
     4
340
E0
371
    -1
372
    -1
  0
DIMSTYLE
105
EE
330
A
100
AcDbSymbolTableRecord
100
AcDbDimStyleTableRecord
  2
Architectural (ANSI)
 70
     0
 40
13.5
 41
0.0984251946210861
 43
0.2362204724409449
 44
0.125
 45
0.00000001
 46
0.3937007874015748
 78
     3
 79
     3
140
0.1200000047683716
147
0.031496062992126
171
     1
176
   256
177
   256
178
   256
272
     2
274
     1
276
     2
277
     4
284
    12
285
     4
286
    12
340
D6
371
    -1
372
    -1
  0
DIMSTYLE
105
EF
330
A
100
AcDbSymbolTableRecord
100
AcDbDimStyleTableRecord
  2
Architectural (ANSI)$7
 70
     0
 40
13.5
 41
0.0984251946210861
 43
0.2362204724409449
 44
0.125
 45
0.00000001
 46
0.3937007874015748
 78
     3
 79
     3
140
0.1200000047683716
147
0.031496062992126
171
     1
176
   256
177
   256
178
   256
272
     2
274
     1
276
     2
277
     4
284
    12
285
     4
286
    12
340
D6
371
    -1
372
    -1
  0
DIMSTYLE
105
F0
330
A
100
AcDbSymbolTableRecord
100
AcDbDimStyleTableRecord
  2
Default - Fraction (ANSI)
 70
     0
 40
13.5
 41
0.0984251946210861
 43
0.2362204724409449
 44
0.125
 45
0.00000001
 46
0.3937007874015748
 79
     3
140
0.1200000047683716
147
0.031496062992126
171
     1
176
   256
177
   256
178
   256
272
     2
274
     1
276
     2
277
     5
284
    12
285
     4
286
    12
340
D6
371
    -1
372
    -1
  0
DIMSTYLE
105
F1
330
A
100
AcDbSymbolTableRecord
100
AcDbDimStyleTableRecord
  2
Default - Fraction (ANSI)$7
 70
     0
 40
13.5
 41
0.0984251946210861
 43
0.2362204724409449
 44
0.125
 45
0.00000001
 46
0.3937007874015748
 79
     3
140
0.1200000047683716
147
0.031496062992126
171
     1
176
   256
177
   256
178
   256
272
     2
274
     1
276
     2
277
     5
284
    12
285
     4
286
    12
340
D6
371
    -1
372
    -1
  0
DIMSTYLE
105
F2
330
A
100
AcDbSymbolTableRecord
100
AcDbDimStyleTableRecord
  2
Default - mm (ANSI)
 70
     0
 40
13.5
 41
0.0984251946210861
 42
0.063
 43
0.2362204724409449
 44
0.125
 45
0.00000001
 46
0.3937007874015748
 73
     0
 78
     4
 79
     1
140
0.1200000047683716
143
1.0
144
25.4
147
0.031496062992126
171
     1
176
   256
177
   256
178
   256
179
     1
271
     2
272
     2
274
     1
284
     4
285
     4
340
D6
371
    -1
372
    -1
  0
DIMSTYLE
105
F3
330
A
100
AcDbSymbolTableRecord
100
AcDbDimStyleTableRecord
  2
Default - mm (ANSI)$7
 70
     0
 40
13.5
 41
0.0984251946210861
 42
0.063
 43
0.2362204724409449
 44
0.125
 45
0.00000001
 46
0.3937007874015748
 73
     0
 78
     4
 79
     1
140
0.1200000047683716
143
1.0
144
25.4
147
0.031496062992126
171
     1
176
   256
177
   256
178
   256
179
     1
271
     2
272
     2
274
     1
284
     4
285
     4
340
D6
371
    -1
372
    -1
  0
DIMSTYLE
105
F4
330
A
100
AcDbSymbolTableRecord
100
AcDbDimStyleTableRecord
  2
Default - mm [in] (ANSI)
 70
     0
  4
 in
 40
13.5
 41
0.0984251946210861
 42
0.063
 43
0.25
 44
0.125
 45
0.00000001
 46
0.3937007874015748
 73
     0
 78
     4
 79
     1
140
0.1200000047683716
143
0.03937
144
25.4
147
0.031496062992126
170
     1
171
     3
176
   256
177
   256
178
   256
179
     1
271
     2
272
     2
274
     3
284
     4
285
     4
286
     4
340
D6
371
    -1
372
    -1
  0
DIMSTYLE
105
F5
330
A
100
AcDbSymbolTableRecord
100
AcDbDimStyleTableRecord
  2
Default - mm [in] (ANSI)$7
 70
     0
  4
 in
 40
13.5
 41
0.0984251946210861
 42
0.063
 43
0.25
 44
0.125
 45
0.00000001
 46
0.3937007874015748
 73
     0
 78
     4
 79
     1
140
0.1200000047683716
143
0.03937
144
25.4
147
0.031496062992126
170
     1
171
     3
176
   256
177
   256
178
   256
179
     1
271
     2
272
     2
274
     3
284
     4
285
     4
286
     4
340
D6
371
    -1
372
    -1
  0
DIMSTYLE
105
F6
102
{ACAD_REACTORS
330
1CE
330
2DC
330
3C6
330
4B0
330
5B0
330
69A
330
755
330
83F
330
929
330
A15
102
}
330
A
100
AcDbSymbolTableRecord
100
AcDbDimStyleTableRecord
  2
Default (ANSI)
 70
     0
 40
13.5
 41
0.0984251946210861
 43
0.2362204724409449
 44
0.125
 45
0.00000001
 46
0.3937007874015748
 79
     1
140
0.1200000047683716
147
0.031496062992126
171
     1
176
   256
177
   256
178
   256
271
     2
272
     2
274
     1
284
     4
285
     4
340
D6
371
    -1
372
    -1
  0
DIMSTYLE
105
F7
330
A
100
AcDbSymbolTableRecord
100
AcDbDimStyleTableRecord
  2
Default (ANSI)$7
 70
     0
 40
13.5
 41
0.0984251946210861
 43
0.2362204724409449
 44
0.125
 45
0.00000001
 46
0.3937007874015748
 79
     1
140
0.1200000047683716
147
0.031496062992126
171
     1
176
   256
177
   256
178
   256
271
     2
272
     2
274
     1
284
     4
285
     4
340
D6
371
    -1
372
    -1
  0
DIMSTYLE
105
F8
330
A
100
AcDbSymbolTableRecord
100
AcDbDimStyleTableRecord
  2
Alternate (ANSI)
 70
     0
 40
13.5
 41
0.0979999974370003
340
55
342
F9
  0
DIMSTYLE
105
10B
330
A
100
AcDbSymbolTableRecord
100
AcDbDimStyleTableRecord
  2
Datum (ANSI)
 70
     0
 40
13.5
 41
0.0979999974370003
340
55
342
F9
  0
DIMSTYLE
105
11A
330
A
100
AcDbSymbolTableRecord
100
AcDbDimStyleTableRecord
  2
Large (ANSI)
 70
     0
 40
13.5
 41
0.1959999948740005
340
55
342
F9
  0
ENDTAB
  0
TABLE
  2
BLOCK_RECORD
  5
1
330
0
100
AcDbSymbolTable
 70
    14
  0
BLOCK_RECORD
  5
6C
330
1
100
AcDbSymbolTableRecord
100
AcDbBlockTableRecord
  2
*Model_Space
340
6F
 70
     0
280
     1
281
     0
  0
BLOCK_RECORD
  5
68
330
1
100
AcDbSymbolTableRecord
100
AcDbBlockTableRecord
  2
*Paper_Space
340
6B
 70
     0
280
     1
281
     0
  0
BLOCK_RECORD
  5
70
330
1
100
AcDbSymbolTableRecord
100
AcDbBlockTableRecord
  2
*Paper_Space0
340
73
 70
     0
280
     1
281
     0
  0
BLOCK_RECORD
  5
F9
330
1
100
AcDbSymbolTableRecord
100
AcDbBlockTableRecord
  2
_Closed
340
0
 70
     0
280
     1
281
     0
  0
BLOCK_RECORD
  5
100
330
1
100
AcDbSymbolTableRecord
100
AcDbBlockTableRecord
  2
DatumFilled45
340
0
 70
     0
280
     1
281
     0
  0
BLOCK_RECORD
  5
10C
330
1
100
AcDbSymbolTableRecord
100
AcDbBlockTableRecord
  2
Filled-1
340
0
 70
     0
280
     1
281
     0
  0
BLOCK_RECORD
  5
1D1
330
1
100
AcDbSymbolTableRecord
100
AcDbBlockTableRecord
  2
*D4
340
0
 70
     0
280
     1
281
     0
  0
BLOCK_RECORD
  5
2DD
330
1
100
AcDbSymbolTableRecord
100
AcDbBlockTableRecord
  2
*D5
340
0
 70
     0
280
     1
281
     0
  0
BLOCK_RECORD
  5
3C7
330
1
100
AcDbSymbolTableRecord
100
AcDbBlockTableRecord
  2
*D6
340
0
 70
     0
280
     1
281
     0
  0
BLOCK_RECORD
  5
4B1
330
1
100
AcDbSymbolTableRecord
100
AcDbBlockTableRecord
  2
*D7
340
0
 70
     0
280
     1
281
     0
  0
BLOCK_RECORD
  5
5B1
330
1
100
AcDbSymbolTableRecord
100
AcDbBlockTableRecord
  2
*D8
340
0
 70
     0
280
     1
281
     0
  0
BLOCK_RECORD
  5
69B
330
1
100
AcDbSymbolTableRecord
100
AcDbBlockTableRecord
  2
*D9
340
0
 70
     0
280
     1
281
     0
  0
BLOCK_RECORD
  5
756
330
1
100
AcDbSymbolTableRecord
100
AcDbBlockTableRecord
  2
*D10
340
0
 70
     0
280
     1
281
     0
  0
BLOCK_RECORD
  5
840
330
1
100
AcDbSymbolTableRecord
100
AcDbBlockTableRecord
  2
*D11
340
0
 70
     0
280
     1
281
     0
  0
BLOCK_RECORD
  5
92A
330
1
100
AcDbSymbolTableRecord
100
AcDbBlockTableRecord
  2
*D12
340
0
 70
     0
280
     1
281
     0
  0
BLOCK_RECORD
  5
A16
330
1
100
AcDbSymbolTableRecord
100
AcDbBlockTableRecord
  2
*D13
340
0
 70
     0
280
     1
281
     0
  0
ENDTAB
  0
ENDSEC
  0
SECTION
  2
BLOCKS
  0
BLOCK
  5
6D
330
6C
100
AcDbEntity
  8
0
100
AcDbBlockBegin
  2
*Model_Space
 70
     0
 10
0.0
 20
0.0
 30
0.0
  3
*Model_Space
  1

  0
ENDBLK
  5
6E
330
6C
100
AcDbEntity
  8
0
100
AcDbBlockEnd
  0
BLOCK
  5
69
330
68
100
AcDbEntity
 67
     1
  8
0
100
AcDbBlockBegin
  2
*Paper_Space
 70
     0
 10
0.0
 20
0.0
 30
0.0
  3
*Paper_Space
  1

  0
ENDBLK
  5
6A
330
68
100
AcDbEntity
 67
     1
  8
0
100
AcDbBlockEnd
  0
BLOCK
  5
71
330
70
100
AcDbEntity
 67
     1
  8
0
100
AcDbBlockBegin
  2
*Paper_Space0
 70
     0
 10
0.0
 20
0.0
 30
0.0
  3
*Paper_Space0
  1

  0
ENDBLK
  5
72
330
70
100
AcDbEntity
 67
     1
  8
0
100
AcDbBlockEnd
  0
BLOCK
  5
FE
330
F9
100
AcDbEntity
  8
0
100
AcDbBlockBegin
  2
_Closed
 70
     0
 10
0.0
 20
0.0
 30
0.0
  3
_Closed
  1

  0
LINE
  5
FA
330
F9
100
AcDbEntity
  8
0
  6
ByBlock
 62
     0
370
    -2
100
AcDbLine
 10
-1.0
 20
0.1666666666666666
 30
0.0
 11
0.0
 21
0.0
 31
0.0
  0
LINE
  5
FB
330
F9
100
AcDbEntity
  8
0
  6
ByBlock
 62
     0
370
    -2
100
AcDbLine
 10
0.0
 20
0.0
 30
0.0
 11
-1.0
 21
-0.1666666666666666
 31
0.0
  0
LINE
  5
FC
330
F9
100
AcDbEntity
  8
0
  6
ByBlock
 62
     0
370
    -2
100
AcDbLine
 10
-1.0
 20
0.1666666666666666
 30
0.0
 11
-1.0
 21
-0.1666666666666666
 31
0.0
  0
LINE
  5
FD
330
F9
100
AcDbEntity
  8
0
  6
ByBlock
 62
     0
370
    -2
100
AcDbLine
 10
0.0
 20
0.0
 30
0.0
 11
-1.0
 21
0.0
 31
0.0
  0
ENDBLK
  5
FF
330
F9
100
AcDbEntity
  8
0
100
AcDbBlockEnd
  0
BLOCK
  5
101
330
100
100
AcDbEntity
  8
0
100
AcDbBlockBegin
  2
DatumFilled45
 70
     0
 10
0.0
 20
0.0
 30
0.0
  3
DatumFilled45
  1

  0
POLYLINE
  5
103
330
100
100
AcDbEntity
  8
0
 62
     0
100
AcDb2dPolyline
 66
     1
 10
0.0
 20
0.0
 30
0.0
 70
   128
  0
VERTEX
  5
104
330
103
100
AcDbEntity
  8
0
 62
     0
100
AcDbVertex
100
AcDb2dVertex
 10
0.0
 20
0.9999999999999998
 30
0.0
  0
VERTEX
  5
105
330
103
100
AcDbEntity
  8
0
 62
     0
100
AcDbVertex
100
AcDb2dVertex
 10
0.0
 20
-0.9999999999999998
 30
0.0
  0
VERTEX
  5
107
330
103
100
AcDbEntity
  8
0
 62
     0
100
AcDbVertex
100
AcDb2dVertex
 10
-0.9999999999999998
 20
0.0
 30
0.0
  0
VERTEX
  5
108
330
103
100
AcDbEntity
  8
0
 62
     0
100
AcDbVertex
100
AcDb2dVertex
 10
0.0
 20
0.9999999999999998
 30
0.0
  0
SEQEND
  5
106
330
103
100
AcDbEntity
  8
0
 62
     0
  0
SOLID
  5
10A
330
100
100
AcDbEntity
  8
0
 62
     0
100
AcDbTrace
 10
0.0
 20
0.9999999999999998
 30
0.0
 11
0.0
 21
-0.9999999999999998
 31
0.0
 12
-0.9999999999999998
 22
0.0
 32
0.0
 13
0.0
 23
0.9999999999999998
 33
0.0
  0
ENDBLK
  5
102
330
100
100
AcDbEntity
  8
0
100
AcDbBlockEnd
  0
BLOCK
  5
10D
330
10C
100
AcDbEntity
  8
0
100
AcDbBlockBegin
  2
Filled-1
 70
     0
 10
0.0
 20
0.0
 30
0.0
  3
Filled-1
  1

  0
LINE
  5
10F
330
10C
100
AcDbEntity
  8
0
 62
     0
100
AcDbLine
 10
-0.9999999999999998
 20
0.0
 30
0.0
 11
0.0
 21
0.0
 31
0.0
  0
POLYLINE
  5
110
330
10C
100
AcDbEntity
  8
0
 62
     0
100
AcDb2dPolyline
 66
     1
 10
0.0
 20
0.0
 30
0.0
 70
   128
  0
VERTEX
  5
111
330
110
100
AcDbEntity
  8
0
 62
     0
100
AcDbVertex
100
AcDb2dVertex
 10
-0.9999999999999998
 20
-0.0994897959183674
 30
0.0
  0
VERTEX
  5
112
330
110
100
AcDbEntity
  8
0
 62
     0
100
AcDbVertex
100
AcDb2dVertex
 10
0.0
 20
0.0
 30
0.0
  0
VERTEX
  5
114
330
110
100
AcDbEntity
  8
0
 62
     0
100
AcDbVertex
100
AcDb2dVertex
 10
-0.9999999999999998
 20
0.0994897959183674
 30
0.0
  0
VERTEX
  5
115
330
110
100
AcDbEntity
  8
0
 62
     0
100
AcDbVertex
100
AcDb2dVertex
 10
-0.9999999999999998
 20
-0.0994897959183674
 30
0.0
  0
SEQEND
  5
113
330
110
100
AcDbEntity
  8
0
 62
     0
  0
SOLID
  5
116
330
10C
100
AcDbEntity
  8
0
 62
     0
100
AcDbTrace
 10
-0.9999999999999998
 20
-0.0994897959183674
 30
0.0
 11
0.0
 21
0.0
 31
0.0
 12
-0.9999999999999998
 22
0.0994897959183674
 32
0.0
 13
-0.9999999999999998
 23
-0.0994897959183674
 33
0.0
  0
LINE
  5
117
330
10C
100
AcDbEntity
  8
0
 62
     0
100
AcDbLine
 10
-0.9999999999999998
 20
-0.0994897959183674
 30
0.0
 11
0.0
 21
0.0
 31
0.0
  0
LINE
  5
118
330
10C
100
AcDbEntity
  8
0
 62
     0
100
AcDbLine
 10
0.0
 20
0.0
 30
0.0
 11
-0.9999999999999998
 21
0.0994897959183674
 31
0.0
  0
LINE
  5
119
330
10C
100
AcDbEntity
  8
0
 62
     0
100
AcDbLine
 10
-0.9999999999999998
 20
0.0994897959183674
 30
0.0
 11
-0.9999999999999998
 21
-0.0994897959183674
 31
0.0
  0
ENDBLK
  5
10E
330
10C
100
AcDbEntity
  8
0
100
AcDbBlockEnd
  0
BLOCK
  5
1D2
330
1D1
100
AcDbEntity
  8
0
100
AcDbBlockBegin
  2
*D4
 70
     1
 10
0.0
 20
0.0
 30
0.0
  3
*D4
  1

  0
LINE
  5
2BE
330
1D1
100
AcDbEntity
  8
Dimension (ANSI)
440
 16777216
100
AcDbLine
 10
113.648428143451
 20
73.93978219146625
 30
0.0
 11
113.648428143451
 21
98.71505161103652
 31
0.0
  0
LINE
  5
2BF
330
1D1
100
AcDbEntity
  8
Dimension (ANSI)
440
 16777216
100
AcDbLine
 10
112.3196880160663
 20
97.02755161103652
 30
0.0
 11
110.9909478886816
 21
97.02755161103652
 31
0.0
  0
LINE
  5
2C0
330
1D1
100
AcDbEntity
  8
Dimension (ANSI)
440
 16777216
100
AcDbLine
 10
115.8521682708357
 20
97.02755161103652
 30
0.0
 11
117.9288654731274
 21
97.02755161103652
 31
0.0
  0
SOLID
  5
2C1
330
1D1
100
AcDbEntity
  8
Dimension (ANSI)
440
 16777216
100
AcDbTrace
 10
112.3196880160663
 20
97.24900829893396
 30
0.0
 11
112.3196880160663
 21
96.80609492313907
 31
0.0
 12
113.648428143451
 22
97.02755161103652
 32
0.0
 13
113.648428143451
 23
97.02755161103652
 33
0.0
  0
SOLID
  5
2C2
330
1D1
100
AcDbEntity
  8
Dimension (ANSI)
440
 16777216
100
AcDbTrace
 10
115.8521682708357
 20
97.24900829893396
 30
0.0
 11
115.8521682708357
 21
96.80609492313907
 31
0.0
 12
114.523428143451
 22
97.02755161103652
 32
0.0
 13
114.523428143451
 23
97.02755161103652
 33
0.0
  0
MTEXT
  5
2C3
330
1D1
100
AcDbEntity
  8
Dimension (ANSI)
440
 16777216
100
AcDbMText
 10
118.3540623235211
 20
97.02755161103652
 30
0.0
 40
1.620000064373016
 41
0.0
 46
0.0
 71
     4
 72
     1
  1
\A1;0.88{\PTYP.}
  7
Note Text (ANSI)
 73
     1
 44
1.0
  0
POINT
  5
2C4
330
1D1
100
AcDbEntity
  8
Defpoints
 62
     0
440
 16777216
100
AcDbPoint
 10
114.523428143451
 20
108.3083309350906
 30
0.0
  0
POINT
  5
2C5
330
1D1
100
AcDbEntity
  8
Defpoints
 62
     0
440
 16777216
100
AcDbPoint
 10
113.648428143451
 20
73.09603219146625
 30
0.0
  0
POINT
  5
2C6
330
1D1
100
AcDbEntity
  8
Defpoints
 62
     0
440
 16777216
100
AcDbPoint
 10
113.648428143451
 20
97.02755161103652
 30
0.0
  0
ENDBLK
  5
1D3
330
1D1
100
AcDbEntity
  8
0
100
AcDbBlockEnd
  0
BLOCK
  5
2DE
330
2DD
100
AcDbEntity
  8
0
100
AcDbBlockBegin
  2
*D5
 70
     1
 10
0.0
 20
0.0
 30
0.0
  3
*D5
  1

  0
LINE
  5
3BC
330
2DD
100
AcDbEntity
  8
Dimension (ANSI)
440
 16777216
100
AcDbLine
 10
50.23833000788695
 20
111.0960321914662
 30
0.0
 11
28.13473748820193
 21
111.0960321914662
 31
0.0
  0
LINE
  5
3BD
330
2DD
100
AcDbEntity
  8
Dimension (ANSI)
440
 16777216
100
AcDbLine
 10
50.23853000788698
 20
33.09603219146626
 30
0.0
 11
28.13473748820192
 21
33.09603219146627
 31
0.0
  0
LINE
  5
3BE
330
2DD
100
AcDbEntity
  8
Dimension (ANSI)
440
 16777216
100
AcDbLine
 10
29.82223748820194
 20
109.7672920640816
 30
0.0
 11
29.82223748820193
 21
73.36822033935217
 31
0.0
  0
LINE
  5
3BF
330
2DD
100
AcDbEntity
  8
Dimension (ANSI)
440
 16777216
100
AcDbLine
 10
29.82223748820192
 20
34.42477231885093
 30
0.0
 11
29.82223748820193
 21
70.82384404358034
 31
0.0
  0
SOLID
  5
3C0
330
2DD
100
AcDbEntity
  8
Dimension (ANSI)
440
 16777216
100
AcDbTrace
 10
29.60078080030449
 20
109.7672920640816
 30
0.0
 11
30.04369417609938
 21
109.7672920640816
 31
0.0
 12
29.82223748820194
 22
111.0960321914662
 32
0.0
 13
29.82223748820194
 23
111.0960321914662
 33
0.0
  0
SOLID
  5
3C1
330
2DD
100
AcDbEntity
  8
Dimension (ANSI)
440
 16777216
100
AcDbTrace
 10
29.60078080030447
 20
34.42477231885093
 30
0.0
 11
30.04369417609936
 21
34.42477231885093
 31
0.0
 12
29.82223748820192
 22
33.09603219146627
 32
0.0
 13
29.82223748820192
 23
33.09603219146627
 33
0.0
  0
MTEXT
  5
3C2
330
2DD
100
AcDbEntity
  8
Dimension (ANSI)
440
 16777216
100
AcDbMText
 10
27.15125015956557
 20
72.94302348895846
 30
0.0
 40
1.620000064373016
 41
0.0
 46
0.0
 71
     1
 72
     1
  1
\A1;78.00
  7
Note Text (ANSI)
 73
     1
 44
1.0
  0
POINT
  5
3C3
330
2DD
100
AcDbEntity
  8
Defpoints
 62
     0
440
 16777216
100
AcDbPoint
 10
51.08208000788695
 20
111.0960321914662
 30
0.0
  0
POINT
  5
3C4
330
2DD
100
AcDbEntity
  8
Defpoints
 62
     0
440
 16777216
100
AcDbPoint
 10
51.08228000788699
 20
33.09603219146626
 30
0.0
  0
POINT
  5
3C5
330
2DD
100
AcDbEntity
  8
Defpoints
 62
     0
440
 16777216
100
AcDbPoint
 10
29.82223748820192
 20
33.09603219146627
 30
0.0
  0
ENDBLK
  5
2DF
330
2DD
100
AcDbEntity
  8
0
100
AcDbBlockEnd
  0
BLOCK
  5
3C8
330
3C7
100
AcDbEntity
  8
0
100
AcDbBlockBegin
  2
*D6
 70
     1
 10
0.0
 20
0.0
 30
0.0
  3
*D6
  1

  0
LINE
  5
4A6
330
3C7
100
AcDbEntity
  8
Dimension (ANSI)
440
 16777216
100
AcDbLine
 10
49.14458000788695
 20
33.97103219146625
 30
0.0
 11
44.12038136414513
 21
33.97103219146626
 31
0.0
  0
LINE
  5
4A7
330
3C7
100
AcDbEntity
  8
Dimension (ANSI)
440
 16777216
100
AcDbLine
 10
49.14458000788695
 20
72.09603219146625
 30
0.0
 11
44.12038136414514
 21
72.09603219146625
 31
0.0
  0
LINE
  5
4A8
330
3C7
100
AcDbEntity
  8
Dimension (ANSI)
440
 16777216
100
AcDbLine
 10
45.80788136414513
 20
35.29977231885092
 30
0.0
 11
45.80788136414514
 21
51.76134404358032
 31
0.0
  0
LINE
  5
4A9
330
3C7
100
AcDbEntity
  8
Dimension (ANSI)
440
 16777216
100
AcDbLine
 10
45.80788136414514
 20
70.76729206408159
 30
0.0
 11
45.80788136414514
 21
54.30572033935217
 31
0.0
  0
SOLID
  5
4AA
330
3C7
100
AcDbEntity
  8
Dimension (ANSI)
440
 16777216
100
AcDbTrace
 10
45.58642467624768
 20
35.29977231885092
 30
0.0
 11
46.02933805204258
 21
35.29977231885092
 31
0.0
 12
45.80788136414513
 22
33.97103219146626
 32
0.0
 13
45.80788136414513
 23
33.97103219146626
 33
0.0
  0
SOLID
  5
4AB
330
3C7
100
AcDbEntity
  8
Dimension (ANSI)
440
 16777216
100
AcDbTrace
 10
45.58642467624769
 20
70.76729206408159
 30
0.0
 11
46.02933805204258
 21
70.76729206408159
 31
0.0
 12
45.80788136414514
 22
72.09603219146625
 32
0.0
 13
45.80788136414514
 23
72.09603219146625
 33
0.0
  0
MTEXT
  5
4AC
330
3C7
100
AcDbEntity
  8
Dimension (ANSI)
440
 16777216
100
AcDbMText
 10
43.15375770296046
 20
53.88052348895847
 30
0.0
 40
1.620000064373016
 41
0.0
 46
0.0
 71
     1
 72
     1
  1
\A1;38.13
  7
Note Text (ANSI)
 73
     1
 44
1.0
  0
POINT
  5
4AD
330
3C7
100
AcDbEntity
  8
Defpoints
 62
     0
440
 16777216
100
AcDbPoint
 10
49.98833000788695
 20
33.97103219146625
 30
0.0
  0
POINT
  5
4AE
330
3C7
100
AcDbEntity
  8
Defpoints
 62
     0
440
 16777216
100
AcDbPoint
 10
49.98833000788695
 20
72.09603219146625
 30
0.0
  0
POINT
  5
4AF
330
3C7
100
AcDbEntity
  8
Defpoints
 62
     0
440
 16777216
100
AcDbPoint
 10
45.80788136414514
 20
72.09603219146625
 30
0.0
  0
ENDBLK
  5
3C9
330
3C7
100
AcDbEntity
  8
0
100
AcDbBlockEnd
  0
BLOCK
  5
4B2
330
4B1
100
AcDbEntity
  8
0
100
AcDbBlockBegin
  2
*D7
 70
     1
 10
0.0
 20
0.0
 30
0.0
  3
*D7
  1

  0
LINE
  5
5A5
330
4B1
100
AcDbEntity
  8
Dimension (ANSI)
440
 16777216
100
AcDbLine
 10
49.14458000788695
 20
33.97103219146625
 30
0.0
 11
47.95072539557011
 21
33.97103219146626
 31
0.0
  0
LINE
  5
5A6
330
4B1
100
AcDbEntity
  8
Dimension (ANSI)
440
 16777216
100
AcDbLine
 10
50.23853000788698
 20
33.09603219146626
 30
0.0
 11
47.95072539557011
 21
33.09603219146627
 31
0.0
  0
LINE
  5
5A7
330
4B1
100
AcDbEntity
  8
Dimension (ANSI)
440
 16777216
100
AcDbLine
 10
49.63822539557011
 20
35.29977231885091
 30
0.0
 11
49.63822539557011
 21
36.62851244623558
 31
0.0
  0
LINE
  5
5A8
330
4B1
100
AcDbEntity
  8
Dimension (ANSI)
440
 16777216
100
AcDbLine
 10
49.63822539557011
 20
31.7672920640816
 30
0.0
 11
49.63822539557011
 21
29.29419278457265
 31
0.0
  0
LINE
  5
5A9
330
4B1
100
AcDbEntity
  8
Dimension (ANSI)
440
 16777216
100
AcDbLine
 10
49.63822539557011
 20
29.29419278457265
 30
0.0
 11
48.30948526818545
 21
29.29419278457265
 31
0.0
  0
SOLID
  5
5AA
330
4B1
100
AcDbEntity
  8
Dimension (ANSI)
440
 16777216
100
AcDbTrace
 10
49.41676870767267
 20
35.29977231885091
 30
0.0
 11
49.85968208346756
 21
35.29977231885091
 31
0.0
 12
49.63822539557011
 22
33.97103219146625
 32
0.0
 13
49.63822539557011
 23
33.97103219146625
 33
0.0
  0
SOLID
  5
5AB
330
4B1
100
AcDbEntity
  8
Dimension (ANSI)
440
 16777216
100
AcDbTrace
 10
49.41676870767267
 20
31.7672920640816
 30
0.0
 11
49.85968208346756
 21
31.7672920640816
 31
0.0
 12
49.63822539557011
 22
33.09603219146626
 32
0.0
 13
49.63822539557011
 23
33.09603219146626
 33
0.0
  0
MTEXT
  5
5AC
330
4B1
100
AcDbEntity
  8
Dimension (ANSI)
440
 16777216
100
AcDbMText
 10
45.80788136414512
 20
29.29419278457266
 30
0.0
 40
1.620000064373016
 41
0.0
 46
0.0
 71
     5
 72
     1
  1
\A1;0.88
  7
Note Text (ANSI)
 73
     1
 44
1.0
  0
POINT
  5
5AD
330
4B1
100
AcDbEntity
  8
Defpoints
 62
     0
440
 16777216
100
AcDbPoint
 10
49.98833000788695
 20
33.97103219146625
 30
0.0
  0
POINT
  5
5AE
330
4B1
100
AcDbEntity
  8
Defpoints
 62
     0
440
 16777216
100
AcDbPoint
 10
51.08228000788699
 20
33.09603219146626
 30
0.0
  0
POINT
  5
5AF
330
4B1
100
AcDbEntity
  8
Defpoints
 62
     0
440
 16777216
100
AcDbPoint
 10
49.63822539557011
 20
33.09603219146626
 30
0.0
  0
ENDBLK
  5
4B3
330
4B1
100
AcDbEntity
  8
0
100
AcDbBlockEnd
  0
BLOCK
  5
5B2
330
5B1
100
AcDbEntity
  8
0
100
AcDbBlockBegin
  2
*D8
 70
     1
 10
0.0
 20
0.0
 30
0.0
  3
*D8
  1

  0
LINE
  5
690
330
5B1
100
AcDbEntity
  8
Dimension (ANSI)
440
 16777216
100
AcDbLine
 10
50.973330007887
 20
110.0647821914662
 30
0.0
 11
50.973330007887
 21
120.7150402589932
 31
0.0
  0
LINE
  5
691
330
5B1
100
AcDbEntity
  8
Dimension (ANSI)
440
 16777216
100
AcDbLine
 10
64.97333000788696
 20
110.0647821914662
 30
0.0
 11
64.97333000788696
 21
120.7150402589932
 31
0.0
  0
LINE
  5
692
330
5B1
100
AcDbEntity
  8
Dimension (ANSI)
440
 16777216
100
AcDbLine
 10
52.30207013527166
 20
119.0275402589932
 30
0.0
 11
54.94623246648155
 21
119.0275402589932
 31
0.0
  0
LINE
  5
693
330
5B1
100
AcDbEntity
  8
Dimension (ANSI)
440
 16777216
100
AcDbLine
 10
63.6445898805023
 20
119.0275402589932
 30
0.0
 11
61.00042754929241
 21
119.0275402589932
 31
0.0
  0
SOLID
  5
694
330
5B1
100
AcDbEntity
  8
Dimension (ANSI)
440
 16777216
100
AcDbTrace
 10
52.30207013527166
 20
119.2489969468906
 30
0.0
 11
52.30207013527166
 21
118.8060835710957
 31
0.0
 12
50.973330007887
 22
119.0275402589932
 32
0.0
 13
50.973330007887
 23
119.0275402589932
 33
0.0
  0
SOLID
  5
695
330
5B1
100
AcDbEntity
  8
Dimension (ANSI)
440
 16777216
100
AcDbTrace
 10
63.6445898805023
 20
119.2489969468906
 30
0.0
 11
63.6445898805023
 21
118.8060835710957
 31
0.0
 12
64.97333000788696
 22
119.0275402589932
 32
0.0
 13
64.97333000788696
 23
119.0275402589932
 33
0.0
  0
MTEXT
  5
696
330
5B1
100
AcDbEntity
  8
Dimension (ANSI)
440
 16777216
100
AcDbMText
 10
55.37142931687524
 20
119.8707236315769
 30
0.0
 40
1.620000064373016
 41
0.0
 46
0.0
 71
     1
 72
     1
  1
\A1;14.00
  7
Note Text (ANSI)
 73
     1
 44
1.0
  0
POINT
  5
697
330
5B1
100
AcDbEntity
  8
Defpoints
 62
     0
440
 16777216
100
AcDbPoint
 10
50.973330007887
 20
109.2210321914662
 30
0.0
  0
POINT
  5
698
330
5B1
100
AcDbEntity
  8
Defpoints
 62
     0
440
 16777216
100
AcDbPoint
 10
64.97333000788696
 20
109.2210321914662
 30
0.0
  0
POINT
  5
699
330
5B1
100
AcDbEntity
  8
Defpoints
 62
     0
440
 16777216
100
AcDbPoint
 10
64.97333000788696
 20
119.0275402589932
 30
0.0
  0
ENDBLK
  5
5B3
330
5B1
100
AcDbEntity
  8
0
100
AcDbBlockEnd
  0
BLOCK
  5
69C
330
69B
100
AcDbEntity
  8
0
100
AcDbBlockBegin
  2
*D9
 70
     1
 10
0.0
 20
0.0
 30
0.0
  3
*D9
  1

  0
LINE
  5
74D
330
69B
100
AcDbEntity
  8
Dimension (ANSI)
440
 16777216
100
AcDbLine
 10
71.22656028635534
 20
39.47849091736483
 30
0.0
 11
69.4968387337872
 21
39.47849091736483
 31
0.0
  0
LINE
  5
74E
330
69B
100
AcDbEntity
  8
Dimension (ANSI)
440
 16777216
100
AcDbLine
 10
69.4968387337872
 20
39.47849091736483
 30
0.0
 11
65.12781494460421
 21
35.10946712818317
 31
0.0
  0
MTEXT
  5
74F
330
69B
100
AcDbEntity
  8
Dimension (ANSI)
440
 16777216
100
AcDbMText
 10
75.19295884586563
 20
39.47849091736483
 30
0.0
 40
1.620000064373016
 41
0.0
 46
0.0
 71
     5
 72
     1
  1
\A1;∅0.563{\P(6 PL.)}
  7
Note Text (ANSI)
 73
     1
 44
1.0
  0
SOLID
  5
750
330
69B
100
AcDbEntity
  8
Dimension (ANSI)
440
 16777216
100
AcDbTrace
 10
64.97122141885284
 20
35.26606065393459
 30
0.0
 11
65.28440847035558
 21
34.95287360243175
 31
0.0
 12
64.1882537900957
 22
34.16990597367494
 32
0.0
 13
64.1882537900957
 23
34.16990597367494
 33
0.0
  0
LINE
  5
751
330
69B
100
AcDbEntity
  8
Dimension (ANSI)
440
 16777216
100
AcDbLine
 10
62.77438000788695
 20
33.97103219146625
 30
0.0
 11
65.20438000788693
 21
33.97103219146625
 31
0.0
  0
LINE
  5
752
330
69B
100
AcDbEntity
  8
Dimension (ANSI)
440
 16777216
100
AcDbLine
 10
63.98938000788696
 20
32.75603219146625
 30
0.0
 11
63.98938000788695
 21
35.18603219146625
 31
0.0
  0
POINT
  5
753
330
69B
100
AcDbEntity
  8
Defpoints
 62
     0
440
 16777216
100
AcDbPoint
 10
64.1882537900957
 20
34.16990597367494
 30
0.0
  0
POINT
  5
754
330
69B
100
AcDbEntity
  8
Defpoints
 62
     0
440
 16777216
100
AcDbPoint
 10
63.79050622567821
 20
33.77215840925757
 30
0.0
  0
ENDBLK
  5
69D
330
69B
100
AcDbEntity
  8
0
100
AcDbBlockEnd
  0
BLOCK
  5
757
330
756
100
AcDbEntity
  8
0
100
AcDbBlockBegin
  2
*D10
 70
     1
 10
0.0
 20
0.0
 30
0.0
  3
*D10
  1

  0
LINE
  5
835
330
756
100
AcDbEntity
  8
Dimension (ANSI)
440
 16777216
100
AcDbLine
 10
51.95708000788695
 20
113.0335321914662
 30
0.0
 11
51.95708000788695
 21
116.5812341261563
 31
0.0
  0
LINE
  5
836
330
756
100
AcDbEntity
  8
Dimension (ANSI)
440
 16777216
100
AcDbLine
 10
63.98938000788695
 20
113.0335321914662
 30
0.0
 11
63.98938000788695
 21
116.5812341261563
 31
0.0
  0
LINE
  5
837
330
756
100
AcDbEntity
  8
Dimension (ANSI)
440
 16777216
100
AcDbLine
 10
53.28582013527161
 20
114.8937341261563
 30
0.0
 11
54.96408411247846
 21
114.8937341261563
 31
0.0
  0
LINE
  5
838
330
756
100
AcDbEntity
  8
Dimension (ANSI)
440
 16777216
100
AcDbLine
 10
62.66063988050229
 20
114.8937341261563
 30
0.0
 11
60.98237590329543
 21
114.8937341261563
 31
0.0
  0
SOLID
  5
839
330
756
100
AcDbEntity
  8
Dimension (ANSI)
440
 16777216
100
AcDbTrace
 10
53.28582013527161
 20
115.1151908140538
 30
0.0
 11
53.28582013527161
 21
114.6722774382589
 31
0.0
 12
51.95708000788695
 22
114.8937341261563
 32
0.0
 13
51.95708000788695
 23
114.8937341261563
 33
0.0
  0
SOLID
  5
83A
330
756
100
AcDbEntity
  8
Dimension (ANSI)
440
 16777216
100
AcDbTrace
 10
62.66063988050229
 20
115.1151908140538
 30
0.0
 11
62.66063988050229
 21
114.6722774382589
 31
0.0
 12
63.98938000788695
 22
114.8937341261563
 32
0.0
 13
63.98938000788695
 23
114.8937341261563
 33
0.0
  0
MTEXT
  5
83B
330
756
100
AcDbEntity
  8
Dimension (ANSI)
440
 16777216
100
AcDbMText
 10
55.38928096287215
 20
115.7374614880128
 30
0.0
 40
1.620000064373016
 41
0.0
 46
0.0
 71
     1
 72
     1
  1
\A1;12.03
  7
Note Text (ANSI)
 73
     1
 44
1.0
  0
POINT
  5
83C
330
756
100
AcDbEntity
  8
Defpoints
 62
     0
440
 16777216
100
AcDbPoint
 10
51.95708000788695
 20
112.1897821914662
 30
0.0
  0
POINT
  5
83D
330
756
100
AcDbEntity
  8
Defpoints
 62
     0
440
 16777216
100
AcDbPoint
 10
63.98938000788695
 20
112.1897821914662
 30
0.0
  0
POINT
  5
83E
330
756
100
AcDbEntity
  8
Defpoints
 62
     0
440
 16777216
100
AcDbPoint
 10
63.98938000788695
 20
114.8937341261563
 30
0.0
  0
ENDBLK
  5
758
330
756
100
AcDbEntity
  8
0
100
AcDbBlockEnd
  0
BLOCK
  5
841
330
840
100
AcDbEntity
  8
0
100
AcDbBlockBegin
  2
*D11
 70
     1
 10
0.0
 20
0.0
 30
0.0
  3
*D11
  1

  0
LINE
  5
91F
330
840
100
AcDbEntity
  8
Dimension (ANSI)
440
 16777216
100
AcDbLine
 10
50.973330007887
 20
110.0647821914662
 30
0.0
 11
50.973330007887
 21
116.5812341261563
 31
0.0
  0
LINE
  5
920
330
840
100
AcDbEntity
  8
Dimension (ANSI)
440
 16777216
100
AcDbLine
 10
51.95708000788695
 20
113.0335321914662
 30
0.0
 11
51.95708000788695
 21
116.5812341261563
 31
0.0
  0
LINE
  5
921
330
840
100
AcDbEntity
  8
Dimension (ANSI)
440
 16777216
100
AcDbLine
 10
53.28582013527161
 20
114.8937341261563
 30
0.0
 11
54.61456026265627
 21
114.8937341261563
 31
0.0
  0
LINE
  5
922
330
840
100
AcDbEntity
  8
Dimension (ANSI)
440
 16777216
100
AcDbLine
 10
49.64458988050234
 20
114.8937341261563
 30
0.0
 11
47.62929051758663
 21
114.8937341261563
 31
0.0
  0
SOLID
  5
923
330
840
100
AcDbEntity
  8
Dimension (ANSI)
440
 16777216
100
AcDbTrace
 10
53.28582013527161
 20
115.1151908140538
 30
0.0
 11
53.28582013527161
 21
114.6722774382589
 31
0.0
 12
51.95708000788695
 22
114.8937341261563
 32
0.0
 13
51.95708000788695
 23
114.8937341261563
 33
0.0
  0
SOLID
  5
924
330
840
100
AcDbEntity
  8
Dimension (ANSI)
440
 16777216
100
AcDbTrace
 10
49.64458988050234
 20
115.1151908140538
 30
0.0
 11
49.64458988050234
 21
114.6722774382589
 31
0.0
 12
50.973330007887
 22
114.8937341261563
 32
0.0
 13
50.973330007887
 23
114.8937341261563
 33
0.0
  0
MTEXT
  5
925
330
840
100
AcDbEntity
  8
Dimension (ANSI)
440
 16777216
100
AcDbMText
 10
43.05127955989969
 20
115.7407254236486
 30
0.0
 40
1.620000064373016
 41
0.0
 46
0.0
 71
     1
 72
     1
  1
\A1;0.98
  7
Note Text (ANSI)
 73
     1
 44
1.0
  0
POINT
  5
926
330
840
100
AcDbEntity
  8
Defpoints
 62
     0
440
 16777216
100
AcDbPoint
 10
50.973330007887
 20
109.2210321914662
 30
0.0
  0
POINT
  5
927
330
840
100
AcDbEntity
  8
Defpoints
 62
     0
440
 16777216
100
AcDbPoint
 10
51.95708000788695
 20
112.1897821914662
 30
0.0
  0
POINT
  5
928
330
840
100
AcDbEntity
  8
Defpoints
 62
     0
440
 16777216
100
AcDbPoint
 10
51.95708000788695
 20
114.8937341261563
 30
0.0
  0
ENDBLK
  5
842
330
840
100
AcDbEntity
  8
0
100
AcDbBlockEnd
  0
BLOCK
  5
92B
330
92A
100
AcDbEntity
  8
0
100
AcDbBlockBegin
  2
*D12
 70
     1
 10
0.0
 20
0.0
 30
0.0
  3
*D12
  1

  0
LINE
  5
A09
330
92A
100
AcDbEntity
  8
Dimension (ANSI)
440
 16777216
100
AcDbLine
 10
49.14458000788695
 20
110.2210321914662
 30
0.0
 11
37.93966947570634
 21
110.2210321914662
 31
0.0
  0
LINE
  5
A0A
330
92A
100
AcDbEntity
  8
Dimension (ANSI)
440
 16777216
100
AcDbLine
 10
49.14458000788695
 20
33.97103219146625
 30
0.0
 11
37.93966947570633
 21
33.97103219146626
 31
0.0
  0
LINE
  5
A0B
330
92A
100
AcDbEntity
  8
Dimension (ANSI)
440
 16777216
100
AcDbLine
 10
39.62716947570634
 20
108.8922920640815
 30
0.0
 11
39.62716947570633
 21
73.36495640371635
 31
0.0
  0
LINE
  5
A0C
330
92A
100
AcDbEntity
  8
Dimension (ANSI)
440
 16777216
100
AcDbLine
 10
39.62716947570632
 20
35.29977231885092
 30
0.0
 11
39.62716947570633
 21
70.82710797921612
 31
0.0
  0
SOLID
  5
A0D
330
92A
100
AcDbEntity
  8
Dimension (ANSI)
440
 16777216
100
AcDbTrace
 10
39.4057127878089
 20
108.8922920640815
 30
0.0
 11
39.84862616360378
 21
108.8922920640815
 31
0.0
 12
39.62716947570634
 22
110.2210321914662
 32
0.0
 13
39.62716947570634
 23
110.2210321914662
 33
0.0
  0
SOLID
  5
A0E
330
92A
100
AcDbEntity
  8
Dimension (ANSI)
440
 16777216
100
AcDbTrace
 10
39.40571278780888
 20
35.29977231885092
 30
0.0
 11
39.84862616360377
 21
35.29977231885092
 31
0.0
 12
39.62716947570632
 22
33.97103219146626
 32
0.0
 13
39.62716947570632
 23
33.97103219146626
 33
0.0
  0
MTEXT
  5
A0F
330
92A
100
AcDbEntity
  8
Dimension (ANSI)
440
 16777216
100
AcDbMText
 10
36.96923788961322
 20
72.93975955332266
 30
0.0
 40
1.620000064373016
 41
0.0
 46
0.0
 71
     1
 72
     1
  1
\A1;76.25
  7
Note Text (ANSI)
 73
     1
 44
1.0
  0
POINT
  5
A10
330
92A
100
AcDbEntity
  8
Defpoints
 62
     0
440
 16777216
100
AcDbPoint
 10
49.98833000788695
 20
110.2210321914662
 30
0.0
  0
POINT
  5
A11
330
92A
100
AcDbEntity
  8
Defpoints
 62
     0
440
 16777216
100
AcDbPoint
 10
49.98833000788695
 20
33.97103219146625
 30
0.0
  0
POINT
  5
A12
330
92A
100
AcDbEntity
  8
Defpoints
 62
     0
440
 16777216
100
AcDbPoint
 10
39.62716947570632
 20
33.97103219146626
 30
0.0
  0
ENDBLK
  5
92C
330
92A
100
AcDbEntity
  8
0
100
AcDbBlockEnd
  0
BLOCK
  5
A17
330
A16
100
AcDbEntity
  8
0
100
AcDbBlockBegin
  2
*D13
 70
     1
 10
0.0
 20
0.0
 30
0.0
  3
*D13
  1

  0
LINE
  5
B06
330
A16
100
AcDbEntity
  8
Dimension (ANSI)
440
 16777216
100
AcDbLine
 10
112.3196880160663
 20
110.1021139857737
 30
0.0
 11
110.9909478886816
 21
110.1021139857737
 31
0.0
  0
LINE
  5
B07
330
A16
100
AcDbEntity
  8
Dimension (ANSI)
440
 16777216
100
AcDbLine
 10
115.0709182708356
 20
110.1021139857737
 30
0.0
 11
119.4734700752027
 21
110.1021139857737
 31
0.0
  0
SOLID
  5
B08
330
A16
100
AcDbEntity
  8
Dimension (ANSI)
440
 16777216
100
AcDbTrace
 10
112.3196880160663
 20
110.3235706736711
 30
0.0
 11
112.3196880160663
 21
109.8806572978762
 31
0.0
 12
113.648428143451
 22
110.1021139857737
 32
0.0
 13
113.648428143451
 23
110.1021139857737
 33
0.0
  0
SOLID
  5
B09
330
A16
100
AcDbEntity
  8
Dimension (ANSI)
440
 16777216
100
AcDbTrace
 10
115.0709182708356
 20
110.3235706736711
 30
0.0
 11
115.0709182708356
 21
109.8806572978762
 31
0.0
 12
113.742178143451
 22
110.1021139857737
 32
0.0
 13
113.742178143451
 23
110.1021139857737
 33
0.0
  0
MTEXT
  5
B0A
330
A16
100
AcDbEntity
  8
Dimension (ANSI)
440
 16777216
100
AcDbMText
 10
126.326444171048
 20
110.1021139857737
 30
0.0
 40
1.620000064373016
 41
0.0
 46
0.0
 71
     5
 72
     1
  1
\A1;{12 GA. C.R.S.\P}(0.094)
  7
Note Text (ANSI)
 73
     1
 44
1.0
  0
POINT
  5
B0B
330
A16
100
AcDbEntity
  8
Defpoints
 62
     0
440
 16777216
100
AcDbPoint
 10
113.742178143451
 20
110.1021139857737
 30
0.0
  0
POINT
  5
B0C
330
A16
100
AcDbEntity
  8
Defpoints
 62
     0
440
 16777216
100
AcDbPoint
 10
113.648428143451
 20
110.1021139857737
 30
0.0
  0
POINT
  5
B0D
330
A16
100
AcDbEntity
  8
Defpoints
 62
     0
440
 16777216
100
AcDbPoint
 10
113.648428143451
 20
110.1021139857737
 30
0.0
  0
ENDBLK
  5
A18
330
A16
100
AcDbEntity
  8
0
100
AcDbBlockEnd
  0
ENDSEC
  0
SECTION
  2
ENTITIES
  0
CIRCLE
  5
11B
330
6C
100
AcDbEntity
  8
Visible (ANSI)
100
AcDbCircle
 10
63.98938000788695
 20
72.09603219146625
 30
0.0
 40
0.28125
  0
CIRCLE
  5
11C
330
6C
100
AcDbEntity
  8
Visible (ANSI)
100
AcDbCircle
 10
51.95708000788695
 20
72.09603219146625
 30
0.0
 40
0.28125
  0
CIRCLE
  5
11D
330
6C
100
AcDbEntity
  8
Visible (ANSI)
100
AcDbCircle
 10
63.98938000788695
 20
33.97103219146625
 30
0.0
 40
0.28125
  0
CIRCLE
  5
11E
330
6C
100
AcDbEntity
  8
Visible (ANSI)
100
AcDbCircle
 10
51.95708000788695
 20
33.97103219146625
 30
0.0
 40
0.28125
  0
CIRCLE
  5
11F
330
6C
100
AcDbEntity
  8
Visible (ANSI)
100
AcDbCircle
 10
63.98938000788695
 20
110.2210321914662
 30
0.0
 40
0.28125
  0
CIRCLE
  5
120
330
6C
100
AcDbEntity
  8
Visible (ANSI)
100
AcDbCircle
 10
51.95708000788695
 20
110.2210321914662
 30
0.0
 40
0.28125
  0
LINE
  5
121
330
6C
100
AcDbEntity
  8
Visible (ANSI)
100
AcDbLine
 10
51.08208000788695
 20
73.09603219146625
 30
0.0
 11
50.97333000788701
 21
73.09603219146625
 31
0.0
  0
LINE
  5
122
330
6C
100
AcDbEntity
  8
Visible (ANSI)
100
AcDbLine
 10
50.97333000788701
 20
71.09603219146624
 30
0.0
 11
51.08208000788695
 21
71.09603219146624
 31
0.0
  0
LINE
  5
123
330
6C
100
AcDbEntity
  8
Visible (ANSI)
100
AcDbLine
 10
51.08208000788695
 20
73.09603219146625
 30
0.0
 11
51.08208000788695
 21
71.09603219146624
 31
0.0
  0
LINE
  5
124
330
6C
100
AcDbEntity
  8
Hidden (ANSI)
 48
1.078828334808349
100
AcDbLine
 10
51.06708000788702
 20
34.97103219146625
 30
0.0
 11
51.06708000788688
 21
71.09603219146624
 31
0.0
  0
LINE
  5
125
330
6C
100
AcDbEntity
  8
Hidden (ANSI)
 48
1.078828334808349
100
AcDbLine
 10
51.06708000788687
 20
73.09603219146625
 30
0.0
 11
51.067080007887
 21
109.2210321914662
 31
0.0
  0
LINE
  5
126
330
6C
100
AcDbEntity
  8
Visible (ANSI)
100
AcDbLine
 10
50.97333000788688
 20
71.09603219146624
 30
0.0
 11
50.97333000788702
 21
34.97103219146626
 31
0.0
  0
LINE
  5
127
330
6C
100
AcDbEntity
  8
Visible (ANSI)
100
AcDbLine
 10
50.97333000788703
 20
34.97103219146626
 30
0.0
 11
51.08208000788698
 21
34.97103219146626
 31
0.0
  0
LINE
  5
128
330
6C
100
AcDbEntity
  8
Visible (ANSI)
100
AcDbLine
 10
50.973330007887
 20
109.2210321914662
 30
0.0
 11
50.973330007887
 21
73.09603219146625
 31
0.0
  0
LINE
  5
129
330
6C
100
AcDbEntity
  8
Visible (ANSI)
100
AcDbLine
 10
50.973330007887
 20
109.2210321914662
 30
0.0
 11
51.08208000788695
 21
109.2210321914662
 31
0.0
  0
LINE
  5
12A
330
6C
100
AcDbEntity
  8
Visible (ANSI)
100
AcDbLine
 10
51.08228000788697
 20
34.97103219146626
 30
0.0
 11
51.08228000788699
 21
33.09603219146626
 31
0.0
  0
LINE
  5
12B
330
6C
100
AcDbEntity
  8
Visible (ANSI)
100
AcDbLine
 10
51.08228000788695
 20
109.2212321914662
 30
0.0
 11
51.08228000788695
 21
109.2210321914662
 31
0.0
  0
LINE
  5
12C
330
6C
100
AcDbEntity
  8
Visible (ANSI)
100
AcDbLine
 10
51.08208000788695
 20
109.2212321914662
 30
0.0
 11
51.08228000788695
 21
109.2212321914662
 31
0.0
  0
LINE
  5
12D
330
6C
100
AcDbEntity
  8
Visible (ANSI)
100
AcDbLine
 10
64.86438000788699
 20
71.09603219146625
 30
0.0
 11
64.86438000788699
 21
73.09603219146625
 31
0.0
  0
LINE
  5
12E
330
6C
100
AcDbEntity
  8
Visible (ANSI)
100
AcDbLine
 10
64.86458000788697
 20
71.09603219146625
 30
0.0
 11
64.86438000788699
 21
71.09603219146625
 31
0.0
  0
LINE
  5
12F
330
6C
100
AcDbEntity
  8
Visible (ANSI)
100
AcDbLine
 10
64.86458000788697
 20
71.09603219146625
 30
0.0
 11
64.97333000788697
 21
71.09603219146625
 31
0.0
  0
LINE
  5
130
330
6C
100
AcDbEntity
  8
Visible (ANSI)
100
AcDbLine
 10
64.97333000788697
 20
73.09603219146625
 30
0.0
 11
64.86458000788697
 21
73.09603219146625
 31
0.0
  0
LINE
  5
131
330
6C
100
AcDbEntity
  8
Visible (ANSI)
100
AcDbLine
 10
64.86438000788699
 20
73.09603219146625
 30
0.0
 11
64.86458000788697
 21
73.09603219146625
 31
0.0
  0
LINE
  5
132
330
6C
100
AcDbEntity
  8
Hidden (ANSI)
 48
1.078828334808349
100
AcDbLine
 10
64.87958000788697
 20
71.09603219146625
 30
0.0
 11
64.87958000788698
 21
34.97103219146627
 31
0.0
  0
LINE
  5
133
330
6C
100
AcDbEntity
  8
Hidden (ANSI)
 48
1.078828334808349
100
AcDbLine
 10
64.87958000788697
 20
109.2210321914662
 30
0.0
 11
64.87958000788697
 21
73.09603219146625
 31
0.0
  0
LINE
  5
134
330
6C
100
AcDbEntity
  8
Visible (ANSI)
100
AcDbLine
 10
64.97333000788699
 20
34.97103219146627
 30
0.0
 11
64.86458000788701
 21
34.97103219146627
 31
0.0
  0
LINE
  5
135
330
6C
100
AcDbEntity
  8
Visible (ANSI)
100
AcDbLine
 10
64.97333000788699
 20
34.97103219146627
 30
0.0
 11
64.97333000788697
 21
71.09603219146625
 31
0.0
  0
LINE
  5
136
330
6C
100
AcDbEntity
  8
Visible (ANSI)
100
AcDbLine
 10
64.97333000788699
 20
73.09603219146625
 30
0.0
 11
64.97333000788697
 21
109.2210321914662
 31
0.0
  0
LINE
  5
137
330
6C
100
AcDbEntity
  8
Visible (ANSI)
100
AcDbLine
 10
64.97333000788697
 20
109.2210321914662
 30
0.0
 11
64.864580007887
 21
109.2210321914662
 31
0.0
  0
LINE
  5
138
330
6C
100
AcDbEntity
  8
Visible (ANSI)
100
AcDbLine
 10
64.86458000788701
 20
34.97083219146627
 30
0.0
 11
64.86438000788701
 21
34.97083219146627
 31
0.0
  0
LINE
  5
139
330
6C
100
AcDbEntity
  8
Visible (ANSI)
100
AcDbLine
 10
64.86438000788699
 20
109.2210321914662
 30
0.0
 11
64.86438000788699
 21
111.0960321914662
 31
0.0
  0
LINE
  5
13A
330
6C
100
AcDbEntity
  8
Visible (ANSI)
100
AcDbLine
 10
64.86438000788701
 20
34.97083219146627
 30
0.0
 11
64.86438000788701
 21
34.97103219146627
 31
0.0
  0
LINE
  5
13B
330
6C
100
AcDbEntity
  8
Visible (ANSI)
100
AcDbLine
 10
64.86458000788701
 20
33.09603219146626
 30
0.0
 11
64.86458000788701
 21
34.97083219146627
 31
0.0
  0
LINE
  5
13C
330
6C
100
AcDbEntity
  8
Visible (ANSI)
100
AcDbLine
 10
51.08208000788695
 20
111.0960321914662
 30
0.0
 11
51.08208000788695
 21
109.2212321914662
 31
0.0
  0
LINE
  5
13D
330
6C
100
AcDbEntity
  8
Visible (ANSI)
100
AcDbLine
 10
51.08208000788695
 20
111.0960321914662
 30
0.0
 11
64.86438000788699
 21
111.0960321914662
 31
0.0
  0
LINE
  5
13E
330
6C
100
AcDbEntity
  8
Visible (ANSI)
100
AcDbLine
 10
64.86458000788701
 20
33.09603219146626
 30
0.0
 11
51.08228000788699
 21
33.09603219146626
 31
0.0
  0
LINE
  5
13F
330
6C
100
AcDbEntity
  8
Visible (ANSI)
100
AcDbLine
 10
51.08228000788695
 20
109.2210321914662
 30
0.0
 11
51.08208000788695
 21
109.2210321914662
 31
0.0
  0
LINE
  5
140
330
6C
100
AcDbEntity
  8
Visible (ANSI)
100
AcDbLine
 10
51.08208000788698
 20
34.97103219146626
 30
0.0
 11
51.08228000788697
 21
34.97103219146626
 31
0.0
  0
LINE
  5
141
330
6C
100
AcDbEntity
  8
Visible (ANSI)
100
AcDbLine
 10
64.86438000788701
 20
34.97103219146627
 30
0.0
 11
64.86458000788701
 21
34.97103219146627
 31
0.0
  0
LINE
  5
142
330
6C
100
AcDbEntity
  8
Visible (ANSI)
100
AcDbLine
 10
64.864580007887
 20
109.2210321914662
 30
0.0
 11
64.86438000788699
 21
109.2210321914662
 31
0.0
  0
MTEXT
  5
144
330
6C
100
AcDbEntity
  8
Symbol (ANSI)
100
AcDbMText
 10
51.79783621802109
 20
25.62202500712627
 30
0.0
 40
1.620000020021528
 41
0.0
 46
0.0
 71
     7
 72
     1
  1
FRONT VIEW
  7
Text Style153
 73
     1
 44
1.0
  0
LINE
  5
146
330
6C
100
AcDbEntity
  8
Symbol (ANSI)
370
    30
100
AcDbLine
 10
51.63583580129787
 20
25.29165790256525
 30
0.0
 11
64.66016335915451
 21
25.29165790256525
 31
0.0
  0
LINE
  5
147
330
6C
100
AcDbEntity
  8
Visible (ANSI)
100
AcDbLine
 10
113.742178143451
 20
73.09603219146625
 30
0.0
 11
113.742178143451
 21
71.09603219146625
 31
0.0
  0
LINE
  5
148
330
6C
100
AcDbEntity
  8
Visible (ANSI)
100
AcDbLine
 10
113.648428143451
 20
71.09603219146625
 30
0.0
 11
113.648428143451
 21
73.09603219146625
 31
0.0
  0
LINE
  5
149
330
6C
100
AcDbEntity
  8
Visible (ANSI)
100
AcDbLine
 10
113.648428143451
 20
71.09603219146625
 30
0.0
 11
113.757178143451
 21
71.09603219146625
 31
0.0
  0
LINE
  5
14A
330
6C
100
AcDbEntity
  8
Visible (ANSI)
100
AcDbLine
 10
114.5234281434509
 20
71.09603219146625
 30
0.0
 11
113.757178143451
 21
71.09603219146625
 31
0.0
  0
LINE
  5
14B
330
6C
100
AcDbEntity
  8
Visible (ANSI)
100
AcDbLine
 10
113.757178143451
 20
73.09603219146625
 30
0.0
 11
114.5234281434509
 21
73.09603219146625
 31
0.0
  0
LINE
  5
14C
330
6C
100
AcDbEntity
  8
Visible (ANSI)
100
AcDbLine
 10
113.757178143451
 20
73.09603219146625
 30
0.0
 11
113.648428143451
 21
73.09603219146625
 31
0.0
  0
LINE
  5
14D
330
6C
100
AcDbEntity
  8
Hidden (ANSI)
 48
1.078828334808349
100
AcDbLine
 10
113.742178143451
 20
71.09603219146625
 30
0.0
 11
113.742178143451
 21
34.97103219146627
 31
0.0
  0
LINE
  5
14E
330
6C
100
AcDbEntity
  8
Hidden (ANSI)
 48
1.078828334808349
100
AcDbLine
 10
113.742178143451
 20
109.2210321914662
 30
0.0
 11
113.742178143451
 21
73.09603219146625
 31
0.0
  0
LINE
  5
14F
330
6C
100
AcDbEntity
  8
Visible (ANSI)
100
AcDbLine
 10
113.742178143451
 20
34.97103219146627
 30
0.0
 11
113.742178143451
 21
34.97083219146627
 31
0.0
  0
LINE
  5
150
330
6C
100
AcDbEntity
  8
Visible (ANSI)
100
AcDbLine
 10
113.742178143451
 20
111.0960321914662
 30
0.0
 11
113.742178143451
 21
109.2210321914662
 31
0.0
  0
LINE
  5
151
330
6C
100
AcDbEntity
  8
Visible (ANSI)
100
AcDbLine
 10
113.648428143451
 20
34.97103219146627
 30
0.0
 11
113.648428143451
 21
71.09603219146625
 31
0.0
  0
LINE
  5
152
330
6C
100
AcDbEntity
  8
Visible (ANSI)
100
AcDbLine
 10
113.757178143451
 20
34.97103219146627
 30
0.0
 11
113.648428143451
 21
34.97103219146627
 31
0.0
  0
LINE
  5
153
330
6C
100
AcDbEntity
  8
Visible (ANSI)
100
AcDbLine
 10
113.757178143451
 20
109.2210321914662
 30
0.0
 11
113.648428143451
 21
109.2210321914662
 31
0.0
  0
LINE
  5
154
330
6C
100
AcDbEntity
  8
Visible (ANSI)
100
AcDbLine
 10
113.648428143451
 20
73.09603219146625
 30
0.0
 11
113.648428143451
 21
109.2210321914662
 31
0.0
  0
LINE
  5
155
330
6C
100
AcDbEntity
  8
Visible (ANSI)
100
AcDbLine
 10
113.648428143451
 20
111.0960321914662
 30
0.0
 11
113.742178143451
 21
111.0960321914662
 31
0.0
  0
LINE
  5
156
330
6C
100
AcDbEntity
  8
Visible (ANSI)
100
AcDbLine
 10
113.648428143451
 20
109.2210321914662
 30
0.0
 11
113.648428143451
 21
111.0960321914662
 31
0.0
  0
LINE
  5
157
330
6C
100
AcDbEntity
  8
Visible (ANSI)
100
AcDbLine
 10
113.648428143451
 20
34.97083219146627
 30
0.0
 11
113.648428143451
 21
34.97103219146627
 31
0.0
  0
LINE
  5
158
330
6C
100
AcDbEntity
  8
Visible (ANSI)
100
AcDbLine
 10
113.742178143451
 20
34.97083219146627
 30
0.0
 11
113.742178143451
 21
33.09603219146626
 31
0.0
  0
LINE
  5
159
330
6C
100
AcDbEntity
  8
Visible (ANSI)
100
AcDbLine
 10
113.648428143451
 20
34.97083219146627
 30
0.0
 11
113.742178143451
 21
34.97083219146627
 31
0.0
  0
LINE
  5
15A
330
6C
100
AcDbEntity
  8
Visible (ANSI)
100
AcDbLine
 10
113.648428143451
 20
33.09603219146626
 30
0.0
 11
113.648428143451
 21
34.97083219146627
 31
0.0
  0
LINE
  5
15B
330
6C
100
AcDbEntity
  8
Visible (ANSI)
100
AcDbLine
 10
113.742178143451
 20
33.09603219146626
 30
0.0
 11
113.648428143451
 21
33.09603219146626
 31
0.0
  0
LINE
  5
15C
330
6C
100
AcDbEntity
  8
Visible (ANSI)
100
AcDbLine
 10
114.5234281434509
 20
71.09603219146625
 30
0.0
 11
114.523428143451
 21
34.97103219146626
 31
0.0
  0
LINE
  5
15D
330
6C
100
AcDbEntity
  8
Visible (ANSI)
100
AcDbLine
 10
113.7571781434511
 20
34.97103219146627
 30
0.0
 11
114.523428143451
 21
34.97103219146626
 31
0.0
  0
LINE
  5
15E
330
6C
100
AcDbEntity
  8
Visible (ANSI)
100
AcDbLine
 10
114.523428143451
 20
109.2210321914662
 30
0.0
 11
114.5234281434509
 21
73.09603219146625
 31
0.0
  0
LINE
  5
15F
330
6C
100
AcDbEntity
  8
Visible (ANSI)
100
AcDbLine
 10
114.523428143451
 20
109.2210321914662
 30
0.0
 11
113.757178143451
 21
109.2210321914662
 31
0.0
  0
LINE
  5
160
330
6C
100
AcDbEntity
  8
Hidden (ANSI)
 48
0.0131270596757531
100
AcDbLine
 10
113.6484281434469
 20
109.2212321914662
 30
0.0
 11
113.7421781434469
 21
109.2212321914662
 31
0.0
  0
LINE
  5
161
330
6C
100
AcDbEntity
  8
Hidden (ANSI)
 48
0.0131270596757531
100
AcDbLine
 10
113.7421781434507
 20
71.81478219146625
 30
0.0
 11
113.6484281434507
 21
71.81478219146625
 31
0.0
  0
LINE
  5
162
330
6C
100
AcDbEntity
  8
Hidden (ANSI)
 48
0.0131270596757531
100
AcDbLine
 10
113.7421781434507
 20
72.37728219146625
 30
0.0
 11
113.6484281434507
 21
72.37728219146625
 31
0.0
  0
LINE
  5
163
330
6C
100
AcDbEntity
  8
Hidden (ANSI)
 48
0.0131270596757531
100
AcDbLine
 10
113.7421781434507
 20
33.68978219146625
 30
0.0
 11
113.6484281434507
 21
33.68978219146625
 31
0.0
  0
LINE
  5
164
330
6C
100
AcDbEntity
  8
Hidden (ANSI)
 48
0.0131270596757531
100
AcDbLine
 10
113.7421781434507
 20
34.25228219146626
 30
0.0
 11
113.6484281434507
 21
34.25228219146626
 31
0.0
  0
LINE
  5
165
330
6C
100
AcDbEntity
  8
Hidden (ANSI)
 48
0.0131270596757531
100
AcDbLine
 10
113.7421781434507
 20
109.9397821914662
 30
0.0
 11
113.6484281434507
 21
109.9397821914662
 31
0.0
  0
LINE
  5
166
330
6C
100
AcDbEntity
  8
Hidden (ANSI)
 48
0.0131270596757531
100
AcDbLine
 10
113.7421781434507
 20
110.5022821914662
 30
0.0
 11
113.6484281434507
 21
110.5022821914662
 31
0.0
  0
MTEXT
  5
167
330
6C
100
AcDbEntity
  8
Symbol (ANSI)
100
AcDbMText
 10
110.004661145924
 20
25.80711061973998
 30
0.0
 40
1.620000020021528
 41
0.0
 46
0.0
 71
     7
 72
     1
  1
SIDE VIEW
  7
Text Style153
 73
     1
 44
1.0
  0
LINE
  5
168
330
6C
100
AcDbEntity
  8
Symbol (ANSI)
370
    30
100
AcDbLine
 10
109.9217169325617
 20
25.47149230151644
 30
0.0
 11
120.8691885080359
 21
25.47149230151644
 31
0.0
  0
ELLIPSE
  5
169
330
6C
100
AcDbEntity
  8
Visible (ANSI)
100
AcDbEllipse
 10
179.057943305972
 20
69.13969205537897
 30
0.0
 11
-0.1578969106966282
 21
0.274192415342809
 31
0.0
210
0.0
220
0.0
230
1.0
 40
0.578093115915809
 41
0.0
 42
6.283185307179586
  0
ELLIPSE
  5
16A
330
6C
100
AcDbEntity
  8
Visible (ANSI)
100
AcDbEllipse
 10
179.1325209743003
 20
69.18263847831801
 30
0.0
 11
-0.1578969106966283
 21
0.2741924153428091
 31
0.0
210
0.0
220
0.0
230
1.0
 40
0.578093115915809
 41
0.2374735152854966
 42
2.904119138304421
  0
ELLIPSE
  5
16B
330
6C
100
AcDbEntity
  8
Visible (ANSI)
100
AcDbEllipse
 10
169.4863072672908
 20
74.65163066582466
 30
0.0
 11
-0.1578969106966282
 21
0.274192415342809
 31
0.0
210
0.0
220
0.0
230
1.0
 40
0.578093115915809
 41
0.0
 42
6.283185307179586
  0
ELLIPSE
  5
16C
330
6C
100
AcDbEntity
  8
Visible (ANSI)
100
AcDbEllipse
 10
169.5608849356191
 20
74.69457708876369
 30
0.0
 11
-0.1578969106966272
 21
0.2741924153428072
 31
0.0
210
0.0
220
0.0
230
0.9999999999999998
 40
0.578093115915809
 41
0.2374735152853855
 42
2.904119138304346
  0
ELLIPSE
  5
16D
330
6C
100
AcDbEntity
  8
Visible (ANSI)
100
AcDbEllipse
 10
179.0579433059719
 20
34.07458490392953
 30
0.0
 11
-0.1578969106966282
 21
0.274192415342809
 31
0.0
210
0.0
220
0.0
230
1.0
 40
0.578093115915809
 41
0.0
 42
6.283185307179586
  0
ELLIPSE
  5
16E
330
6C
100
AcDbEntity
  8
Visible (ANSI)
100
AcDbEllipse
 10
179.1325209743002
 20
34.11753132686858
 30
0.0
 11
-0.157896910696628
 21
0.2741924153428085
 31
0.0
210
0.0
220
0.0
230
1.0
 40
0.5780931159158089
 41
0.2374735152854966
 42
2.904119138304431
  0
ELLIPSE
  5
16F
330
6C
100
AcDbEntity
  8
Visible (ANSI)
100
AcDbEllipse
 10
169.4863072672907
 20
39.58652351437521
 30
0.0
 11
-0.1578969106966282
 21
0.274192415342809
 31
0.0
210
0.0
220
0.0
230
1.0
 40
0.578093115915809
 41
0.0
 42
6.283185307179586
  0
ELLIPSE
  5
170
330
6C
100
AcDbEntity
  8
Visible (ANSI)
100
AcDbEllipse
 10
169.560884935619
 20
39.62946993731426
 30
0.0
 11
-0.1578969106966284
 21
0.2741924153428092
 31
0.0
210
0.0
220
0.0
230
1.0
 40
0.5780931159158092
 41
0.2374735152854166
 42
2.904119138304337
  0
ELLIPSE
  5
171
330
6C
100
AcDbEntity
  8
Visible (ANSI)
100
AcDbEllipse
 10
179.0579433059721
 20
104.2047992068284
 30
0.0
 11
-0.1578969106966282
 21
0.274192415342809
 31
0.0
210
0.0
220
0.0
230
1.0
 40
0.578093115915809
 41
0.0
 42
6.283185307179586
  0
ELLIPSE
  5
172
330
6C
100
AcDbEntity
  8
Visible (ANSI)
100
AcDbEllipse
 10
179.1325209743003
 20
104.2477456297674
 30
0.0
 11
-0.1578969106966319
 21
0.2741924153428154
 31
0.0
210
0.0
220
0.0
230
1.0
 40
0.578093115915809
 41
0.2374735152854657
 42
2.904119138304421
  0
ELLIPSE
  5
173
330
6C
100
AcDbEntity
  8
Visible (ANSI)
100
AcDbEllipse
 10
169.4863072672909
 20
109.7167378172741
 30
0.0
 11
-0.1578969106966282
 21
0.274192415342809
 31
0.0
210
0.0
220
0.0
230
1.0
 40
0.578093115915809
 41
0.0
 42
6.283185307179586
  0
ELLIPSE
  5
174
330
6C
100
AcDbEntity
  8
Visible (ANSI)
100
AcDbEllipse
 10
169.5608849356192
 20
109.7596842402131
 30
0.0
 11
-0.1578969106966315
 21
0.2741924153428146
 31
0.0
210
0.0
220
0.0
230
1.0
 40
0.578093115915809
 41
0.2374735152853856
 42
2.904119138304233
  0
ELLIPSE
  5
175
330
6C
100
AcDbEntity
  8
Visible (ANSI)
100
AcDbEllipse
 10
168.876759124821
 20
76.02202231264604
 30
0.0
 11
-0.1223437499999999
 21
0.0000000000000003
 31
0.0
210
0.0
220
0.0
230
1.0
 40
0.575861700985316
 41
0.0000000000000053
 42
0.785398163397125
  0
LINE
  5
176
330
6C
100
AcDbEntity
  8
Visible (ANSI)
100
AcDbLine
 10
169.4743748403581
 20
74.5404281395757
 30
0.0
 11
169.4541034170706
 21
74.52875460327994
 31
0.0
  0
LINE
  5
177
330
6C
100
AcDbEntity
  8
Visible (ANSI)
100
AcDbLine
 10
169.4232813279238
 20
74.56985093655543
 30
0.0
 11
169.4743748403581
 21
74.5404281395757
 31
0.0
  0
ELLIPSE
  5
178
330
6C
100
AcDbEntity
  8
Visible (ANSI)
100
AcDbEllipse
 10
168.876759124821
 20
74.18254128175033
 30
0.0
 11
-0.1223437499999999
 21
0.0000000000000003
 31
0.0
210
0.0
220
0.0
230
1.0
 40
0.575861700985316
 41
5.497787143780334
 42
7.068583470576616
  0
LINE
  5
179
330
6C
100
AcDbEntity
  8
Visible (ANSI)
100
AcDbLine
 10
168.7902490295602
 20
75.97220446203677
 30
0.0
 11
168.7902490295602
 21
74.13272343114106
 31
0.0
  0
LINE
  5
17A
330
6C
100
AcDbEntity
  8
Visible (ANSI)
100
AcDbLine
 10
169.4743748403581
 20
74.50583793575555
 30
0.0
 11
169.4743748403581
 21
74.5404281395757
 31
0.0
  0
LINE
  5
17B
330
6C
100
AcDbEntity
  8
Visible (ANSI)
100
AcDbLine
 10
169.4743748403582
 20
109.5709450872049
 30
0.0
 11
169.4743748403582
 21
109.6055352910251
 31
0.0
  0
LINE
  5
17C
330
6C
100
AcDbEntity
  8
Visible (ANSI)
100
AcDbLine
 10
169.4743748403582
 20
109.6055352910251
 30
0.0
 11
169.4541034170707
 21
109.5938617547294
 31
0.0
  0
LINE
  5
17D
330
6C
100
AcDbEntity
  8
Visible (ANSI)
100
AcDbLine
 10
169.4232813279239
 20
109.6349580880048
 30
0.0
 11
169.4743748403582
 21
109.6055352910251
 31
0.0
  0
LINE
  5
17E
330
6C
100
AcDbEntity
  8
Visible (ANSI)
100
AcDbLine
 10
168.7904081285861
 20
109.1977389635549
 30
0.0
 11
168.7902490295603
 21
109.1978305825905
 31
0.0
  0
LINE
  5
17F
330
6C
100
AcDbEntity
  8
Visible (ANSI)
100
AcDbLine
 10
168.7902490295601
 20
40.90709731058733
 30
0.0
 11
168.7904081285859
 21
40.90700569155173
 31
0.0
  0
ELLIPSE
  5
180
330
6C
100
AcDbEntity
  8
Visible (ANSI)
100
AcDbEllipse
 10
168.876759124821
 20
40.9569151611966
 30
0.0
 11
-0.12234375
 21
0.0000000000000003
 31
0.0
210
0.0
220
0.0
230
1.0
 40
0.5758617009853159
 41
0.0
 42
0.7853981633970771
  0
LINE
  5
181
330
6C
100
AcDbEntity
  8
Visible Narrow (ANSI)
100
AcDbLine
 10
168.7902490295602
 20
74.13272343114106
 30
0.0
 11
168.7902490295601
 21
40.90709731058733
 31
0.0
  0
ELLIPSE
  5
182
330
6C
100
AcDbEntity
  8
Visible (ANSI)
100
AcDbEllipse
 10
168.8767591248211
 20
109.2476484331997
 30
0.0
 11
-0.12234375
 21
0.0000000000000003
 31
0.0
210
0.0
220
0.0
230
1.0
 40
0.575861700985316
 41
5.497787143778906
 42
7.06858347057671
  0
LINE
  5
183
330
6C
100
AcDbEntity
  8
Visible Narrow (ANSI)
100
AcDbLine
 10
168.7902490295603
 20
109.1978305825905
 30
0.0
 11
168.7902490295602
 21
75.97220446203677
 31
0.0
  0
LINE
  5
184
330
6C
100
AcDbEntity
  8
Visible (ANSI)
100
AcDbLine
 10
168.7904081285859
 20
40.90700569155173
 30
0.0
 11
168.7904081285859
 21
39.18249222508701
 31
0.0
  0
LINE
  5
185
330
6C
100
AcDbEntity
  8
Visible (ANSI)
100
AcDbLine
 10
168.7904081285861
 20
109.1979229116579
 30
0.0
 11
168.7904081285861
 21
109.1977389635549
 31
0.0
  0
LINE
  5
186
330
6C
100
AcDbEntity
  8
Visible (ANSI)
100
AcDbLine
 10
168.7902490295603
 20
109.1980145306935
 30
0.0
 11
168.7904081285861
 21
109.1979229116579
 31
0.0
  0
LINE
  5
187
330
6C
100
AcDbEntity
  8
Visible (ANSI)
100
AcDbLine
 10
168.754415374821
 20
74.18254128175033
 30
0.0
 11
168.754415374821
 21
40.9569151611966
 31
0.0
  0
LINE
  5
188
330
6C
100
AcDbEntity
  8
Visible (ANSI)
100
AcDbLine
 10
168.7544153748211
 20
109.2476484331997
 30
0.0
 11
168.754415374821
 21
76.02202231264604
 31
0.0
  0
LINE
  5
189
330
6C
100
AcDbEntity
  8
Visible (ANSI)
100
AcDbLine
 10
179.8285792120309
 20
69.63821737332786
 30
0.0
 11
179.8285792120309
 21
67.86206468210586
 31
0.0
  0
LINE
  5
18A
330
6C
100
AcDbEntity
  8
Visible (ANSI)
100
AcDbLine
 10
179.7540015437026
 20
67.81911825916683
 30
0.0
 11
179.7540015437026
 21
69.65859929006253
 31
0.0
  0
LINE
  5
18B
330
6C
100
AcDbEntity
  8
Visible (ANSI)
100
AcDbLine
 10
179.8285792120309
 20
67.86206468210586
 30
0.0
 11
179.7540015437026
 21
67.81911825916683
 31
0.0
  0
LINE
  5
18C
330
6C
100
AcDbEntity
  8
Visible (ANSI)
100
AcDbLine
 10
179.8285792120309
 20
67.86206468210586
 30
0.0
 11
179.8287383110567
 21
67.86197306307025
 31
0.0
  0
LINE
  5
18D
330
6C
100
AcDbEntity
  8
Visible (ANSI)
100
AcDbLine
 10
179.7541606427284
 20
67.81902664013123
 30
0.0
 11
179.7540015437026
 21
67.81911825916683
 31
0.0
  0
ELLIPSE
  5
18E
330
6C
100
AcDbEntity
  8
Visible (ANSI)
100
AcDbEllipse
 10
179.8406707379891
 20
67.86884449074051
 30
0.0
 11
-0.1223437499999985
 21
0.0000000000000076
 31
0.0
210
0.0
220
0.0
230
1.0
 40
0.575861700985316
 41
0.785398163397705
 42
2.356194490192942
  0
LINE
  5
18F
330
6C
100
AcDbEntity
  8
Visible (ANSI)
100
AcDbLine
 10
180.5367289757196
 20
68.17004207028628
 30
0.0
 11
179.92718083325
 21
67.81902664013125
 31
0.0
  0
LINE
  5
190
330
6C
100
AcDbEntity
  8
Visible (ANSI)
100
AcDbLine
 10
180.4621513073913
 20
68.21298849322537
 30
0.0
 11
180.5367289757196
 21
68.17004207028628
 31
0.0
  0
LINE
  5
191
330
6C
100
AcDbEntity
  8
Visible (ANSI)
100
AcDbLine
 10
179.8526031649217
 20
67.86197306307029
 30
0.0
 11
180.4621513073913
 21
68.21298849322537
 31
0.0
  0
ELLIPSE
  5
192
330
6C
100
AcDbEntity
  8
Visible (ANSI)
100
AcDbEllipse
 10
179.8406707379892
 20
67.86884449074051
 30
0.0
 11
0.0168749999999999
 21
0.000000000000001
 31
0.0
210
0.0
220
0.0
230
1.0
 40
0.5758617009853159
 41
3.92699081698957
 42
5.497787143785381
  0
LINE
  5
193
330
6C
100
AcDbEntity
  8
Visible (ANSI)
100
AcDbLine
 10
179.92718083325
 20
69.65850767102693
 30
0.0
 11
180.5367289757196
 21
70.009523101182
 31
0.0
  0
ELLIPSE
  5
194
330
6C
100
AcDbEntity
  8
Visible (ANSI)
100
AcDbEllipse
 10
179.8406707379892
 20
69.70832552163622
 30
0.0
 11
0.1223437499999953
 21
0.000000000000007
 31
0.0
210
0.0
220
0.0
230
1.0
 40
0.5758617009853162
 41
3.926990816987152
 42
5.497787143782076
  0
LINE
  5
195
330
6C
100
AcDbEntity
  8
Visible (ANSI)
100
AcDbLine
 10
179.7540015437026
 20
69.65859929006253
 30
0.0
 11
179.7541606427284
 21
69.65850767102693
 31
0.0
  0
LINE
  5
196
330
6C
100
AcDbEntity
  8
Visible (ANSI)
100
AcDbLine
 10
179.8287383110566
 20
34.57310118284711
 30
0.0
 11
179.8287383110566
 21
32.9118334760518
 31
0.0
  0
LINE
  5
197
330
6C
100
AcDbEntity
  8
Visible (ANSI)
100
AcDbLine
 10
179.7541606427283
 20
34.59321657147441
 30
0.0
 11
179.7543205056833
 21
34.59330863042759
 31
0.0
  0
LINE
  5
198
330
6C
100
AcDbEntity
  8
Visible (ANSI)
100
AcDbLine
 10
179.7541606427283
 20
32.86888705311276
 30
0.0
 11
179.7541606427283
 21
34.59321657147441
 31
0.0
  0
LINE
  5
199
330
6C
100
AcDbEntity
  8
Visible (ANSI)
100
AcDbLine
 10
179.8287383110566
 20
32.9118334760518
 30
0.0
 11
179.7541606427283
 21
32.86888705311276
 31
0.0
  0
LINE
  5
19A
330
6C
100
AcDbEntity
  8
Visible (ANSI)
100
AcDbLine
 10
168.7902490295603
 20
110.9223440490552
 30
0.0
 11
168.7902490295603
 21
109.1980145306935
 31
0.0
  0
LINE
  5
19B
330
6C
100
AcDbEntity
  8
Visible (ANSI)
100
AcDbLine
 10
168.8648266978885
 20
110.9652904719942
 30
0.0
 11
168.7902490295603
 21
110.9223440490552
 31
0.0
  0
LINE
  5
19C
330
6C
100
AcDbEntity
  8
Visible (ANSI)
100
AcDbLine
 10
179.828579212031
 20
104.65168530002
 30
0.0
 11
168.8648266978885
 21
110.9652904719942
 31
0.0
  0
LINE
  5
19D
330
6C
100
AcDbEntity
  8
Visible (ANSI)
100
AcDbLine
 10
168.7902490295603
 20
110.9223440490552
 30
0.0
 11
179.7540015437027
 21
104.608738877081
 31
0.0
  0
LINE
  5
19E
330
6C
100
AcDbEntity
  8
Visible (ANSI)
100
AcDbLine
 10
179.7541606427283
 20
32.86888705311276
 30
0.0
 11
168.7904081285859
 21
39.18249222508701
 31
0.0
  0
LINE
  5
19F
330
6C
100
AcDbEntity
  8
Visible (ANSI)
100
AcDbLine
 10
179.828579212031
 20
104.65168530002
 30
0.0
 11
179.828579212031
 21
102.9271718335553
 31
0.0
  0
LINE
  5
1A0
330
6C
100
AcDbEntity
  8
Visible Narrow (ANSI)
100
AcDbLine
 10
179.7541606427283
 20
34.59340051957751
 30
0.0
 11
179.7541606427284
 21
67.81902664013123
 31
0.0
  0
ELLIPSE
  5
1A1
330
6C
100
AcDbEntity
  8
Visible (ANSI)
100
AcDbEllipse
 10
179.8406707379891
 20
34.6432183701868
 30
0.0
 11
0.1223437499999957
 21
0.000000000000007
 31
0.0
210
0.0
220
0.0
230
1.0
 40
0.5758617009853161
 41
3.926990816987466
 42
5.497787143782484
  0
LINE
  5
1A2
330
6C
100
AcDbEntity
  8
Visible Narrow (ANSI)
100
AcDbLine
 10
179.9271808332499
 20
34.59340051957756
 30
0.0
 11
179.92718083325
 21
67.81902664013125
 31
0.0
  0
LINE
  5
1A3
330
6C
100
AcDbEntity
  8
Visible Narrow (ANSI)
100
AcDbLine
 10
179.92718083325
 20
69.65850767102693
 30
0.0
 11
179.9271808332501
 21
102.8841337915807
 31
0.0
  0
ELLIPSE
  5
1A4
330
6C
100
AcDbEntity
  8
Visible (ANSI)
100
AcDbEllipse
 10
179.8406707379893
 20
102.9339516421899
 30
0.0
 11
0.1223437499999969
 21
0.000000000000007
 31
0.0
210
0.0
220
0.0
230
1.0
 40
0.5758617009853161
 41
3.92699081698756
 42
5.497787143782294
  0
LINE
  5
1A5
330
6C
100
AcDbEntity
  8
Visible Narrow (ANSI)
100
AcDbLine
 10
179.7541606427284
 20
69.65850767102693
 30
0.0
 11
179.7541606427285
 21
102.8841337915807
 31
0.0
  0
LINE
  5
1A6
330
6C
100
AcDbEntity
  8
Visible (ANSI)
100
AcDbLine
 10
179.7540015437026
 20
34.59330819051003
 30
0.0
 11
179.7541612592257
 21
34.59340016456283
 31
0.0
  0
LINE
  5
1A7
330
6C
100
AcDbEntity
  8
Visible (ANSI)
100
AcDbLine
 10
179.7541606427283
 20
34.59321657147441
 30
0.0
 11
179.7540015437026
 21
34.59330819051003
 31
0.0
  0
LINE
  5
1A8
330
6C
100
AcDbEntity
  8
Visible (ANSI)
100
AcDbLine
 10
179.7540015437027
 20
104.608738877081
 30
0.0
 11
179.828579212031
 21
104.65168530002
 31
0.0
  0
ELLIPSE
  5
1A9
330
6C
100
AcDbEntity
  8
Visible (ANSI)
100
AcDbEllipse
 10
179.8406707379893
 20
102.9339516421899
 30
0.0
 11
0.0168749999999983
 21
0.000000000000001
 31
0.0
210
0.0
220
0.0
230
1.0
 40
0.575861700985316
 41
3.92699081698957
 42
5.497787143785381
  0
LINE
  5
1AA
330
6C
100
AcDbEntity
  8
Visible (ANSI)
100
AcDbLine
 10
179.7540015437027
 20
102.8842254106162
 30
0.0
 11
179.828579212031
 21
102.9271718335553
 31
0.0
  0
LINE
  5
1AB
330
6C
100
AcDbEntity
  8
Visible (ANSI)
100
AcDbLine
 10
179.7540015437027
 20
102.8842254106162
 30
0.0
 11
179.7540015437027
 21
104.608738877081
 31
0.0
  0
LINE
  5
1AC
330
6C
100
AcDbEntity
  8
Visible (ANSI)
100
AcDbLine
 10
179.7540015437026
 20
34.59330819051003
 30
0.0
 11
179.7540015437026
 21
34.59349213861311
 31
0.0
  0
LINE
  5
1AD
330
6C
100
AcDbEntity
  8
Visible (ANSI)
100
AcDbLine
 10
179.828579212031
 20
102.9271718335553
 30
0.0
 11
179.8287383110568
 21
102.9270802145197
 31
0.0
  0
LINE
  5
1AE
330
6C
100
AcDbEntity
  8
Visible (ANSI)
100
AcDbLine
 10
180.5367289757196
 20
68.17004207028628
 30
0.0
 11
180.5367289757195
 21
34.94441594973262
 31
0.0
  0
LINE
  5
1AF
330
6C
100
AcDbEntity
  8
Visible (ANSI)
100
AcDbLine
 10
179.9271808332499
 20
34.59340051957756
 30
0.0
 11
180.5367289757195
 21
34.94441594973262
 31
0.0
  0
LINE
  5
1B0
330
6C
100
AcDbEntity
  8
Visible (ANSI)
100
AcDbLine
 10
180.5367289757197
 20
103.2351492217358
 30
0.0
 11
180.5367289757196
 21
70.009523101182
 31
0.0
  0
LINE
  5
1B1
330
6C
100
AcDbEntity
  8
Visible (ANSI)
100
AcDbLine
 10
180.5367289757197
 20
103.2351492217358
 30
0.0
 11
179.9271808332501
 21
102.8841337915807
 31
0.0
  0
LINE
  5
1B2
330
6C
100
AcDbEntity
  8
Visible (ANSI)
100
AcDbLine
 10
179.7540015437026
 20
34.59349213861311
 30
0.0
 11
179.7541606427283
 21
34.59340051957751
 31
0.0
  0
LINE
  5
1B3
330
6C
100
AcDbEntity
  8
Visible (ANSI)
100
AcDbLine
 10
180.4621513073914
 20
103.2780956446748
 30
0.0
 11
180.5367289757197
 21
103.2351492217358
 31
0.0
  0
LINE
  5
1B4
330
6C
100
AcDbEntity
  8
Visible (ANSI)
100
AcDbLine
 10
179.8526031649218
 20
102.9270802145197
 30
0.0
 11
180.4621513073914
 21
103.2780956446748
 31
0.0
  0
LINE
  5
1B5
330
6C
100
AcDbEntity
  8
Visible (ANSI)
100
AcDbLine
 10
179.7541606427285
 20
102.8841337915807
 30
0.0
 11
179.7540015437027
 21
102.8842254106162
 31
0.0
  0
ARC
  5
1B6
330
6C
100
AcDbEntity
  8
Visible (ANSI)
100
AcDbCircle
 10
51.08208000790479
 20
131.7237448519349
 30
0.0
 40
0.015
100
AcDbArc
 50
180.0
 51
269.9999999998196
  0
ARC
  5
1B7
330
6C
100
AcDbEntity
  8
Visible (ANSI)
100
AcDbCircle
 10
51.08208000790479
 20
131.7237448519349
 30
0.0
 40
0.10875
100
AcDbArc
 50
180.0
 51
269.9999999999751
  0
LINE
  5
1B8
330
6C
100
AcDbEntity
  8
Hidden (ANSI)
 48
0.0131270596757531
100
AcDbLine
 10
51.08228000790474
 20
131.6149948519349
 30
0.0
 11
51.08228000790474
 21
131.708744851935
 31
0.0
  0
LINE
  5
1B9
330
6C
100
AcDbEntity
  8
Visible (ANSI)
100
AcDbLine
 10
51.06708000790476
 20
132.489994851935
 30
0.0
 11
51.06708000790479
 21
131.7237448519353
 31
0.0
  0
LINE
  5
1BA
330
6C
100
AcDbEntity
  8
Visible (ANSI)
100
AcDbLine
 10
50.97333000790477
 20
132.489994851935
 30
0.0
 11
51.06708000790476
 21
132.489994851935
 31
0.0
  0
LINE
  5
1BB
330
6C
100
AcDbEntity
  8
Visible (ANSI)
100
AcDbLine
 10
50.97333000790478
 20
131.7237448519353
 30
0.0
 11
50.97333000790477
 21
132.489994851935
 31
0.0
  0
LINE
  5
1BC
330
6C
100
AcDbEntity
  8
Visible (ANSI)
100
AcDbLine
 10
64.86438000790478
 20
131.7087448519355
 30
0.0
 11
51.08208000790473
 21
131.7087448519355
 31
0.0
  0
LINE
  5
1BD
330
6C
100
AcDbEntity
  8
Visible (ANSI)
100
AcDbLine
 10
51.08208000790473
 20
131.6149948519355
 30
0.0
 11
64.86438000790478
 21
131.6149948519355
 31
0.0
  0
LINE
  5
1BE
330
6C
100
AcDbEntity
  8
Visible (ANSI)
100
AcDbLine
 10
64.86438000790478
 20
131.708744851935
 30
0.0
 11
64.86458000790477
 21
131.708744851935
 31
0.0
  0
LINE
  5
1BF
330
6C
100
AcDbEntity
  8
Visible (ANSI)
100
AcDbLine
 10
64.97333000790476
 20
132.489994851935
 30
0.0
 11
64.97333000790476
 21
131.723744851935
 31
0.0
  0
LINE
  5
1C0
330
6C
100
AcDbEntity
  8
Visible (ANSI)
100
AcDbLine
 10
64.87958000790477
 20
132.489994851935
 30
0.0
 11
64.97333000790476
 21
132.489994851935
 31
0.0
  0
LINE
  5
1C1
330
6C
100
AcDbEntity
  8
Visible (ANSI)
100
AcDbLine
 10
64.87958000790476
 20
131.723744851935
 30
0.0
 11
64.87958000790477
 21
132.489994851935
 31
0.0
  0
LINE
  5
1C2
330
6C
100
AcDbEntity
  8
Visible (ANSI)
100
AcDbLine
 10
64.86458000790477
 20
131.6149948519349
 30
0.0
 11
64.86438000790478
 21
131.6149948519349
 31
0.0
  0
ARC
  5
1C3
330
6C
100
AcDbEntity
  8
Visible (ANSI)
100
AcDbCircle
 10
64.86458000790476
 20
131.7237448519349
 30
0.0
 40
0.1087499999999973
100
AcDbArc
 50
270.0000000000149
 51
0.0
  0
LINE
  5
1C4
330
6C
100
AcDbEntity
  8
Visible (ANSI)
100
AcDbLine
 10
64.86438000790478
 20
131.6149948519355
 30
0.0
 11
64.86438000790478
 21
131.7087448519355
 31
0.0
  0
ARC
  5
1C5
330
6C
100
AcDbEntity
  8
Visible (ANSI)
100
AcDbCircle
 10
64.86458000790476
 20
131.7237448519349
 30
0.0
 40
0.0149999999999985
100
AcDbArc
 50
270.0000000001082
 51
0.0
  0
LINE
  5
1C6
330
6C
100
AcDbEntity
  8
Hidden (ANSI)
 48
0.0131270596757531
100
AcDbLine
 10
64.86458000790481
 20
131.6149948519135
 30
0.0
 11
64.86458000790481
 21
131.7087448519135
 31
0.0
  0
LINE
  5
1C7
330
6C
100
AcDbEntity
  8
Visible (ANSI)
100
AcDbLine
 10
51.08208000790473
 20
131.7087448519355
 30
0.0
 11
51.08208000790473
 21
131.6149948519355
 31
0.0
  0
LINE
  5
1C8
330
6C
100
AcDbEntity
  8
Hidden (ANSI)
 48
0.0131270596757531
100
AcDbLine
 10
64.27063000790474
 20
131.7087448519352
 30
0.0
 11
64.27063000790474
 21
131.6149948519352
 31
0.0
  0
LINE
  5
1C9
330
6C
100
AcDbEntity
  8
Hidden (ANSI)
 48
0.0131270596757531
100
AcDbLine
 10
63.70813000790473
 20
131.7087448519352
 30
0.0
 11
63.70813000790473
 21
131.6149948519352
 31
0.0
  0
LINE
  5
1CA
330
6C
100
AcDbEntity
  8
Hidden (ANSI)
 48
0.0131270596757531
100
AcDbLine
 10
52.23833000790474
 20
131.7087448519352
 30
0.0
 11
52.23833000790474
 21
131.6149948519352
 31
0.0
  0
LINE
  5
1CB
330
6C
100
AcDbEntity
  8
Hidden (ANSI)
 48
0.0131270596757531
100
AcDbLine
 10
51.67583000790473
 20
131.7087448519352
 30
0.0
 11
51.67583000790473
 21
131.6149948519352
 31
0.0
  0
MTEXT
  5
1CC
330
6C
100
AcDbEntity
  8
Symbol (ANSI)
100
AcDbMText
 10
52.73875870323549
 20
125.6239918537819
 30
0.0
 40
1.620000020021528
 41
0.0
 46
0.0
 71
     7
 72
     1
  1
TOP VIEW
  7
Text Style153
 73
     1
 44
1.0
  0
LINE
  5
1CD
330
6C
100
AcDbEntity
  8
Symbol (ANSI)
370
    30
100
AcDbLine
 10
52.74005470656927
 20
125.2936247492209
 30
0.0
 11
62.96154565103365
 21
125.2936247492209
 31
0.0
  0
DIMENSION
  5
1CE
330
6C
100
AcDbEntity
  8
Dimension (ANSI)
100
AcDbDimension
280
     0
  2
*D4
 10
113.648428143451
 20
97.02755161103652
 30
0.0
 11
120.494116122066
 21
97.02755161103652
 31
0.0
 70
   160
  1
<>{\PTYP.}
 71
     4
 42
0.8750000000000426
 73
     0
 74
     0
 75
     0
  3
Default (ANSI)
100
AcDbAlignedDimension
 13
114.523428143451
 23
108.3083309350906
 33
0.0
 14
113.648428143451
 24
73.09603219146625
 34
0.0
 50
180.0
100
AcDbRotatedDimension
1001
ACAD
1000
DSTYLE
1002
{
1070
   289
1070
     1
1070
    73
1070
     0
1070
    74
1070
     0
1070
   271
1070
     2
1070
    75
1070
     1
1070
   272
1070
     2
1070
    48
1040
0.0
1070
    47
1040
0.0
1002
}
  0
LINE
  5
2C7
330
6C
100
AcDbEntity
  8
Center Mark (ANSI)
  6
CHAIN
 48
0.1619282215833664
100
AcDbLine
 10
51.95708000788695
 20
112.1897821914662
 30
0.0
 11
51.95708000788695
 21
108.2522821914662
 31
0.0
  0
LINE
  5
2C8
330
6C
100
AcDbEntity
  8
Center Mark (ANSI)
  6
CHAIN
 48
0.1619282215833664
100
AcDbLine
 10
63.98938000788695
 20
112.1897821914662
 30
0.0
 11
63.98938000788695
 21
108.2522821914662
 31
0.0
  0
LINE
  5
2C9
330
6C
100
AcDbEntity
  8
Centerline (ANSI)
  6
CHAIN
 48
0.9524481296539306
100
AcDbLine
 10
49.98833000788695
 20
110.2210321914662
 30
0.0
 11
65.95813000788695
 21
110.2210321914662
 31
0.0
  0
LINE
  5
2CA
330
6C
100
AcDbEntity
  8
Center Mark (ANSI)
  6
CHAIN
 48
0.1619282215833664
100
AcDbLine
 10
53.92583000788695
 20
110.2210321914662
 30
0.0
 11
49.98833000788695
 21
110.2210321914662
 31
0.0
  0
LINE
  5
2CB
330
6C
100
AcDbEntity
  8
Center Mark (ANSI)
  6
CHAIN
 48
0.1619282215833664
100
AcDbLine
 10
53.92583000788695
 20
72.09603219146625
 30
0.0
 11
49.98833000788695
 21
72.09603219146625
 31
0.0
  0
LINE
  5
2CC
330
6C
100
AcDbEntity
  8
Centerline (ANSI)
  6
CHAIN
 48
0.9524481296539306
100
AcDbLine
 10
51.95708000788695
 20
112.1897821914662
 30
0.0
 11
51.95708000788695
 21
70.12728219146625
 31
0.0
  0
LINE
  5
2CD
330
6C
100
AcDbEntity
  8
Center Mark (ANSI)
  6
CHAIN
 48
0.1619282215833664
100
AcDbLine
 10
51.95708000788695
 20
74.06478219146625
 30
0.0
 11
51.95708000788695
 21
70.12728219146625
 31
0.0
  0
LINE
  5
2CE
330
6C
100
AcDbEntity
  8
Center Mark (ANSI)
  6
CHAIN
 48
0.1619282215833664
100
AcDbLine
 10
63.98938000788695
 20
74.06478219146625
 30
0.0
 11
63.98938000788695
 21
70.12728219146625
 31
0.0
  0
LINE
  5
2CF
330
6C
100
AcDbEntity
  8
Centerline (ANSI)
  6
CHAIN
 48
0.9524481296539306
100
AcDbLine
 10
49.98833000788695
 20
72.09603219146625
 30
0.0
 11
65.95813000788695
 21
72.09603219146625
 31
0.0
  0
LINE
  5
2D0
330
6C
100
AcDbEntity
  8
Center Mark (ANSI)
  6
CHAIN
 48
0.1619282215833664
100
AcDbLine
 10
51.95708000788695
 20
35.93978219146625
 30
0.0
 11
51.95708000788695
 21
32.00228219146625
 31
0.0
  0
LINE
  5
2D1
330
6C
100
AcDbEntity
  8
Center Mark (ANSI)
  6
CHAIN
 48
0.1619282215833664
100
AcDbLine
 10
63.98938000788695
 20
35.93978219146625
 30
0.0
 11
63.98938000788695
 21
32.00228219146625
 31
0.0
  0
LINE
  5
2D2
330
6C
100
AcDbEntity
  8
Centerline (ANSI)
  6
CHAIN
 48
0.9524481296539306
100
AcDbLine
 10
49.98833000788695
 20
33.97103219146625
 30
0.0
 11
65.95813000788695
 21
33.97103219146625
 31
0.0
  0
LINE
  5
2D3
330
6C
100
AcDbEntity
  8
Center Mark (ANSI)
  6
CHAIN
 48
0.1619282215833664
100
AcDbLine
 10
53.92583000788695
 20
72.09603219146625
 30
0.0
 11
49.98833000788695
 21
72.09603219146625
 31
0.0
  0
LINE
  5
2D4
330
6C
100
AcDbEntity
  8
Center Mark (ANSI)
  6
CHAIN
 48
0.1619282215833664
100
AcDbLine
 10
53.92583000788695
 20
33.97103219146625
 30
0.0
 11
49.98833000788695
 21
33.97103219146625
 31
0.0
  0
LINE
  5
2D5
330
6C
100
AcDbEntity
  8
Centerline (ANSI)
  6
CHAIN
 48
0.9524481296539306
100
AcDbLine
 10
51.95708000788695
 20
74.06478219146625
 30
0.0
 11
51.95708000788695
 21
32.00228219146625
 31
0.0
  0
LINE
  5
2D6
330
6C
100
AcDbEntity
  8
Center Mark (ANSI)
  6
CHAIN
 48
0.1619282215833664
100
AcDbLine
 10
65.95813000788695
 20
72.09603219146625
 30
0.0
 11
62.02063000788694
 21
72.09603219146625
 31
0.0
  0
LINE
  5
2D7
330
6C
100
AcDbEntity
  8
Center Mark (ANSI)
  6
CHAIN
 48
0.1619282215833664
100
AcDbLine
 10
65.95813000788695
 20
33.97103219146625
 30
0.0
 11
62.02063000788694
 21
33.97103219146625
 31
0.0
  0
LINE
  5
2D8
330
6C
100
AcDbEntity
  8
Centerline (ANSI)
  6
CHAIN
 48
0.9524481296539306
100
AcDbLine
 10
63.98938000788695
 20
74.06478219146625
 30
0.0
 11
63.98938000788695
 21
32.00228219146625
 31
0.0
  0
LINE
  5
2D9
330
6C
100
AcDbEntity
  8
Center Mark (ANSI)
  6
CHAIN
 48
0.1619282215833664
100
AcDbLine
 10
65.95813000788695
 20
110.2210321914662
 30
0.0
 11
62.02063000788694
 21
110.2210321914662
 31
0.0
  0
LINE
  5
2DA
330
6C
100
AcDbEntity
  8
Center Mark (ANSI)
  6
CHAIN
 48
0.1619282215833664
100
AcDbLine
 10
65.95813000788695
 20
72.09603219146625
 30
0.0
 11
62.02063000788694
 21
72.09603219146625
 31
0.0
  0
LINE
  5
2DB
330
6C
100
AcDbEntity
  8
Centerline (ANSI)
  6
CHAIN
 48
0.9524481296539306
100
AcDbLine
 10
63.98938000788695
 20
112.1897821914662
 30
0.0
 11
63.98938000788695
 21
70.12728219146625
 31
0.0
  0
DIMENSION
  5
2DC
330
6C
100
AcDbEntity
  8
Dimension (ANSI)
100
AcDbDimension
280
     0
  2
*D5
 10
29.82223748820192
 20
33.09603219146627
 30
0.0
 11
29.82223748820191
 21
72.09603219146625
 31
0.0
 70
   160
  1
<>
 42
77.99999999999997
 73
     0
 74
     0
 75
     0
  3
Default (ANSI)
100
AcDbAlignedDimension
 13
51.08208000788695
 23
111.0960321914662
 33
0.0
 14
51.08228000788699
 24
33.09603219146626
 34
0.0
 50
270.0
100
AcDbRotatedDimension
1001
ACAD
1000
DSTYLE
1002
{
1070
   289
1070
     1
1070
   271
1070
     2
1070
   272
1070
     2
1070
    48
1040
0.0
1070
    47
1040
0.0
1002
}
  0
DIMENSION
  5
3C6
330
6C
100
AcDbEntity
  8
Dimension (ANSI)
100
AcDbDimension
280
     0
  2
*D6
 10
45.80788136414514
 20
72.09603219146625
 30
0.0
 11
45.80788136414512
 21
53.03353219146625
 31
0.0
 70
   160
  1
<>
 42
38.125
 73
     0
 74
     0
 75
     0
  3
Default (ANSI)
100
AcDbAlignedDimension
 13
49.98833000788695
 23
33.97103219146625
 33
0.0
 14
49.98833000788695
 24
72.09603219146625
 34
0.0
 50
90.0
100
AcDbRotatedDimension
1001
ACAD
1000
DSTYLE
1002
{
1070
   289
1070
     1
1070
   271
1070
     2
1070
   272
1070
     2
1070
    48
1040
0.0
1070
    47
1040
0.0
1002
}
  0
DIMENSION
  5
4B0
330
6C
100
AcDbEntity
  8
Dimension (ANSI)
100
AcDbDimension
280
     0
  2
*D7
 10
49.63822539557011
 20
33.09603219146626
 30
0.0
 11
45.80788136414512
 21
29.29419278457266
 31
0.0
 70
   160
  1
<>
 71
     5
 42
0.8749999999999928
 73
     0
 74
     0
 75
     0
  3
Default (ANSI)
100
AcDbAlignedDimension
 13
49.98833000788695
 23
33.97103219146625
 33
0.0
 14
51.08228000788699
 24
33.09603219146626
 34
0.0
 50
90.0
100
AcDbRotatedDimension
1001
ACAD
1000
DSTYLE
1002
{
1070
   289
1070
     1
1070
   271
1070
     2
1070
   272
1070
     2
1070
    48
1040
0.0
1070
    47
1040
0.0
1002
}
  0
DIMENSION
  5
5B0
330
6C
100
AcDbEntity
  8
Dimension (ANSI)
100
AcDbDimension
280
     0
  2
*D8
 10
64.97333000788696
 20
119.0275402589932
 30
0.0
 11
57.97333000788698
 21
119.0275402589932
 31
0.0
 70
   160
  1
<>
 42
13.99999999999996
 73
     0
 74
     0
 75
     0
  3
Default (ANSI)
100
AcDbAlignedDimension
 13
50.973330007887
 23
109.2210321914662
 33
0.0
 14
64.97333000788696
 24
109.2210321914662
 34
0.0
 50
180.0
100
AcDbRotatedDimension
1001
ACAD
1000
DSTYLE
1002
{
1070
   289
1070
     1
1070
    73
1070
     0
1070
    74
1070
     0
1070
   271
1070
     2
1070
   272
1070
     2
1070
    48
1040
0.0
1070
    47
1040
0.0
1002
}
  0
DIMENSION
  5
69A
330
6C
100
AcDbEntity
  8
Dimension (ANSI)
100
AcDbDimension
280
     0
  2
*D9
 10
63.79050622567821
 20
33.77215840925757
 30
0.0
 11
75.19295884586563
 21
39.47849091736483
 31
0.0
 70
   163
  1
<>{\P(6 PL.)}
 71
     5
 42
0.5625
 73
     0
 74
     0
 75
     0
  3
Default (ANSI)
100
AcDbDiametricDimension
 15
64.1882537900957
 25
34.16990597367494
 35
0.0
 40
0.0
1001
ACAD
1000
DSTYLE
1002
{
1070
   144
1040
1.000000000000025
1070
   271
1070
     3
1070
   272
1070
     2
1070
    48
1040
0.0
1070
    47
1040
0.0
1002
}
1001
ACAD_DSTYLE_DIMRADIAL_EXTENSION
1070
   387
1070
     1
1070
   388
1040
0.0
1070
   390
1040
0.0
  0
DIMENSION
  5
755
330
6C
100
AcDbEntity
  8
Dimension (ANSI)
100
AcDbDimension
280
     0
  2
*D10
 10
63.98938000788695
 20
114.8937341261563
 30
0.0
 11
57.97323000788694
 21
114.8937341261563
 31
0.0
 70
   160
  1
<>
 42
12.0323
 73
     0
 74
     0
 75
     0
  3
Default (ANSI)
100
AcDbAlignedDimension
 13
51.95708000788695
 23
112.1897821914662
 33
0.0
 14
63.98938000788695
 24
112.1897821914662
 34
0.0
 50
180.0
100
AcDbRotatedDimension
1001
ACAD
1000
DSTYLE
1002
{
1070
   289
1070
     1
1070
    73
1070
     0
1070
    74
1070
     0
1070
   271
1070
     2
1070
   272
1070
     2
1070
    48
1040
0.0
1070
    47
1040
0.0
1002
}
  0
DIMENSION
  5
83F
330
6C
100
AcDbEntity
  8
Dimension (ANSI)
100
AcDbDimension
280
     0
  2
*D11
 10
51.95708000788695
 20
114.8937341261563
 30
0.0
 11
45.12768661354631
 21
114.8937341261563
 31
0.0
 70
   160
  1
<>
 42
0.9837499999999508
 73
     0
 74
     0
 75
     0
  3
Default (ANSI)
100
AcDbAlignedDimension
 13
50.973330007887
 23
109.2210321914662
 33
0.0
 14
51.95708000788695
 24
112.1897821914662
 34
0.0
 50
180.0
100
AcDbRotatedDimension
1001
ACAD
1000
DSTYLE
1002
{
1070
   289
1070
     1
1070
    73
1070
     0
1070
    74
1070
     0
1070
   271
1070
     2
1070
   272
1070
     2
1070
    48
1040
0.0
1070
    47
1040
0.0
1002
}
  0
DIMENSION
  5
929
330
6C
100
AcDbEntity
  8
Dimension (ANSI)
100
AcDbDimension
280
     0
  2
*D12
 10
39.62716947570632
 20
33.97103219146626
 30
0.0
 11
39.62716947570632
 21
72.09603219146625
 31
0.0
 70
   160
  1
<>
 42
76.24999999999999
 73
     0
 74
     0
 75
     0
  3
Default (ANSI)
100
AcDbAlignedDimension
 13
49.98833000788695
 23
110.2210321914662
 33
0.0
 14
49.98833000788695
 24
33.97103219146625
 34
0.0
 50
90.0
100
AcDbRotatedDimension
1001
ACAD
1000
DSTYLE
1002
{
1070
   289
1070
     1
1070
   271
1070
     2
1070
   272
1070
     2
1070
    48
1040
0.0
1070
    47
1040
0.0
1002
}
  0
MTEXT
  5
A13
102
{ACAD_XDICTIONARY
360
B13
102
}
330
6C
100
AcDbEntity
  8
Symbol (ANSI)
100
AcDbMText
 10
125.2578072744006
 20
15.48680811242692
 30
0.0
 40
1.350000043084302
 41
99.67572595190821
 46
0.0
 71
     4
 72
     1
  3
{\fRomanS|b0|i0|c0|p2;\H2x;PART#: WA90SMP14\P(DATA SUBJECT TO CHANGE WITHOUT NOTICE)\H1.6157x; \H0.61894x;\P \H1.352x; \H0.73963x;\P\H0.6x;THIS DRAWING IS PROPERTY OF HUBBELL INC. WIEGMANN\H1.5633x; \H0.63966x;\PALL INFORMATION IS PROPRIETARY AND NOT
  1
 TO BE DUPLICATED\H1.234x; \H0.81039x;\P\H1.2571x; }
  7
Note Text (ANSI)
 73
     1
 44
0.8026435375213623
  0
DIMENSION
  5
A15
330
6C
100
AcDbEntity
  8
Dimension (ANSI)
100
AcDbDimension
280
     0
  2
*D13
 10
113.648428143451
 20
110.1021139857737
 30
0.0
 11
126.326444171048
 21
110.1021139857737
 31
0.0
 70
   160
  1
{12 GA. C.R.S.\P}(<>)
 71
     5
 42
0.0937500000000142
 73
     0
 74
     0
 75
     0
  3
Default (ANSI)
100
AcDbAlignedDimension
 13
113.742178143451
 23
110.1021139857737
 33
0.0
 14
113.648428143451
 24
110.1021139857737
 34
0.0
 50
180.0
100
AcDbRotatedDimension
1001
ACAD
1000
DSTYLE
1002
{
1070
   289
1070
     1
1070
    73
1070
     0
1070
    74
1070
     0
1070
   271
1070
     3
1070
    76
1070
     1
1070
    75
1070
     1
1070
   147
1040
0.031496062992126
1070
    72
1070
     0
1070
    71
1070
     0
1070
   272
1070
     2
1070
    48
1040
0.0
1070
    47
1040
0.0
1002
}
  0
ENDSEC
  0
SECTION
  2
OBJECTS
  0
DICTIONARY
  5
C
330
0
100
AcDbDictionary
281
     1
  3
ACAD_CIP_PREVIOUS_PRODUCT_INFO
350
B0E
  3
ACAD_COLOR
350
63
  3
ACAD_GROUP
350
D
  3
ACAD_LAYOUT
350
62
  3
ACAD_MATERIAL
350
10
  3
ACAD_MLEADERSTYLE
350
66
  3
ACAD_MLINESTYLE
350
5F
  3
ACAD_PLOTSETTINGS
350
61
  3
ACAD_PLOTSTYLENAME
350
E
  3
ACAD_SCALELIST
350
42
  3
ACAD_TABLESTYLE
350
64
  3
ACAD_VISUALSTYLE
350
29
  3
ACDB_RECOMPOSE_DATA
350
B15
  3
AcDbVariableDictionary
350
76
  0
DICTIONARY
  5
B13
330
A13
100
AcDbDictionary
280
     1
281
     1
  3
ACAD_MTEXT_2008_RT
360
B14
  0
XRECORD
  5
B0E
102
{ACAD_REACTORS
330
C
102
}
330
C
100
AcDbXrecord
280
     1
300
INVNTOR
300
2012
300
PDSP_F_S
  0
DICTIONARY
  5
63
102
{ACAD_REACTORS
330
C
102
}
330
C
100
AcDbDictionary
281
     1
  0
DICTIONARY
  5
D
102
{ACAD_REACTORS
330
C
102
}
330
C
100
AcDbDictionary
281
     1
  0
DICTIONARY
  5
62
102
{ACAD_REACTORS
330
C
102
}
330
C
100
AcDbDictionary
281
     1
  3
Layout1
350
6B
  3
Layout2
350
73
  3
Model
350
6F
  0
DICTIONARY
  5
10
102
{ACAD_REACTORS
330
C
102
}
330
C
100
AcDbDictionary
281
     1
  3
ByBlock
350
19
  3
ByLayer
350
11
  3
Global
350
21
  0
DICTIONARY
  5
66
102
{ACAD_REACTORS
330
C
102
}
330
C
100
AcDbDictionary
281
     1
  3
Standard
350
67
  0
DICTIONARY
  5
5F
102
{ACAD_REACTORS
330
C
102
}
330
C
100
AcDbDictionary
281
     1
  3
Standard
350
60
  0
DICTIONARY
  5
61
102
{ACAD_REACTORS
330
C
102
}
330
C
100
AcDbDictionary
281
     1
  0
ACDBDICTIONARYWDFLT
  5
E
102
{ACAD_REACTORS
330
C
102
}
330
C
100
AcDbDictionary
281
     1
  3
Normal
350
F
100
AcDbDictionaryWithDefault
340
F
  0
DICTIONARY
  5
42
102
{ACAD_REACTORS
330
C
102
}
330
C
100
AcDbDictionary
281
     1
  3
A0
350
43
  3
A1
350
44
  3
A2
350
45
  3
A3
350
46
  3
A4
350
47
  3
A5
350
48
  3
A6
350
49
  3
A7
350
4A
  3
A8
350
4B
  3
A9
350
4C
  3
B0
350
4D
  3
B1
350
4E
  3
B2
350
4F
  3
B3
350
50
  3
B4
350
51
  3
B5
350
52
  3
B6
350
53
  0
DICTIONARY
  5
64
102
{ACAD_REACTORS
330
C
102
}
330
C
100
AcDbDictionary
281
     1
  3
Standard
350
65
  0
DICTIONARY
  5
29
102
{ACAD_REACTORS
330
C
102
}
330
C
100
AcDbDictionary
281
     1
  3
2dWireframe
350
2F
  3
Basic
350
2E
  3
Brighten
350
35
  3
ColorChange
350
39
  3
Conceptual
350
32
  3
Dim
350
34
  3
EdgeColorOff
350
41
  3
Facepattern
350
38
  3
Flat
350
2A
  3
FlatWithEdges
350
2B
  3
Gouraud
350
2C
  3
GouraudWithEdges
350
2D
  3
Hidden
350
31
  3
JitterOff
350
3F
  3
Linepattern
350
37
  3
OverhangOff
350
40
  3
Realistic
350
33
  3
Shaded
350
3E
  3
Shaded with edges
350
3D
  3
Shades of Gray
350
3A
  3
Sketchy
350
3B
  3
Thicken
350
36
  3
Wireframe
350
30
  3
X-Ray
350
3C
  0
XRECORD
  5
B15
102
{ACAD_REACTORS
330
C
102
}
330
C
100
AcDbXrecord
280
     1
 90
        1
330
65
330
A13
  0
DICTIONARY
  5
76
102
{ACAD_REACTORS
330
C
102
}
330
C
100
AcDbDictionary
281
     1
  3
CANNOSCALE
350
79
  3
CMLEADERSTYLE
350
78
  3
CTABLESTYLE
350
77
  0
XRECORD
  5
B14
102
{ACAD_REACTORS
330
B13
102
}
330
B13
100
AcDbXrecord
280
     1
 40
3090082.0
  1
\pxsm0.94;{\fRomanS|b0|i0;\H2.7000;PART#: WA90SMP14\P(DATA SUBJECT TO CHANGE WITHOUT NOTICE)\P \P\fRomanS|b0|i0;\H1.6200;THIS DRAWING IS PROPERTY OF HUBBELL INC. WIEGMANN\PALL INFORMATION IS PROPRIETARY AND NOT TO BE DUPLICATED\P}
  0
LAYOUT
  5
6B
102
{ACAD_REACTORS
330
62
102
}
330
62
100
AcDbPlotSettings
  1

  2

  4

  6

 40
0.0
 41
0.0
 42
0.0
 43
0.0
 44
0.0
 45
0.0
 46
0.0
 47
0.0
 48
0.0
 49
0.0
140
0.0
141
0.0
142
1.0
143
1.0
 70
   688
 72
     0
 73
     0
 74
     5
  7

 75
    16
147
1.0
 76
     0
 77
     2
 78
   300
148
0.0
149
0.0
100
AcDbLayout
  1
Layout1
 70
     1
 71
     1
 10
0.0
 20
0.0
 11
12.0
 21
9.0
 12
0.0
 22
0.0
 32
0.0
 14
0.0
 24
0.0
 34
0.0
 15
0.0
 25
0.0
 35
0.0
146
0.0
 13
0.0
 23
0.0
 33
0.0
 16
1.0
 26
0.0
 36
0.0
 17
0.0
 27
1.0
 37
0.0
 76
     0
330
68
  0
LAYOUT
  5
73
102
{ACAD_REACTORS
330
62
102
}
330
62
100
AcDbPlotSettings
  1

  2

  4

  6

 40
0.0
 41
0.0
 42
0.0
 43
0.0
 44
0.0
 45
0.0
 46
0.0
 47
0.0
 48
0.0
 49
0.0
140
0.0
141
0.0
142
1.0
143
1.0
 70
   688
 72
     0
 73
     0
 74
     5
  7

 75
    16
147
1.0
 76
     0
 77
     2
 78
   300
148
0.0
149
0.0
100
AcDbLayout
  1
Layout2
 70
     1
 71
     2
 10
0.0
 20
0.0
 11
12.0
 21
9.0
 12
0.0
 22
0.0
 32
0.0
 14
0.0
 24
0.0
 34
0.0
 15
0.0
 25
0.0
 35
0.0
146
0.0
 13
0.0
 23
0.0
 33
0.0
 16
1.0
 26
0.0
 36
0.0
 17
0.0
 27
1.0
 37
0.0
 76
     0
330
70
  0
LAYOUT
  5
6F
102
{ACAD_REACTORS
330
62
102
}
330
62
100
AcDbPlotSettings
  1

  2

  4

  6

 40
0.0
 41
0.0
 42
0.0
 43
0.0
 44
0.0
 45
0.0
 46
0.0
 47
0.0
 48
0.0
 49
0.0
140
0.0
141
0.0
142
1.0
143
1.0
 70
  1712
 72
     0
 73
     0
 74
     0
  7

 75
     0
147
1.0
 76
     0
 77
     2
 78
   300
148
0.0
149
0.0
100
AcDbLayout
  1
Model
 70
     1
 71
     0
 10
0.0
 20
0.0
 11
12.0
 21
9.0
 12
0.0
 22
0.0
 32
0.0
 14
0.0
 24
0.0
 34
0.0
 15
0.0
 25
0.0
 35
0.0
146
0.0
 13
0.0
 23
0.0
 33
0.0
 16
1.0
 26
0.0
 36
0.0
 17
0.0
 27
1.0
 37
0.0
 76
     0
330
6C
  0
MATERIAL
  5
19
102
{ACAD_XDICTIONARY
360
1A
102
}
102
{ACAD_REACTORS
330
10
102
}
330
10
100
AcDbMaterial
  1
ByBlock
 72
     0
 43
0.0208333333333333
 43
0.0
 43
0.0
 43
0.0
 43
0.0
 43
0.0208333333333333
 43
0.0
 43
0.0
 43
0.0
 43
0.0
 43
1.0
 43
0.0
 43
0.0
 43
0.0
 43
0.0
 43
1.0
 77
     0
 47
0.0208333333333333
 47
0.0
 47
0.0
 47
0.0
 47
0.0
 47
0.0208333333333333
 47
0.0
 47
0.0
 47
0.0
 47
0.0
 47
1.0
 47
0.0
 47
0.0
 47
0.0
 47
0.0
 47
1.0
171
     0
 49
0.0208333333333333
 49
0.0
 49
0.0
 49
0.0
 49
0.0
 49
0.0208333333333333
 49
0.0
 49
0.0
 49
0.0
 49
0.0
 49
1.0
 49
0.0
 49
0.0
 49
0.0
 49
0.0
 49
1.0
175
     0
142
0.0208333333333333
142
0.0
142
0.0
142
0.0
142
0.0
142
0.0208333333333333
142
0.0
142
0.0
142
0.0
142
0.0
142
1.0
142
0.0
142
0.0
142
0.0
142
0.0
142
1.0
179
     0
144
0.0208333333333333
144
0.0
144
0.0
144
0.0
144
0.0
144
0.0208333333333333
144
0.0
144
0.0
144
0.0
144
0.0
144
1.0
144
0.0
144
0.0
144
0.0
144
0.0
144
1.0
147
0.0208333333333333
147
0.0
147
0.0
147
0.0
147
0.0
147
0.0208333333333333
147
0.0
147
0.0
147
0.0
147
0.0
147
1.0
147
0.0
147
0.0
147
0.0
147
0.0
147
1.0
  0
MATERIAL
  5
11
102
{ACAD_XDICTIONARY
360
12
102
}
102
{ACAD_REACTORS
330
10
102
}
330
10
100
AcDbMaterial
  1
ByLayer
 72
     0
 43
0.0208333333333333
 43
0.0
 43
0.0
 43
0.0
 43
0.0
 43
0.0208333333333333
 43
0.0
 43
0.0
 43
0.0
 43
0.0
 43
1.0
 43
0.0
 43
0.0
 43
0.0
 43
0.0
 43
1.0
 77
     0
 47
0.0208333333333333
 47
0.0
 47
0.0
 47
0.0
 47
0.0
 47
0.0208333333333333
 47
0.0
 47
0.0
 47
0.0
 47
0.0
 47
1.0
 47
0.0
 47
0.0
 47
0.0
 47
0.0
 47
1.0
171
     0
 49
0.0208333333333333
 49
0.0
 49
0.0
 49
0.0
 49
0.0
 49
0.0208333333333333
 49
0.0
 49
0.0
 49
0.0
 49
0.0
 49
1.0
 49
0.0
 49
0.0
 49
0.0
 49
0.0
 49
1.0
175
     0
142
0.0208333333333333
142
0.0
142
0.0
142
0.0
142
0.0
142
0.0208333333333333
142
0.0
142
0.0
142
0.0
142
0.0
142
1.0
142
0.0
142
0.0
142
0.0
142
0.0
142
1.0
179
     0
144
0.0208333333333333
144
0.0
144
0.0
144
0.0
144
0.0
144
0.0208333333333333
144
0.0
144
0.0
144
0.0
144
0.0
144
1.0
144
0.0
144
0.0
144
0.0
144
0.0
144
1.0
147
0.0208333333333333
147
0.0
147
0.0
147
0.0
147
0.0
147
0.0208333333333333
147
0.0
147
0.0
147
0.0
147
0.0
147
1.0
147
0.0
147
0.0
147
0.0
147
0.0
147
1.0
  0
MATERIAL
  5
21
102
{ACAD_XDICTIONARY
360
22
102
}
102
{ACAD_REACTORS
330
10
102
}
330
10
100
AcDbMaterial
  1
Global
 72
     0
 43
0.0208333333333333
 43
0.0
 43
0.0
 43
0.0
 43
0.0
 43
0.0208333333333333
 43
0.0
 43
0.0
 43
0.0
 43
0.0
 43
1.0
 43
0.0
 43
0.0
 43
0.0
 43
0.0
 43
1.0
 77
     0
 47
0.0208333333333333
 47
0.0
 47
0.0
 47
0.0
 47
0.0
 47
0.0208333333333333
 47
0.0
 47
0.0
 47
0.0
 47
0.0
 47
1.0
 47
0.0
 47
0.0
 47
0.0
 47
0.0
 47
1.0
171
     0
 49
0.0208333333333333
 49
0.0
 49
0.0
 49
0.0
 49
0.0
 49
0.0208333333333333
 49
0.0
 49
0.0
 49
0.0
 49
0.0
 49
1.0
 49
0.0
 49
0.0
 49
0.0
 49
0.0
 49
1.0
175
     0
142
0.0208333333333333
142
0.0
142
0.0
142
0.0
142
0.0
142
0.0208333333333333
142
0.0
142
0.0
142
0.0
142
0.0
142
1.0
142
0.0
142
0.0
142
0.0
142
0.0
142
1.0
179
     0
144
0.0208333333333333
144
0.0
144
0.0
144
0.0
144
0.0
144
0.0208333333333333
144
0.0
144
0.0
144
0.0
144
0.0
144
1.0
144
0.0
144
0.0
144
0.0
144
0.0
144
1.0
147
0.0208333333333333
147
0.0
147
0.0
147
0.0
147
0.0
147
0.0208333333333333
147
0.0
147
0.0
147
0.0
147
0.0
147
1.0
147
0.0
147
0.0
147
0.0
147
0.0
147
1.0
  0
MLEADERSTYLE
  5
67
102
{ACAD_XDICTIONARY
360
B11
102
}
102
{ACAD_REACTORS
330
66
102
}
330
66
100
AcDbMLeaderStyle
179
     2
170
     2
171
     1
172
     0
 90
        2
 40
0.0
 41
0.0
173
     1
 91
-1056964608
340
5B
 92
       -2
290
     1
 42
0.09
291
     1
 43
0.36
  3
Standard
 44
0.18
300

342
55
174
     1
178
     6
175
     1
176
     0
 93
-1056964608
 45
0.18
292
     0
297
     0
 46
0.18
 94
-1056964608
 47
1.0
 49
1.0
140
1.0
293
     1
141
0.0
294
     1
177
     0
142
1.0
295
     0
296
     0
143
0.125
271
     0
272
     9
273
     9
  0
MLINESTYLE
  5
60
102
{ACAD_REACTORS
330
5F
102
}
330
5F
100
AcDbMlineStyle
  2
STANDARD
 70
     0
  3

 62
   256
 51
90.0
 52
90.0
 71
     2
 49
0.5
 62
   256
  6
BYLAYER
 49
-0.5
 62
   256
  6
BYLAYER
  0
ACDBPLACEHOLDER
  5
F
102
{ACAD_REACTORS
330
E
102
}
330
E
  0
SCALE
  5
43
102
{ACAD_REACTORS
330
42
102
}
330
42
100
AcDbScale
 70
     0
300
1:1
140
1.0
141
1.0
290
     1
  0
SCALE
  5
44
102
{ACAD_REACTORS
330
42
102
}
330
42
100
AcDbScale
 70
     0
300
1/128" = 1'-0"
140
0.0078125
141
12.0
290
     0
  0
SCALE
  5
45
102
{ACAD_REACTORS
330
42
102
}
330
42
100
AcDbScale
 70
     0
300
1/64" = 1'-0"
140
0.015625
141
12.0
290
     0
  0
SCALE
  5
46
102
{ACAD_REACTORS
330
42
102
}
330
42
100
AcDbScale
 70
     0
300
1/32" = 1'-0"
140
0.03125
141
12.0
290
     0
  0
SCALE
  5
47
102
{ACAD_REACTORS
330
42
102
}
330
42
100
AcDbScale
 70
     0
300
1/16" = 1'-0"
140
0.0625
141
12.0
290
     0
  0
SCALE
  5
48
102
{ACAD_REACTORS
330
42
102
}
330
42
100
AcDbScale
 70
     0
300
3/32" = 1'-0"
140
0.09375
141
12.0
290
     0
  0
SCALE
  5
49
102
{ACAD_REACTORS
330
42
102
}
330
42
100
AcDbScale
 70
     0
300
1/8" = 1'-0"
140
0.125
141
12.0
290
     0
  0
SCALE
  5
4A
102
{ACAD_REACTORS
330
42
102
}
330
42
100
AcDbScale
 70
     0
300
3/16" = 1'-0"
140
0.1875
141
12.0
290
     0
  0
SCALE
  5
4B
102
{ACAD_REACTORS
330
42
102
}
330
42
100
AcDbScale
 70
     0
300
1/4" = 1'-0"
140
0.25
141
12.0
290
     0
  0
SCALE
  5
4C
102
{ACAD_REACTORS
330
42
102
}
330
42
100
AcDbScale
 70
     0
300
3/8" = 1'-0"
140
0.375
141
12.0
290
     0
  0
SCALE
  5
4D
102
{ACAD_REACTORS
330
42
102
}
330
42
100
AcDbScale
 70
     0
300
1/2" = 1'-0"
140
0.5
141
12.0
290
     0
  0
SCALE
  5
4E
102
{ACAD_REACTORS
330
42
102
}
330
42
100
AcDbScale
 70
     0
300
3/4" = 1'-0"
140
0.75
141
12.0
290
     0
  0
SCALE
  5
4F
102
{ACAD_REACTORS
330
42
102
}
330
42
100
AcDbScale
 70
     0
300
1" = 1'-0"
140
1.0
141
12.0
290
     0
  0
SCALE
  5
50
102
{ACAD_REACTORS
330
42
102
}
330
42
100
AcDbScale
 70
     0
300
1-1/2" = 1'-0"
140
1.5
141
12.0
290
     0
  0
SCALE
  5
51
102
{ACAD_REACTORS
330
42
102
}
330
42
100
AcDbScale
 70
     0
300
3" = 1'-0"
140
3.0
141
12.0
290
     0
  0
SCALE
  5
52
102
{ACAD_REACTORS
330
42
102
}
330
42
100
AcDbScale
 70
     0
300
6" = 1'-0"
140
6.0
141
12.0
290
     0
  0
SCALE
  5
53
102
{ACAD_REACTORS
330
42
102
}
330
42
100
AcDbScale
 70
     0
300
1'-0" = 1'-0"
140
12.0
141
12.0
290
     0
  0
TABLESTYLE
  5
65
102
{ACAD_XDICTIONARY
360
B0F
102
}
102
{ACAD_REACTORS
330
64
102
}
330
64
100
AcDbTableStyle
280
     0
  3
Standard
 70
     0
 71
     0
 40
0.06
 41
0.06
280
     0
281
     0
  7
Standard
140
0.18
170
     2
 62
     0
 63
     7
283
     0
 90
      512
 91
        0
  1

274
    -2
284
     1
 64
     0
275
    -2
285
     1
 65
     0
276
    -2
286
     1
 66
     0
277
    -2
287
     1
 67
     0
278
    -2
288
     1
 68
     0
279
    -2
289
     1
 69
     0
  7
Standard
140
0.25
170
     5
 62
     0
 63
     7
283
     0
 90
      512
 91
        0
  1

274
    -2
284
     1
 64
     0
275
    -2
285
     1
 65
     0
276
    -2
286
     1
 66
     0
277
    -2
287
     1
 67
     0
278
    -2
288
     1
 68
     0
279
    -2
289
     1
 69
     0
  7
Standard
140
0.18
170
     5
 62
     0
 63
     7
283
     0
 90
      512
 91
        0
  1

274
    -2
284
     1
 64
     0
275
    -2
285
     1
 65
     0
276
    -2
286
     1
 66
     0
277
    -2
287
     1
 67
     0
278
    -2
288
     1
 68
     0
279
    -2
289
     1
 69
     0
  0
VISUALSTYLE
  5
2F
102
{ACAD_REACTORS
330
29
102
}
330
29
100
AcDbVisualStyle
  2
2dWireframe
 70
     4
177
     2
291
     0
 71
     0
176
     1
 72
     2
176
     1
 73
     0
176
     1
 90
        0
176
     1
 40
0.6
176
     1
 41
30.0
176
     1
 63
     7
421
 16777215
176
     1
 74
     1
176
     1
 91
        4
176
     1
 64
     7
176
     1
 65
   257
176
     1
 75
     1
176
     1
175
     1
176
     1
 42
1.0
176
     1
 92
        0
176
     1
 66
   257
176
     1
 43
1.0
176
     1
 76
     1
176
     1
 77
     6
176
     1
 78
     2
176
     1
 67
     7
176
     1
 79
     5
176
     1
170
     0
176
     1
171
     0
176
     1
290
     0
176
     1
 93
        1
176
     1
 44
0.0
176
     1
173
     0
176
     1
  0
VISUALSTYLE
  5
2E
102
{ACAD_REACTORS
330
29
102
}
330
29
100
AcDbVisualStyle
  2
Basic
 70
     7
177
     2
291
     1
 71
     1
176
     1
 72
     0
176
     1
 73
     1
176
     1
 90
        0
176
     1
 40
0.6
176
     1
 41
30.0
176
     1
 63
     7
421
 16777215
176
     1
 74
     0
176
     1
 91
        4
176
     1
 64
     7
176
     1
 65
   257
176
     1
 75
     1
176
     1
175
     1
176
     1
 42
1.0
176
     1
 92
        8
176
     1
 66
     7
176
     1
 43
1.0
176
     1
 76
     1
176
     1
 77
     6
176
     1
 78
     2
176
     1
 67
     7
176
     1
 79
     5
176
     1
170
     0
176
     1
171
     0
176
     1
290
     0
176
     1
 93
        1
176
     1
 44
0.0
176
     1
173
     0
176
     1
  0
VISUALSTYLE
  5
35
102
{ACAD_REACTORS
330
29
102
}
330
29
100
AcDbVisualStyle
  2
Brighten
 70
    12
177
     2
291
     1
 71
     2
176
     1
 72
     2
176
     1
 73
     0
176
     1
 90
        0
176
     1
 40
0.6
176
     1
 41
30.0
176
     1
 63
     7
421
 16777215
176
     1
 74
     1
176
     1
 91
        4
176
     1
 64
     7
176
     1
 65
   257
176
     1
 75
     1
176
     1
175
     1
176
     1
 42
1.0
176
     1
 92
        8
176
     1
 66
     7
176
     1
 43
1.0
176
     1
 76
     1
176
     1
 77
     6
176
     1
 78
     2
176
     1
 67
     7
176
     1
 79
     5
176
     1
170
     0
176
     1
171
     0
176
     1
290
     0
176
     1
 93
        1
176
     1
 44
50.0
176
     1
173
     0
176
     1
  0
VISUALSTYLE
  5
39
102
{ACAD_REACTORS
330
29
102
}
330
29
100
AcDbVisualStyle
  2
ColorChange
 70
    16
177
     2
291
     1
 71
     2
176
     1
 72
     2
176
     1
 73
     3
176
     1
 90
        0
176
     1
 40
0.6
176
     1
 41
30.0
176
     1
 63
     8
421
  8421504
176
     1
 74
     1
176
     1
 91
        4
176
     1
 64
     7
176
     1
 65
   257
176
     1
 75
     1
176
     1
175
     1
176
     1
 42
1.0
176
     1
 92
        8
176
     1
 66
     8
424
  8421504
176
     1
 43
1.0
176
     1
 76
     1
176
     1
 77
     6
176
     1
 78
     2
176
     1
 67
     7
176
     1
 79
     5
176
     1
170
     0
176
     1
171
     0
176
     1
290
     0
176
     1
 93
        1
176
     1
 44
0.0
176
     1
173
     0
176
     1
  0
VISUALSTYLE
  5
32
102
{ACAD_REACTORS
330
29
102
}
330
29
100
AcDbVisualStyle
  2
Conceptual
 70
     9
177
     2
291
     0
 71
     3
176
     1
 72
     2
176
     1
 73
     0
176
     1
 90
        0
176
     1
 40
0.6
176
     1
 41
30.0
176
     1
 63
     7
421
 16777215
176
     1
 74
     2
176
     1
 91
        2
176
     1
 64
     7
176
     1
 65
   257
176
     1
 75
     1
176
     1
175
     1
176
     1
 42
179.0
176
     1
 92
        8
176
     1
 66
     7
176
     1
 43
1.0
176
     1
 76
     1
176
     1
 77
     6
176
     1
 78
     2
176
     1
 67
     7
176
     1
 79
     3
176
     1
170
     0
176
     1
171
     0
176
     1
290
     0
176
     1
 93
        1
176
     1
 44
0.0
176
     1
173
     0
176
     1
  0
VISUALSTYLE
  5
34
102
{ACAD_REACTORS
330
29
102
}
330
29
100
AcDbVisualStyle
  2
Dim
 70
    11
177
     2
291
     1
 71
     2
176
     1
 72
     2
176
     1
 73
     0
176
     1
 90
        0
176
     1
 40
0.6
176
     1
 41
30.0
176
     1
 63
     7
421
 16777215
176
     1
 74
     1
176
     1
 91
        4
176
     1
 64
     7
176
     1
 65
   257
176
     1
 75
     1
176
     1
175
     1
176
     1
 42
1.0
176
     1
 92
        8
176
     1
 66
     7
176
     1
 43
1.0
176
     1
 76
     1
176
     1
 77
     6
176
     1
 78
     2
176
     1
 67
     7
176
     1
 79
     5
176
     1
170
     0
176
     1
171
     0
176
     1
290
     0
176
     1
 93
        1
176
     1
 44
-50.0
176
     1
173
     0
176
     1
  0
VISUALSTYLE
  5
41
102
{ACAD_REACTORS
330
29
102
}
330
29
100
AcDbVisualStyle
  2
EdgeColorOff
 70
    22
177
     2
291
     1
 71
     2
176
     0
 72
     2
176
     0
 73
     0
176
     0
 90
        0
176
     0
 40
0.6
176
     0
 41
30.0
176
     0
 63
     7
421
 16777215
176
     0
 74
     1
176
     0
 91
        4
176
     0
 64
     7
176
     0
 65
   257
176
     0
 75
     1
176
     0
175
     1
176
     0
 42
1.0
176
     0
 92
        8
176
     2
 66
     7
176
     0
 43
1.0
176
     0
 76
     1
176
     0
 77
     6
176
     0
 78
     2
176
     0
 67
     7
176
     0
 79
     5
176
     0
170
     0
176
     0
171
     0
176
     0
290
     0
176
     0
 93
        1
176
     0
 44
0.0
176
     0
173
     0
176
     0
  0
VISUALSTYLE
  5
38
102
{ACAD_REACTORS
330
29
102
}
330
29
100
AcDbVisualStyle
  2
Facepattern
 70
    15
177
     2
291
     1
 71
     2
176
     1
 72
     2
176
     1
 73
     0
176
     1
 90
        0
176
     1
 40
0.6
176
     1
 41
30.0
176
     1
 63
     7
421
 16777215
176
     1
 74
     1
176
     1
 91
        4
176
     1
 64
     7
176
     1
 65
   257
176
     1
 75
     1
176
     1
175
     1
176
     1
 42
1.0
176
     1
 92
        8
176
     1
 66
     7
176
     1
 43
1.0
176
     1
 76
     1
176
     1
 77
     6
176
     1
 78
     2
176
     1
 67
     7
176
     1
 79
     5
176
     1
170
     0
176
     1
171
     0
176
     1
290
     0
176
     1
 93
        1
176
     1
 44
0.0
176
     1
173
     0
176
     1
  0
VISUALSTYLE
  5
2A
102
{ACAD_REACTORS
330
29
102
}
330
29
100
AcDbVisualStyle
  2
Flat
 70
     0
177
     2
291
     1
 71
     2
176
     1
 72
     1
176
     1
 73
     1
176
     1
 90
        2
176
     1
 40
0.6
176
     1
 41
30.0
176
     1
 63
     7
421
 16777215
176
     1
 74
     0
176
     1
 91
        0
176
     1
 64
     7
176
     1
 65
   257
176
     1
 75
     1
176
     1
175
     1
176
     1
 42
1.0
176
     1
 92
        8
176
     1
 66
     7
176
     1
 43
1.0
176
     1
 76
     1
176
     1
 77
     6
176
     1
 78
     2
176
     1
 67
     7
176
     1
 79
     5
176
     1
170
     0
176
     1
171
     0
176
     1
290
     0
176
     1
 93
       13
176
     1
 44
0.0
176
     1
173
     0
176
     1
  0
VISUALSTYLE
  5
2B
102
{ACAD_REACTORS
330
29
102
}
330
29
100
AcDbVisualStyle
  2
FlatWithEdges
 70
     1
177
     2
291
     1
 71
     2
176
     1
 72
     1
176
     1
 73
     1
176
     1
 90
        2
176
     1
 40
0.6
176
     1
 41
30.0
176
     1
 63
     7
421
 16777215
176
     1
 74
     1
176
     1
 91
        0
176
     1
 64
     7
176
     1
 65
   257
176
     1
 75
     1
176
     1
175
     1
176
     1
 42
1.0
176
     1
 92
        0
176
     1
 66
   257
176
     1
 43
1.0
176
     1
 76
     1
176
     1
 77
     6
176
     1
 78
     2
176
     1
 67
     7
176
     1
 79
     5
176
     1
170
     0
176
     1
171
     0
176
     1
290
     0
176
     1
 93
       13
176
     1
 44
0.0
176
     1
173
     0
176
     1
  0
VISUALSTYLE
  5
2C
102
{ACAD_REACTORS
330
29
102
}
330
29
100
AcDbVisualStyle
  2
Gouraud
 70
     2
177
     2
291
     1
 71
     2
176
     1
 72
     2
176
     1
 73
     1
176
     1
 90
        2
176
     1
 40
0.6
176
     1
 41
30.0
176
     1
 63
     7
421
 16777215
176
     1
 74
     0
176
     1
 91
        0
176
     1
 64
     7
176
     1
 65
   257
176
     1
 75
     1
176
     1
175
     1
176
     1
 42
1.0
176
     1
 92
        0
176
     1
 66
     7
176
     1
 43
1.0
176
     1
 76
     1
176
     1
 77
     6
176
     1
 78
     2
176
     1
 67
     7
176
     1
 79
     5
176
     1
170
     0
176
     1
171
     0
176
     1
290
     0
176
     1
 93
       13
176
     1
 44
0.0
176
     1
173
     0
176
     1
  0
VISUALSTYLE
  5
2D
102
{ACAD_REACTORS
330
29
102
}
330
29
100
AcDbVisualStyle
  2
GouraudWithEdges
 70
     3
177
     2
291
     1
 71
     2
176
     1
 72
     2
176
     1
 73
     1
176
     1
 90
        2
176
     1
 40
0.6
176
     1
 41
30.0
176
     1
 63
     7
421
 16777215
176
     1
 74
     1
176
     1
 91
        0
176
     1
 64
     7
176
     1
 65
   257
176
     1
 75
     1
176
     1
175
     1
176
     1
 42
1.0
176
     1
 92
        0
176
     1
 66
   257
176
     1
 43
1.0
176
     1
 76
     1
176
     1
 77
     6
176
     1
 78
     2
176
     1
 67
     7
176
     1
 79
     5
176
     1
170
     0
176
     1
171
     0
176
     1
290
     0
176
     1
 93
       13
176
     1
 44
0.0
176
     1
173
     0
176
     1
  0
VISUALSTYLE
  5
31
102
{ACAD_REACTORS
330
29
102
}
330
29
100
AcDbVisualStyle
  2
Hidden
 70
     6
177
     2
291
     0
 71
     1
176
     1
 72
     2
176
     1
 73
     2
176
     1
 90
        0
176
     1
 40
0.6
176
     1
 41
30.0
176
     1
 63
     7
421
 16777215
176
     1
 74
     2
176
     1
 91
        2
176
     1
 64
     7
176
     1
 65
   257
176
     1
 75
     2
176
     1
175
     1
176
     1
 42
40.0
176
     1
 92
        0
176
     1
 66
   257
176
     1
 43
1.0
176
     1
 76
     1
176
     1
 77
     6
176
     1
 78
     2
176
     1
 67
     7
176
     1
 79
     3
176
     1
170
     0
176
     1
171
     0
176
     1
290
     0
176
     1
 93
        1
176
     1
 44
0.0
176
     1
173
     0
176
     1
  0
VISUALSTYLE
  5
3F
102
{ACAD_REACTORS
330
29
102
}
330
29
100
AcDbVisualStyle
  2
JitterOff
 70
    20
177
     2
291
     1
 71
     2
176
     0
 72
     2
176
     0
 73
     0
176
     0
 90
        0
176
     0
 40
0.6
176
     0
 41
30.0
176
     0
 63
     7
421
 16777215
176
     0
 74
     1
176
     0
 91
        4
176
     0
 64
     7
176
     0
 65
   257
176
     0
 75
     1
176
     0
175
     1
176
     0
 42
1.0
176
     0
 92
       10
176
     2
 66
     7
176
     0
 43
1.0
176
     0
 76
     1
176
     0
 77
     6
176
     0
 78
     2
176
     0
 67
     7
176
     0
 79
     5
176
     0
170
     0
176
     0
171
     0
176
     0
290
     0
176
     0
 93
        1
176
     0
 44
0.0
176
     0
173
     0
176
     0
  0
VISUALSTYLE
  5
37
102
{ACAD_REACTORS
330
29
102
}
330
29
100
AcDbVisualStyle
  2
Linepattern
 70
    14
177
     2
291
     1
 71
     2
176
     1
 72
     2
176
     1
 73
     0
176
     1
 90
        0
176
     1
 40
0.6
176
     1
 41
30.0
176
     1
 63
     7
421
 16777215
176
     1
 74
     1
176
     1
 91
        4
176
     1
 64
     7
176
     1
 65
   257
176
     1
 75
     7
176
     1
175
     7
176
     1
 42
1.0
176
     1
 92
        8
176
     1
 66
     7
176
     1
 43
1.0
176
     1
 76
     1
176
     1
 77
     6
176
     1
 78
     2
176
     1
 67
     7
176
     1
 79
     5
176
     1
170
     0
176
     1
171
     0
176
     1
290
     0
176
     1
 93
        1
176
     1
 44
0.0
176
     1
173
     0
176
     1
  0
VISUALSTYLE
  5
40
102
{ACAD_REACTORS
330
29
102
}
330
29
100
AcDbVisualStyle
  2
OverhangOff
 70
    21
177
     2
291
     1
 71
     2
176
     0
 72
     2
176
     0
 73
     0
176
     0
 90
        0
176
     0
 40
0.6
176
     0
 41
30.0
176
     0
 63
     7
421
 16777215
176
     0
 74
     1
176
     0
 91
        4
176
     0
 64
     7
176
     0
 65
   257
176
     0
 75
     1
176
     0
175
     1
176
     0
 42
1.0
176
     0
 92
        9
176
     2
 66
     7
176
     0
 43
1.0
176
     0
 76
     1
176
     0
 77
     6
176
     0
 78
     2
176
     0
 67
     7
176
     0
 79
     5
176
     0
170
     0
176
     0
171
     0
176
     0
290
     0
176
     0
 93
        1
176
     0
 44
0.0
176
     0
173
     0
176
     0
  0
VISUALSTYLE
  5
33
102
{ACAD_REACTORS
330
29
102
}
330
29
100
AcDbVisualStyle
  2
Realistic
 70
     8
177
     2
291
     0
 71
     2
176
     1
 72
     3
176
     1
 73
     0
176
     1
 90
        2
176
     1
 40
0.6
176
     1
 41
30.0
176
     1
 63
     7
421
 16777215
176
     1
 74
     0
176
     1
 91
        0
176
     1
 64
     7
176
     1
 65
   257
176
     1
 75
     1
176
     1
175
     1
176
     1
 42
1.0
176
     1
 92
        8
176
     1
 66
   257
176
     1
 43
1.0
176
     1
 76
     1
176
     1
 77
     6
176
     1
 78
     2
176
     1
 67
     7
176
     1
 79
     3
176
     1
170
     0
176
     1
171
     0
176
     1
290
     0
176
     1
 93
       13
176
     1
 44
0.0
176
     1
173
     0
176
     1
  0
VISUALSTYLE
  5
3E
102
{ACAD_REACTORS
330
29
102
}
330
29
100
AcDbVisualStyle
  2
Shaded
 70
    27
177
     2
291
     0
 71
     2
176
     1
 72
     2
176
     1
 73
     1
176
     1
 90
        2
176
     1
 40
0.6
176
     1
 41
30.0
176
     1
 63
     7
421
 16777215
176
     1
 74
     0
176
     1
 91
        4
176
     1
 64
     7
176
     1
 65
   257
176
     1
 75
     1
176
     1
175
     1
176
     1
 42
1.0
176
     1
 92
        8
176
     1
 66
   257
176
     1
 43
1.0
176
     1
 76
     1
176
     1
 77
     6
176
     1
 78
     2
176
     1
 67
     8
425
  7895160
176
     1
 79
     3
176
     1
170
     0
176
     1
171
     0
176
     1
290
     0
176
     1
 93
        5
176
     1
 44
0.0
176
     1
173
     0
176
     1
  0
VISUALSTYLE
  5
3D
102
{ACAD_REACTORS
330
29
102
}
330
29
100
AcDbVisualStyle
  2
Shaded with edges
 70
    26
177
     2
291
     0
 71
     2
176
     1
 72
     2
176
     1
 73
     1
176
     1
 90
        2
176
     1
 40
0.6
176
     1
 41
30.0
176
     1
 63
     7
421
 16777215
176
     1
 74
     1
176
     1
 91
       10
176
     1
 64
     7
176
     1
 65
   257
176
     1
 75
     2
176
     1
175
     1
176
     1
 42
1.0
176
     1
 92
        8
176
     1
 66
   257
176
     1
 43
1.0
176
     1
 76
     1
176
     1
 77
     6
176
     1
 78
     2
176
     1
 67
     7
176
     1
 79
     3
176
     1
170
     0
176
     1
171
     0
176
     1
290
     0
176
     1
 93
        5
176
     1
 44
0.0
176
     1
173
     0
176
     1
  0
VISUALSTYLE
  5
3A
102
{ACAD_REACTORS
330
29
102
}
330
29
100
AcDbVisualStyle
  2
Shades of Gray
 70
    23
177
     2
291
     0
 71
     2
176
     1
 72
     2
176
     1
 73
     3
176
     1
 90
        0
176
     1
 40
0.6
176
     1
 41
30.0
176
     1
 63
     7
421
 16777215
176
     1
 74
     2
176
     1
 91
        2
176
     1
 64
     7
176
     1
 65
     7
176
     1
 75
     1
176
     1
175
     1
176
     1
 42
40.0
176
     1
 92
        8
176
     1
 66
     7
176
     1
 43
1.0
176
     1
 76
     1
176
     1
 77
     6
176
     1
 78
     2
176
     1
 67
     7
176
     1
 79
     3
176
     1
170
     0
176
     1
171
     0
176
     1
290
     0
176
     1
 93
        1
176
     1
 44
0.0
176
     1
173
     0
176
     1
  0
VISUALSTYLE
  5
3B
102
{ACAD_REACTORS
330
29
102
}
330
29
100
AcDbVisualStyle
  2
Sketchy
 70
    24
177
     2
291
     0
 71
     1
176
     1
 72
     2
176
     1
 73
     2
176
     1
 90
        0
176
     1
 40
0.6
176
     1
 41
30.0
176
     1
 63
     7
421
 16777215
176
     1
 74
     2
176
     1
 91
        2
176
     1
 64
     7
176
     1
 65
     7
176
     1
 75
     1
176
     1
175
     1
176
     1
 42
40.0
176
     1
 92
       11
176
     1
 66
     7
176
     1
 43
1.0
176
     1
 76
     1
176
     1
 77
     6
176
     1
 78
     2
176
     1
 67
     7
176
     1
 79
     6
176
     1
170
     0
176
     1
171
     0
176
     1
290
     0
176
     1
 93
        1
176
     1
 44
0.0
176
     1
173
     0
176
     1
  0
VISUALSTYLE
  5
36
102
{ACAD_REACTORS
330
29
102
}
330
29
100
AcDbVisualStyle
  2
Thicken
 70
    13
177
     2
291
     1
 71
     2
176
     1
 72
     2
176
     1
 73
     0
176
     1
 90
        0
176
     1
 40
0.6
176
     1
 41
30.0
176
     1
 63
     7
421
 16777215
176
     1
 74
     1
176
     1
 91
        4
176
     1
 64
     7
176
     1
 65
   257
176
     1
 75
     1
176
     1
175
     1
176
     1
 42
1.0
176
     1
 92
       12
176
     1
 66
     7
176
     1
 43
1.0
176
     1
 76
     1
176
     1
 77
     6
176
     1
 78
     2
176
     1
 67
     7
176
     1
 79
     5
176
     1
170
     0
176
     1
171
     0
176
     1
290
     0
176
     1
 93
        1
176
     1
 44
0.0
176
     1
173
     0
176
     1
  0
VISUALSTYLE
  5
30
102
{ACAD_REACTORS
330
29
102
}
330
29
100
AcDbVisualStyle
  2
Wireframe
 70
     5
177
     2
291
     0
 71
     0
176
     1
 72
     2
176
     1
 73
     0
176
     1
 90
        0
176
     1
 40
0.6
176
     1
 41
30.0
176
     1
 63
     7
421
 16777215
176
     1
 74
     1
176
     1
 91
        4
176
     1
 64
     7
176
     1
 65
   257
176
     1
 75
     1
176
     1
175
     1
176
     1
 42
1.0
176
     1
 92
        0
176
     1
 66
   257
176
     1
 43
1.0
176
     1
 76
     1
176
     1
 77
     6
176
     1
 78
     2
176
     1
 67
     7
176
     1
 79
     3
176
     1
170
     0
176
     1
171
     0
176
     1
290
     0
176
     1
 93
        1
176
     1
 44
0.0
176
     1
173
     0
176
     1
  0
VISUALSTYLE
  5
3C
102
{ACAD_REACTORS
330
29
102
}
330
29
100
AcDbVisualStyle
  2
X-Ray
 70
    25
177
     2
291
     0
 71
     2
176
     1
 72
     2
176
     1
 73
     1
176
     1
 90
        1
176
     1
 40
0.5
176
     1
 41
30.0
176
     1
 63
     7
421
 16777215
176
     1
 74
     1
176
     1
 91
        0
176
     1
 64
     7
176
     1
 65
   257
176
     1
 75
     1
176
     1
175
     1
176
     1
 42
1.0
176
     1
 92
        8
176
     1
 66
     7
176
     1
 43
1.0
176
     1
 76
     1
176
     1
 77
     6
176
     1
 78
     2
176
     1
 67
     7
176
     1
 79
     3
176
     1
170
     0
176
     1
171
     0
176
     1
290
     0
176
     1
 93
       13
176
     1
 44
0.0
176
     1
173
     0
176
     1
  0
DICTIONARYVAR
  5
79
102
{ACAD_REACTORS
330
76
102
}
330
76
100
DictionaryVariables
280
     0
  1
1:1
  0
DICTIONARYVAR
  5
78
102
{ACAD_REACTORS
330
76
102
}
330
76
100
DictionaryVariables
280
     0
  1
STANDARD
  0
DICTIONARYVAR
  5
77
102
{ACAD_REACTORS
330
76
102
}
330
76
100
DictionaryVariables
280
     0
  1
STANDARD
  0
DICTIONARY
  5
1A
330
19
100
AcDbDictionary
280
     1
281
     1
  3
BUMPTILE
360
1C
  3
DIFFUSETILE
360
1B
  3
OPACITYTILE
360
1F
  3
REFLECTIONTILE
360
1E
  3
REFRACTIONTILE
360
20
  3
SPECULARTILE
360
1D
  0
DICTIONARY
  5
12
330
11
100
AcDbDictionary
280
     1
281
     1
  3
BUMPTILE
360
14
  3
DIFFUSETILE
360
13
  3
FBXASSET
360
109
  3
OPACITYTILE
360
17
  3
REFLECTIONTILE
360
16
  3
REFRACTIONTILE
360
18
  3
SPECULARTILE
360
15
  0
DICTIONARY
  5
22
330
21
100
AcDbDictionary
280
     1
281
     1
  3
BUMPTILE
360
24
  3
DIFFUSETILE
360
23
  3
FBXASSET
360
BA
  3
OPACITYTILE
360
27
  3
REFLECTIONTILE
360
26
  3
REFRACTIONTILE
360
28
  3
SPECULARTILE
360
25
  0
DICTIONARY
  5
B11
330
67
100
AcDbDictionary
280
     1
281
     1
  3
ACAD_XREC_ROUNDTRIP
360
B12
  0
DICTIONARY
  5
B0F
330
65
100
AcDbDictionary
280
     1
281
     1
  3
ACAD_ROUNDTRIP_2008_TABLESTYLE_CELLSTYLEMAP
360
B10
  0
XRECORD
  5
1C
102
{ACAD_REACTORS
330
1A
102
}
330
1A
100
AcDbXrecord
280
     1
270
     1
271
     1
  0
XRECORD
  5
1B
102
{ACAD_REACTORS
330
1A
102
}
330
1A
100
AcDbXrecord
280
     1
270
     1
271
     1
  0
XRECORD
  5
1F
102
{ACAD_REACTORS
330
1A
102
}
330
1A
100
AcDbXrecord
280
     1
270
     1
271
     1
  0
XRECORD
  5
1E
102
{ACAD_REACTORS
330
1A
102
}
330
1A
100
AcDbXrecord
280
     1
270
     1
271
     1
  0
XRECORD
  5
20
102
{ACAD_REACTORS
330
1A
102
}
330
1A
100
AcDbXrecord
280
     1
270
     1
271
     1
  0
XRECORD
  5
1D
102
{ACAD_REACTORS
330
1A
102
}
330
1A
100
AcDbXrecord
280
     1
270
     1
271
     1
  0
XRECORD
  5
14
102
{ACAD_REACTORS
330
12
102
}
330
12
100
AcDbXrecord
280
     1
270
     1
271
     1
  0
XRECORD
  5
13
102
{ACAD_REACTORS
330
12
102
}
330
12
100
AcDbXrecord
280
     1
270
     1
271
     1
  0
XRECORD
  5
109
102
{ACAD_REACTORS
330
12
102
}
330
12
100
AcDbXrecord
280
     1
 70
     1
 90
1959938040
 71
     1
  1
F7E85029-8BA2-4C45-93BD-DCD2BB744E36
311
504B03040A00000800005038DB423DEE336E79000000790000001B0000006175746F6465736B2D64657369676E2D7061636B6167652E786D6C3C3F786D6C2076657273696F6E3D22312E302220656E636F64696E673D227574662D3822203F3E3C666F726D6174733E3C666F726D61743E687474703A2F2F736368656D612E
311
6175746F6465736B2E636F6D2F64657369676E2D7061636B6167652F323030393C2F666F726D61743E3C2F666F726D6174733E504B03041400060808005038DB42D486FD9CA0000000F4000000130000005B436F6E74656E745F54797065735D2E786D6C7D8EC10E82300C865F65E91D8A1E8C310C0EEA1BF002731658846E
311
D98AC1B77784ABF1D8FE5FBFBF75BBCE937A534CCEB38643598122B6FEE978D0B0485F9C41B54DDD7D022595594E1A469170414C76A4D9A4D207E29CF43ECE46F218070CC6BECC4078ACAA135ACF422C856C0E68EA1BF5669944DDD7BCDE7B1F8E415D77AECB980613C2E4AC91FC167A2B244592486606FC29C8FD7F045B9A
311
EF7053A7E60B504B03041400060808005038DB42A3007705EB0000007C01000008000000636F72652E786D6C8D90416EC3201045AF82665B6163889DD8C24472E31BF40208888B128365A0EAF18B13476A775DCDE8CF7F33A3CFCFDFF31D7D993558EF7AA80A02C838E5B575530F295EF109D059F0D5FBF8CB06C8C9D9F4B0
311
C920F8B4FAB4EC92F22E1A17B3EABC36BB2843301190BAE7A687A03ECD2C0B996276845BB14875939329AA5797E194AC46CF2356E77DF66ACD0AE2329C0EB46D6ADCB266C487A619F040DF5B3C12328C23698F757BE1E5060B1EEDFCBAAF5623A3D12028A918260DA6C70F72EC08ED187B2375C7082F37FB1F282DFA9F50B2
311
2E32BABFFBC402882A3FF218085E6E59E4F2082AD72D37F103504B03041400060808005038DB4255019EA25F0000007C00000007000000636E782E786D6C4DCB3B0E80201045D1AD90E915ED2CF8AC45050C11660C8261F98AB1B07AC9C97D42D718D865D3E909258CFD00CCE24AC6E326A164D74DC0B4128928FF32603847
311
2BA13128B1252AC747C6BAB984FC68F0B87FE8960A5C09FE86CFB69FBA01504B03041400060808005038DB421222E37367010000020300000C0000006662782F636F72652E786D6C8D52ED8E8320107C15C2DF0B82DADAB3419A78F50DEE05A852CF54C120983EFEAD1F4DAF97A6694C90CCECECCE8EF2C3B56BD1A8ECD018
311
9DE1306018295D9AAAD17586BD3B934F8C0E825B63DC9F328CB4EC548627180B5E5BE3FB152A8D764A3B40B5A9D40ACA61500EA3B2854B8687F247753290DE41C570097A595E64AD8230001AEA041F9C05036819329D589C4F574E175C70EF9B6A659B0AA635E746592C8EF9E7264A932D49E3A4209B24C9491E7DA5A4602C
311
2F0A96EEB6E991D3492CB86BBA9BBBD22AE9548545C4C298B08444BB6FB6DBB3681FC71F6CBB8F19A753F983C8F7D59B22DF681747ABDD45366011829199F8B72D44E4D02047F04305A75388F09A137E0C1A0281909D3CB5B73D2E008DAA74C66E80A98CBF53A36CBD82A90CCD0FA70B0B9DE706B0D9D33ED18B3EAF7BC007
311
94BA066BD2C1F5E4DD349D2F53D7287A65C9E8AE481BDBC9F66E6EB1783FEF839ECA4BD31AFB8E9AAEABD2354C3AFDBDE217504B03041400060808005038DB428AE034F47D0000009D0000000B0000006662782F636E782E786D6C4DCCD10A83201886E15B91FFDC65254EC10CD22E249685CC349C8E5DFE6A74B0A30F1E3E
311
5ED97F368FDE36BD5C0C1DD43702C886479C5D583B2879C11C50AF648A31FFDD008569B31D9C0C4AAE2996FDA2D92E53F1F950EFC2F3425E0BDA18CDB16904C794318205352366F7B1D583207A685AA894AC7EA563CFB0FA02504B03041400060808005038DB42E1AFB7AE2B01000014020000310000006662782F38313934
311
324443382D443239382D343636302D393444452D3637453343423930434232332F636F72652E786D6C8D515B6EC32010BC0AE22B55858DC1C176848994C70D7A0117488A1283C5A3CAF18B6B476AFFF2C3A2D999D9D12EDF3FC63BF8D63E18677B581518026DA553C65E7B98E205B510EC05F7CEC53F3408EC30EA1ECE3014
311
FCEA5D9A56483A1BB58D19B54EE9151C42D0110279CF9F1E06F9A5C7A11852CC8C702BA641DE86AB2EAA22B7334FF0107D0E009621F30B455B7535391D5B74225D8B6AC630EAEAD319B1E64C8F870E1F0F84F272110A9E9251ABDCA81CC75C8CF6AF9ACC62C1A3199FF1A5D743D40A0A822B8A3043A4F9C0CD0E931DA5EF78
311
BBA3989733FD9F284DEA4551323652B2C65D64018A8A974B4370E5D2E7FD19463F26E72398E76D82966F50E022C7A2A4660D2F176A5E40F664F5EA19A2F379C19BDB676657DBC598D58297F38D72F93D60AEF33DC50F504B03041400060808005038DB42126C36514E01000033030000300000006662782F38313934324443
311
382D443239382D343636302D393444452D3637453343423930434232332F636E782E786D6CD593CD6E022114855F85B06DE6CFB1DA1806932EFA045D74CBC055A90C4CF869EADBF7A268DDB8E8B21B3239F770CECD17866DBF2743BEC007EDEC40BBBAA504AC744ADBFD4053DC552F946C39F3CEC53B1B25564C30D02C53CE
311
F6DEA5B9480A76229988AAD1F658440FC1252F21A09C6F12E3A4301800B64A28C2348252A0C8CD885F3BF0B80A8AE389C40390B7D70FE2C64F9031B026A770D6E40ECEF2599AEE4C944823421868900798442D52740AC2B156228ABAABAF5D0F76FA4D22F9C2B532794D72F940F34979D9A8468EACC12167217AA4574CF134
311
03E5629E8D962222E4E66CBC78384BDAC6D5B2783582F7E8EE56FD728961E71967514F501CD28388A0285FB45D5FB5AB6AB17E6FD79B76B1E9FBA7F679D3B7ACC976CE46E74CB98431E0DD4CA4B3116CA4BC634D1E3FC2577C44698FAC9D3FFD01240228AD173AB78CFFCCA739BF6FC4E5F12FE03F504B0304140006080800
311
5038DB4249D7CCC8A405000081100000340000006662782F38313934324443382D443239382D343636302D393444452D3637453343423930434232332F6F626A656374732E786D6CAD57D96EDB3814FD1541F332F360794D9A0C1415B19D14469BB6A8D1621E0C189444299C500B482A75E6EBE750A464C9B553CFA02F5AB8
311
5CDE7BEEB90BFDB7BB8C3BCF544856E437EED81BB90ECDA32266797AE3562A195CB9CEDBC01745A13ACB5C272719BD71F5B01BF8A928AAD20EC53421155707A3F7F3BF1C19D19CBA4EC4899437AE8C1E69463C52A922A6F2C98B89225E9AECBCB16716F6C5A682948F07424B2268AEA029C67348718C52E3FEEFC81D06FE50
311
CF07BE7EDA55D3D3AB86B53DFDF3592E15C9A31F0E3B10331DCF9677938BEBC1C56C361DCC2E27E3C1FC7EBE1C8CDF4C478BCBC5E2FAF6EE1A074B2520C96A2268E206EF808D60913F3453815FB15C4D27768975D050D067A63DE5061367EC0FCD9AD63A6BE431F5A322CF69546305346AFBACE89896348FE173462534EB20
311
34EAFF8E358E9DE9A9FEB7477687CF43A0BBA323A8D1BD7977352DC2BF61823C87414252CD4083A535D47075B447382C0A6EE7987432A2A860843B9C8582881737C052BD24F07B623493858E066D811BC00B66BA4F1784D1CF797E4CCBA4E25CD3D80DEA28D82256A892B566EC1F2AF6DA7791814EF09566C3953548BD94D4
311
0DAE0D45AE0ED8648074124E52B81C66EA9DD3C981A10B1DA7ABA51BBCBF0F776B1DBBC70F2F455152A1347D40ADC671CD5BA364751A9FE539BDC13D50650FCA1720FF11A1BE57057E136C37DBCDEC294A905C2685C8E01B67E40C46788C9C71FDD4DF9D2F7FD86EEE7BEF149E70B686EA17E0D9B7A1EBCB0E9C81FF0CC217
311
626A4D5B4784236D3CB01C00699238BCC010F27012EEDC60852C87AC8C5D840763980C759FF1E90FAD18248AFAA4CE3B07960769F18C040DD86A46420D437EABE0DE4F3FA4B3FA60BBEC14BC17BF84AEB7CBF5FB75251212D1071BD34B9AB09C2994B83D6FBA0AF530EF59F4445FBE172286A13FE2BDEEE29DD9A324D0D698
311
6BE0D326A7EB9FFDC9BD0322EC4B0B9D6EFC9F9C00237461EDC87F6032A29C939C165573EEABF50365C340AC835D33B92D30FBC202D29899831844918E042B35886DB56A93A677C2BAAFAB8F60A41BCC5F3E90976EF60AF7B9372A7821B6E1CBD6A4A5A3507FEB73DB6230D45240F73A489AF8B7A06F6396249544123C82EB
311
B7D5A2EB3B9D1690221AA9265A66B01FC14584256D2317D55A1054D222DF32D44DC4DDD103BAF201A965402DF094C692F264CB38AFB26DC238AAD13623E50938FEBFFE6195955B921555AE4EC8EEA98EEAD0D7BDC75EF99DA8E8D10DD6F57B3047EE8D697C820CBA961CC1AAE7DAFB37775717A3C9F5E06A7E3B19CC16B38B
311
C1F514FDD372B19CCCE76F66B3BBE965E327A349E037A5A61BD1F0124A9B5F0966DDF77585F8B149C00D1E88929B77263C9BF7D795875ED81F620FEA65BBF1367E46DF47E39F0BD8AF3C2A6895959C66345744C7D083FEE05F08FA8C9E32667C9591949E21E5D3BBF58131183963DF671DEFF4FBC15E3BBAD0017954887AAC
311
B230278C1F6C4C0D925E99A716BFC627EDDB149AE657FF59C7A03395056731F260ECA4B4C8A842363CA308898C4A50AFDBD3C7F6EE71C6EE67D3212A1272DA68F248D0247389B000B5AA48F5C79DDFD0D4E9BEEAC645B9F59EF0B099C275C0991B174DBA6211955E8802AD5BA15A38B8D4EDE4D1F8933CE5E8B5CDA6F6BFDD
311
A5B1E995E476C939FD93B5CBA4706B00D24889BE010D11BC532B13F8B56E763EFA4F8637EA3844E133AC546BCB7EA035A63E06216A8CB2B70534314FF6E81D02F575B3C65EBDA687C859B7AC574960A40E1411697D53D0FA59956E979F87E8509CD527A7E4550A5F9E2F692028C85CE900078BC00A2BB3240A545DFCB9F92C
311
0ADC6433E79E8102CEEFBBABCB3F368B22CB8ADC0C6D6EED7DD8593FE2761B6F901CA8BE96C8CD64349E6CEAEB80BDA16C4322A94762F984017856B016E89EFBC14B7367441D3213EDBAA176C50143574BC716B619845ABA7473AB06078D474E1DC490BE52EA88E92E285FBD110CEBA55041A0970FFE05504B030414000608
311
00005038DB42000000000000000000000000350000006662782F38313934324443382D443239382D343636302D393444452D3637453343423930434232332F76657274696365732E62696E504B03041400060808005038DB42F270F1330600000004000000360000006662782F38313934324443382D443239382D34363630
311
2D393444452D3637453343423930434232332F747269616E676C65732E62696E636660600000504B03041400060800005038DB42000000000000000000000000370000006662782F38313934324443382D443239382D343636302D393444452D3637453343423930434232332F617474726962757465732E62696E504B0304
311
1400060808005038DB42D5987DFC8F00000041010000360000006662782F38313934324443382D443239382D343636302D393444452D3637453343423930434232332F6469726563746F72792E786D6C858F410EC2201045AF4266AF15DDB800BA74E7C21B903225242D6328188F2FA5C4183471359997F9FF81E89FF3C41E
311
1816475E02DF1F80A11FC8386F25A438EECEC07A250251FC3803E6F58C12560C4AD840E95E91C151A72936F496F35732D860FE635F62C8F2DA16B505C545B74125BAA2FA9E05D7CC053D063734D5C7665FD55B6B8D15D5E9BFEAFD8490FFA45E504B03041400060808005038DB42B0AB599DFD000000A00100003B00000066
311
62782F38313934324443382D443239382D343636302D393444452D3637453343423930434232332F7265736F75726365732F636F72652E786D6C8D50596E833010BD0A9ADFCA60964040C69168B8412F609909B1126CE4A5EAF16B0295DABFFECC8CDEA2797AECF2B53C934FB44E19DD439E5248504B33293DF710FC8D9C21
311
B970668DF1BF649068B1600F1B0C9CCDD684F580A4D11EB58FA836131EA0700E3D24F2198F1E9CBCE32252117C54B847BA0AF91033A6791AE9A8E3CC791B0324FB936D02B7E84CB0121DCB7696B310D47468D4147FAA9B420BFC3A9CABA2AD2BD296F548AABA1EC850BCB764A4741847DA36A7F6CAB2CDCC9957CB4F466951
311
789C8017342F09AD49D17CD0A6A34557966FF4D49594659BFC8F29ACD33F4D41695F1647DCDDE680E731C88BE02CDBFA8AEB5566DC5BB7FC1B504B010214000A00000800005038DB423DEE336E79000000790000001B00000000000000000000000000000000006175746F6465736B2D64657369676E2D7061636B6167652E
311
786D6C504B010214001400060808005038DB42D486FD9CA0000000F40000001300000000000000000000000000B20000005B436F6E74656E745F54797065735D2E786D6C504B010214001400060808005038DB42A3007705EB0000007C010000080000000000000000000000000083010000636F72652E786D6C504B010214
311
001400060808005038DB4255019EA25F0000007C000000070000000000000000000000000094020000636E782E786D6C504B010214001400060808005038DB421222E37367010000020300000C00000000000000000000000000180300006662782F636F72652E786D6C504B010214001400060808005038DB428AE034F47D
311
0000009D0000000B00000000000000000000000000A90400006662782F636E782E786D6C504B010214001400060808005038DB42E1AFB7AE2B0100001402000031000000000000000000000000004F0500006662782F38313934324443382D443239382D343636302D393444452D3637453343423930434232332F636F7265
311
2E786D6C504B010214001400060808005038DB42126C36514E010000330300003000000000000000000000000000C90600006662782F38313934324443382D443239382D343636302D393444452D3637453343423930434232332F636E782E786D6C504B010214001400060808005038DB4249D7CCC8A40500008110000034
311
00000000000000000000000000650800006662782F38313934324443382D443239382D343636302D393444452D3637453343423930434232332F6F626A656374732E786D6C504B010214001400060800005038DB4200000000000000000000000035000000000000000000000000005B0E00006662782F3831393432444338
311
2D443239382D343636302D393444452D3637453343423930434232332F76657274696365732E62696E504B010214001400060808005038DB42F270F13306000000040000003600000000000000000000000000AE0E00006662782F38313934324443382D443239382D343636302D393444452D363745334342393043423233
311
2F747269616E676C65732E62696E504B010214001400060800005038DB420000000000000000000000003700000000000000000000000000080F00006662782F38313934324443382D443239382D343636302D393444452D3637453343423930434232332F617474726962757465732E62696E504B01021400140006080800
311
5038DB42D5987DFC8F0000004101000036000000000000000000000000005D0F00006662782F38313934324443382D443239382D343636302D393444452D3637453343423930434232332F6469726563746F72792E786D6C504B010214001400060808005038DB42B0AB599DFD000000A00100003B00000000000000000000
311
000000401000006662782F38313934324443382D443239382D343636302D393444452D3637453343423930434232332F7265736F75726365732F636F72652E786D6C504B0506000000000E000E0080040000961100000000
310
504B03040A00000800005038DB423DEE336E79000000790000001B0000006175746F6465736B2D64657369676E2D7061636B6167652E786D6C3C3F786D6C2076657273696F6E3D22312E302220656E636F64696E673D227574662D3822203F3E3C666F726D6174733E3C666F726D61743E687474703A2F2F736368656D612E
310
6175746F6465736B2E636F6D2F64657369676E2D7061636B6167652F323030393C2F666F726D61743E3C2F666F726D6174733E504B03041400060808005038DB42D486FD9CA0000000F4000000130000005B436F6E74656E745F54797065735D2E786D6C7D8EC10E82300C865F65E91D8A1E8C310C0EEA1BF002731658846E
310
D98AC1B77784ABF1D8FE5FBFBF75BBCE937A534CCEB38643598122B6FEE978D0B0485F9C41B54DDD7D022595594E1A469170414C76A4D9A4D207E29CF43ECE46F218070CC6BECC4078ACAA135ACF422C856C0E68EA1BF5669944DDD7BCDE7B1F8E415D77AECB980613C2E4AC91FC167A2B244592486606FC29C8FD7F045B9A
310
EF7053A7E60B504B03041400060808005038DB429D393A8FEA0000007C01000008000000636F72652E786D6C8D904D6EC3201085AF62CDB6C2E6C70D898589523937E8051010072506CB40D5E317278ED4EEBA9AD19BF7CD8C9E387E4FF7EACB2ED105DF03A93154D6EB609C1F7BC8E982F6501DA5584248BF6C507935D91E
310
5619A4189790E74DD2C127EB53517D307613558C3641A5EFA5E921EAAB9D54AD722A8E78AB67A56F6AB435797505CED999EA79C499B2CF5D9C5D40EECF9810BC3BA313C5036A09E1E880DB16ED0E1FB4E57CE0033B896685A5486E7ADDD78B55C91A90141386F00E51FE89798769C7D81B7EEF1816CD6AFF03E5D9FC13CACE
310
2746B7779F580449CA238F8114CD9A45298FA04A5D73933F504B03041400060808005038DB4255019EA25F0000007C00000007000000636E782E786D6C4DCB3B0E80201045D1AD90E915ED2CF8AC45050C11660C8261F98AB1B07AC9C97D42D718D865D3E909258CFD00CCE24AC6E326A164D74DC0B4128928FF326038472B
310
A13128B1252AC747C6BAB984FC68F0B87FE8960A5C09FE86CFB69FBA01504B03041400060808005038DB42E73FD92066010000020300000C0000006662782F636F72652E786D6C8D52ED8EC220107C15C2DF4B0BFD38AB8662BCE81BDC0B20C51EB1858642E3E3DFF6C3785E8C314D2899D9D99D9D96EDAE6D8306E57A6D4D
310
89939862A48CB495367589833F476B8C769C396BFD9F328C8C685589471873563B1BBA0592D678653CA0C6566A0145DF2B8F916CE052E25EFEA856C42278A8E82F7127E445D42A4E62A0A18EB3DE3B3080E621E389F9F9746564C6390B41570BAB2B98A6CF5A39CCD7479A2474758CF6293D44799214D186E679B4DA7CA579
310
511C8A43B667641473E6757B73279D125E5598A734C922BA8AD2E29B165B9A6EB3EC837E6E33CAC858FE200A5DF5A62868E3B374B13BCB7ACC13303211FFB685883CEAC5007E0867640C115E53C28F41432010B217A7E6B6C705A041496F5D0E4C65C39D1A4413144CA5687A189959E83C3580CD9EF6495FF479DD033EA030
310
3558131EAEA7E0C7E96C9EBA44D129170DFE8A8C75AD68EEE6668BF7F33EE8A95CDAC6BA77D46459952C6192F1EFE5BF504B03041400060808005038DB428CD0C88B7E0000009D0000000B0000006662782F636E782E786D6C4DCCD10A83201886E15B91FFDCF56F6824A8B165DE472C0B99E9703976F9ABD1C18E3E78F878
310
65FB590279BBFCF2292A389F10888BF734FA382B28EB441B20AD9639A5F5EF06240E8B53B0336839E7549E078D6E1A4A58370D3E3E0EEC102F46989E5A2B9032648C0AE41D350DB26BDDD7DCF21B545A56BFD2B67B587F01504B03041400060808005038DB42CE4E53B92B01000014020000310000006662782F4330303244
310
3944452D464639302D343034342D393035432D4438303441364536354635422F636F72652E786D6C8D515B6EC32010BC0AE2AB5585BD7E268E30519BC7097A0107488A1283C5A3CAF10BB523B57FF961D1ECCCEC68976EEFE30D7D4BEB94D13D2E32C0486A6E84D2971E077F266B8CB68C5A63FC1F1A467A18658F138C19BD
310
5813A605E2467BA97D44B511720107E7A4C788DFE2A7C78E7FC971C886E023C35DB369E0D7E122B3228BEDC863D4791B03A079487A31DB0194FB6E7F20C76307A486BA261D343BB25F43FDDE1EDAE6D87CD07C16321A82128B5C8918479D95B4CF9A2431A35E8D8FF8DCCAC14B8159094545A025E5EA13561B283755F506CD
310
A6029A27FA3F5198C493A2A0B4AFCA25EE2C739815349F1B8C0A134EB74718799F8CF528CD7B7192BF6206598C5540D3AD683E53E302A2675B2F9ECE1B1B17FC723D4576B518B735A379BA512CBF078C35DD93FD00504B03041400060808005038DB4274CBF9465501000033030000300000006662782F4330303244394445
310
2D464639302D343034342D393035432D4438303441364536354635422F636E782E786D6CBD93CD6E022114855F85B06DE6DFAA310C265DF409BAE89681AB52199800D3D4B7EF45D1BA71D1A4E9864CCE3D9C73F38561DBAFD1904FF0413BDBD3A6AC29012B9DD276DFD339EE8A35255BCEBC73F1CE46891523F434C994B3BD
310
77F39425053B319B88AAD1F698450FC1CD5E424039DD24C6496130006C31A308E3004A812237237EEDC0E32A280E27120F405E5FDE891B3E40C6C0AA94C259953A384B676EBA3351228D08A1A7411E6014A598A353108EA51251944D79ED7AB0D34F124917AE95B3D72495F7349D94E78D4AE4C82A1C7216A2477AD9144F13
310
502EA6C968292242AECEC68B87B359DBB85C64AF46F01EDD5DBB5CAF31EC3CE32CEA11B2437A101114E56DDD7445BD2CDAD55BBDDAD4EDA6EB9EEAE74D57B32AD9391B9C33F912C680771391CE46B091F2865569FC085FF611A53DB276FEF40B900820B75EE8DC32FE924FB3EC168B7FE4539DDF37E2F2F817F06F504B0304
310
1400060808005038DB42D9324763640700009A1B0000340000006662782F43303032443944452D464639302D343034342D393035432D4438303441364536354635422F6F626A656374732E786D6CED59DD73A33610FF5718FAD23E181BDBC9251D4227B12F379E36BD9B73EFA60F9E616490891A211849E4E2FEF55D7D8081
310
9804F7D2B73ED8809056BBBFFDD412FCF29451E71173417276E5FADEC475308BF384B0F4CA2DE56E74E13ABF8401CF73D998E63A0C65F8CA55C36E18A43C2F0B3B94E01D2AA9EC8CDEDEFCE9881833EC3A3145425CB922BEC719F25029F3048B072F411279E9EEC9F33D33B14D36E5A8B8EF102D10C74C02A730CE808A6398
310
F2DB8F13771C0663F53E0CD4BF9D351B346BDE3F6BACA56E7349989088C5CF58EA90990D6269E6CF97EFA76797A3B3F97C369A9F4FFDD1CDEDCD72E4BF9B4D16E78BC5E5F5FB4B606F9BE7D4CA94E002B304F4B777433F18AB37B5E81681635CC7396338D64002545AAC2E4182056CD5806FD27EF495448DD75AC2C6F35CBD
310
B72C3486676D2A7DB38601D1A20B82D8ED2A89AB6B53BE7CFB17082E861825175802B74272D0AE85878357B8E124189BD130D81E7441849321893941D4A164CB1107A5C05435250CCC024B46390707528E92406BCEBC6EDB1678E6EBAE738CCB5D49A9F20C37D48E1581FB61293467E46FCC0FDC3791019E40DA92307961B9
310
94FB02BBE16530D68361A02EB3A97D6980747614A5422362DE76045D28D75F2DDDF0D7DBEDD35A8583E39B173C2F3097CAE8941E355F60C8F6AA50B2DBFA8334A71680300654BBF200CA6740FE77881E0756406F9C3CCD9FE676AEE488895DCE33D08D33714613F89B38BEFE57F78DBB605C2F6E6BAF0F4F705305D5C5F7E3
310
D996416365F96FC019068F60F0399FD957EB1851B0E73BC2002065240ECD610842FB6EFBE4862B089C10E86115A2A10F2203BB8F701B8C2D9983562AF7B25EC70051BBC76C889200366D91C0468F9E3E40F6E0243EA8A929621FBC676F62AED7CBF5AFEB92EF508CEFAC4F2FF18E3022216B1E67A885794BA207BCFF96F304
310
047D8EF7BA897766B71280B6C25C019F5620A887C3CEAD0D625897E62ADC04AFEC0042A85CDDA07F47448C29450CE765B56F1DDD94A1D61E6F6B06379C1A8867D38E0973FC485455014E7398D16214F27ECC49A14074C30F46B23A687A3DD27D59FD0E1659CFEF99B562107A19A27FE8A0750487966557485B206A81B78770
310
1EE734E7D1761F9948E7422D016CB4BDE56B8B28C47AA32445053C48FB5D155252236D9490DDAE1410578FB0F875B5689AC3C49BF9674EF3BFE38C7388B6E0BB885BBFEBEC11910CA538DAA1A46FBBE66E356DA149F690E67847412EF248E43E42329A24383D059A93885FBE29F594E642108605E4ABA3E037D1987810488C
310
362B9695563B4013116558227A0A028A4C0FB83AEDE81A3786D2E1751E6BEB7D49634DA2FF91457004B564CE2202A528E4905719F7BD3388216D740DCA1D7CC1DA2ADA5A0C5A420911EFA36F98A4F7F214D40DF91EDC6338929432CA0B1483590F20FBCC5794523BBC6F51FCA0F2471497F4AD0C4460BA8B08A56516C18F30
310
38790C71ED3A30BD884283B8897D126750942159F2219B9C9F4D9EED636A866E086C6CB42314C27694A1A207F55640D4F58853836FA9F728755B664584B2BC64830CC59B75BDC992EFAA55911DC8AF2A15A16CAC085B82614098ACB36A15B3C1D475600537D2816A1F099415D49CC25E493C7EED4D9A72EF06DCFAE9DB6E90
310
41E1D7A3BD66449D5730581E5B8581F886647CEF866B7D1DDD40FD9DE0E490EAAB5AB3590102622A92979C58157D594179636B3437BC43526C3E98AC5B5DBFAC3CE87E04635803B54BBD70A580CE309348552677EA867E4610825B34CCF84AE5D453A85C2789AE1A11BD257DEA6C9511AD4D33E215F798E519FCD886B09896
310
09DEA0443C447792466BA258B7527A19A9307E51C08F1FD61D78606480489F548187BF75D6DAD1852A978E1291F765B6658840106C89961ADD78054BAD462A2DD75775A680BA0B0CCCAA78FEFFC9A2D98EF8FF64915AC3F8AE93C5CDFE37B46FF6451AE93C56767DD231A0CE4F8ACA5B1C0374DBA1A65A671193CCADFCD699
310
22088A55941F5C8D5541C310ECE3F85F67EDBE2C68B6EBF07F5AD6F69F551C276595D664D5A53A52B9AE9A39ECF6DDFB8BB3C9F4727471733D1DCD17F3B3D1E50C1AB4CBC5727A73F36E3E7F3F3BAFD1D48E1A067530D3B90B9E4D50AB86D593C500BAB222A72481D37CE2A41862BE8433FD80F639CFB080E4D96C7627B629
310
3F60F5A3E9734AB4A5B8E2E41E4183980A48EB805119CBF6B8F303B426251CB4AF5C681A790FF067ADD27520F35CB9D02A9024C6C2DB429B4935F4347148B93AF75B62800F62A94A896651FD5CAF52D8B4C27F3D65481AB072B57A1850B815D0FD6A7528346F96A7F824C12B761C24E1765B4AA8D68C2C87815A18BDCD41FD
310
46364AD883DDFA095CF765B17C4FCF692132E893C18B4660A88E24E2A9EE772BC62C4BD7CB4F63E8B339AB8F4E41CB1474399CD2886330E6521554604560159666812498EAE2E7CD279EC3279ECCD15591F3E3D3C5F94F9B459E653933439B6B389525F0A1C859DFC3679F6403C50356CD75B1994EFCE94637B56D9F3DDA22
310
813D5515C140554C28413A260776F9AC4165DB9763A58ACEF4D5D2B141149A01C68E9EF578CD472E077C487D4E511EA3FDBC92F6C5BEF6584F059BE0D0910EFF01504B03041400060800005038DB42000000000000000000000000350000006662782F43303032443944452D464639302D343034342D393035432D44383034
310
41364536354635422F76657274696365732E62696E504B03041400060808005038DB42F270F1330600000004000000360000006662782F43303032443944452D464639302D343034342D393035432D4438303441364536354635422F747269616E676C65732E62696E636660600000504B03041400060800005038DB420000
310
00000000000000000000370000006662782F43303032443944452D464639302D343034342D393035432D4438303441364536354635422F617474726962757465732E62696E504B03041400060808005038DB42D5987DFC8F00000041010000360000006662782F43303032443944452D464639302D343034342D393035432D
310
4438303441364536354635422F6469726563746F72792E786D6C858F410EC2201045AF4266AF15DDB800BA74E7C21B903225242D6328188F2FA5C4183471359997F9FF81E89FF3C41E1816475E02DF1F80A11FC8386F25A438EECEC07A250251FC3803E6F58C12560C4AD840E95E91C151A72936F496F35732D860FE635F62
310
C8F2DA16B505C545B74125BAA2FA9E05D7CC053D063734D5C7665FD55B6B8D15D5E9BFEAFD8490FFA45E504B03041400060808005038DB428E921417FD000000A00100003B0000006662782F43303032443944452D464639302D343034342D393035432D4438303441364536354635422F7265736F75726365732F636F7265
310
2E786D6C8D504B6E833010BD0A9A6D65B00D0D09328E52D11BF4029699102BC146FE543D7E4DA052BBEB6666F43E9AA727CE5FF3A3F8441F8CB33DB092428156BBD1D8A98714AFE408C5590AEF5CFC2583C2AA197B58619062F22E2D3BA49D8D686346AD1B7107550818A1D08F7CF410F40D6755AA14B322DCCB45E9BB9AB0
310
6465A6B34E8A107D0E506C4FD609D26370C96B0CA2DA58295232E3AE3163FE69AE063DC8E33B658C1E0672E174200D632D39D1A62187D31B6FDA766887FA22AAD52C4534F34F46ED51451C4172CA6A420F84B71FB4ED28EFEAFA85BE763515D52AFF634ACBF84F533236D67C8FBBD9024896833C0929AAB5AFBC9E65E6BD76
310
2BBF01504B010214000A00000800005038DB423DEE336E79000000790000001B00000000000000000000000000000000006175746F6465736B2D64657369676E2D7061636B6167652E786D6C504B010214001400060808005038DB42D486FD9CA0000000F40000001300000000000000000000000000B20000005B436F6E74
310
656E745F54797065735D2E786D6C504B010214001400060808005038DB429D393A8FEA0000007C010000080000000000000000000000000083010000636F72652E786D6C504B010214001400060808005038DB4255019EA25F0000007C000000070000000000000000000000000093020000636E782E786D6C504B01021400
310
1400060808005038DB42E73FD92066010000020300000C00000000000000000000000000170300006662782F636F72652E786D6C504B010214001400060808005038DB428CD0C88B7E0000009D0000000B00000000000000000000000000A70400006662782F636E782E786D6C504B010214001400060808005038DB42CE4E
310
53B92B0100001402000031000000000000000000000000004E0500006662782F43303032443944452D464639302D343034342D393035432D4438303441364536354635422F636F72652E786D6C504B010214001400060808005038DB4274CBF94655010000330300003000000000000000000000000000C80600006662782F
310
43303032443944452D464639302D343034342D393035432D4438303441364536354635422F636E782E786D6C504B010214001400060808005038DB42D9324763640700009A1B000034000000000000000000000000006B0800006662782F43303032443944452D464639302D343034342D393035432D443830344136453635
310
4635422F6F626A656374732E786D6C504B010214001400060800005038DB420000000000000000000000003500000000000000000000000000211000006662782F43303032443944452D464639302D343034342D393035432D4438303441364536354635422F76657274696365732E62696E504B0102140014000608080050
310
38DB42F270F13306000000040000003600000000000000000000000000741000006662782F43303032443944452D464639302D343034342D393035432D4438303441364536354635422F747269616E676C65732E62696E504B010214001400060800005038DB42000000000000000000000000370000000000000000000000
310
0000CE1000006662782F43303032443944452D464639302D343034342D393035432D4438303441364536354635422F617474726962757465732E62696E504B010214001400060808005038DB42D5987DFC8F000000410100003600000000000000000000000000231100006662782F43303032443944452D464639302D3430
310
34342D393035432D4438303441364536354635422F6469726563746F72792E786D6C504B010214001400060808005038DB428E921417FD000000A00100003B00000000000000000000000000061200006662782F43303032443944452D464639302D343034342D393035432D4438303441364536354635422F7265736F7572
310
6365732F636F72652E786D6C504B0506000000000E000E00800400005C1300000000
  0
XRECORD
  5
17
102
{ACAD_REACTORS
330
12
102
}
330
12
100
AcDbXrecord
280
     1
270
     1
271
     1
  0
XRECORD
  5
16
102
{ACAD_REACTORS
330
12
102
}
330
12
100
AcDbXrecord
280
     1
270
     1
271
     1
  0
XRECORD
  5
18
102
{ACAD_REACTORS
330
12
102
}
330
12
100
AcDbXrecord
280
     1
270
     1
271
     1
  0
XRECORD
  5
15
102
{ACAD_REACTORS
330
12
102
}
330
12
100
AcDbXrecord
280
     1
270
     1
271
     1
  0
XRECORD
  5
24
102
{ACAD_REACTORS
330
22
102
}
330
22
100
AcDbXrecord
280
     1
270
     1
271
     1
  0
XRECORD
  5
23
102
{ACAD_REACTORS
330
22
102
}
330
22
100
AcDbXrecord
280
     1
270
     1
271
     1
  0
XRECORD
  5
BA
102
{ACAD_REACTORS
330
22
102
}
330
22
100
AcDbXrecord
280
     1
 70
     1
 90
1959938040
 71
     1
  1
F8CE6B25-10C8-4695-B947-ED43CBF32282
311
504B03040A00000800004F38DB423DEE336E79000000790000001B0000006175746F6465736B2D64657369676E2D7061636B6167652E786D6C3C3F786D6C2076657273696F6E3D22312E302220656E636F64696E673D227574662D3822203F3E3C666F726D6174733E3C666F726D61743E687474703A2F2F736368656D612E
311
6175746F6465736B2E636F6D2F64657369676E2D7061636B6167652F323030393C2F666F726D61743E3C2F666F726D6174733E504B03041400060808004F38DB42D486FD9CA0000000F4000000130000005B436F6E74656E745F54797065735D2E786D6C7D8EC10E82300C865F65E91D8A1E8C310C0EEA1BF002731658846E
311
D98AC1B77784ABF1D8FE5FBFBF75BBCE937A534CCEB38643598122B6FEE978D0B0485F9C41B54DDD7D022595594E1A469170414C76A4D9A4D207E29CF43ECE46F218070CC6BECC4078ACAA135ACF422C856C0E68EA1BF5669944DDD7BCDE7B1F8E415D77AECB980613C2E4AC91FC167A2B244592486606FC29C8FD7F045B9A
311
EF7053A7E60B504B03041400060808004F38DB423BA239D4EB0000007C01000008000000636F72652E786D6C8D905B6EC3201045B782F8ADB079B4711261A2DA8E57D00D20202E4A0C168FAACB2F4E1CA9FDEB0F33BADC3333BAFCF43DDFC09709D17AD7425261088C535E5B37B530A70BDA4370123C789F7ED9207072362D
311
5C6528F8147C5E364979978C4B45755E9B4D94319A0481BA95A685517D9A595632A7E288D76A91EA2A2753916757E09CAD068F25569779F6624D80828E8C92E13C223CB006BD8EFB0EBD777D8F28E94676DE0D1D3BF4BC5E61C1939D9FFB553032195D784C18C23B449B0FDC1C313D32FC82DFCACBEBD5FE07CA8BFE2794AD
311
4B8C6EE73EB008052987DC3F04AFD72C4AB90755EA9A9BF801504B03041400060808004F38DB4255019EA25F0000007C00000007000000636E782E786D6C4DCB3B0E80201045D1AD90E915ED2CF8AC45050C11660C8261F98AB1B07AC9C97D42D718D865D3E909258CFD00CCE24AC6E326A164D74DC0B4128928FF32603847
311
2BA13128B1252AC747C6BAB984FC68F0B87FE8960A5C09FE86CFB69FBA01504B03041400060808004F38DB426E2697C067010000020300000C0000006662782F636F72652E786D6C8D52ED8E8230107C95A67F2FD0029E7AA6D41C2A4F702F50A1728DD092D2121FFF960FC379B91843529A999DDDD901B6BF3535EAA5ED94
311
D1298E428A91D4852995AE52ECDD25D862B4E7CC1AE37E9561A44523533CC098B3CA1ADFCE5061B493DA01AA4D296750749D741815355C52DC15DFB211A1F00E2ABA6BD88AE22A2A194621D050C759E72C1840D390E1C4FC72BE3132E19C79AFCA9955254C5317252DE6719EC4D1F19407F4986C8255BECD82CFEC7008E228
311
CB93D3FA98251F07460631674E3577778595C2C912F4344A02BA0EE2CD17DDEC68BC4BE81B7D879391A1FC41E4DBF2459157DA25F16C7792759847606424FE6C0B1139D4891EFC10CEC81022BCC6841F838640206427CEF57D8F2B40BD2C9CB12B604AE317AA17B5973095A2F1616462A1F3D80036FBB74FFCA4CFF31EF001
311
85AEC09A70703D7B374C67D3D4398A56DAA07737A48D6D44BD989B2C2EE732E85F79616A635F5193795532874986BF97FF00504B03041400060808004F38DB421A2473337D0000009D0000000B0000006662782F636E782E786D6C4DCCD10A83201886E15B91FFDC655AE0400DAD761FB12C64A6C3E9D8E5AF46073BFAE0E1
311
E315DD67F3E86DD3CBC520A1BE104036DCE3ECC22AA1E40573409D1229C6FC770314A6CD4A38189458532CCF9366BB4CC5E75DBD0B8F13196F096B4D83AF7CA0B831378335197B3C104D7ACDC69A52039512D5AFB4EF11565F504B03041400060808004F38DB424A0DBFA52C01000014020000310000006662782F33383530
311
333542342D393844322D344246422D413045432D4430413043413345313232422F636F72652E786D6C8D515B6EC32010BC0AE22B55850DD88E9D0813C5497A825E80D8244589C1E251E5F885DA91DABFFCB068766676B4CB768FF10EBEA575CAE816920C4320756F06A5AF2D0CFE821A08769C5963FC1F1A045A8CB2850986
311
9C5DAD09D302F5467BA97D44B519E4020AE7A487A0BFC74F0B5DFF25479189E023C3DDB249F437719519C9623BF23873DEC600601E925EC88BA6C245D59568D31C292ABB8F0EEDF1E9808E788F0FFBE24428ED583E0B390B410D8B5C0D318EBA28695F354962CEBC1A9FF17B2B859703E4149302E135A2F527AEB7986E0BFC
311
8EABF8B23CD1FF89C234BC280A4AFB822E716799839CB07C6E70369870BE3FC3C8C764AC0769DECAC9FE0D729C6142CB72D3D42C9FA97101D1735D2E9ECE1B1B17BCBA9D239B54B3F1BAE42C4F378AE5F780B1A67BF21F504B03041400060808004F38DB421153BAC34D01000033030000300000006662782F333835303335
311
42342D393844322D344246422D413045432D4430413043413345313232422F636E782E786D6CD593BB6E023110457FC5721BED130211F21A2945BE20455AAF3D8083D75EF91185BFCF180CA1A1489966B4BA7367EEE8C8CBB6DF93215FE0837676A05DDD5202563AA5ED7EA029EEAA174AB69C79E7E29D8D122B2618689629
311
677BEFD25C24053B914C44D5687B2CA287E092971050CE93C438290C2E005B2514611A412950E466C4AF1D783C05C5F144E201C8DBEB0771E327C8185893B770D6E40CCE722D4977264AA411210C34C8034CA216293A05E1582B1145DDD5D7AC0737FD6E2279E01A99BC26397CA0B9525E2EAA91236BB0C959881EE915533C
311
CD40B99867A3A58808B9391B2F1ECE92B671B52C5E8DE03DBABBD562B9C465E71E67514F501CD28388A028EFDB6E51B5ABAA5FBFB7EB4DDB6F16ED53FB8C9535D9CED9E89C2943B806BC9B897436828D9477ACC9ED47F88A8F28ED91B5F3A73F80440025F542E7B6E33FF369CEEF1B7179FC0BF80F504B0304140006080800
311
4F38DB42E50A1D17A505000080100000340000006662782F33383530333542342D393844322D344246422D413045432D4430413043413345313232422F6F626A656374732E786D6CAD57DB6EDB3810FD1541FBB2FBE08B6C2775168A8AC44E0AA3485BD468B10F060C4AA2146E2851A0A8C4D9AFDF43919225D74EBD8BBE58
311
16351CCE9C3973A1FF7E9771E799CA9289FCDAF58663D7A179246296A7D76EA592C1DC75DE07BE144275C45C272719BD76F5B21BF8A914556197629A908AAB83D5FBDBBF9C32A239759D8893B2BC76CBE8916664482A25625A3E0D63A2C8304D76436F6804FB6A53498AC703A505913457B014EB39B438C628AFFF3A764781
311
3FD2DF035FFF5AA9E969A951ED4FFF7C96978AE4D10F871DA8997AB3E5DDE4E26A70319B4D07B3CB8937B8BDBF5D0EBC77D3F1E272B1B8BAB9BBC2C1A592D0642D913471830FC046B2C81F994F815FB15C4D2756C4066824E933D391728389E3F92323D37A679D3C667E24F29C46355640A3F6CFAA8E6941F3183167B48465
311
1D84C6FD574FE3D8F93CD5EFF6C8EEF279087477741435B637CFAEA522FC1B2E94E73048965433D060691D355C1DEF110E85E0F61B2B9D8C282A19E10E67A124F2D50D20AA4502BFA7463359EA6CD01EB801A2603EF7E98234FA39CF8F5999549C6B1ABB419D055BE40A55656D19FB87CABDF55D64601362A5D930B70EA9D7
311
82BAC195A1C8FC804D064827E12445C8E1A6DE399D1C38BAD079BA5ABAC1C7FB70B7D6B97BFCF0428A824AA5E9036A35816B9E1A256B937756E4F406F7C0943D285F81FC27A4FADE14C44DB2DD6C37B3A72849F2321132436C9CB13318E367EC78F5AFFEDFF9E78FDACDFDE89DC213C1D650FD023CFB3E7463D98133F09F41
311
7821A7D6B5754438CAC603CB01902689C3059650879370E7062B54395465EC223CF0E032CC7DC65F7F64D5A050D427759E39B03C288B671468C05633126618F25B03F771FAA19CD5075BB153F05EFC12BADE2CD71FD7954C48441F6C4E2F69C272A6D0E2F6BCE91AD4C3BCE7D1137D7D113286A33FE2BDEEE29DD9A34AA0AD
311
31D7C0A74D4DD72FFB937B0744D8970A5D6EFC9F9C00277463EDE87F606544392739155573EE9BFD036DC340AC935D33B96D30FBC602D2982F073988261D49566810DB6ED516CDE109EFBEAD3E819190E722247C2F14EE4B6F24B890DBF0756BAAD251A4BFF7A96D2118692D607B9D234DFA5BCCB7314B92AA440D3C02EBF7
311
D5A21B3A5D1550211AAD265966701FB945A4E56CA317CD5A123452916F19DA26D2EEE8015DFD40D412A05678CAE292F264CB38AFB26DC2389AD13623C50938FEBFFD6195155B92892A572774F74C4773E8DBDE236FF94254F4E806EBFA39B845E98D69BC0F734F58B7922358F5427B3F5FDC5DDE4E2E06DE7831C7F8747531
311
B8BD9ABD1BDC2D67D3C5EDFD7432994F9A3819E581DF749A6E42234AE86C7E25990DDFB715D2C7D600377820AADC7C30D9D93CBFAD861885FD11F6A05DB61B6FE2678C7D34FEB982BDE45145ABACE034A3B9223A851EF41FFE9560CCE81963D6571949E9195A3E7F581F38839533F67DD1E94E5F0EF6DAD5854EC8A34AD463
311
95853961FC60636A901C16796AF16B62D23E4D9F695EF59B0D0C06D3527016A30CC64E4A4546158AE1193D4866B404F5BA237D6CAF1E67EC7E3603A22221A78D258F0433322F9116A05615A9FEBAF31B663A3D565DBBE8B6C327FCD84AE13AE0CCB58B195DB18896C310FD594F42B57270A93BC863EE2779CA316A9B4DED7B
311
BB4B63D3EBC8ADC839E393F5CB5470EB00CA4881B101F310A2531B13F8B56DF67BF49F1C6FCC7188C2DFB052AD2FFB85D699FA18A4A871CA5E1630C33CD9A37748D4B7DDF286B54C0F91B32E596F92C0681D2822D3FAA2A0EDB326DD2CBF8C30A038ABCF4EC1AB14B13C5FD3405290B9D2090E16811556674114A8BAF873F3
311
450A5C6433E79E8102CEEFBBF9E51F9B85C832919BA5CD8DBD0E3BEB475C6EE30D8A03D5B7927233197B934D7D1BB017946D484A3A2471F984054456B216E85EF8C14B7365441F321F5AB9910EC50143574BC736B619945ABA746BAB060773474E1DE490BE51EA8CE90A146F5E0846B5284C9018E5837F01504B0304140006
311
0800004F38DB42000000000000000000000000350000006662782F33383530333542342D393844322D344246422D413045432D4430413043413345313232422F76657274696365732E62696E504B03041400060808004F38DB42F270F1330600000004000000360000006662782F33383530333542342D393844322D344246
311
422D413045432D4430413043413345313232422F747269616E676C65732E62696E636660600000504B03041400060800004F38DB42000000000000000000000000370000006662782F33383530333542342D393844322D344246422D413045432D4430413043413345313232422F617474726962757465732E62696E504B03
311
041400060808004F38DB42D5987DFC8F00000041010000360000006662782F33383530333542342D393844322D344246422D413045432D4430413043413345313232422F6469726563746F72792E786D6C858F410EC2201045AF4266AF15DDB800BA74E7C21B903225242D6328188F2FA5C4183471359997F9FF81E89FF3C4
311
1E1816475E02DF1F80A11FC8386F25A438EECEC07A250251FC3803E6F58C12560C4AD840E95E91C151A72936F496F35732D860FE635F62C8F2DA16B505C545B74125BAA2FA9E05D7CC053D063734D5C7665FD55B6B8D15D5E9BFEAFD8490FFA45E504B03041400060808004F38DB42534864E5FD000000A00100003B000000
311
6662782F33383530333542342D393844322D344246422D413045432D4430413043413345313232422F7265736F75726365732F636F72652E786D6C8D50596EC32010BD0AE2B7C2C6A64DD20813D5DB097A0184272E4A0C164BD5E31762576AFFFA33337A8BE6E9F1CBD772479FE0BCB6A6C155413102A3ECA4CDDCE018AEE4
311
84D14570676DF825C3C8C8051A9C612CF8EC6C5C77485913C084841A3BC10E4AEF2160A4EEE968B0571FB0C842C69014FE56AC52DDE40C4555243AE904F7C1A500687B9227160EBC8D4E81E7E5C60A1EA39E768D9ED24F7DD5E0B0A8475657FD3010DAB323791E4F2D796BBB8ED4553BB2E1D0B7ECB5E365360B1EF4F29351
311
399001A6E4A71523F440EAE33B3D9E697D66F489BEA4C9CB2CFF638AEBF44F53D426B07A8FBBD93C16550AF220042F735F693DCA4C3B772BBE01504B010214000A00000800004F38DB423DEE336E79000000790000001B00000000000000000000000000000000006175746F6465736B2D64657369676E2D7061636B616765
311
2E786D6C504B010214001400060808004F38DB42D486FD9CA0000000F40000001300000000000000000000000000B20000005B436F6E74656E745F54797065735D2E786D6C504B010214001400060808004F38DB423BA239D4EB0000007C010000080000000000000000000000000083010000636F72652E786D6C504B0102
311
14001400060808004F38DB4255019EA25F0000007C000000070000000000000000000000000094020000636E782E786D6C504B010214001400060808004F38DB426E2697C067010000020300000C00000000000000000000000000180300006662782F636F72652E786D6C504B010214001400060808004F38DB421A247333
311
7D0000009D0000000B00000000000000000000000000A90400006662782F636E782E786D6C504B010214001400060808004F38DB424A0DBFA52C0100001402000031000000000000000000000000004F0500006662782F33383530333542342D393844322D344246422D413045432D4430413043413345313232422F636F72
311
652E786D6C504B010214001400060808004F38DB421153BAC34D010000330300003000000000000000000000000000CA0600006662782F33383530333542342D393844322D344246422D413045432D4430413043413345313232422F636E782E786D6C504B010214001400060808004F38DB42E50A1D17A505000080100000
311
3400000000000000000000000000650800006662782F33383530333542342D393844322D344246422D413045432D4430413043413345313232422F6F626A656374732E786D6C504B010214001400060800004F38DB4200000000000000000000000035000000000000000000000000005C0E00006662782F33383530333542
311
342D393844322D344246422D413045432D4430413043413345313232422F76657274696365732E62696E504B010214001400060808004F38DB42F270F13306000000040000003600000000000000000000000000AF0E00006662782F33383530333542342D393844322D344246422D413045432D4430413043413345313232
311
422F747269616E676C65732E62696E504B010214001400060800004F38DB420000000000000000000000003700000000000000000000000000090F00006662782F33383530333542342D393844322D344246422D413045432D4430413043413345313232422F617474726962757465732E62696E504B010214001400060808
311
004F38DB42D5987DFC8F0000004101000036000000000000000000000000005E0F00006662782F33383530333542342D393844322D344246422D413045432D4430413043413345313232422F6469726563746F72792E786D6C504B010214001400060808004F38DB42534864E5FD000000A00100003B000000000000000000
311
00000000411000006662782F33383530333542342D393844322D344246422D413045432D4430413043413345313232422F7265736F75726365732F636F72652E786D6C504B0506000000000E000E0080040000971100000000
310
504B03040A00000800004F38DB423DEE336E79000000790000001B0000006175746F6465736B2D64657369676E2D7061636B6167652E786D6C3C3F786D6C2076657273696F6E3D22312E302220656E636F64696E673D227574662D3822203F3E3C666F726D6174733E3C666F726D61743E687474703A2F2F736368656D612E
310
6175746F6465736B2E636F6D2F64657369676E2D7061636B6167652F323030393C2F666F726D61743E3C2F666F726D6174733E504B03041400060808004F38DB42D486FD9CA0000000F4000000130000005B436F6E74656E745F54797065735D2E786D6C7D8EC10E82300C865F65E91D8A1E8C310C0EEA1BF002731658846E
310
D98AC1B77784ABF1D8FE5FBFBF75BBCE937A534CCEB38643598122B6FEE978D0B0485F9C41B54DDD7D022595594E1A469170414C76A4D9A4D207E29CF43ECE46F218070CC6BECC4078ACAA135ACF422C856C0E68EA1BF5669944DDD7BCDE7B1F8E415D77AECB980613C2E4AC91FC167A2B244592486606FC29C8FD7F045B9A
310
EF7053A7E60B504B03041400060808004F38DB42AD47257EEB0000007C01000008000000636F72652E786D6C8D904D6EC3201085AF82665B61631BE74F98A8B4F6097A0104C44589C13250F5F8C58923B5BB6E98D1E37D33A3C7CEDFD30D7D992558EF3AA80A02C838E5B5756307295EF001D099B3C5FBF8CB06C8C9C974B0
310
CAC0D9B8F8346F92F22E1A17B3EABC369B2843301190BAE5A683A03ECD240B996276846B314B7595A329AA6797E194AC468F2556E779F662CD02FCBD11474ADF047EA5C703A6643760D18B1AD3965443DF0E42F494952BCC59B4D373BF5A8C8C4603AF49D560B2C3F5FE83EC4FA43E35E485B4F965E56AFF03A559FF134AD6
310
C5A6DECE7D600178950FB97F7056AE59E4720F2AD73537FE03504B03041400060808004F38DB4255019EA25F0000007C00000007000000636E782E786D6C4DCB3B0E80201045D1AD90E915ED2CF8AC45050C11660C8261F98AB1B07AC9C97D42D718D865D3E909258CFD00CCE24AC6E326A164D74DC0B4128928FF32603847
310
2BA13128B1252AC747C6BAB984FC68F0B87FE8960A5C09FE86CFB69FBA01504B03041400060808004F38DB4264CFFD1966010000020300000C0000006662782F636F72652E786D6C8D52D96E833010FC15CBAF15D81C39651C9536F982FE80030E45011BF940F9FC2E47445345518564AC999DDDD90176B8B50DEAA5B1B556
310
198E428A9154852E6B5565D8BB4BB0C5E8C099D1DAFD2AC3488956667880316795D1BE9BA1422B27950354E952CEA0B0563A8C8A062E19B6C5B76C4528BC830A7B0D3B515C4525C328041AEA38B3CE8001340D194ECC2FE71B2313CE99F77539B37509D3EA4B2D0DE69F49BE4BD38F3C784F77DB20A5EB53901FF338485734
310
3A1D57A73C3FA68C0C62CE5CDDDEDD15460A274BCC631A25015D07F1E68B6EF634DE27F48DAEE06464287F10F9AEFCA7C8D7CA25F16C779259CC233032127FB685881CB2A2073F8433328408AF31E1C7A0211008D9897373DFE30A502F0BA74D0A4CA9FD42F5A2F112A652343E8C4C2C741E1BC0664FFBC42FFABCEE011F50
310
A80AAC0907D7B377C374364D9DA3E8A4097A77434A9B56348BB9C9E2722E839ECA0BDD68F31F35995725739864F87BF90F504B03041400060808004F38DB42465383AC7E0000009D0000000B0000006662782F636E782E786D6C4DCCDF0A83201C86E15B91DFB96B957F26A891B0EE239685CC74381D5DFE6A74B0A30F1E3E
310
5ED96DAB471F9BDE2E0605F5E50AC886479C5C5814943CE31BA04ECB1463FEBB010AE36A151C0C5A2E2996D749939DC7E2F3AEDE85E789A66E29E58661D31381494308168368704BEE9C32CA06C119545A56BFD2BE47587F01504B03041400060808004F38DB420893945F2A01000014020000310000006662782F42313335
310
353742362D424134392D343234342D394639322D3334453735363536463937362F636F72652E786D6C8D515B6EC32010BC0AE22B55651B1B6CC711266AA4E604BD8003244189C1E251E5F85DD78ED4FEE58745B333B3A35DBE7F8C77F4AD7D30CEF6B8CC0946DA4AA78CBDF438C573B6C5682FB8772EFEA161648751F77886
310
B1E017EFD2B442D2D9A86D04D43AA557700841478CE41D3E3D0EF2AAC7211F520446B8E5D3206FC345E7650E6DE0091EA28700681932BF581C4A5AD7EDA1C90E1FACCB58C558D61DBB2AA3ECB3AD9BBA39766DC38B4528784A46AD72A3208E391BED5F3599C58247333EE34BAF87A81516152969469AAC6ABF48BB23D58E92
310
7752C3CB8B99FE4F9426F5A228191B69B5C65D64018B92174B4370E5D2E9FE0CA31F93F311CDF33641CB372C480EB1CA2D6194170B1516009E0D5B3D43741E16BCB99D804D57E386095ECC3782F27B40A8F33DC50F504B03041400060808004F38DB4277F475D45501000033030000300000006662782F4231333535374236
310
2D424134392D343234342D394639322D3334453735363536463937362F636E782E786D6CBD93CF6E022110C65F85706DF6BF5563584C7AE813F4D02B0BA35259D800DBD4B7EFA068BD7868D2F432D97CF3CD7C935F58B6FD1A0DF9041FB4B33D6DCA9A12B0D2296DF73D9DE3AE5853B2E5CC3B17EF6C945831424F934C39DB
310
7B374F5952B013B389A81A6D8F59F410DCEC250494D324314E0A830BC016338A300EA014287233E2D70E3C9E82E27022F100E4F5E59DB8E103640CAC4A5B38AB520667A9E6A43B1325D288107A1AE40146518A393A05E1582A1145D994D7AC0737FD6C2269E01A397B4D52784F53A53C5F542247566193B3103DD2CBA6789A
310
8072314D464B11117275365E3C9CCDDAC6E5227B3582F7E8EEDAE57A8DCBCE3DCEA21E213BA407114151DED64D57D4CBA25DBDD5AB4DDD6EBAFAA97EC6CAAA64E76C70CEE4215C03DE4D443A1BC146CA1B56A5F6237CD94794F6C8DAF9D32F4022809C7AA173DBF1977C9A65B758FC239FEAFCBE1197C7BF807F03504B0304
310
1400060808004F38DB42DF63377361070000991B0000340000006662782F42313335353742362D424134392D343234342D394639322D3334453735363536463937362F6F626A656374732E786D6CED595B73A33614FE2B0C7D691F8C8DED64930EA1933897F1EC647767DDDDE98367181964A246084612B9F4D7F7E8020662
310
12DC4DDFF6C106847474CE77AE3A047F3C65D479C05C909C9DB9BE37711DCCE23C212C3D734BB91D9DB8CE1F61C0F35C36A6B90E43193E73D5B01B0629CFCBC20E25788B4A2A3BA3D7177F3922C60CBB4E4C911067AE88EF70863C54CA3CC1E2DE4B90445EBA7DF27CCF4C6C934D392AEE3A440BC43193C0298C33A0E218A6
310
FCF6E3C41D87C158BD0F03F56F67CD06CD9AF7CF1A6BA9DB5C12262462F10B963A646683589AF9F3CBABE9D1E9E8683E9F8DE6C7537F74717D7139F23FCC268BE3C5E2F4FCEA14D8DBE439B53225B8C02C01FD3DBBA11F8CD59B5A748BC03EAEE39C311C6B20012A2D569720C102B66AC037693FFA4AA2C66B2D61E379AEDE
310
5B161AC3B33695BE59C38068D10541EC7695C4D5B5295FBEF91B0417438C920B2C815B213968D7C2C3C12BDC70128CCD68186C76BA20C2C990C49C20EA50B2E188835260AA9A1206668125A39C8303294749A035675EB76D0B3CF36DD7D9C7E5B6A45479861B6AC78AC0FDB0149A33F20FE63BEE9BC8004F206D49983CB15C
310
CAE702BBE16930D68361A02EB3A97D698074B614A5422362DE76045D28D75F5EBAE1C7EBCDD34A8583FD9B173C2F3097CAE8941E355F60C8F6AA50B2DBFA8334A71680300654BB7207CA5740FE13448F1D2BA0374E9EE64F733B5772C4C436E719E8C69938A309FC4D1C5FFFABFBC65D30AE17B7B5D78727B8A982EAE4C7F1
310
6CCBA0B1B2FC37E00C830730F89CCFECAB558C28D8F32D610090321287E63004A17DBB7972C325044E08F4B00AD1D0079181DD07B80DC696CC4E2B957B59AF6380A8DD63364449009BB64860A3474F37903D3889776A6A8AD807EFD1BB98EBF9E5EAE3AAE45B14E35BEBD397784B18919035F733D4C2BC25D13D7E7ECC7902
310
82BEC47BD5C43BB35B09405B61AE804F2B10D4C36EE7D60631AC4B73156E823776002154AE6ED0BF2522C6942286F3B2DAB78E6ECA506B8FB735831B4E0DC4B369C784397E20AAAA00A7D9CD68310A793FE6A45020BAE18D91AC0E9A5E8F74DF969FC022EBF93DB3960C422F43F44F1DB4F6E0D0B2EC0A690B442DF06617CE
310
E39CE63CDA3C4726D2B9504B001B6D6FF9DE220AB1DE284951010FD27E578594D4481B2564BB2D05C4D53D2C7E5F2E9AE630F166FE91D3FCEF38E31CA22DF82EE2D6EF3A7B442443298EB628E9DBAEB95B4D5B68923DA439DE52908B3C10F91C21194D129C1E02CD41C44FDF957A4A732108C302F2D55EF09B684C3C082446
310
9B15CB4AAB1DA08988322C113D040145A6075C9D76748D1B43E9F0368FB5F5BEA6B126D1FFC92238825A32671181521472C89B8CFBDE11C49036BA06E50EBE606D156D2D062DA184889FA3474CD23B7908EA867C0FEE311C494A19E5058AC1AC07907DE12B4AA91DDE3728BE57F9238A4BFA5E062230DD4684D2328BE04718
310
9C3C86B8761D985E45A141DCC43E893328CA902CF9904D8E8F262FF631354337043636DA120A613BCA50D1837A2B20EA7AC4A9C1B7D47B94BA29B32242595EB24186E2CDBADE64C977D5AAC80EE457958A503656842DC130204CD659B58AD960EA3AB0821BE940F51C099415D49CC2DE483C7EED4D9A72EF06DCFAE9FB6E90
310
41E1D7A3BD66449D5730581E5B8581784432BE73C395BE8E2EA0FE4E70B24BF555ADD9AC00013115C94B4EAC8ABE2DA1BCB1359A1BDE2229D63726EB56D76F4B0FBA1FC118D640ED522F5C2AA033CC245295C9ADBAA15F1184E0160D33BE5439F5102AE749A2AB4644AF499F3A5B65446BD38C78C51D6679063FB6262CA665
310
82D72811F7D1ADA4D18A28D6AD945E462A8C5F15F0F3CDAA030F8C0C10E98B2AF0F06367AD1D5DA872692F117957661B860804C19668A9D18D57B0D46AA4D2727D55670AA8BBC0C0AC8AE73F4F16CD76C4CF93456A0DE3C74E1634DF20BA8B368D6C1E2BB33EE81450A72745E53D4E01BAEB5053AD9388C9E5567CEB4B11C4
310
C42AC80F2EC6AA986108F671FC9F93765F1234DB75F83F2C69FB2F0A8E83924A6BB26A52ED295C97CD14767DB2B83ABE981E8DFCC9E204FAB3A747A38BD3F987D1D5E57CB6B8B89E4DA727752636C4C3A08E653A75C1B38969D5B07AB218405356E4942470984F9C1443C89770A41FD03DE71916903B9BBDEEC4F6E407AC7E
310
306D4E893614579CDC21E80F5301591DC42863D91E777E81CEA48473F6990B3D23EF1EFEAC55BA0E249E33173A0592C458781BE832A97E9E260E1957A77E4B0CE21862A9CA886651FD5CAF52D8B4A27F3D654816B072B55A1850B715D0FC6A3528346F96A7F820C12B761C24E176534A28D68C2CBB815A18BDCD4EFD46364A
310
D8BDDDFA095CF775B17C4FCF692132E88BC1AB4660A88E24E2A96E772BC62C4BE7975FC6D06673969F9D829629E87238A511C760CCA5AAA7C08AC02A2CCD024930D5C5EFEB2F3C872F3C99A38B22E7D7A793E3DFD68B3CCB726686D6E770284BE03B91B3BA83AF3EC91A6A07AC7AEB623D9DF8D3B5EE69DB367BB441027BAA
310
288281AA965082744C0EECF2457FCA762FC74A159DE9CB4BC70651E805183B7AD1E235DFB81CF021F53545798CF6F34ADA57DBDA633D156C8243433AFC17504B03041400060800004F38DB42000000000000000000000000350000006662782F42313335353742362D424134392D343234342D394639322D33344537353635
310
36463937362F76657274696365732E62696E504B03041400060808004F38DB42F270F1330600000004000000360000006662782F42313335353742362D424134392D343234342D394639322D3334453735363536463937362F747269616E676C65732E62696E636660600000504B03041400060800004F38DB420000000000
310
00000000000000370000006662782F42313335353742362D424134392D343234342D394639322D3334453735363536463937362F617474726962757465732E62696E504B03041400060808004F38DB42D5987DFC8F00000041010000360000006662782F42313335353742362D424134392D343234342D394639322D333445
310
3735363536463937362F6469726563746F72792E786D6C858F410EC2201045AF4266AF15DDB800BA74E7C21B903225242D6328188F2FA5C4183471359997F9FF81E89FF3C41E1816475E02DF1F80A11FC8386F25A438EECEC07A250251FC3803E6F58C12560C4AD840E95E91C151A72936F496F35732D860FE635F62C8F2DA
310
16B505C545B74125BAA2FA9E05D7CC053D063734D5C7665FD55B6B8D15D5E9BFEAFD8490FFA45E504B03041400060808004F38DB42C5AD784FFD000000A00100003B0000006662782F42313335353742362D424134392D343234342D394639322D3334453735363536463937362F7265736F75726365732F636F72652E786D
310
6C8D50596E833010BD0A9ADFCA60C0649371145A72825EC032136A25D8C84BD5E3D7042AB57FFD9919BD45F3F4F8F96B7A649FE8BCB6A68532A790A15176D0666C21861B39407616DC591B7EC9203372C2161618041F9D8DF306296B029A90506307DC40E93D06C8D4231D2D78F58193CC650C49E1EFF92CD55D8E989779A2
310
934E701F5C0A90AD4F9609C2A1B7D129F4BC5859C163D4C3A6D143FAA96F1A1D88B7BA3B32F67A2117763C10467757D2F55D455843CB6BDF5CBBAE67BC58CC82073DFD64540E65C0014445CB9AD01DA9F6EF747FA2D5A9A62FB44993178BFC8F29CEC33F4D519B50575BDCD5E6419429C89310BC58FA4AEB5966DA4BB7E21B
310
504B010214000A00000800004F38DB423DEE336E79000000790000001B00000000000000000000000000000000006175746F6465736B2D64657369676E2D7061636B6167652E786D6C504B010214001400060808004F38DB42D486FD9CA0000000F40000001300000000000000000000000000B20000005B436F6E74656E74
310
5F54797065735D2E786D6C504B010214001400060808004F38DB42AD47257EEB0000007C010000080000000000000000000000000083010000636F72652E786D6C504B010214001400060808004F38DB4255019EA25F0000007C000000070000000000000000000000000094020000636E782E786D6C504B01021400140006
310
0808004F38DB4264CFFD1966010000020300000C00000000000000000000000000180300006662782F636F72652E786D6C504B010214001400060808004F38DB42465383AC7E0000009D0000000B00000000000000000000000000A80400006662782F636E782E786D6C504B010214001400060808004F38DB420893945F2A
310
0100001402000031000000000000000000000000004F0500006662782F42313335353742362D424134392D343234342D394639322D3334453735363536463937362F636F72652E786D6C504B010214001400060808004F38DB4277F475D455010000330300003000000000000000000000000000C80600006662782F423133
310
35353742362D424134392D343234342D394639322D3334453735363536463937362F636E782E786D6C504B010214001400060808004F38DB42DF63377361070000991B000034000000000000000000000000006B0800006662782F42313335353742362D424134392D343234342D394639322D333445373536353646393736
310
2F6F626A656374732E786D6C504B010214001400060800004F38DB4200000000000000000000000035000000000000000000000000001E1000006662782F42313335353742362D424134392D343234342D394639322D3334453735363536463937362F76657274696365732E62696E504B010214001400060808004F38DB42
310
F270F13306000000040000003600000000000000000000000000711000006662782F42313335353742362D424134392D343234342D394639322D3334453735363536463937362F747269616E676C65732E62696E504B010214001400060800004F38DB420000000000000000000000003700000000000000000000000000CB
310
1000006662782F42313335353742362D424134392D343234342D394639322D3334453735363536463937362F617474726962757465732E62696E504B010214001400060808004F38DB42D5987DFC8F000000410100003600000000000000000000000000201100006662782F42313335353742362D424134392D343234342D
310
394639322D3334453735363536463937362F6469726563746F72792E786D6C504B010214001400060808004F38DB42C5AD784FFD000000A00100003B00000000000000000000000000031200006662782F42313335353742362D424134392D343234342D394639322D3334453735363536463937362F7265736F7572636573
310
2F636F72652E786D6C504B0506000000000E000E0080040000591300000000
  0
XRECORD
  5
27
102
{ACAD_REACTORS
330
22
102
}
330
22
100
AcDbXrecord
280
     1
270
     1
271
     1
  0
XRECORD
  5
26
102
{ACAD_REACTORS
330
22
102
}
330
22
100
AcDbXrecord
280
     1
270
     1
271
     1
  0
XRECORD
  5
28
102
{ACAD_REACTORS
330
22
102
}
330
22
100
AcDbXrecord
280
     1
270
     1
271
     1
  0
XRECORD
  5
25
102
{ACAD_REACTORS
330
22
102
}
330
22
100
AcDbXrecord
280
     1
270
     1
271
     1
  0
XRECORD
  5
B12
102
{ACAD_REACTORS
330
B11
102
}
330
B11
100
AcDbXrecord
280
     1
102
ACAD_ROUNDTRIP_2012_MLEADER_STYLE
298
     1
  0
CELLSTYLEMAP
  5
B10
102
{ACAD_REACTORS
330
B0F
102
}
330
B0F
100
AcDbCellStyleMap
 90
        3
300
CELLSTYLE
  1
TABLEFORMAT_BEGIN
 90
        5
170
     1
 91
        0
 92
    32768
 62
   257
 93
        1
300
CONTENTFORMAT
  1
CONTENTFORMAT_BEGIN
 90
        0
 91
        0
 92
      512
 93
        0
300

 40
0.0
140
1.0
 94
        5
 62
     0
340
55
144
0.25
309
CONTENTFORMAT_END
171
     0
 94
        0
309
TABLEFORMAT_END
  1
CELLSTYLE_BEGIN
 90
        1
 91
        1
300
_TITLE
309
CELLSTYLE_END
300
CELLSTYLE
  1
TABLEFORMAT_BEGIN
 90
        5
170
     1
 91
        0
 92
        0
 62
   257
 93
        1
300
CONTENTFORMAT
  1
CONTENTFORMAT_BEGIN
 90
        0
 91
        0
 92
      512
 93
        0
300

 40
0.0
140
1.0
 94
        5
 62
     0
340
55
144
0.18
309
CONTENTFORMAT_END
171
     0
 94
        0
309
TABLEFORMAT_END
  1
CELLSTYLE_BEGIN
 90
        2
 91
        1
300
_HEADER
309
CELLSTYLE_END
300
CELLSTYLE
  1
TABLEFORMAT_BEGIN
 90
        5
170
     1
 91
        0
 92
        0
 62
   257
 93
        1
300
CONTENTFORMAT
  1
CONTENTFORMAT_BEGIN
 90
        0
 91
        0
 92
      512
 93
        0
300

 40
0.0
140
1.0
 94
        2
 62
     0
340
55
144
0.18
309
CONTENTFORMAT_END
171
     0
 94
        0
309
TABLEFORMAT_END
  1
CELLSTYLE_BEGIN
 90
        3
 91
        2
300
_DATA
309
CELLSTYLE_END
  0
ENDSEC
  0
EOF
