  0
SECTION
  2
HEADER
  9
$ACADVER
  1
AC1024
  9
$ACADMAINTVER
 70
    63
  9
$DWGCODEPAGE
  3
ANSI_1252
  9
$AUTHOR
  1
PR
  9
$REVISIONNUMBER
  1
-
  9
$CUSTOMPROPERTYTAG
  1
Manager
  9
$CUSTOMPROPERTY
  1

  9
$CUSTOMPROPERTYTAG
  1
Company
  9
$CUSTOMPROPERTY
  1

  9
$CUSTOMPROPERTYTAG
  1
Category
  9
$CUSTOMPROPERTY
  1

  9
$CUSTOMPROPERTYTAG
  1
Part Number
  9
$CUSTOMPROPERTY
  1
WA90SMP20-S
  9
$CUSTOMPROPERTYTAG
  1
Description
  9
$CUSTOMPROPERTY
  1
N1P PANEL MASTER VIEW
  9
$CUSTOMPROPERTYTAG
  1
Project
  9
$CUSTOMPROPERTY
  1

  9
$CUSTOMPROPERTYTAG
  1
Designer
  9
$CUSTOMPROPERTY
  1
PR
  9
$CUSTOMPROPERTYTAG
  1
Engineer
  9
$CUSTOMPROPERTY
  1

  9
$CUSTOMPROPERTYTAG
  1
Authority
  9
$CUSTOMPROPERTY
  1

  9
$CUSTOMPROPERTYTAG
  1
Cost Center
  9
$CUSTOMPROPERTY
  1

  9
$CUSTOMPROPERTYTAG
  1
Vendor
  9
$CUSTOMPROPERTY
  1

  9
$CUSTOMPROPERTYTAG
  1
User Status
  9
$CUSTOMPROPERTY
  1

  9
$CUSTOMPROPERTYTAG
  1
Design Status
  9
$CUSTOMPROPERTY
  1
WorkInProgress
  9
$CUSTOMPROPERTYTAG
  1
Checked by
  9
$CUSTOMPROPERTY
  1
NJ
  9
$CUSTOMPROPERTYTAG
  1
Engr Approved by
  9
$CUSTOMPROPERTY
  1

  9
$CUSTOMPROPERTYTAG
  1
Date Eng Approved
  9
$CUSTOMPROPERTY
  1
06/24/2013
  9
$CUSTOMPROPERTYTAG
  1
Mfg Approved by
  9
$CUSTOMPROPERTY
  1

  9
$CUSTOMPROPERTYTAG
  1
DWG. NO
  9
$CUSTOMPROPERTY
  1

  9
$CUSTOMPROPERTYTAG
  1
NUMBER OF SHEETS
  9
$CUSTOMPROPERTY
  1
1
  9
$CUSTOMPROPERTYTAG
  1
DRAWING #
  9
$CUSTOMPROPERTY
  1
1
  9
$INSBASE
 10
0.0
 20
0.0
 30
0.0
  9
$EXTMIN
 10
0.0
 20
0.0
 30
0.0
  9
$EXTMAX
 10
229.5
 20
148.5
 30
0.0
  9
$LIMMIN
 10
0.0
 20
0.0
  9
$LIMMAX
 10
229.5
 20
148.5
  9
$ORTHOMODE
 70
     0
  9
$REGENMODE
 70
     1
  9
$FILLMODE
 70
     1
  9
$QTEXTMODE
 70
     0
  9
$MIRRTEXT
 70
     0
  9
$LTSCALE
 40
13.5
  9
$ATTMODE
 70
     1
  9
$TEXTSIZE
 40
0.2
  9
$TRACEWID
 40
0.05
  9
$TEXTSTYLE
  7
Standard
  9
$CLAYER
  8
0
  9
$CELTYPE
  6
ByLayer
  9
$CECOLOR
 62
   256
  9
$CELTSCALE
 40
1.0
  9
$DISPSILH
 70
     0
  9
$DIMSCALE
 40
1.0
  9
$DIMASZ
 40
0.0708661417322835
  9
$DIMEXO
 40
0.0625
  9
$DIMDLI
 40
0.38
  9
$DIMRND
 40
0.0
  9
$DIMDLE
 40
0.0
  9
$DIMEXE
 40
0.18
  9
$DIMTP
 40
0.0
  9
$DIMTM
 40
0.0
  9
$DIMTXT
 40
0.0708661417322835
  9
$DIMCEN
 40
0.09
  9
$DIMTSZ
 40
0.0
  9
$DIMTOL
 70
     0
  9
$DIMLIM
 70
     0
  9
$DIMTIH
 70
     1
  9
$DIMTOH
 70
     1
  9
$DIMSE1
 70
     0
  9
$DIMSE2
 70
     0
  9
$DIMTAD
 70
     0
  9
$DIMZIN
 70
     0
  9
$DIMBLK
  1

  9
$DIMASO
 70
     1
  9
$DIMSHO
 70
     1
  9
$DIMPOST
  1

  9
$DIMAPOST
  1

  9
$DIMALT
 70
     0
  9
$DIMALTD
 70
     2
  9
$DIMALTF
 40
25.4
  9
$DIMLFAC
 40
1.0
  9
$DIMTOFL
 70
     0
  9
$DIMTVP
 40
0.0
  9
$DIMTIX
 70
     0
  9
$DIMSOXD
 70
     0
  9
$DIMSAH
 70
     0
  9
$DIMBLK1
  1

  9
$DIMBLK2
  1

  9
$DIMSTYLE
  2
STANDARD
  9
$DIMCLRD
 70
     0
  9
$DIMCLRE
 70
     0
  9
$DIMCLRT
 70
     0
  9
$DIMTFAC
 40
1.0
  9
$DIMGAP
 40
0.09
  9
$DIMJUST
 70
     0
  9
$DIMSD1
 70
     0
  9
$DIMSD2
 70
     0
  9
$DIMTOLJ
 70
     1
  9
$DIMTZIN
 70
     0
  9
$DIMALTZ
 70
     0
  9
$DIMALTTZ
 70
     0
  9
$DIMUPT
 70
     0
  9
$DIMDEC
 70
     4
  9
$DIMTDEC
 70
     4
  9
$DIMALTU
 70
     2
  9
$DIMALTTD
 70
     2
  9
$DIMTXSTY
  7
Standard
  9
$DIMAUNIT
 70
     0
  9
$DIMADEC
 70
     0
  9
$DIMALTRND
 40
0.0
  9
$DIMAZIN
 70
     0
  9
$DIMDSEP
 70
    46
  9
$DIMATFIT
 70
     3
  9
$DIMFRAC
 70
     0
  9
$DIMLDRBLK
  1

  9
$DIMLUNIT
 70
     2
  9
$DIMLWD
 70
    -2
  9
$DIMLWE
 70
    -2
  9
$DIMTMOVE
 70
     0
  9
$DIMFXL
 40
1.0
  9
$DIMFXLON
 70
     0
  9
$DIMJOGANG
 40
0.7853981633974483
  9
$DIMTFILL
 70
     0
  9
$DIMTFILLCLR
 70
     0
  9
$DIMARCSYM
 70
     0
  9
$DIMLTYPE
  6

  9
$DIMLTEX1
  6

  9
$DIMLTEX2
  6

  9
$DIMTXTDIRECTION
 70
     0
  9
$LUNITS
 70
     2
  9
$LUPREC
 70
     4
  9
$SKETCHINC
 40
0.1
  9
$FILLETRAD
 40
0.0
  9
$AUNITS
 70
     0
  9
$AUPREC
 70
     0
  9
$MENU
  1
.
  9
$ELEVATION
 40
0.0
  9
$PELEVATION
 40
0.0
  9
$THICKNESS
 40
0.0
  9
$LIMCHECK
 70
     0
  9
$CHAMFERA
 40
0.0
  9
$CHAMFERB
 40
0.0
  9
$CHAMFERC
 40
0.0
  9
$CHAMFERD
 40
0.0
  9
$SKPOLY
 70
     0
  9
$TDCREATE
 40
2456471.296228889
  9
$TDUCREATE
 40
2456471.067062222
  9
$TDUPDATE
 40
2456471.296228901
  9
$TDUUPDATE
 40
2456471.067062234
  9
$TDINDWG
 40
0.0000489352
  9
$TDUSRTIMER
 40
0.0000489352
  9
$USRTIMER
 70
     1
  9
$ANGBASE
 50
0.0
  9
$ANGDIR
 70
     0
  9
$PDMODE
 70
     0
  9
$PDSIZE
 40
0.0
  9
$PLINEWID
 40
0.0
  9
$SPLFRAME
 70
     0
  9
$SPLINETYPE
 70
     6
  9
$SPLINESEGS
 70
     8
  9
$HANDSEED
  5
B19
  9
$SURFTAB1
 70
     6
  9
$SURFTAB2
 70
     6
  9
$SURFTYPE
 70
     6
  9
$SURFU
 70
     6
  9
$SURFV
 70
     6
  9
$UCSBASE
  2

  9
$UCSNAME
  2

  9
$UCSORG
 10
0.0
 20
0.0
 30
0.0
  9
$UCSXDIR
 10
1.0
 20
0.0
 30
0.0
  9
$UCSYDIR
 10
0.0
 20
1.0
 30
0.0
  9
$UCSORTHOREF
  2

  9
$UCSORTHOVIEW
 70
     0
  9
$UCSORGTOP
 10
0.0
 20
0.0
 30
0.0
  9
$UCSORGBOTTOM
 10
0.0
 20
0.0
 30
0.0
  9
$UCSORGLEFT
 10
0.0
 20
0.0
 30
0.0
  9
$UCSORGRIGHT
 10
0.0
 20
0.0
 30
0.0
  9
$UCSORGFRONT
 10
0.0
 20
0.0
 30
0.0
  9
$UCSORGBACK
 10
0.0
 20
0.0
 30
0.0
  9
$PUCSBASE
  2

  9
$PUCSNAME
  2

  9
$PUCSORG
 10
0.0
 20
0.0
 30
0.0
  9
$PUCSXDIR
 10
1.0
 20
0.0
 30
0.0
  9
$PUCSYDIR
 10
0.0
 20
1.0
 30
0.0
  9
$PUCSORTHOREF
  2

  9
$PUCSORTHOVIEW
 70
     0
  9
$PUCSORGTOP
 10
0.0
 20
0.0
 30
0.0
  9
$PUCSORGBOTTOM
 10
0.0
 20
0.0
 30
0.0
  9
$PUCSORGLEFT
 10
0.0
 20
0.0
 30
0.0
  9
$PUCSORGRIGHT
 10
0.0
 20
0.0
 30
0.0
  9
$PUCSORGFRONT
 10
0.0
 20
0.0
 30
0.0
  9
$PUCSORGBACK
 10
0.0
 20
0.0
 30
0.0
  9
$USERI1
 70
     0
  9
$USERI2
 70
     0
  9
$USERI3
 70
     0
  9
$USERI4
 70
     0
  9
$USERI5
 70
     0
  9
$USERR1
 40
0.0
  9
$USERR2
 40
0.0
  9
$USERR3
 40
0.0
  9
$USERR4
 40
0.0
  9
$USERR5
 40
0.0
  9
$WORLDVIEW
 70
     1
  9
$SHADEDGE
 70
     3
  9
$SHADEDIF
 70
    70
  9
$TILEMODE
 70
     1
  9
$MAXACTVP
 70
    64
  9
$PINSBASE
 10
0.0
 20
0.0
 30
0.0
  9
$PLIMCHECK
 70
     0
  9
$PEXTMIN
 10
0.0
 20
0.0
 30
0.0
  9
$PEXTMAX
 10
229.5
 20
148.5
 30
0.0
  9
$PLIMMIN
 10
0.0
 20
0.0
  9
$PLIMMAX
 10
229.5
 20
148.5
  9
$UNITMODE
 70
     0
  9
$VISRETAIN
 70
     1
  9
$PLINEGEN
 70
     0
  9
$PSLTSCALE
 70
     1
  9
$TREEDEPTH
 70
  3020
  9
$CMLSTYLE
  2
Standard
  9
$CMLJUST
 70
     0
  9
$CMLSCALE
 40
1.0
  9
$PROXYGRAPHICS
 70
     1
  9
$MEASUREMENT
 70
     0
  9
$CELWEIGHT
370
    -1
  9
$ENDCAPS
280
     0
  9
$JOINSTYLE
280
     0
  9
$LWDISPLAY
290
     0
  9
$INSUNITS
 70
     1
  9
$HYPERLINKBASE
  1

  9
$STYLESHEET
  1

  9
$XEDIT
290
     1
  9
$CEPSNTYPE
380
     0
  9
$PSTYLEMODE
290
     1
  9
$FINGERPRINTGUID
  2
{DA6FE63A-4AF2-40AA-B4BD-25DAA9E54E71}
  9
$VERSIONGUID
  2
{74CBE34A-E6CE-4340-BA20-A3D1ADEAED52}
  9
$EXTNAMES
290
     1
  9
$PSVPSCALE
 40
0.0
  9
$OLESTARTUP
290
     0
  9
$SORTENTS
280
   127
  9
$INDEXCTL
280
     0
  9
$HIDETEXT
280
     1
  9
$XCLIPFRAME
280
     2
  9
$HALOGAP
280
     0
  9
$OBSCOLOR
 70
   257
  9
$OBSLTYPE
280
     0
  9
$INTERSECTIONDISPLAY
280
     0
  9
$INTERSECTIONCOLOR
 70
   257
  9
$DIMASSOC
280
     1
  9
$PROJECTNAME
  1

  9
$CAMERADISPLAY
290
     0
  9
$LENSLENGTH
 40
50.0
  9
$CAMERAHEIGHT
 40
0.0
  9
$STEPSPERSEC
 40
2.0
  9
$STEPSIZE
 40
6.0
  9
$3DDWFPREC
 40
2.0
  9
$PSOLWIDTH
 40
0.25
  9
$PSOLHEIGHT
 40
4.0
  9
$LOFTANG1
 40
1.570796326794896
  9
$LOFTANG2
 40
1.570796326794896
  9
$LOFTMAG1
 40
0.0
  9
$LOFTMAG2
 40
0.0
  9
$LOFTPARAM
 70
     7
  9
$LOFTNORMALS
280
     1
  9
$LATITUDE
 40
37.795
  9
$LONGITUDE
 40
-122.394
  9
$NORTHDIRECTION
 40
0.0
  9
$TIMEZONE
 70
 -8000
  9
$LIGHTGLYPHDISPLAY
280
     1
  9
$TILEMODELIGHTSYNCH
280
     1
  9
$CMATERIAL
347
11
  9
$SOLIDHIST
280
     0
  9
$SHOWHIST
280
     1
  9
$DWFFRAME
280
     2
  9
$DGNFRAME
280
     0
  9
$REALWORLDSCALE
290
     1
  9
$INTERFERECOLOR
 62
     1
  9
$INTERFEREOBJVS
345
33
  9
$INTERFEREVPVS
346
30
  9
$CSHADOW
280
     0
  9
$SHADOWPLANELOCATION
 40
0.0
  0
ENDSEC
  0
SECTION
  2
CLASSES
  0
CLASS
  1
ACDBDICTIONARYWDFLT
  2
AcDbDictionaryWithDefault
  3
ObjectDBX Classes
 90
        0
 91
        1
280
     0
281
     0
  0
CLASS
  1
MATERIAL
  2
AcDbMaterial
  3
ObjectDBX Classes
 90
     1153
 91
        3
280
     0
281
     0
  0
CLASS
  1
VISUALSTYLE
  2
AcDbVisualStyle
  3
ObjectDBX Classes
 90
     4095
 91
       24
280
     0
281
     0
  0
CLASS
  1
SCALE
  2
AcDbScale
  3
ObjectDBX Classes
 90
     1153
 91
       17
280
     0
281
     0
  0
CLASS
  1
TABLESTYLE
  2
AcDbTableStyle
  3
ObjectDBX Classes
 90
     4095
 91
        1
280
     0
281
     0
  0
CLASS
  1
MLEADERSTYLE
  2
AcDbMLeaderStyle
  3
ACDB_MLEADERSTYLE_CLASS
 90
     4095
 91
        1
280
     0
281
     0
  0
CLASS
  1
DICTIONARYVAR
  2
AcDbDictionaryVar
  3
ObjectDBX Classes
 90
        0
 91
        3
280
     0
281
     0
  0
CLASS
  1
CELLSTYLEMAP
  2
AcDbCellStyleMap
  3
ObjectDBX Classes
 90
     1152
 91
        1
280
     0
281
     0
  0
ENDSEC
  0
SECTION
  2
TABLES
  0
TABLE
  2
VPORT
  5
8
330
0
100
AcDbSymbolTable
 70
     1
  0
VPORT
  5
57
330
8
100
AcDbSymbolTableRecord
100
AcDbViewportTableRecord
  2
*Active
 70
     0
 10
0.0
 20
0.0
 11
1.0
 21
1.0
 12
114.75
 22
74.25
 13
0.0
 23
0.0
 14
1.0
 24
1.0
 15
0.0
 25
0.0
 16
0.0
 26
0.0
 36
1.0
 17
0.0
 27
0.0
 37
0.0
 40
148.5
 41
1.545454545454545
 42
50.0
 43
0.0
 44
0.0
 50
0.0
 51
0.0
 71
     0
 72
   100
 73
     1
 74
     1
 75
     0
 76
     0
 77
     0
 78
     0
281
     0
 65
     1
110
0.0
120
0.0
130
0.0
111
1.0
121
0.0
131
0.0
112
0.0
122
1.0
132
0.0
 79
     0
146
0.0
 60
     3
 61
     5
292
     1
282
     1
141
0.0
142
0.0
 63
   250
421
  3355443
  0
ENDTAB
  0
TABLE
  2
LTYPE
  5
5
330
0
100
AcDbSymbolTable
 70
    59
  0
LTYPE
  5
5B
330
5
100
AcDbSymbolTableRecord
100
AcDbLinetypeTableRecord
  2
ByBlock
 70
     0
  3

 72
    65
 73
     0
 40
0.0
  0
LTYPE
  5
5C
330
5
100
AcDbSymbolTableRecord
100
AcDbLinetypeTableRecord
  2
ByLayer
 70
     0
  3

 72
    65
 73
     0
 40
0.0
  0
LTYPE
  5
5D
330
5
100
AcDbSymbolTableRecord
100
AcDbLinetypeTableRecord
  2
Continuous
 70
     0
  3
Solid line
 72
    65
 73
     0
 40
0.0
  0
LTYPE
  5
7C
330
5
100
AcDbSymbolTableRecord
100
AcDbLinetypeTableRecord
  2
BY_STANDARD
 70
     0
  3
By Standard ____________    ____    ____   _
 72
    65
 73
     6
 40
1.240299999999999
 49
0.6614
 74
     0
 49
-0.0827
 74
     0
 49
0.1654
 74
     0
 49
-0.0827
 74
     0
 49
0.1654
 74
     0
 49
-0.0827
 74
     0
  0
LTYPE
  5
7D
330
5
100
AcDbSymbolTableRecord
100
AcDbLinetypeTableRecord
  2
CHAIN
 70
     0
  3
Chain ____ _ ____ _ ____ _ ____ _ ____ _ ____
 72
    65
 73
     4
 40
0.7087
 49
0.4724000000000001
 74
     0
 49
-0.0591
 74
     0
 49
0.1181
 74
     0
 49
-0.0591
 74
     0
  0
LTYPE
  5
7E
330
5
100
AcDbSymbolTableRecord
100
AcDbLinetypeTableRecord
  2
DASH_DOT
 70
     0
  3
Dash dot __ . __ . __ . __ . __ . __ . __ . __
 72
    65
 73
     4
 40
0.37
 49
0.24
 74
     0
 49
-0.06
 74
     0
 49
0.01
 74
     0
 49
-0.06
 74
     0
  0
LTYPE
  5
7F
330
5
100
AcDbSymbolTableRecord
100
AcDbLinetypeTableRecord
  2
DOUBLE_DASH_DOT
 70
     0
  3
Double-Dash Dot __ __ . __ __ . __ __ . __ _
 72
    65
 73
     6
 40
0.4398
 49
0.24
 74
     0
 49
-0.06
 74
     0
 49
0.0098
 74
     0
 49
-0.06
 74
     0
 49
0.01
 74
     0
 49
-0.06
 74
     0
  0
LTYPE
  5
80
330
5
100
AcDbSymbolTableRecord
100
AcDbLinetypeTableRecord
  2
DASH_TRIPLE_DOT
 70
     0
  3
Dash Triple-Dot _ . . . _ . . . _ . . . _
 72
    65
 73
     8
 40
0.51
 49
0.24
 74
     0
 49
-0.06
 74
     0
 49
0.01
 74
     0
 49
-0.06
 74
     0
 49
0.01
 74
     0
 49
-0.06
 74
     0
 49
0.01
 74
     0
 49
-0.06
 74
     0
  0
LTYPE
  5
81
330
5
100
AcDbSymbolTableRecord
100
AcDbLinetypeTableRecord
  2
DASHED
 70
     0
  3
Dashed __ __ __ __ __ __ __ __ __ __ __ __ __ _
 72
    65
 73
     2
 40
0.2067
 49
0.1654
 74
     0
 49
-0.0413
 74
     0
  0
LTYPE
  5
82
330
5
100
AcDbSymbolTableRecord
100
AcDbLinetypeTableRecord
  2
DASH_DOUBLE_DOT
 70
     0
  3
Dash Double-Dot __ . . __ . . __ . . __ . .
 72
    65
 73
     6
 40
0.4398
 49
0.24
 74
     0
 49
-0.06
 74
     0
 49
0.0098
 74
     0
 49
-0.06
 74
     0
 49
0.01
 74
     0
 49
-0.06
 74
     0
  0
LTYPE
  5
83
330
5
100
AcDbSymbolTableRecord
100
AcDbLinetypeTableRecord
  2
DASHED_SPACE
 70
     0
  3
Dashed Space __ __ __ __ __ __ __ __ __ __ __ _
 72
    65
 73
     2
 40
0.2067
 49
0.1654
 74
     0
 49
-0.0413
 74
     0
  0
LTYPE
  5
84
330
5
100
AcDbSymbolTableRecord
100
AcDbLinetypeTableRecord
  2
DOTTED
 70
     0
  3
Dotted . . . . . . . . . . . . . . . . . . . . 
 72
    65
 73
     2
 40
0.0482
 49
0.0069
 74
     0
 49
-0.0413
 74
     0
  0
LTYPE
  5
85
330
5
100
AcDbSymbolTableRecord
100
AcDbLinetypeTableRecord
  2
DOUBLE_DASH_CHAIN
 70
     0
  3
Double-Dash Chain ______  __  __  ______  __  _
 72
    65
 73
     6
 40
1.240299999999999
 49
0.6614
 74
     0
 49
-0.0827
 74
     0
 49
0.1654
 74
     0
 49
-0.0827
 74
     0
 49
0.1654
 74
     0
 49
-0.0827
 74
     0
  0
LTYPE
  5
87
330
5
100
AcDbSymbolTableRecord
100
AcDbLinetypeTableRecord
  2
DOUBLE_DASH_DOUBLE_DOT
 70
     0
  3
Double-Dash Double-dot _ _ . . _ _ . . _
 72
    65
 73
     8
 40
0.7400000000000001
 49
0.24
 74
     0
 49
-0.06
 74
     0
 49
0.24
 74
     0
 49
-0.06
 74
     0
 49
0.01
 74
     0
 49
-0.06
 74
     0
 49
0.01
 74
     0
 49
-0.06
 74
     0
  0
LTYPE
  5
88
330
5
100
AcDbSymbolTableRecord
100
AcDbLinetypeTableRecord
  2
DOUBLE_DASH_TRIPLE_DOT
 70
     0
  3
Double Dash Triple Dot __ __ . . . __ __ . .
 72
    65
 73
    10
 40
0.8100000000000001
 49
0.24
 74
     0
 49
-0.06
 74
     0
 49
0.24
 74
     0
 49
-0.06
 74
     0
 49
0.01
 74
     0
 49
-0.06
 74
     0
 49
0.01
 74
     0
 49
-0.06
 74
     0
 49
0.01
 74
     0
 49
-0.06
 74
     0
  0
LTYPE
  5
89
330
5
100
AcDbSymbolTableRecord
100
AcDbLinetypeTableRecord
  2
LONG_DASH_DOTTED
 70
     0
  3
Long Dash Dotted ____ . ____ . ____ . ____ . _
 72
    65
 73
     4
 40
0.3543
 49
0.2362
 74
     0
 49
-0.0295
 74
     0
 49
0.0591
 74
     0
 49
-0.0295
 74
     0
  0
LTYPE
  5
8A
330
5
100
AcDbSymbolTableRecord
100
AcDbLinetypeTableRecord
  2
LONG_DASH_DOUBLE_DOT
 70
     0
  3
Long Dash Double Dot ________  .  .  ________  
 72
    65
 73
     6
 40
0.6799999999999999
 49
0.48
 74
     0
 49
-0.06
 74
     0
 49
0.01
 74
     0
 49
-0.06
 74
     0
 49
0.01
 74
     0
 49
-0.06
 74
     0
  0
LTYPE
  5
8B
330
5
100
AcDbSymbolTableRecord
100
AcDbLinetypeTableRecord
  2
LONG_DASH_TRIPLE_DOT
 70
     0
  3
Long Dash Triple Dot ____ ... ____ ... ____
 72
    65
 73
     8
 40
0.3689
 49
0.2362
 74
     0
 49
-0.0295
 74
     0
 49
0.0049
 74
     0
 49
-0.0295
 74
     0
 49
0.0049
 74
     0
 49
-0.0295
 74
     0
 49
0.0049
 74
     0
 49
-0.0295
 74
     0
  0
LTYPE
  5
8C
330
5
100
AcDbSymbolTableRecord
100
AcDbLinetypeTableRecord
  2
BORDER
 70
     0
  3
Border __ __ . __ __ . __ __ . __ __ . __ __ .
 72
    65
 73
     6
 40
1.75
 49
0.5
 74
     0
 49
-0.25
 74
     0
 49
0.5
 74
     0
 49
-0.25
 74
     0
 49
0.0
 74
     0
 49
-0.25
 74
     0
  0
LTYPE
  5
8D
330
5
100
AcDbSymbolTableRecord
100
AcDbLinetypeTableRecord
  2
BORDER2
 70
     0
  3
Border (.5x) __.__.__.__.__.__.__.__.__.__.__.
 72
    65
 73
     6
 40
0.875
 49
0.25
 74
     0
 49
-0.125
 74
     0
 49
0.25
 74
     0
 49
-0.125
 74
     0
 49
0.0
 74
     0
 49
-0.125
 74
     0
  0
LTYPE
  5
8E
330
5
100
AcDbSymbolTableRecord
100
AcDbLinetypeTableRecord
  2
BORDERX2
 70
     0
  3
Border (2x) ____  ____  .  ____  ____  .  ___
 72
    65
 73
     6
 40
3.5
 49
1.0
 74
     0
 49
-0.5
 74
     0
 49
1.0
 74
     0
 49
-0.5
 74
     0
 49
0.0
 74
     0
 49
-0.5
 74
     0
  0
LTYPE
  5
8F
330
5
100
AcDbSymbolTableRecord
100
AcDbLinetypeTableRecord
  2
CENTER
 70
     0
  3
Center ____ _ ____ _ ____ _ ____ _ ____ _ ____
 72
    65
 73
     4
 40
2.0
 49
1.25
 74
     0
 49
-0.25
 74
     0
 49
0.25
 74
     0
 49
-0.25
 74
     0
  0
LTYPE
  5
90
330
5
100
AcDbSymbolTableRecord
100
AcDbLinetypeTableRecord
  2
CENTER2
 70
     0
  3
Center (.5x) ___ _ ___ _ ___ _ ___ _ ___ _ ___
 72
    65
 73
     4
 40
1.125
 49
0.75
 74
     0
 49
-0.125
 74
     0
 49
0.125
 74
     0
 49
-0.125
 74
     0
  0
LTYPE
  5
91
330
5
100
AcDbSymbolTableRecord
100
AcDbLinetypeTableRecord
  2
CENTERX2
 70
     0
  3
Center (2x) ________  __  ________  __  _____
 72
    65
 73
     4
 40
4.0
 49
2.5
 74
     0
 49
-0.5
 74
     0
 49
0.5
 74
     0
 49
-0.5
 74
     0
  0
LTYPE
  5
92
330
5
100
AcDbSymbolTableRecord
100
AcDbLinetypeTableRecord
  2
DASHDOT2
 70
     0
  3
Dash dot (.5x) _._._._._._._._._._._._._._._.
 72
    65
 73
     4
 40
0.5
 49
0.25
 74
     0
 49
-0.125
 74
     0
 49
0.0
 74
     0
 49
-0.125
 74
     0
  0
LTYPE
  5
93
330
5
100
AcDbSymbolTableRecord
100
AcDbLinetypeTableRecord
  2
DASHDOTX2
 70
     0
  3
Dash dot (2x) ____  .  ____  .  ____  .  ___
 72
    65
 73
     4
 40
2.0
 49
1.0
 74
     0
 49
-0.5
 74
     0
 49
0.0
 74
     0
 49
-0.5
 74
     0
  0
LTYPE
  5
95
330
5
100
AcDbSymbolTableRecord
100
AcDbLinetypeTableRecord
  2
DASHED2
 70
     0
  3
Dashed (.5x) _ _ _ _ _ _ _ _ _ _ _ _ _ _ _ _ _
 72
    65
 73
     2
 40
0.375
 49
0.25
 74
     0
 49
-0.125
 74
     0
  0
LTYPE
  5
96
330
5
100
AcDbSymbolTableRecord
100
AcDbLinetypeTableRecord
  2
DASHEDX2
 70
     0
  3
Dashed (2x) ____  ____  ____  ____  ____  ___
 72
    65
 73
     2
 40
1.5
 49
1.0
 74
     0
 49
-0.5
 74
     0
  0
LTYPE
  5
97
330
5
100
AcDbSymbolTableRecord
100
AcDbLinetypeTableRecord
  2
DIVIDE
 70
     0
  3
Divide ____ . . ____ . . ____ . . ____ . . ____
 72
    65
 73
     6
 40
1.25
 49
0.5
 74
     0
 49
-0.25
 74
     0
 49
0.0
 74
     0
 49
-0.25
 74
     0
 49
0.0
 74
     0
 49
-0.25
 74
     0
  0
LTYPE
  5
98
330
5
100
AcDbSymbolTableRecord
100
AcDbLinetypeTableRecord
  2
DIVIDE2
 70
     0
  3
Divide (.5x) __..__..__..__..__..__..__..__.._
 72
    65
 73
     6
 40
0.625
 49
0.25
 74
     0
 49
-0.125
 74
     0
 49
0.0
 74
     0
 49
-0.125
 74
     0
 49
0.0
 74
     0
 49
-0.125
 74
     0
  0
LTYPE
  5
99
330
5
100
AcDbSymbolTableRecord
100
AcDbLinetypeTableRecord
  2
DIVIDEX2
 70
     0
  3
Divide (2x) ________  .  .  ________  .  .  _
 72
    65
 73
     6
 40
2.5
 49
1.0
 74
     0
 49
-0.5
 74
     0
 49
0.0
 74
     0
 49
-0.5
 74
     0
 49
0.0
 74
     0
 49
-0.5
 74
     0
  0
LTYPE
  5
9A
330
5
100
AcDbSymbolTableRecord
100
AcDbLinetypeTableRecord
  2
DOT
 70
     0
  3
Dot . . . . . . . . . . . . . . . . . . . . . .
 72
    65
 73
     2
 40
0.25
 49
0.0
 74
     0
 49
-0.25
 74
     0
  0
LTYPE
  5
9B
330
5
100
AcDbSymbolTableRecord
100
AcDbLinetypeTableRecord
  2
DOT2
 70
     0
  3
Dot (.5x) .....................................
 72
    65
 73
     2
 40
0.125
 49
0.0
 74
     0
 49
-0.125
 74
     0
  0
LTYPE
  5
9C
330
5
100
AcDbSymbolTableRecord
100
AcDbLinetypeTableRecord
  2
DOTX2
 70
     0
  3
Dot (2x) .  .  .  .  .  .  .  .  .  .  .  .  . 
 72
    65
 73
     2
 40
0.5
 49
0.0
 74
     0
 49
-0.5
 74
     0
  0
LTYPE
  5
9D
330
5
100
AcDbSymbolTableRecord
100
AcDbLinetypeTableRecord
  2
HIDDEN
 70
     0
  3
Hidden __ __ __ __ __ __ __ __ __ __ __ __ __ _
 72
    65
 73
     2
 40
0.375
 49
0.25
 74
     0
 49
-0.125
 74
     0
  0
LTYPE
  5
9E
330
5
100
AcDbSymbolTableRecord
100
AcDbLinetypeTableRecord
  2
HIDDEN2
 70
     0
  3
Hidden (.5x) _ _ _ _ _ _ _ _ _ _ _ _ _ _ _ _ _
 72
    65
 73
     2
 40
0.1875
 49
0.125
 74
     0
 49
-0.0625
 74
     0
  0
LTYPE
  5
9F
330
5
100
AcDbSymbolTableRecord
100
AcDbLinetypeTableRecord
  2
HIDDENX2
 70
     0
  3
Hidden (2x) ____ ____ ____ ____ ____ ____ ____
 72
    65
 73
     2
 40
0.75
 49
0.5
 74
     0
 49
-0.25
 74
     0
  0
LTYPE
  5
A0
330
5
100
AcDbSymbolTableRecord
100
AcDbLinetypeTableRecord
  2
PHANTOM
 70
     0
  3
Phantom ______  __  __  ______  __  __  ______
 72
    65
 73
     6
 40
2.5
 49
1.25
 74
     0
 49
-0.25
 74
     0
 49
0.25
 74
     0
 49
-0.25
 74
     0
 49
0.25
 74
     0
 49
-0.25
 74
     0
  0
LTYPE
  5
A1
330
5
100
AcDbSymbolTableRecord
100
AcDbLinetypeTableRecord
  2
PHANTOM2
 70
     0
  3
Phantom (.5x) ___ _ _ ___ _ _ ___ _ _ ___ _ _
 72
    65
 73
     6
 40
1.25
 49
0.625
 74
     0
 49
-0.125
 74
     0
 49
0.125
 74
     0
 49
-0.125
 74
     0
 49
0.125
 74
     0
 49
-0.125
 74
     0
  0
LTYPE
  5
A2
330
5
100
AcDbSymbolTableRecord
100
AcDbLinetypeTableRecord
  2
PHANTOMX2
 70
     0
  3
Phantom (2x) ____________    ____    ____   _
 72
    65
 73
     6
 40
5.0
 49
2.5
 74
     0
 49
-0.5
 74
     0
 49
0.5
 74
     0
 49
-0.5
 74
     0
 49
0.5
 74
     0
 49
-0.5
 74
     0
  0
LTYPE
  5
A3
330
5
100
AcDbSymbolTableRecord
100
AcDbLinetypeTableRecord
  2
ACAD_ISO02W100
 70
     0
  3
ISO dash __ __ __ __ __ __ __ __ __ __ __ __ __
 72
    65
 73
     2
 40
0.59
 49
0.47
 74
     0
 49
-0.12
 74
     0
  0
LTYPE
  5
A4
330
5
100
AcDbSymbolTableRecord
100
AcDbLinetypeTableRecord
  2
ACAD_ISO03W100
 70
     0
  3
ISO dash space __    __    __    __    __    __
 72
    65
 73
     2
 40
1.179999999999999
 49
0.47
 74
     0
 49
-0.71
 74
     0
  0
LTYPE
  5
A5
330
5
100
AcDbSymbolTableRecord
100
AcDbLinetypeTableRecord
  2
ACAD_ISO04W100
 70
     0
  3
ISO long-dash dot ____ . ____ . ____ . ____ . _
 72
    65
 73
     4
 40
1.179999999999999
 49
0.9399999999999998
 74
     0
 49
-0.12
 74
     0
 49
0.0
 74
     0
 49
-0.12
 74
     0
  0
LTYPE
  5
A6
330
5
100
AcDbSymbolTableRecord
100
AcDbLinetypeTableRecord
  2
ACAD_ISO05W100
 70
     0
  3
ISO long-dash double-dot ____ .. ____ .. ____ .
 72
    65
 73
     6
 40
1.299999999999999
 49
0.9399999999999998
 74
     0
 49
-0.12
 74
     0
 49
0.0
 74
     0
 49
-0.12
 74
     0
 49
0.0
 74
     0
 49
-0.12
 74
     0
  0
LTYPE
  5
A7
330
5
100
AcDbSymbolTableRecord
100
AcDbLinetypeTableRecord
  2
ACAD_ISO06W100
 70
     0
  3
ISO long-dash triple-dot ____ ... ____ ... ____
 72
    65
 73
     8
 40
1.419999999999999
 49
0.9399999999999998
 74
     0
 49
-0.12
 74
     0
 49
0.0
 74
     0
 49
-0.12
 74
     0
 49
0.0
 74
     0
 49
-0.12
 74
     0
 49
0.0
 74
     0
 49
-0.12
 74
     0
  0
LTYPE
  5
A8
330
5
100
AcDbSymbolTableRecord
100
AcDbLinetypeTableRecord
  2
ACAD_ISO07W100
 70
     0
  3
ISO dot . . . . . . . . . . . . . . . . . . . .
 72
    65
 73
     2
 40
0.12
 49
0.0
 74
     0
 49
-0.12
 74
     0
  0
LTYPE
  5
A9
330
5
100
AcDbSymbolTableRecord
100
AcDbLinetypeTableRecord
  2
ACAD_ISO08W100
 70
     0
  3
ISO long-dash short-dash ____ __ ____ __ ____ _
 72
    65
 73
     4
 40
0.95
 49
0.47
 74
     0
 49
-0.12
 74
     0
 49
0.24
 74
     0
 49
-0.12
 74
     0
  0
LTYPE
  5
AA
330
5
100
AcDbSymbolTableRecord
100
AcDbLinetypeTableRecord
  2
ACAD_ISO09W100
 70
     0
  3
ISO long-dash double-short-dash ____ __ __ ____
 72
    65
 73
     6
 40
1.31
 49
0.47
 74
     0
 49
-0.12
 74
     0
 49
0.24
 74
     0
 49
-0.12
 74
     0
 49
0.24
 74
     0
 49
-0.12
 74
     0
  0
LTYPE
  5
AB
330
5
100
AcDbSymbolTableRecord
100
AcDbLinetypeTableRecord
  2
ACAD_ISO10W100
 70
     0
  3
ISO dash dot __ . __ . __ . __ . __ . __ . __ .
 72
    65
 73
     4
 40
0.71
 49
0.47
 74
     0
 49
-0.12
 74
     0
 49
0.0
 74
     0
 49
-0.12
 74
     0
  0
LTYPE
  5
AC
330
5
100
AcDbSymbolTableRecord
100
AcDbLinetypeTableRecord
  2
ACAD_ISO11W100
 70
     0
  3
ISO double-dash dot __ __ . __ __ . __ __ . __ 
 72
    65
 73
     6
 40
1.299999999999999
 49
0.47
 74
     0
 49
-0.12
 74
     0
 49
0.47
 74
     0
 49
-0.12
 74
     0
 49
0.0
 74
     0
 49
-0.12
 74
     0
  0
LTYPE
  5
AD
330
5
100
AcDbSymbolTableRecord
100
AcDbLinetypeTableRecord
  2
ACAD_ISO12W100
 70
     0
  3
ISO dash double-dot __ . . __ . . __ . . __ . .
 72
    65
 73
     6
 40
0.8299999999999998
 49
0.47
 74
     0
 49
-0.12
 74
     0
 49
0.0
 74
     0
 49
-0.12
 74
     0
 49
0.0
 74
     0
 49
-0.12
 74
     0
  0
LTYPE
  5
AE
330
5
100
AcDbSymbolTableRecord
100
AcDbLinetypeTableRecord
  2
ACAD_ISO13W100
 70
     0
  3
ISO double-dash double-dot __ __ . . __ __ . . 
 72
    65
 73
     8
 40
1.419999999999999
 49
0.47
 74
     0
 49
-0.12
 74
     0
 49
0.47
 74
     0
 49
-0.12
 74
     0
 49
0.0
 74
     0
 49
-0.12
 74
     0
 49
0.0
 74
     0
 49
-0.12
 74
     0
  0
LTYPE
  5
AF
330
5
100
AcDbSymbolTableRecord
100
AcDbLinetypeTableRecord
  2
ACAD_ISO14W100
 70
     0
  3
ISO dash triple-dot __ . . . __ . . . __ . . . 
 72
    65
 73
     8
 40
0.95
 49
0.47
 74
     0
 49
-0.12
 74
     0
 49
0.0
 74
     0
 49
-0.12
 74
     0
 49
0.0
 74
     0
 49
-0.12
 74
     0
 49
0.0
 74
     0
 49
-0.12
 74
     0
  0
LTYPE
  5
B0
330
5
100
AcDbSymbolTableRecord
100
AcDbLinetypeTableRecord
  2
ACAD_ISO15W100
 70
     0
  3
ISO double-dash triple-dot __ __ . . . __ __ . 
 72
    65
 73
    10
 40
1.539999999999999
 49
0.47
 74
     0
 49
-0.12
 74
     0
 49
0.47
 74
     0
 49
-0.12
 74
     0
 49
0.0
 74
     0
 49
-0.12
 74
     0
 49
0.0
 74
     0
 49
-0.12
 74
     0
 49
0.0
 74
     0
 49
-0.12
 74
     0
  0
LTYPE
  5
B3
330
5
100
AcDbSymbolTableRecord
100
AcDbLinetypeTableRecord
  2
FENCELINE1
 70
     0
  3
Fenceline circle ----0-----0----0-----0----0---
 72
    65
 73
     4
 40
1.45
 49
0.25
 74
     0
 49
-0.1
 74
     4
 75
   133
340
B2
 46
0.1
 50
0.0
 44
-0.1
 45
0.0
 49
-0.1
 74
     0
 49
1.0
 74
     0
  0
LTYPE
  5
B4
330
5
100
AcDbSymbolTableRecord
100
AcDbLinetypeTableRecord
  2
FENCELINE2
 70
     0
  3
Fenceline square ----[]-----[]----[]-----[]----
 72
    65
 73
     4
 40
1.45
 49
0.25
 74
     0
 49
-0.1
 74
     4
 75
   132
340
B2
 46
0.1
 50
0.0
 44
-0.1
 45
0.0
 49
-0.1
 74
     0
 49
1.0
 74
     0
  0
LTYPE
  5
B5
330
5
100
AcDbSymbolTableRecord
100
AcDbLinetypeTableRecord
  2
TRACKS
 70
     0
  3
Tracks -|-|-|-|-|-|-|-|-|-|-|-|-|-|-|-|-|-|-|-|
 72
    65
 73
     2
 40
0.3
 49
0.15
 74
     4
 75
   130
340
B2
 46
0.25
 50
0.0
 44
0.0
 45
0.0
 49
0.15
 74
     0
  0
LTYPE
  5
B6
330
5
100
AcDbSymbolTableRecord
100
AcDbLinetypeTableRecord
  2
BATTING
 70
     0
  3
Batting SSSSSSSSSSSSSSSSSSSSSSSSSSSSSSSSSSSSSSS
 72
    65
 73
     4
 40
0.4001000000000001
 49
0.0001
 74
     0
 49
-0.1
 74
     4
 75
   134
340
B2
 46
0.1
 50
0.0
 44
-0.1
 45
0.0
 49
-0.2
 74
     4
 75
   134
340
B2
 46
0.1
 50
180.0
 44
0.1
 45
0.0
 49
-0.1
 74
     0
  0
LTYPE
  5
B7
330
5
100
AcDbSymbolTableRecord
100
AcDbLinetypeTableRecord
  2
HOT_WATER_SUPPLY
 70
     0
  3
Hot water supply ---- HW ---- HW ---- HW ----
 72
    65
 73
     3
 40
0.9
 49
0.5
 74
     0
 49
-0.2
 74
     2
 75
     0
340
55
 46
0.1
 50
0.0
 44
-0.1
 45
-0.05
  9
HW
 49
-0.2
 74
     0
  0
LTYPE
  5
B8
330
5
100
AcDbSymbolTableRecord
100
AcDbLinetypeTableRecord
  2
GAS_LINE
 70
     0
  3
Gas line ----GAS----GAS----GAS----GAS----GAS---
 72
    65
 73
     3
 40
0.95
 49
0.5
 74
     0
 49
-0.2
 74
     2
 75
     0
340
55
 46
0.1
 50
0.0
 44
-0.1
 45
-0.05
  9
GAS
 49
-0.25
 74
     0
  0
LTYPE
  5
B9
330
5
100
AcDbSymbolTableRecord
100
AcDbLinetypeTableRecord
  2
ZIGZAG
 70
     0
  3
Zig zag /\/\/\/\/\/\/\/\/\/\/\/\/\/\/\/\/\/\/\/
 72
    65
 73
     4
 40
0.8001000000000001
 49
0.0001
 74
     0
 49
-0.2
 74
     4
 75
   131
340
B2
 46
0.2
 50
0.0
 44
-0.2
 45
0.0
 49
-0.4
 74
     4
 75
   131
340
B2
 46
0.2
 50
180.0
 44
0.2
 45
0.0
 49
-0.2
 74
     0
  0
ENDTAB
  0
TABLE
  2
LAYER
  5
2
330
0
100
AcDbSymbolTable
 70
    27
  0
LAYER
  5
54
330
2
100
AcDbSymbolTableRecord
100
AcDbLayerTableRecord
  2
0
 70
     0
 62
     7
  6
Continuous
370
    18
390
F
347
21
  0
LAYER
  5
C0
330
2
100
AcDbSymbolTableRecord
100
AcDbLayerTableRecord
  2
Center Mark (ANSI)
 70
     0
 62
     7
  6
Continuous
370
    15
390
F
347
21
  0
LAYER
  5
C1
330
2
100
AcDbSymbolTableRecord
100
AcDbLayerTableRecord
  2
Centerline (ANSI)
 70
     0
 62
     7
  6
Continuous
370
    15
390
F
347
21
  0
LAYER
  5
C3
330
2
100
AcDbSymbolTableRecord
100
AcDbLayerTableRecord
  2
Dimension (ANSI)
 70
     0
 62
     7
  6
Continuous
370
    13
390
F
347
21
  0
LAYER
  5
C5
330
2
100
AcDbSymbolTableRecord
100
AcDbLayerTableRecord
  2
Hidden (ANSI)
 70
     0
 62
     7
  6
DASHED
370
    15
390
F
347
21
  0
LAYER
  5
CC
330
2
100
AcDbSymbolTableRecord
100
AcDbLayerTableRecord
  2
Symbol (ANSI)
 70
     0
 62
     7
  6
Continuous
370
    18
390
F
347
21
  0
LAYER
  5
CF
330
2
100
AcDbSymbolTableRecord
100
AcDbLayerTableRecord
  2
Visible (ANSI)
 70
     0
 62
     7
  6
Continuous
370
    13
390
F
347
21
  0
LAYER
  5
D0
330
2
100
AcDbSymbolTableRecord
100
AcDbLayerTableRecord
  2
Visible Narrow (ANSI)
 70
     0
 62
     7
  6
Continuous
370
    18
390
F
347
21
  0
LAYER
  5
1D0
330
2
100
AcDbSymbolTableRecord
100
AcDbLayerTableRecord
  2
Defpoints
 70
     0
 62
     7
  6
Continuous
290
     0
370
    -3
390
F
347
21
  0
ENDTAB
  0
TABLE
  2
STYLE
  5
3
330
0
100
AcDbSymbolTable
 70
    18
  0
STYLE
  5
55
330
3
100
AcDbSymbolTableRecord
100
AcDbTextStyleTableRecord
  2
Standard
 70
     0
 40
0.0
 41
1.0
 50
0.0
 71
     0
 42
0.2
  3
txt
  4

  0
STYLE
  5
5A
330
3
100
AcDbSymbolTableRecord
100
AcDbTextStyleTableRecord
  2
Annotative
 70
     0
 40
0.0
 41
1.0
 50
0.0
 71
     0
 42
0.2
  3
txt
  4

1001
AcadAnnotative
1000
AnnotativeData
1002
{
1070
     1
1070
     1
1002
}
  0
STYLE
  5
B2
330
3
100
AcDbSymbolTableRecord
100
AcDbTextStyleTableRecord
  2

 70
     1
 40
0.0
 41
1.0
 50
0.0
 71
     0
 42
0.2
  3
ltypeshp.shx
  4

  0
STYLE
  5
D4
330
3
100
AcDbSymbolTableRecord
100
AcDbTextStyleTableRecord
  2
ITALICC_120
 70
     0
 40
0.0
 41
1.0
 50
0.0
 71
     0
 42
0.2
  3
italicc.shx
  4

  0
STYLE
  5
D5
330
3
100
AcDbSymbolTableRecord
100
AcDbTextStyleTableRecord
  2
Label Text (ANSI)
 70
     0
 40
0.0
 41
1.0
 50
0.0
 71
     0
 42
0.2
  3
tahoma.ttf
  4

1001
ACAD
1000
Tahoma
1071
      256
  0
STYLE
  5
D6
330
3
100
AcDbSymbolTableRecord
100
AcDbTextStyleTableRecord
  2
Note Text (ANSI)
 70
     0
 40
0.0
 41
1.0
 50
0.0
 71
     0
 42
0.2
  3
tahoma.ttf
  4

1001
ACAD
1000
Tahoma
1071
      256
  0
STYLE
  5
D7
330
3
100
AcDbSymbolTableRecord
100
AcDbTextStyleTableRecord
  2
ROMANS
 70
     0
 40
0.0
 41
1.0
 50
0.0
 71
     0
 42
0.2
  3
romans.shx
  4

  0
STYLE
  5
D8
330
3
100
AcDbSymbolTableRecord
100
AcDbTextStyleTableRecord
  2
SANSSERIF_114
 70
     0
 40
0.0
 41
1.0
 50
0.0
 71
     0
 42
0.2
  3
tahoma.ttf
  4

1001
ACAD
1000
Tahoma
1071
      256
  0
STYLE
  5
D9
330
3
100
AcDbSymbolTableRecord
100
AcDbTextStyleTableRecord
  2
SANSSERIF_117
 70
     0
 40
0.0
 41
1.0
 50
0.0
 71
     0
 42
0.2
  3
tahoma.ttf
  4

1001
ACAD
1000
Tahoma
1071
      256
  0
STYLE
  5
DA
330
3
100
AcDbSymbolTableRecord
100
AcDbTextStyleTableRecord
  2
STANDARDAM_ANSI
 70
     0
 40
0.0
 41
1.0
 50
0.0
 71
     0
 42
0.2
  3
txt.shx
  4

  0
STYLE
  5
DB
330
3
100
AcDbSymbolTableRecord
100
AcDbTextStyleTableRecord
  2
StandardAM_ANSI$0
 70
     0
 40
0.0
 41
1.0
 50
0.0
 71
     0
 42
0.2
  3
txt.shx
  4

  0
STYLE
  5
DC
330
3
100
AcDbSymbolTableRecord
100
AcDbTextStyleTableRecord
  2
STANDARDAM_ANSI$3
 70
     0
 40
0.0
 41
1.0
 50
0.0
 71
     0
 42
0.2
  3
txt.shx
  4

  0
STYLE
  5
DD
330
3
100
AcDbSymbolTableRecord
100
AcDbTextStyleTableRecord
  2
STANDARDAM_ANSI$4
 70
     0
 40
0.0
 41
1.0
 50
0.0
 71
     0
 42
0.2
  3
txt.shx
  4

  0
STYLE
  5
DE
330
3
100
AcDbSymbolTableRecord
100
AcDbTextStyleTableRecord
  2
STANDARDAM_ANSI$7
 70
     0
 40
0.0
 41
1.0
 50
0.0
 71
     0
 42
0.2
  3
txt.shx
  4

  0
STYLE
  5
DF
330
3
100
AcDbSymbolTableRecord
100
AcDbTextStyleTableRecord
  2
STANDARDAM_ANSI$SF
 70
     0
 40
0.0
 41
1.0
 50
0.0
 71
     0
 42
0.2
  3
txt.shx
  4

  0
STYLE
  5
E0
330
3
100
AcDbSymbolTableRecord
100
AcDbTextStyleTableRecord
  2
STANDARDAM_ANSI$SH
 70
     0
 40
0.0
 41
1.0
 50
0.0
 71
     0
 42
0.2
  3
txt.shx
  4

  0
STYLE
  5
E1
330
3
100
AcDbSymbolTableRecord
100
AcDbTextStyleTableRecord
  2
STANDARDSTANDARD
 70
     0
 40
0.0
 41
1.0
 50
0.0
 71
     0
 42
0.2
  3
txt.shx
  4

  0
STYLE
  5
143
330
3
100
AcDbSymbolTableRecord
100
AcDbTextStyleTableRecord
  2
Text Style153
 70
     0
 40
0.0
 41
1.0
 50
0.0
 71
     0
 42
0.2
  3
tahoma.ttf
  4

1001
ACAD
1000
Tahoma
1071
      256
  0
ENDTAB
  0
TABLE
  2
VIEW
  5
6
330
0
100
AcDbSymbolTable
 70
     0
  0
ENDTAB
  0
TABLE
  2
UCS
  5
7
330
0
100
AcDbSymbolTable
 70
     0
  0
ENDTAB
  0
TABLE
  2
APPID
  5
9
330
0
100
AcDbSymbolTable
 70
     3
  0
APPID
  5
56
330
9
100
AcDbSymbolTableRecord
100
AcDbRegAppTableRecord
  2
ACAD
 70
     0
  0
APPID
  5
5E
330
9
100
AcDbSymbolTableRecord
100
AcDbRegAppTableRecord
  2
AcadAnnotative
 70
     0
  0
APPID
  5
734
330
9
100
AcDbSymbolTableRecord
100
AcDbRegAppTableRecord
  2
ACAD_DSTYLE_DIMRADIAL_EXTENSION
 70
     0
  0
ENDTAB
  0
TABLE
  2
DIMSTYLE
  5
A
330
0
100
AcDbSymbolTable
 70
    27
100
AcDbDimStyleTable
 71
     2
340
F6
340
58
  0
DIMSTYLE
105
58
330
A
100
AcDbSymbolTableRecord
100
AcDbDimStyleTableRecord
  2
STANDARD
 70
     0
 41
0.1800000071525573
 42
0.0625
140
0.1800000071525574
144
1.0
147
0.0900000035762787
176
   256
177
   256
178
   256
274
     3
340
55
371
    -1
372
    -1
  0
DIMSTYLE
105
59
330
A
100
AcDbSymbolTableRecord
100
AcDbDimStyleTableRecord
  2
Annotative
 70
     0
340
55
1001
AcadAnnotative
1000
AnnotativeData
1002
{
1070
     1
1070
     1
1002
}
  0
DIMSTYLE
105
E2
330
A
100
AcDbSymbolTableRecord
100
AcDbDimStyleTableRecord
  2
AM_ANSI
 70
     0
  4
 mm
 40
13.5
 41
0.119999997317791
 42
0.05
 43
0.5
 44
0.1
 45
0.00000001
 78
     4
 79
     2
140
0.1200000047683716
146
0.7099999189376831
147
0.0599999986588955
176
   256
177
   256
178
     2
284
     4
340
DA
371
    -1
372
    -1
  0
DIMSTYLE
105
E3
330
A
100
AcDbSymbolTableRecord
100
AcDbDimStyleTableRecord
  2
AM_ANSI$7
 70
     0
  4
 mm
 40
13.5
 41
0.119999997317791
 42
0.05
 43
0.5
 44
0.1
 45
0.00000001
 78
     4
 79
     2
140
0.1200000047683716
146
0.7099999189376831
147
0.0599999986588955
176
   256
177
   256
178
     2
284
     4
340
DA
371
    -1
372
    -1
  0
DIMSTYLE
105
E4
330
A
100
AcDbSymbolTableRecord
100
AcDbDimStyleTableRecord
  2
AM_ANSI$0
 70
     0
  4
 mm
 40
13.5
 41
0.119999997317791
 42
0.05
 43
0.5
 44
0.1
 45
0.00000001
 78
     4
 79
     2
140
0.1200000047683716
146
0.7099999189376831
147
0.0599999986588955
176
   256
177
   256
178
     2
284
     4
340
DB
371
    -1
372
    -1
  0
DIMSTYLE
105
E5
330
A
100
AcDbSymbolTableRecord
100
AcDbDimStyleTableRecord
  2
AM_ANSI$0$7
 70
     0
  4
 mm
 40
13.5
 41
0.119999997317791
 42
0.05
 43
0.5
 44
0.1
 45
0.00000001
 78
     4
 79
     2
140
0.1200000047683716
146
0.7099999189376831
147
0.0599999986588955
176
   256
177
   256
178
     2
284
     4
340
DB
371
    -1
372
    -1
  0
DIMSTYLE
105
E6
330
A
100
AcDbSymbolTableRecord
100
AcDbDimStyleTableRecord
  2
AM_ANSI$3
 70
     0
  4
 mm
 40
13.5
 41
0.119999997317791
 42
0.05
 43
0.5
 44
0.1
 45
0.00000001
 78
     4
 79
     2
140
0.1200000047683716
146
0.7099999189376831
147
0.0599999986588955
176
   256
177
   256
178
     2
284
     4
340
DC
371
    -1
372
    -1
  0
DIMSTYLE
105
E7
330
A
100
AcDbSymbolTableRecord
100
AcDbDimStyleTableRecord
  2
AM_ANSI$3$7
 70
     0
  4
 mm
 40
13.5
 41
0.119999997317791
 42
0.05
 43
0.5
 44
0.1
 45
0.00000001
 78
     4
 79
     2
140
0.1200000047683716
146
0.7099999189376831
147
0.0599999986588955
176
   256
177
   256
178
     2
284
     4
340
DC
371
    -1
372
    -1
  0
DIMSTYLE
105
E8
330
A
100
AcDbSymbolTableRecord
100
AcDbDimStyleTableRecord
  2
AM_ANSI$4
 70
     0
  4
 mm
 40
13.5
 41
0.119999997317791
 42
0.05
 43
0.5
 44
0.1
 45
0.00000001
 78
     4
 79
     2
140
0.1200000047683716
146
0.7099999189376831
147
0.0599999986588955
176
   256
177
   256
178
     2
284
     4
340
DD
371
    -1
372
    -1
  0
DIMSTYLE
105
E9
330
A
100
AcDbSymbolTableRecord
100
AcDbDimStyleTableRecord
  2
AM_ANSI$4$7
 70
     0
  4
 mm
 40
13.5
 41
0.119999997317791
 42
0.05
 43
0.5
 44
0.1
 45
0.00000001
 78
     4
 79
     2
140
0.1200000047683716
146
0.7099999189376831
147
0.0599999986588955
176
   256
177
   256
178
     2
284
     4
340
DD
371
    -1
372
    -1
  0
DIMSTYLE
105
EA
330
A
100
AcDbSymbolTableRecord
100
AcDbDimStyleTableRecord
  2
AM_ANSI$SF
 70
     0
  4
 mm
 40
13.5
 41
0.119999997317791
 42
0.05
 43
0.5
 44
0.1
 45
0.00000001
 75
     1
 76
     1
 78
     4
 79
     2
140
0.1200000047683716
146
0.7099999189376831
147
0.0599999986588955
176
   256
177
   256
178
     2
284
     4
340
DF
371
    -1
372
    -1
  0
DIMSTYLE
105
EB
330
A
100
AcDbSymbolTableRecord
100
AcDbDimStyleTableRecord
  2
AM_ANSI$SF$7
 70
     0
  4
 mm
 40
13.5
 41
0.119999997317791
 42
0.05
 43
0.5
 44
0.1
 45
0.00000001
 75
     1
 76
     1
 78
     4
 79
     2
140
0.1200000047683716
146
0.7099999189376831
147
0.0599999986588955
176
   256
177
   256
178
     2
284
     4
340
DF
371
    -1
372
    -1
  0
DIMSTYLE
105
EC
330
A
100
AcDbSymbolTableRecord
100
AcDbDimStyleTableRecord
  2
AM_ANSI$SH
 70
     0
  4
 mm
 40
13.5
 41
0.119999997317791
 42
0.05
 43
0.5
 44
0.1
 45
0.00000001
 75
     1
 76
     1
 78
     4
 79
     2
140
0.1200000047683716
146
0.7099999189376831
147
0.0599999986588955
176
   256
177
   256
178
     2
284
     4
340
E0
371
    -1
372
    -1
  0
DIMSTYLE
105
ED
330
A
100
AcDbSymbolTableRecord
100
AcDbDimStyleTableRecord
  2
AM_ANSI$SH$7
 70
     0
  4
 mm
 40
13.5
 41
0.119999997317791
 42
0.05
 43
0.5
 44
0.1
 45
0.00000001
 75
     1
 76
     1
 78
     4
 79
     2
140
0.1200000047683716
146
0.7099999189376831
147
0.0599999986588955
176
   256
177
   256
178
     2
284
     4
340
E0
371
    -1
372
    -1
  0
DIMSTYLE
105
EE
330
A
100
AcDbSymbolTableRecord
100
AcDbDimStyleTableRecord
  2
Architectural (ANSI)
 70
     0
 40
13.5
 41
0.0984251946210861
 43
0.2362204724409449
 44
0.125
 45
0.00000001
 46
0.3937007874015748
 78
     3
 79
     3
140
0.1200000047683716
147
0.031496062992126
171
     1
176
   256
177
   256
178
   256
272
     2
274
     1
276
     2
277
     4
284
    12
285
     4
286
    12
340
D6
371
    -1
372
    -1
  0
DIMSTYLE
105
EF
330
A
100
AcDbSymbolTableRecord
100
AcDbDimStyleTableRecord
  2
Architectural (ANSI)$7
 70
     0
 40
13.5
 41
0.0984251946210861
 43
0.2362204724409449
 44
0.125
 45
0.00000001
 46
0.3937007874015748
 78
     3
 79
     3
140
0.1200000047683716
147
0.031496062992126
171
     1
176
   256
177
   256
178
   256
272
     2
274
     1
276
     2
277
     4
284
    12
285
     4
286
    12
340
D6
371
    -1
372
    -1
  0
DIMSTYLE
105
F0
330
A
100
AcDbSymbolTableRecord
100
AcDbDimStyleTableRecord
  2
Default - Fraction (ANSI)
 70
     0
 40
13.5
 41
0.0984251946210861
 43
0.2362204724409449
 44
0.125
 45
0.00000001
 46
0.3937007874015748
 79
     3
140
0.1200000047683716
147
0.031496062992126
171
     1
176
   256
177
   256
178
   256
272
     2
274
     1
276
     2
277
     5
284
    12
285
     4
286
    12
340
D6
371
    -1
372
    -1
  0
DIMSTYLE
105
F1
330
A
100
AcDbSymbolTableRecord
100
AcDbDimStyleTableRecord
  2
Default - Fraction (ANSI)$7
 70
     0
 40
13.5
 41
0.0984251946210861
 43
0.2362204724409449
 44
0.125
 45
0.00000001
 46
0.3937007874015748
 79
     3
140
0.1200000047683716
147
0.031496062992126
171
     1
176
   256
177
   256
178
   256
272
     2
274
     1
276
     2
277
     5
284
    12
285
     4
286
    12
340
D6
371
    -1
372
    -1
  0
DIMSTYLE
105
F2
330
A
100
AcDbSymbolTableRecord
100
AcDbDimStyleTableRecord
  2
Default - mm (ANSI)
 70
     0
 40
13.5
 41
0.0984251946210861
 42
0.063
 43
0.2362204724409449
 44
0.125
 45
0.00000001
 46
0.3937007874015748
 73
     0
 78
     4
 79
     1
140
0.1200000047683716
143
1.0
144
25.4
147
0.031496062992126
171
     1
176
   256
177
   256
178
   256
179
     1
271
     2
272
     2
274
     1
284
     4
285
     4
340
D6
371
    -1
372
    -1
  0
DIMSTYLE
105
F3
330
A
100
AcDbSymbolTableRecord
100
AcDbDimStyleTableRecord
  2
Default - mm (ANSI)$7
 70
     0
 40
13.5
 41
0.0984251946210861
 42
0.063
 43
0.2362204724409449
 44
0.125
 45
0.00000001
 46
0.3937007874015748
 73
     0
 78
     4
 79
     1
140
0.1200000047683716
143
1.0
144
25.4
147
0.031496062992126
171
     1
176
   256
177
   256
178
   256
179
     1
271
     2
272
     2
274
     1
284
     4
285
     4
340
D6
371
    -1
372
    -1
  0
DIMSTYLE
105
F4
330
A
100
AcDbSymbolTableRecord
100
AcDbDimStyleTableRecord
  2
Default - mm [in] (ANSI)
 70
     0
  4
 in
 40
13.5
 41
0.0984251946210861
 42
0.063
 43
0.25
 44
0.125
 45
0.00000001
 46
0.3937007874015748
 73
     0
 78
     4
 79
     1
140
0.1200000047683716
143
0.03937
144
25.4
147
0.031496062992126
170
     1
171
     3
176
   256
177
   256
178
   256
179
     1
271
     2
272
     2
274
     3
284
     4
285
     4
286
     4
340
D6
371
    -1
372
    -1
  0
DIMSTYLE
105
F5
330
A
100
AcDbSymbolTableRecord
100
AcDbDimStyleTableRecord
  2
Default - mm [in] (ANSI)$7
 70
     0
  4
 in
 40
13.5
 41
0.0984251946210861
 42
0.063
 43
0.25
 44
0.125
 45
0.00000001
 46
0.3937007874015748
 73
     0
 78
     4
 79
     1
140
0.1200000047683716
143
0.03937
144
25.4
147
0.031496062992126
170
     1
171
     3
176
   256
177
   256
178
   256
179
     1
271
     2
272
     2
274
     3
284
     4
285
     4
286
     4
340
D6
371
    -1
372
    -1
  0
DIMSTYLE
105
F6
102
{ACAD_REACTORS
330
1CE
330
2DC
330
3C6
330
4B0
330
5B0
330
69A
330
755
330
83F
330
929
330
A16
102
}
330
A
100
AcDbSymbolTableRecord
100
AcDbDimStyleTableRecord
  2
Default (ANSI)
 70
     0
 40
13.5
 41
0.0984251946210861
 43
0.2362204724409449
 44
0.125
 45
0.00000001
 46
0.3937007874015748
 79
     1
140
0.1200000047683716
147
0.031496062992126
171
     1
176
   256
177
   256
178
   256
271
     2
272
     2
274
     1
284
     4
285
     4
340
D6
371
    -1
372
    -1
  0
DIMSTYLE
105
F7
330
A
100
AcDbSymbolTableRecord
100
AcDbDimStyleTableRecord
  2
Default (ANSI)$7
 70
     0
 40
13.5
 41
0.0984251946210861
 43
0.2362204724409449
 44
0.125
 45
0.00000001
 46
0.3937007874015748
 79
     1
140
0.1200000047683716
147
0.031496062992126
171
     1
176
   256
177
   256
178
   256
271
     2
272
     2
274
     1
284
     4
285
     4
340
D6
371
    -1
372
    -1
  0
DIMSTYLE
105
F8
330
A
100
AcDbSymbolTableRecord
100
AcDbDimStyleTableRecord
  2
Alternate (ANSI)
 70
     0
 40
13.5
 41
0.0979999974370003
340
55
342
F9
  0
DIMSTYLE
105
10B
330
A
100
AcDbSymbolTableRecord
100
AcDbDimStyleTableRecord
  2
Datum (ANSI)
 70
     0
 40
13.5
 41
0.0979999974370003
340
55
342
F9
  0
DIMSTYLE
105
11A
330
A
100
AcDbSymbolTableRecord
100
AcDbDimStyleTableRecord
  2
Large (ANSI)
 70
     0
 40
13.5
 41
0.1959999948740005
340
55
342
F9
  0
ENDTAB
  0
TABLE
  2
BLOCK_RECORD
  5
1
330
0
100
AcDbSymbolTable
 70
    14
  0
BLOCK_RECORD
  5
6C
330
1
100
AcDbSymbolTableRecord
100
AcDbBlockTableRecord
  2
*Model_Space
340
6F
 70
     0
280
     1
281
     0
  0
BLOCK_RECORD
  5
68
330
1
100
AcDbSymbolTableRecord
100
AcDbBlockTableRecord
  2
*Paper_Space
340
6B
 70
     0
280
     1
281
     0
  0
BLOCK_RECORD
  5
70
330
1
100
AcDbSymbolTableRecord
100
AcDbBlockTableRecord
  2
*Paper_Space0
340
73
 70
     0
280
     1
281
     0
  0
BLOCK_RECORD
  5
F9
330
1
100
AcDbSymbolTableRecord
100
AcDbBlockTableRecord
  2
_Closed
340
0
 70
     0
280
     1
281
     0
  0
BLOCK_RECORD
  5
100
330
1
100
AcDbSymbolTableRecord
100
AcDbBlockTableRecord
  2
DatumFilled45
340
0
 70
     0
280
     1
281
     0
  0
BLOCK_RECORD
  5
10C
330
1
100
AcDbSymbolTableRecord
100
AcDbBlockTableRecord
  2
Filled-1
340
0
 70
     0
280
     1
281
     0
  0
BLOCK_RECORD
  5
1D1
330
1
100
AcDbSymbolTableRecord
100
AcDbBlockTableRecord
  2
*D4
340
0
 70
     0
280
     1
281
     0
  0
BLOCK_RECORD
  5
2DD
330
1
100
AcDbSymbolTableRecord
100
AcDbBlockTableRecord
  2
*D5
340
0
 70
     0
280
     1
281
     0
  0
BLOCK_RECORD
  5
3C7
330
1
100
AcDbSymbolTableRecord
100
AcDbBlockTableRecord
  2
*D6
340
0
 70
     0
280
     1
281
     0
  0
BLOCK_RECORD
  5
4B1
330
1
100
AcDbSymbolTableRecord
100
AcDbBlockTableRecord
  2
*D7
340
0
 70
     0
280
     1
281
     0
  0
BLOCK_RECORD
  5
5B1
330
1
100
AcDbSymbolTableRecord
100
AcDbBlockTableRecord
  2
*D8
340
0
 70
     0
280
     1
281
     0
  0
BLOCK_RECORD
  5
69B
330
1
100
AcDbSymbolTableRecord
100
AcDbBlockTableRecord
  2
*D9
340
0
 70
     0
280
     1
281
     0
  0
BLOCK_RECORD
  5
756
330
1
100
AcDbSymbolTableRecord
100
AcDbBlockTableRecord
  2
*D10
340
0
 70
     0
280
     1
281
     0
  0
BLOCK_RECORD
  5
840
330
1
100
AcDbSymbolTableRecord
100
AcDbBlockTableRecord
  2
*D11
340
0
 70
     0
280
     1
281
     0
  0
BLOCK_RECORD
  5
92A
330
1
100
AcDbSymbolTableRecord
100
AcDbBlockTableRecord
  2
*D12
340
0
 70
     0
280
     1
281
     0
  0
BLOCK_RECORD
  5
A17
330
1
100
AcDbSymbolTableRecord
100
AcDbBlockTableRecord
  2
*D13
340
0
 70
     0
280
     1
281
     0
  0
ENDTAB
  0
ENDSEC
  0
SECTION
  2
BLOCKS
  0
BLOCK
  5
6D
330
6C
100
AcDbEntity
  8
0
100
AcDbBlockBegin
  2
*Model_Space
 70
     0
 10
0.0
 20
0.0
 30
0.0
  3
*Model_Space
  1

  0
ENDBLK
  5
6E
330
6C
100
AcDbEntity
  8
0
100
AcDbBlockEnd
  0
BLOCK
  5
69
330
68
100
AcDbEntity
 67
     1
  8
0
100
AcDbBlockBegin
  2
*Paper_Space
 70
     0
 10
0.0
 20
0.0
 30
0.0
  3
*Paper_Space
  1

  0
ENDBLK
  5
6A
330
68
100
AcDbEntity
 67
     1
  8
0
100
AcDbBlockEnd
  0
BLOCK
  5
71
330
70
100
AcDbEntity
 67
     1
  8
0
100
AcDbBlockBegin
  2
*Paper_Space0
 70
     0
 10
0.0
 20
0.0
 30
0.0
  3
*Paper_Space0
  1

  0
ENDBLK
  5
72
330
70
100
AcDbEntity
 67
     1
  8
0
100
AcDbBlockEnd
  0
BLOCK
  5
FE
330
F9
100
AcDbEntity
  8
0
100
AcDbBlockBegin
  2
_Closed
 70
     0
 10
0.0
 20
0.0
 30
0.0
  3
_Closed
  1

  0
LINE
  5
FA
330
F9
100
AcDbEntity
  8
0
  6
ByBlock
 62
     0
370
    -2
100
AcDbLine
 10
-1.0
 20
0.1666666666666666
 30
0.0
 11
0.0
 21
0.0
 31
0.0
  0
LINE
  5
FB
330
F9
100
AcDbEntity
  8
0
  6
ByBlock
 62
     0
370
    -2
100
AcDbLine
 10
0.0
 20
0.0
 30
0.0
 11
-1.0
 21
-0.1666666666666666
 31
0.0
  0
LINE
  5
FC
330
F9
100
AcDbEntity
  8
0
  6
ByBlock
 62
     0
370
    -2
100
AcDbLine
 10
-1.0
 20
0.1666666666666666
 30
0.0
 11
-1.0
 21
-0.1666666666666666
 31
0.0
  0
LINE
  5
FD
330
F9
100
AcDbEntity
  8
0
  6
ByBlock
 62
     0
370
    -2
100
AcDbLine
 10
0.0
 20
0.0
 30
0.0
 11
-1.0
 21
0.0
 31
0.0
  0
ENDBLK
  5
FF
330
F9
100
AcDbEntity
  8
0
100
AcDbBlockEnd
  0
BLOCK
  5
101
330
100
100
AcDbEntity
  8
0
100
AcDbBlockBegin
  2
DatumFilled45
 70
     0
 10
0.0
 20
0.0
 30
0.0
  3
DatumFilled45
  1

  0
POLYLINE
  5
103
330
100
100
AcDbEntity
  8
0
 62
     0
100
AcDb2dPolyline
 66
     1
 10
0.0
 20
0.0
 30
0.0
 70
   128
  0
VERTEX
  5
104
330
103
100
AcDbEntity
  8
0
 62
     0
100
AcDbVertex
100
AcDb2dVertex
 10
0.0
 20
0.9999999999999998
 30
0.0
  0
VERTEX
  5
105
330
103
100
AcDbEntity
  8
0
 62
     0
100
AcDbVertex
100
AcDb2dVertex
 10
0.0
 20
-0.9999999999999998
 30
0.0
  0
VERTEX
  5
107
330
103
100
AcDbEntity
  8
0
 62
     0
100
AcDbVertex
100
AcDb2dVertex
 10
-0.9999999999999998
 20
0.0
 30
0.0
  0
VERTEX
  5
108
330
103
100
AcDbEntity
  8
0
 62
     0
100
AcDbVertex
100
AcDb2dVertex
 10
0.0
 20
0.9999999999999998
 30
0.0
  0
SEQEND
  5
106
330
103
100
AcDbEntity
  8
0
 62
     0
  0
SOLID
  5
10A
330
100
100
AcDbEntity
  8
0
 62
     0
100
AcDbTrace
 10
0.0
 20
0.9999999999999998
 30
0.0
 11
0.0
 21
-0.9999999999999998
 31
0.0
 12
-0.9999999999999998
 22
0.0
 32
0.0
 13
0.0
 23
0.9999999999999998
 33
0.0
  0
ENDBLK
  5
102
330
100
100
AcDbEntity
  8
0
100
AcDbBlockEnd
  0
BLOCK
  5
10D
330
10C
100
AcDbEntity
  8
0
100
AcDbBlockBegin
  2
Filled-1
 70
     0
 10
0.0
 20
0.0
 30
0.0
  3
Filled-1
  1

  0
LINE
  5
10F
330
10C
100
AcDbEntity
  8
0
 62
     0
100
AcDbLine
 10
-0.9999999999999998
 20
0.0
 30
0.0
 11
0.0
 21
0.0
 31
0.0
  0
POLYLINE
  5
110
330
10C
100
AcDbEntity
  8
0
 62
     0
100
AcDb2dPolyline
 66
     1
 10
0.0
 20
0.0
 30
0.0
 70
   128
  0
VERTEX
  5
111
330
110
100
AcDbEntity
  8
0
 62
     0
100
AcDbVertex
100
AcDb2dVertex
 10
-0.9999999999999998
 20
-0.0994897959183674
 30
0.0
  0
VERTEX
  5
112
330
110
100
AcDbEntity
  8
0
 62
     0
100
AcDbVertex
100
AcDb2dVertex
 10
0.0
 20
0.0
 30
0.0
  0
VERTEX
  5
114
330
110
100
AcDbEntity
  8
0
 62
     0
100
AcDbVertex
100
AcDb2dVertex
 10
-0.9999999999999998
 20
0.0994897959183674
 30
0.0
  0
VERTEX
  5
115
330
110
100
AcDbEntity
  8
0
 62
     0
100
AcDbVertex
100
AcDb2dVertex
 10
-0.9999999999999998
 20
-0.0994897959183674
 30
0.0
  0
SEQEND
  5
113
330
110
100
AcDbEntity
  8
0
 62
     0
  0
SOLID
  5
116
330
10C
100
AcDbEntity
  8
0
 62
     0
100
AcDbTrace
 10
-0.9999999999999998
 20
-0.0994897959183674
 30
0.0
 11
0.0
 21
0.0
 31
0.0
 12
-0.9999999999999998
 22
0.0994897959183674
 32
0.0
 13
-0.9999999999999998
 23
-0.0994897959183674
 33
0.0
  0
LINE
  5
117
330
10C
100
AcDbEntity
  8
0
 62
     0
100
AcDbLine
 10
-0.9999999999999998
 20
-0.0994897959183674
 30
0.0
 11
0.0
 21
0.0
 31
0.0
  0
LINE
  5
118
330
10C
100
AcDbEntity
  8
0
 62
     0
100
AcDbLine
 10
0.0
 20
0.0
 30
0.0
 11
-0.9999999999999998
 21
0.0994897959183674
 31
0.0
  0
LINE
  5
119
330
10C
100
AcDbEntity
  8
0
 62
     0
100
AcDbLine
 10
-0.9999999999999998
 20
0.0994897959183674
 30
0.0
 11
-0.9999999999999998
 21
-0.0994897959183674
 31
0.0
  0
ENDBLK
  5
10E
330
10C
100
AcDbEntity
  8
0
100
AcDbBlockEnd
  0
BLOCK
  5
1D2
330
1D1
100
AcDbEntity
  8
0
100
AcDbBlockBegin
  2
*D4
 70
     1
 10
0.0
 20
0.0
 30
0.0
  3
*D4
  1

  0
LINE
  5
2BE
330
1D1
100
AcDbEntity
  8
Dimension (ANSI)
440
 16777216
100
AcDbLine
 10
113.6484281434519
 20
73.93978219146625
 30
0.0
 11
113.6484281434519
 21
98.71505161103652
 31
0.0
  0
LINE
  5
2BF
330
1D1
100
AcDbEntity
  8
Dimension (ANSI)
440
 16777216
100
AcDbLine
 10
112.3196880160672
 20
97.02755161103652
 30
0.0
 11
110.9909478886825
 21
97.02755161103652
 31
0.0
  0
LINE
  5
2C0
330
1D1
100
AcDbEntity
  8
Dimension (ANSI)
440
 16777216
100
AcDbLine
 10
115.8521682708366
 20
97.02755161103652
 30
0.0
 11
117.9288654731283
 21
97.02755161103652
 31
0.0
  0
SOLID
  5
2C1
330
1D1
100
AcDbEntity
  8
Dimension (ANSI)
440
 16777216
100
AcDbTrace
 10
112.3196880160672
 20
97.24900829893396
 30
0.0
 11
112.3196880160672
 21
96.80609492313907
 31
0.0
 12
113.6484281434519
 22
97.02755161103652
 32
0.0
 13
113.6484281434519
 23
97.02755161103652
 33
0.0
  0
SOLID
  5
2C2
330
1D1
100
AcDbEntity
  8
Dimension (ANSI)
440
 16777216
100
AcDbTrace
 10
115.8521682708366
 20
97.24900829893396
 30
0.0
 11
115.8521682708366
 21
96.80609492313907
 31
0.0
 12
114.5234281434519
 22
97.02755161103652
 32
0.0
 13
114.5234281434519
 23
97.02755161103652
 33
0.0
  0
MTEXT
  5
2C3
330
1D1
100
AcDbEntity
  8
Dimension (ANSI)
440
 16777216
100
AcDbMText
 10
118.354062323522
 20
97.02755161103652
 30
0.0
 40
1.620000064373016
 41
0.0
 46
0.0
 71
     4
 72
     1
  1
\A1;0.88{\PTYP.}
  7
Note Text (ANSI)
 73
     1
 44
1.0
  0
POINT
  5
2C4
330
1D1
100
AcDbEntity
  8
Defpoints
 62
     0
440
 16777216
100
AcDbPoint
 10
114.5234281434519
 20
108.3083309350906
 30
0.0
  0
POINT
  5
2C5
330
1D1
100
AcDbEntity
  8
Defpoints
 62
     0
440
 16777216
100
AcDbPoint
 10
113.6484281434519
 20
73.09603219146625
 30
0.0
  0
POINT
  5
2C6
330
1D1
100
AcDbEntity
  8
Defpoints
 62
     0
440
 16777216
100
AcDbPoint
 10
113.6484281434519
 20
97.02755161103652
 30
0.0
  0
ENDBLK
  5
1D3
330
1D1
100
AcDbEntity
  8
0
100
AcDbBlockEnd
  0
BLOCK
  5
2DE
330
2DD
100
AcDbEntity
  8
0
100
AcDbBlockBegin
  2
*D5
 70
     1
 10
0.0
 20
0.0
 30
0.0
  3
*D5
  1

  0
LINE
  5
3BC
330
2DD
100
AcDbEntity
  8
Dimension (ANSI)
440
 16777216
100
AcDbLine
 10
47.23833000788695
 20
111.0960321914662
 30
0.0
 11
24.96838720860344
 21
111.0960321914662
 31
0.0
  0
LINE
  5
3BD
330
2DD
100
AcDbEntity
  8
Dimension (ANSI)
440
 16777216
100
AcDbLine
 10
47.23853000788698
 20
33.09603219146627
 30
0.0
 11
24.96838720860342
 21
33.09603219146627
 31
0.0
  0
LINE
  5
3BE
330
2DD
100
AcDbEntity
  8
Dimension (ANSI)
440
 16777216
100
AcDbLine
 10
26.65588720860344
 20
109.7672920640816
 30
0.0
 11
26.65588720860343
 21
73.36822033935217
 31
0.0
  0
LINE
  5
3BF
330
2DD
100
AcDbEntity
  8
Dimension (ANSI)
440
 16777216
100
AcDbLine
 10
26.65588720860343
 20
34.42477231885093
 30
0.0
 11
26.65588720860343
 21
70.82384404358034
 31
0.0
  0
SOLID
  5
3C0
330
2DD
100
AcDbEntity
  8
Dimension (ANSI)
440
 16777216
100
AcDbTrace
 10
26.434430520706
 20
109.7672920640816
 30
0.0
 11
26.87734389650089
 21
109.7672920640816
 31
0.0
 12
26.65588720860344
 22
111.0960321914662
 32
0.0
 13
26.65588720860344
 23
111.0960321914662
 33
0.0
  0
SOLID
  5
3C1
330
2DD
100
AcDbEntity
  8
Dimension (ANSI)
440
 16777216
100
AcDbTrace
 10
26.43443052070598
 20
34.42477231885093
 30
0.0
 11
26.87734389650087
 21
34.42477231885093
 31
0.0
 12
26.65588720860343
 22
33.09603219146627
 32
0.0
 13
26.65588720860343
 23
33.09603219146627
 33
0.0
  0
MTEXT
  5
3C2
330
2DD
100
AcDbEntity
  8
Dimension (ANSI)
440
 16777216
100
AcDbMText
 10
23.98489987996708
 20
72.94302348895846
 30
0.0
 40
1.620000064373016
 41
0.0
 46
0.0
 71
     1
 72
     1
  1
\A1;78.00
  7
Note Text (ANSI)
 73
     1
 44
1.0
  0
POINT
  5
3C3
330
2DD
100
AcDbEntity
  8
Defpoints
 62
     0
440
 16777216
100
AcDbPoint
 10
48.08208000788695
 20
111.0960321914662
 30
0.0
  0
POINT
  5
3C4
330
2DD
100
AcDbEntity
  8
Defpoints
 62
     0
440
 16777216
100
AcDbPoint
 10
48.08228000788698
 20
33.09603219146626
 30
0.0
  0
POINT
  5
3C5
330
2DD
100
AcDbEntity
  8
Defpoints
 62
     0
440
 16777216
100
AcDbPoint
 10
26.65588720860343
 20
33.09603219146627
 30
0.0
  0
ENDBLK
  5
2DF
330
2DD
100
AcDbEntity
  8
0
100
AcDbBlockEnd
  0
BLOCK
  5
3C8
330
3C7
100
AcDbEntity
  8
0
100
AcDbBlockBegin
  2
*D6
 70
     1
 10
0.0
 20
0.0
 30
0.0
  3
*D6
  1

  0
LINE
  5
4A6
330
3C7
100
AcDbEntity
  8
Dimension (ANSI)
440
 16777216
100
AcDbLine
 10
46.14458000788695
 20
33.97103219146625
 30
0.0
 11
41.12038136414514
 21
33.97103219146625
 31
0.0
  0
LINE
  5
4A7
330
3C7
100
AcDbEntity
  8
Dimension (ANSI)
440
 16777216
100
AcDbLine
 10
46.14458000788695
 20
72.09603219146625
 30
0.0
 11
41.12038136414514
 21
72.09603219146625
 31
0.0
  0
LINE
  5
4A8
330
3C7
100
AcDbEntity
  8
Dimension (ANSI)
440
 16777216
100
AcDbLine
 10
42.80788136414513
 20
35.29977231885091
 30
0.0
 11
42.80788136414514
 21
51.76134404358032
 31
0.0
  0
LINE
  5
4A9
330
3C7
100
AcDbEntity
  8
Dimension (ANSI)
440
 16777216
100
AcDbLine
 10
42.80788136414514
 20
70.76729206408159
 30
0.0
 11
42.80788136414514
 21
54.30572033935217
 31
0.0
  0
SOLID
  5
4AA
330
3C7
100
AcDbEntity
  8
Dimension (ANSI)
440
 16777216
100
AcDbTrace
 10
42.5864246762477
 20
35.29977231885091
 30
0.0
 11
43.02933805204258
 21
35.29977231885091
 31
0.0
 12
42.80788136414513
 22
33.97103219146625
 32
0.0
 13
42.80788136414513
 23
33.97103219146625
 33
0.0
  0
SOLID
  5
4AB
330
3C7
100
AcDbEntity
  8
Dimension (ANSI)
440
 16777216
100
AcDbTrace
 10
42.5864246762477
 20
70.76729206408159
 30
0.0
 11
43.02933805204259
 21
70.76729206408159
 31
0.0
 12
42.80788136414514
 22
72.09603219146625
 32
0.0
 13
42.80788136414514
 23
72.09603219146625
 33
0.0
  0
MTEXT
  5
4AC
330
3C7
100
AcDbEntity
  8
Dimension (ANSI)
440
 16777216
100
AcDbMText
 10
40.15375770296047
 20
53.88052348895847
 30
0.0
 40
1.620000064373016
 41
0.0
 46
0.0
 71
     1
 72
     1
  1
\A1;38.13
  7
Note Text (ANSI)
 73
     1
 44
1.0
  0
POINT
  5
4AD
330
3C7
100
AcDbEntity
  8
Defpoints
 62
     0
440
 16777216
100
AcDbPoint
 10
46.98833000788694
 20
33.97103219146625
 30
0.0
  0
POINT
  5
4AE
330
3C7
100
AcDbEntity
  8
Defpoints
 62
     0
440
 16777216
100
AcDbPoint
 10
46.98833000788694
 20
72.09603219146625
 30
0.0
  0
POINT
  5
4AF
330
3C7
100
AcDbEntity
  8
Defpoints
 62
     0
440
 16777216
100
AcDbPoint
 10
42.80788136414514
 20
72.09603219146625
 30
0.0
  0
ENDBLK
  5
3C9
330
3C7
100
AcDbEntity
  8
0
100
AcDbBlockEnd
  0
BLOCK
  5
4B2
330
4B1
100
AcDbEntity
  8
0
100
AcDbBlockBegin
  2
*D7
 70
     1
 10
0.0
 20
0.0
 30
0.0
  3
*D7
  1

  0
LINE
  5
5A5
330
4B1
100
AcDbEntity
  8
Dimension (ANSI)
440
 16777216
100
AcDbLine
 10
46.14458000788695
 20
33.97103219146625
 30
0.0
 11
44.95072539557012
 21
33.97103219146625
 31
0.0
  0
LINE
  5
5A6
330
4B1
100
AcDbEntity
  8
Dimension (ANSI)
440
 16777216
100
AcDbLine
 10
47.23853000788698
 20
33.09603219146627
 30
0.0
 11
44.95072539557012
 21
33.09603219146627
 31
0.0
  0
LINE
  5
5A7
330
4B1
100
AcDbEntity
  8
Dimension (ANSI)
440
 16777216
100
AcDbLine
 10
46.63822539557012
 20
35.29977231885091
 30
0.0
 11
46.63822539557012
 21
36.62851244623558
 31
0.0
  0
LINE
  5
5A8
330
4B1
100
AcDbEntity
  8
Dimension (ANSI)
440
 16777216
100
AcDbLine
 10
46.63822539557012
 20
31.7672920640816
 30
0.0
 11
46.63822539557012
 21
29.29419278457265
 31
0.0
  0
LINE
  5
5A9
330
4B1
100
AcDbEntity
  8
Dimension (ANSI)
440
 16777216
100
AcDbLine
 10
46.63822539557012
 20
29.29419278457265
 30
0.0
 11
45.30948526818546
 21
29.29419278457265
 31
0.0
  0
SOLID
  5
5AA
330
4B1
100
AcDbEntity
  8
Dimension (ANSI)
440
 16777216
100
AcDbTrace
 10
46.41676870767268
 20
35.29977231885091
 30
0.0
 11
46.85968208346756
 21
35.29977231885091
 31
0.0
 12
46.63822539557012
 22
33.97103219146625
 32
0.0
 13
46.63822539557012
 23
33.97103219146625
 33
0.0
  0
SOLID
  5
5AB
330
4B1
100
AcDbEntity
  8
Dimension (ANSI)
440
 16777216
100
AcDbTrace
 10
46.41676870767268
 20
31.7672920640816
 30
0.0
 11
46.85968208346756
 21
31.7672920640816
 31
0.0
 12
46.63822539557012
 22
33.09603219146627
 32
0.0
 13
46.63822539557012
 23
33.09603219146627
 33
0.0
  0
MTEXT
  5
5AC
330
4B1
100
AcDbEntity
  8
Dimension (ANSI)
440
 16777216
100
AcDbMText
 10
42.80788136414513
 20
29.29419278457266
 30
0.0
 40
1.620000064373016
 41
0.0
 46
0.0
 71
     5
 72
     1
  1
\A1;0.88
  7
Note Text (ANSI)
 73
     1
 44
1.0
  0
POINT
  5
5AD
330
4B1
100
AcDbEntity
  8
Defpoints
 62
     0
440
 16777216
100
AcDbPoint
 10
46.98833000788694
 20
33.97103219146625
 30
0.0
  0
POINT
  5
5AE
330
4B1
100
AcDbEntity
  8
Defpoints
 62
     0
440
 16777216
100
AcDbPoint
 10
48.08228000788698
 20
33.09603219146626
 30
0.0
  0
POINT
  5
5AF
330
4B1
100
AcDbEntity
  8
Defpoints
 62
     0
440
 16777216
100
AcDbPoint
 10
46.63822539557012
 20
33.09603219146627
 30
0.0
  0
ENDBLK
  5
4B3
330
4B1
100
AcDbEntity
  8
0
100
AcDbBlockEnd
  0
BLOCK
  5
5B2
330
5B1
100
AcDbEntity
  8
0
100
AcDbBlockBegin
  2
*D8
 70
     1
 10
0.0
 20
0.0
 30
0.0
  3
*D8
  1

  0
LINE
  5
690
330
5B1
100
AcDbEntity
  8
Dimension (ANSI)
440
 16777216
100
AcDbLine
 10
47.97333000788699
 20
110.0647821914662
 30
0.0
 11
47.97333000788699
 21
120.7150402589932
 31
0.0
  0
LINE
  5
691
330
5B1
100
AcDbEntity
  8
Dimension (ANSI)
440
 16777216
100
AcDbLine
 10
67.97333000788697
 20
110.0647821914662
 30
0.0
 11
67.97333000788697
 21
120.7150402589932
 31
0.0
  0
LINE
  5
692
330
5B1
100
AcDbEntity
  8
Dimension (ANSI)
440
 16777216
100
AcDbLine
 10
49.30207013527166
 20
119.0275402589932
 30
0.0
 11
54.88258572158328
 21
119.0275402589932
 31
0.0
  0
LINE
  5
693
330
5B1
100
AcDbEntity
  8
Dimension (ANSI)
440
 16777216
100
AcDbLine
 10
66.64458988050231
 20
119.0275402589932
 30
0.0
 11
61.06407429419068
 21
119.0275402589932
 31
0.0
  0
SOLID
  5
694
330
5B1
100
AcDbEntity
  8
Dimension (ANSI)
440
 16777216
100
AcDbTrace
 10
49.30207013527166
 20
119.2489969468906
 30
0.0
 11
49.30207013527166
 21
118.8060835710957
 31
0.0
 12
47.97333000788699
 22
119.0275402589932
 32
0.0
 13
47.97333000788699
 23
119.0275402589932
 33
0.0
  0
SOLID
  5
695
330
5B1
100
AcDbEntity
  8
Dimension (ANSI)
440
 16777216
100
AcDbTrace
 10
66.64458988050231
 20
119.2489969468906
 30
0.0
 11
66.64458988050231
 21
118.8060835710957
 31
0.0
 12
67.97333000788697
 22
119.0275402589932
 32
0.0
 13
67.97333000788697
 23
119.0275402589932
 33
0.0
  0
MTEXT
  5
696
330
5B1
100
AcDbEntity
  8
Dimension (ANSI)
440
 16777216
100
AcDbMText
 10
55.30778257197699
 20
119.8712676208496
 30
0.0
 40
1.620000064373016
 41
0.0
 46
0.0
 71
     1
 72
     1
  1
\A1;20.00
  7
Note Text (ANSI)
 73
     1
 44
1.0
  0
POINT
  5
697
330
5B1
100
AcDbEntity
  8
Defpoints
 62
     0
440
 16777216
100
AcDbPoint
 10
47.97333000788699
 20
109.2210321914662
 30
0.0
  0
POINT
  5
698
330
5B1
100
AcDbEntity
  8
Defpoints
 62
     0
440
 16777216
100
AcDbPoint
 10
67.97333000788697
 20
109.2210321914662
 30
0.0
  0
POINT
  5
699
330
5B1
100
AcDbEntity
  8
Defpoints
 62
     0
440
 16777216
100
AcDbPoint
 10
67.97333000788697
 20
119.0275402589932
 30
0.0
  0
ENDBLK
  5
5B3
330
5B1
100
AcDbEntity
  8
0
100
AcDbBlockEnd
  0
BLOCK
  5
69C
330
69B
100
AcDbEntity
  8
0
100
AcDbBlockBegin
  2
*D9
 70
     1
 10
0.0
 20
0.0
 30
0.0
  3
*D9
  1

  0
LINE
  5
74D
330
69B
100
AcDbEntity
  8
Dimension (ANSI)
440
 16777216
100
AcDbLine
 10
74.22656028635532
 20
39.47849091736481
 30
0.0
 11
72.49683873378718
 21
39.47849091736481
 31
0.0
  0
LINE
  5
74E
330
69B
100
AcDbEntity
  8
Dimension (ANSI)
440
 16777216
100
AcDbLine
 10
72.49683873378718
 20
39.47849091736481
 30
0.0
 11
68.12781494460421
 21
35.10946712818317
 31
0.0
  0
MTEXT
  5
74F
330
69B
100
AcDbEntity
  8
Dimension (ANSI)
440
 16777216
100
AcDbMText
 10
78.19295884586562
 20
39.47849091736481
 30
0.0
 40
1.620000064373016
 41
0.0
 46
0.0
 71
     5
 72
     1
  1
\A1;∅0.563{\P(6 PL.)}
  7
Note Text (ANSI)
 73
     1
 44
1.0
  0
SOLID
  5
750
330
69B
100
AcDbEntity
  8
Dimension (ANSI)
440
 16777216
100
AcDbTrace
 10
67.97122141885285
 20
35.26606065393459
 30
0.0
 11
68.28440847035558
 21
34.95287360243175
 31
0.0
 12
67.1882537900957
 22
34.16990597367494
 32
0.0
 13
67.1882537900957
 23
34.16990597367494
 33
0.0
  0
LINE
  5
751
330
69B
100
AcDbEntity
  8
Dimension (ANSI)
440
 16777216
100
AcDbLine
 10
65.77438000788695
 20
33.97103219146627
 30
0.0
 11
68.20438000788694
 21
33.97103219146627
 31
0.0
  0
LINE
  5
752
330
69B
100
AcDbEntity
  8
Dimension (ANSI)
440
 16777216
100
AcDbLine
 10
66.98938000788695
 20
32.75603219146626
 30
0.0
 11
66.98938000788695
 21
35.18603219146626
 31
0.0
  0
POINT
  5
753
330
69B
100
AcDbEntity
  8
Defpoints
 62
     0
440
 16777216
100
AcDbPoint
 10
67.1882537900957
 20
34.16990597367494
 30
0.0
  0
POINT
  5
754
330
69B
100
AcDbEntity
  8
Defpoints
 62
     0
440
 16777216
100
AcDbPoint
 10
66.79050622567821
 20
33.77215840925757
 30
0.0
  0
ENDBLK
  5
69D
330
69B
100
AcDbEntity
  8
0
100
AcDbBlockEnd
  0
BLOCK
  5
757
330
756
100
AcDbEntity
  8
0
100
AcDbBlockBegin
  2
*D10
 70
     1
 10
0.0
 20
0.0
 30
0.0
  3
*D10
  1

  0
LINE
  5
835
330
756
100
AcDbEntity
  8
Dimension (ANSI)
440
 16777216
100
AcDbLine
 10
48.95708000788695
 20
113.0335321914662
 30
0.0
 11
48.95708000788695
 21
116.5812341261563
 31
0.0
  0
LINE
  5
836
330
756
100
AcDbEntity
  8
Dimension (ANSI)
440
 16777216
100
AcDbLine
 10
66.98938000788695
 20
113.0335321914662
 30
0.0
 11
66.98938000788695
 21
116.5812341261563
 31
0.0
  0
LINE
  5
837
330
756
100
AcDbEntity
  8
Dimension (ANSI)
440
 16777216
100
AcDbLine
 10
50.28582013527161
 20
114.8937341261563
 30
0.0
 11
54.66108907835192
 21
114.8937341261563
 31
0.0
  0
LINE
  5
838
330
756
100
AcDbEntity
  8
Dimension (ANSI)
440
 16777216
100
AcDbLine
 10
65.66063988050228
 20
114.8937341261563
 30
0.0
 11
60.67938086916889
 21
114.8937341261563
 31
0.0
  0
SOLID
  5
839
330
756
100
AcDbEntity
  8
Dimension (ANSI)
440
 16777216
100
AcDbTrace
 10
50.28582013527161
 20
115.1151908140538
 30
0.0
 11
50.28582013527161
 21
114.6722774382589
 31
0.0
 12
48.95708000788695
 22
114.8937341261563
 32
0.0
 13
48.95708000788695
 23
114.8937341261563
 33
0.0
  0
SOLID
  5
83A
330
756
100
AcDbEntity
  8
Dimension (ANSI)
440
 16777216
100
AcDbTrace
 10
65.66063988050228
 20
115.1151908140538
 30
0.0
 11
65.66063988050228
 21
114.6722774382589
 31
0.0
 12
66.98938000788695
 22
114.8937341261563
 32
0.0
 13
66.98938000788695
 23
114.8937341261563
 33
0.0
  0
MTEXT
  5
83B
330
756
100
AcDbEntity
  8
Dimension (ANSI)
440
 16777216
100
AcDbMText
 10
55.08628592874561
 20
115.7407254236486
 30
0.0
 40
1.620000064373016
 41
0.0
 46
0.0
 71
     1
 72
     1
  1
\A1;18.03
  7
Note Text (ANSI)
 73
     1
 44
1.0
  0
POINT
  5
83C
330
756
100
AcDbEntity
  8
Defpoints
 62
     0
440
 16777216
100
AcDbPoint
 10
48.95708000788695
 20
112.1897821914662
 30
0.0
  0
POINT
  5
83D
330
756
100
AcDbEntity
  8
Defpoints
 62
     0
440
 16777216
100
AcDbPoint
 10
66.98938000788695
 20
112.1897821914662
 30
0.0
  0
POINT
  5
83E
330
756
100
AcDbEntity
  8
Defpoints
 62
     0
440
 16777216
100
AcDbPoint
 10
66.98938000788695
 20
114.8937341261563
 30
0.0
  0
ENDBLK
  5
758
330
756
100
AcDbEntity
  8
0
100
AcDbBlockEnd
  0
BLOCK
  5
841
330
840
100
AcDbEntity
  8
0
100
AcDbBlockBegin
  2
*D11
 70
     1
 10
0.0
 20
0.0
 30
0.0
  3
*D11
  1

  0
LINE
  5
91F
330
840
100
AcDbEntity
  8
Dimension (ANSI)
440
 16777216
100
AcDbLine
 10
47.97333000788699
 20
110.0647821914662
 30
0.0
 11
47.97333000788699
 21
116.5812341261563
 31
0.0
  0
LINE
  5
920
330
840
100
AcDbEntity
  8
Dimension (ANSI)
440
 16777216
100
AcDbLine
 10
48.95708000788695
 20
113.0335321914662
 30
0.0
 11
48.95708000788695
 21
116.5812341261563
 31
0.0
  0
LINE
  5
921
330
840
100
AcDbEntity
  8
Dimension (ANSI)
440
 16777216
100
AcDbLine
 10
50.28582013527161
 20
114.8937341261563
 30
0.0
 11
51.61456026265628
 21
114.8937341261563
 31
0.0
  0
LINE
  5
922
330
840
100
AcDbEntity
  8
Dimension (ANSI)
440
 16777216
100
AcDbLine
 10
46.64458988050233
 20
114.8937341261563
 30
0.0
 11
44.62929051758663
 21
114.8937341261563
 31
0.0
  0
SOLID
  5
923
330
840
100
AcDbEntity
  8
Dimension (ANSI)
440
 16777216
100
AcDbTrace
 10
50.28582013527161
 20
115.1151908140538
 30
0.0
 11
50.28582013527161
 21
114.6722774382589
 31
0.0
 12
48.95708000788695
 22
114.8937341261563
 32
0.0
 13
48.95708000788695
 23
114.8937341261563
 33
0.0
  0
SOLID
  5
924
330
840
100
AcDbEntity
  8
Dimension (ANSI)
440
 16777216
100
AcDbTrace
 10
46.64458988050233
 20
115.1151908140538
 30
0.0
 11
46.64458988050233
 21
114.6722774382589
 31
0.0
 12
47.97333000788699
 22
114.8937341261563
 32
0.0
 13
47.97333000788699
 23
114.8937341261563
 33
0.0
  0
MTEXT
  5
925
330
840
100
AcDbEntity
  8
Dimension (ANSI)
440
 16777216
100
AcDbMText
 10
40.05127955989968
 20
115.7407254236486
 30
0.0
 40
1.620000064373016
 41
0.0
 46
0.0
 71
     1
 72
     1
  1
\A1;0.98
  7
Note Text (ANSI)
 73
     1
 44
1.0
  0
POINT
  5
926
330
840
100
AcDbEntity
  8
Defpoints
 62
     0
440
 16777216
100
AcDbPoint
 10
47.97333000788699
 20
109.2210321914662
 30
0.0
  0
POINT
  5
927
330
840
100
AcDbEntity
  8
Defpoints
 62
     0
440
 16777216
100
AcDbPoint
 10
48.95708000788695
 20
112.1897821914662
 30
0.0
  0
POINT
  5
928
330
840
100
AcDbEntity
  8
Defpoints
 62
     0
440
 16777216
100
AcDbPoint
 10
48.95708000788695
 20
114.8937341261563
 30
0.0
  0
ENDBLK
  5
842
330
840
100
AcDbEntity
  8
0
100
AcDbBlockEnd
  0
BLOCK
  5
92B
330
92A
100
AcDbEntity
  8
0
100
AcDbBlockBegin
  2
*D12
 70
     1
 10
0.0
 20
0.0
 30
0.0
  3
*D12
  1

  0
LINE
  5
A09
330
92A
100
AcDbEntity
  8
Dimension (ANSI)
440
 16777216
100
AcDbLine
 10
46.14458000788695
 20
110.2210321914662
 30
0.0
 11
34.03975289079261
 21
110.2210321914662
 31
0.0
  0
LINE
  5
A0A
330
92A
100
AcDbEntity
  8
Dimension (ANSI)
440
 16777216
100
AcDbLine
 10
46.14458000788695
 20
33.97103219146625
 30
0.0
 11
34.0397528907926
 21
33.97103219146625
 31
0.0
  0
LINE
  5
A0B
330
92A
100
AcDbEntity
  8
Dimension (ANSI)
440
 16777216
100
AcDbLine
 10
35.72725289079262
 20
108.8922920640815
 30
0.0
 11
35.72725289079261
 21
73.36495640371635
 31
0.0
  0
LINE
  5
A0C
330
92A
100
AcDbEntity
  8
Dimension (ANSI)
440
 16777216
100
AcDbLine
 10
35.7272528907926
 20
35.29977231885091
 30
0.0
 11
35.72725289079261
 21
70.82710797921612
 31
0.0
  0
SOLID
  5
A0D
330
92A
100
AcDbEntity
  8
Dimension (ANSI)
440
 16777216
100
AcDbTrace
 10
35.50579620289517
 20
108.8922920640815
 30
0.0
 11
35.94870957869006
 21
108.8922920640815
 31
0.0
 12
35.72725289079262
 22
110.2210321914662
 32
0.0
 13
35.72725289079262
 23
110.2210321914662
 33
0.0
  0
SOLID
  5
A0E
330
92A
100
AcDbEntity
  8
Dimension (ANSI)
440
 16777216
100
AcDbTrace
 10
35.50579620289516
 20
35.29977231885091
 30
0.0
 11
35.94870957869004
 21
35.29977231885091
 31
0.0
 12
35.7272528907926
 22
33.97103219146625
 32
0.0
 13
35.7272528907926
 23
33.97103219146625
 33
0.0
  0
MTEXT
  5
A0F
330
92A
100
AcDbEntity
  8
Dimension (ANSI)
440
 16777216
100
AcDbMText
 10
33.06932130469949
 20
72.93975955332266
 30
0.0
 40
1.620000064373016
 41
0.0
 46
0.0
 71
     1
 72
     1
  1
\A1;76.25
  7
Note Text (ANSI)
 73
     1
 44
1.0
  0
POINT
  5
A10
330
92A
100
AcDbEntity
  8
Defpoints
 62
     0
440
 16777216
100
AcDbPoint
 10
46.98833000788694
 20
110.2210321914662
 30
0.0
  0
POINT
  5
A11
330
92A
100
AcDbEntity
  8
Defpoints
 62
     0
440
 16777216
100
AcDbPoint
 10
46.98833000788694
 20
33.97103219146625
 30
0.0
  0
POINT
  5
A12
330
92A
100
AcDbEntity
  8
Defpoints
 62
     0
440
 16777216
100
AcDbPoint
 10
35.7272528907926
 20
33.97103219146625
 30
0.0
  0
ENDBLK
  5
92C
330
92A
100
AcDbEntity
  8
0
100
AcDbBlockEnd
  0
BLOCK
  5
A18
330
A17
100
AcDbEntity
  8
0
100
AcDbBlockBegin
  2
*D13
 70
     1
 10
0.0
 20
0.0
 30
0.0
  3
*D13
  1

  0
LINE
  5
B07
330
A17
100
AcDbEntity
  8
Dimension (ANSI)
440
 16777216
100
AcDbLine
 10
112.3196880160672
 20
109.7232413634879
 30
0.0
 11
110.9909478886825
 21
109.7232413634879
 31
0.0
  0
LINE
  5
B08
330
A17
100
AcDbEntity
  8
Dimension (ANSI)
440
 16777216
100
AcDbLine
 10
115.0709182708365
 20
109.7232413634879
 30
0.0
 11
119.4734700752036
 21
109.7232413634879
 31
0.0
  0
SOLID
  5
B09
330
A17
100
AcDbEntity
  8
Dimension (ANSI)
440
 16777216
100
AcDbTrace
 10
112.3196880160672
 20
109.9446980513853
 30
0.0
 11
112.3196880160672
 21
109.5017846755904
 31
0.0
 12
113.6484281434519
 22
109.7232413634879
 32
0.0
 13
113.6484281434519
 23
109.7232413634879
 33
0.0
  0
SOLID
  5
B0A
330
A17
100
AcDbEntity
  8
Dimension (ANSI)
440
 16777216
100
AcDbTrace
 10
115.0709182708365
 20
109.9446980513853
 30
0.0
 11
115.0709182708365
 21
109.5017846755904
 31
0.0
 12
113.7421781434519
 22
109.7232413634879
 32
0.0
 13
113.7421781434519
 23
109.7232413634879
 33
0.0
  0
MTEXT
  5
B0B
330
A17
100
AcDbEntity
  8
Dimension (ANSI)
440
 16777216
100
AcDbMText
 10
126.3264441710488
 20
109.7232413634879
 30
0.0
 40
1.620000064373016
 41
0.0
 46
0.0
 71
     5
 72
     1
  1
\A1;{12 GA. C.R.S.\P}(0.094)
  7
Note Text (ANSI)
 73
     1
 44
1.0
  0
POINT
  5
B0C
330
A17
100
AcDbEntity
  8
Defpoints
 62
     0
440
 16777216
100
AcDbPoint
 10
113.7421781434519
 20
109.7232413634879
 30
0.0
  0
POINT
  5
B0D
330
A17
100
AcDbEntity
  8
Defpoints
 62
     0
440
 16777216
100
AcDbPoint
 10
113.6484281434519
 20
109.7232413634879
 30
0.0
  0
POINT
  5
B0E
330
A17
100
AcDbEntity
  8
Defpoints
 62
     0
440
 16777216
100
AcDbPoint
 10
113.6484281434519
 20
109.7232413634879
 30
0.0
  0
ENDBLK
  5
A19
330
A17
100
AcDbEntity
  8
0
100
AcDbBlockEnd
  0
ENDSEC
  0
SECTION
  2
ENTITIES
  0
CIRCLE
  5
11B
330
6C
100
AcDbEntity
  8
Visible (ANSI)
100
AcDbCircle
 10
66.98938000788695
 20
72.09603219146625
 30
0.0
 40
0.28125
  0
CIRCLE
  5
11C
330
6C
100
AcDbEntity
  8
Visible (ANSI)
100
AcDbCircle
 10
48.95708000788694
 20
72.09603219146625
 30
0.0
 40
0.28125
  0
CIRCLE
  5
11D
330
6C
100
AcDbEntity
  8
Visible (ANSI)
100
AcDbCircle
 10
66.98938000788695
 20
33.97103219146625
 30
0.0
 40
0.28125
  0
CIRCLE
  5
11E
330
6C
100
AcDbEntity
  8
Visible (ANSI)
100
AcDbCircle
 10
48.95708000788694
 20
33.97103219146625
 30
0.0
 40
0.28125
  0
CIRCLE
  5
11F
330
6C
100
AcDbEntity
  8
Visible (ANSI)
100
AcDbCircle
 10
66.98938000788695
 20
110.2210321914662
 30
0.0
 40
0.28125
  0
CIRCLE
  5
120
330
6C
100
AcDbEntity
  8
Visible (ANSI)
100
AcDbCircle
 10
48.95708000788694
 20
110.2210321914662
 30
0.0
 40
0.28125
  0
LINE
  5
121
330
6C
100
AcDbEntity
  8
Visible (ANSI)
100
AcDbLine
 10
48.08208000788694
 20
73.09603219146625
 30
0.0
 11
47.97333000788699
 21
73.09603219146625
 31
0.0
  0
LINE
  5
122
330
6C
100
AcDbEntity
  8
Visible (ANSI)
100
AcDbLine
 10
47.97333000788699
 20
71.09603219146624
 30
0.0
 11
48.08208000788694
 21
71.09603219146624
 31
0.0
  0
LINE
  5
123
330
6C
100
AcDbEntity
  8
Visible (ANSI)
100
AcDbLine
 10
48.08208000788694
 20
73.09603219146625
 30
0.0
 11
48.08208000788694
 21
71.09603219146624
 31
0.0
  0
LINE
  5
124
330
6C
100
AcDbEntity
  8
Hidden (ANSI)
 48
1.078828334808349
100
AcDbLine
 10
48.06708000788701
 20
34.97103219146625
 30
0.0
 11
48.06708000788687
 21
71.09603219146624
 31
0.0
  0
LINE
  5
125
330
6C
100
AcDbEntity
  8
Hidden (ANSI)
 48
1.078828334808349
100
AcDbLine
 10
48.06708000788686
 20
73.09603219146625
 30
0.0
 11
48.06708000788699
 21
109.2210321914662
 31
0.0
  0
LINE
  5
126
330
6C
100
AcDbEntity
  8
Visible (ANSI)
100
AcDbLine
 10
47.97333000788687
 20
71.09603219146624
 30
0.0
 11
47.97333000788701
 21
34.97103219146626
 31
0.0
  0
LINE
  5
127
330
6C
100
AcDbEntity
  8
Visible (ANSI)
100
AcDbLine
 10
47.97333000788702
 20
34.97103219146626
 30
0.0
 11
48.08208000788697
 21
34.97103219146626
 31
0.0
  0
LINE
  5
128
330
6C
100
AcDbEntity
  8
Visible (ANSI)
100
AcDbLine
 10
47.97333000788699
 20
109.2210321914662
 30
0.0
 11
47.97333000788699
 21
73.09603219146625
 31
0.0
  0
LINE
  5
129
330
6C
100
AcDbEntity
  8
Visible (ANSI)
100
AcDbLine
 10
47.97333000788699
 20
109.2210321914662
 30
0.0
 11
48.08208000788694
 21
109.2210321914662
 31
0.0
  0
LINE
  5
12A
330
6C
100
AcDbEntity
  8
Visible (ANSI)
100
AcDbLine
 10
48.08228000788697
 20
34.97103219146626
 30
0.0
 11
48.08228000788698
 21
33.09603219146626
 31
0.0
  0
LINE
  5
12B
330
6C
100
AcDbEntity
  8
Visible (ANSI)
100
AcDbLine
 10
48.08228000788695
 20
109.2212321914662
 30
0.0
 11
48.08228000788695
 21
109.2210321914662
 31
0.0
  0
LINE
  5
12C
330
6C
100
AcDbEntity
  8
Visible (ANSI)
100
AcDbLine
 10
48.08208000788694
 20
109.2212321914662
 30
0.0
 11
48.08228000788695
 21
109.2212321914662
 31
0.0
  0
LINE
  5
12D
330
6C
100
AcDbEntity
  8
Visible (ANSI)
100
AcDbLine
 10
67.86438000788699
 20
71.09603219146624
 30
0.0
 11
67.86438000788699
 21
73.09603219146625
 31
0.0
  0
LINE
  5
12E
330
6C
100
AcDbEntity
  8
Visible (ANSI)
100
AcDbLine
 10
67.86458000788697
 20
71.09603219146625
 30
0.0
 11
67.86438000788699
 21
71.09603219146624
 31
0.0
  0
LINE
  5
12F
330
6C
100
AcDbEntity
  8
Visible (ANSI)
100
AcDbLine
 10
67.86458000788697
 20
71.09603219146624
 30
0.0
 11
67.97333000788697
 21
71.09603219146624
 31
0.0
  0
LINE
  5
130
330
6C
100
AcDbEntity
  8
Visible (ANSI)
100
AcDbLine
 10
67.97333000788697
 20
73.09603219146625
 30
0.0
 11
67.86458000788697
 21
73.09603219146625
 31
0.0
  0
LINE
  5
131
330
6C
100
AcDbEntity
  8
Visible (ANSI)
100
AcDbLine
 10
67.86438000788699
 20
73.09603219146625
 30
0.0
 11
67.86458000788697
 21
73.09603219146625
 31
0.0
  0
LINE
  5
132
330
6C
100
AcDbEntity
  8
Hidden (ANSI)
 48
1.078828334808349
100
AcDbLine
 10
67.87958000788697
 20
71.09603219146624
 30
0.0
 11
67.87958000788697
 21
34.97103219146627
 31
0.0
  0
LINE
  5
133
330
6C
100
AcDbEntity
  8
Hidden (ANSI)
 48
1.078828334808349
100
AcDbLine
 10
67.87958000788697
 20
109.2210321914662
 30
0.0
 11
67.87958000788697
 21
73.09603219146625
 31
0.0
  0
LINE
  5
134
330
6C
100
AcDbEntity
  8
Visible (ANSI)
100
AcDbLine
 10
67.97333000788698
 20
34.97103219146627
 30
0.0
 11
67.864580007887
 21
34.97103219146627
 31
0.0
  0
LINE
  5
135
330
6C
100
AcDbEntity
  8
Visible (ANSI)
100
AcDbLine
 10
67.97333000788698
 20
34.97103219146627
 30
0.0
 11
67.97333000788697
 21
71.09603219146624
 31
0.0
  0
LINE
  5
136
330
6C
100
AcDbEntity
  8
Visible (ANSI)
100
AcDbLine
 10
67.97333000788698
 20
73.09603219146625
 30
0.0
 11
67.97333000788697
 21
109.2210321914662
 31
0.0
  0
LINE
  5
137
330
6C
100
AcDbEntity
  8
Visible (ANSI)
100
AcDbLine
 10
67.97333000788697
 20
109.2210321914662
 30
0.0
 11
67.86458000788698
 21
109.2210321914662
 31
0.0
  0
LINE
  5
138
330
6C
100
AcDbEntity
  8
Visible (ANSI)
100
AcDbLine
 10
67.864580007887
 20
34.97083219146627
 30
0.0
 11
67.86438000788701
 21
34.97083219146627
 31
0.0
  0
LINE
  5
139
330
6C
100
AcDbEntity
  8
Visible (ANSI)
100
AcDbLine
 10
67.86438000788698
 20
109.2210321914662
 30
0.0
 11
67.86438000788699
 21
111.0960321914662
 31
0.0
  0
LINE
  5
13A
330
6C
100
AcDbEntity
  8
Visible (ANSI)
100
AcDbLine
 10
67.86438000788701
 20
34.97083219146627
 30
0.0
 11
67.86438000788701
 21
34.97103219146627
 31
0.0
  0
LINE
  5
13B
330
6C
100
AcDbEntity
  8
Visible (ANSI)
100
AcDbLine
 10
67.864580007887
 20
33.09603219146626
 30
0.0
 11
67.864580007887
 21
34.97083219146627
 31
0.0
  0
LINE
  5
13C
330
6C
100
AcDbEntity
  8
Visible (ANSI)
100
AcDbLine
 10
48.08208000788694
 20
111.0960321914662
 30
0.0
 11
48.08208000788694
 21
109.2212321914662
 31
0.0
  0
LINE
  5
13D
330
6C
100
AcDbEntity
  8
Visible (ANSI)
100
AcDbLine
 10
48.08208000788694
 20
111.0960321914662
 30
0.0
 11
67.86438000788699
 21
111.0960321914662
 31
0.0
  0
LINE
  5
13E
330
6C
100
AcDbEntity
  8
Visible (ANSI)
100
AcDbLine
 10
67.864580007887
 20
33.09603219146626
 30
0.0
 11
48.08228000788698
 21
33.09603219146626
 31
0.0
  0
LINE
  5
13F
330
6C
100
AcDbEntity
  8
Visible (ANSI)
100
AcDbLine
 10
48.08228000788695
 20
109.2210321914662
 30
0.0
 11
48.08208000788694
 21
109.2210321914662
 31
0.0
  0
LINE
  5
140
330
6C
100
AcDbEntity
  8
Visible (ANSI)
100
AcDbLine
 10
48.08208000788697
 20
34.97103219146626
 30
0.0
 11
48.08228000788697
 21
34.97103219146626
 31
0.0
  0
LINE
  5
141
330
6C
100
AcDbEntity
  8
Visible (ANSI)
100
AcDbLine
 10
67.86438000788701
 20
34.97103219146627
 30
0.0
 11
67.864580007887
 21
34.97103219146627
 31
0.0
  0
LINE
  5
142
330
6C
100
AcDbEntity
  8
Visible (ANSI)
100
AcDbLine
 10
67.86458000788698
 20
109.2210321914662
 30
0.0
 11
67.86438000788698
 21
109.2210321914662
 31
0.0
  0
MTEXT
  5
144
330
6C
100
AcDbEntity
  8
Symbol (ANSI)
100
AcDbMText
 10
51.79783621802109
 20
25.62202500712627
 30
0.0
 40
1.620000020021528
 41
0.0
 46
0.0
 71
     7
 72
     1
  1
FRONT VIEW
  7
Text Style153
 73
     1
 44
1.0
  0
LINE
  5
146
330
6C
100
AcDbEntity
  8
Symbol (ANSI)
370
    30
100
AcDbLine
 10
51.63583580129787
 20
25.29165790256525
 30
0.0
 11
64.66016335915451
 21
25.29165790256525
 31
0.0
  0
LINE
  5
147
330
6C
100
AcDbEntity
  8
Visible (ANSI)
100
AcDbLine
 10
113.7421781434519
 20
73.09603219146625
 30
0.0
 11
113.7421781434519
 21
71.09603219146625
 31
0.0
  0
LINE
  5
148
330
6C
100
AcDbEntity
  8
Visible (ANSI)
100
AcDbLine
 10
113.6484281434519
 20
71.09603219146624
 30
0.0
 11
113.6484281434519
 21
73.09603219146625
 31
0.0
  0
LINE
  5
149
330
6C
100
AcDbEntity
  8
Visible (ANSI)
100
AcDbLine
 10
113.6484281434519
 20
71.09603219146624
 30
0.0
 11
113.7571781434519
 21
71.09603219146624
 31
0.0
  0
LINE
  5
14A
330
6C
100
AcDbEntity
  8
Visible (ANSI)
100
AcDbLine
 10
114.5234281434518
 20
71.09603219146624
 30
0.0
 11
113.7571781434519
 21
71.09603219146624
 31
0.0
  0
LINE
  5
14B
330
6C
100
AcDbEntity
  8
Visible (ANSI)
100
AcDbLine
 10
113.7571781434519
 20
73.09603219146625
 30
0.0
 11
114.5234281434518
 21
73.09603219146625
 31
0.0
  0
LINE
  5
14C
330
6C
100
AcDbEntity
  8
Visible (ANSI)
100
AcDbLine
 10
113.7571781434519
 20
73.09603219146625
 30
0.0
 11
113.6484281434519
 21
73.09603219146625
 31
0.0
  0
LINE
  5
14D
330
6C
100
AcDbEntity
  8
Hidden (ANSI)
 48
1.078828334808349
100
AcDbLine
 10
113.7421781434519
 20
71.09603219146624
 30
0.0
 11
113.7421781434519
 21
34.97103219146627
 31
0.0
  0
LINE
  5
14E
330
6C
100
AcDbEntity
  8
Hidden (ANSI)
 48
1.078828334808349
100
AcDbLine
 10
113.7421781434519
 20
109.2210321914662
 30
0.0
 11
113.7421781434519
 21
73.09603219146625
 31
0.0
  0
LINE
  5
14F
330
6C
100
AcDbEntity
  8
Visible (ANSI)
100
AcDbLine
 10
113.7421781434519
 20
34.97103219146627
 30
0.0
 11
113.7421781434519
 21
34.97083219146627
 31
0.0
  0
LINE
  5
150
330
6C
100
AcDbEntity
  8
Visible (ANSI)
100
AcDbLine
 10
113.7421781434519
 20
111.0960321914662
 30
0.0
 11
113.7421781434519
 21
109.2210321914662
 31
0.0
  0
LINE
  5
151
330
6C
100
AcDbEntity
  8
Visible (ANSI)
100
AcDbLine
 10
113.6484281434519
 20
34.97103219146627
 30
0.0
 11
113.6484281434519
 21
71.09603219146625
 31
0.0
  0
LINE
  5
152
330
6C
100
AcDbEntity
  8
Visible (ANSI)
100
AcDbLine
 10
113.7571781434519
 20
34.97103219146627
 30
0.0
 11
113.6484281434519
 21
34.97103219146627
 31
0.0
  0
LINE
  5
153
330
6C
100
AcDbEntity
  8
Visible (ANSI)
100
AcDbLine
 10
113.7571781434519
 20
109.2210321914662
 30
0.0
 11
113.6484281434519
 21
109.2210321914662
 31
0.0
  0
LINE
  5
154
330
6C
100
AcDbEntity
  8
Visible (ANSI)
100
AcDbLine
 10
113.6484281434519
 20
73.09603219146625
 30
0.0
 11
113.6484281434519
 21
109.2210321914662
 31
0.0
  0
LINE
  5
155
330
6C
100
AcDbEntity
  8
Visible (ANSI)
100
AcDbLine
 10
113.6484281434519
 20
111.0960321914662
 30
0.0
 11
113.7421781434519
 21
111.0960321914662
 31
0.0
  0
LINE
  5
156
330
6C
100
AcDbEntity
  8
Visible (ANSI)
100
AcDbLine
 10
113.6484281434519
 20
109.2210321914662
 30
0.0
 11
113.6484281434519
 21
111.0960321914662
 31
0.0
  0
LINE
  5
157
330
6C
100
AcDbEntity
  8
Visible (ANSI)
100
AcDbLine
 10
113.6484281434519
 20
34.97083219146627
 30
0.0
 11
113.6484281434519
 21
34.97103219146627
 31
0.0
  0
LINE
  5
158
330
6C
100
AcDbEntity
  8
Visible (ANSI)
100
AcDbLine
 10
113.7421781434519
 20
34.97083219146627
 30
0.0
 11
113.7421781434519
 21
33.09603219146626
 31
0.0
  0
LINE
  5
159
330
6C
100
AcDbEntity
  8
Visible (ANSI)
100
AcDbLine
 10
113.6484281434519
 20
34.97083219146627
 30
0.0
 11
113.7421781434519
 21
34.97083219146627
 31
0.0
  0
LINE
  5
15A
330
6C
100
AcDbEntity
  8
Visible (ANSI)
100
AcDbLine
 10
113.6484281434519
 20
33.09603219146626
 30
0.0
 11
113.6484281434519
 21
34.97083219146627
 31
0.0
  0
LINE
  5
15B
330
6C
100
AcDbEntity
  8
Visible (ANSI)
100
AcDbLine
 10
113.7421781434519
 20
33.09603219146626
 30
0.0
 11
113.6484281434519
 21
33.09603219146626
 31
0.0
  0
LINE
  5
15C
330
6C
100
AcDbEntity
  8
Visible (ANSI)
100
AcDbLine
 10
114.5234281434518
 20
71.09603219146624
 30
0.0
 11
114.5234281434519
 21
34.97103219146626
 31
0.0
  0
LINE
  5
15D
330
6C
100
AcDbEntity
  8
Visible (ANSI)
100
AcDbLine
 10
113.7571781434519
 20
34.97103219146627
 30
0.0
 11
114.5234281434519
 21
34.97103219146626
 31
0.0
  0
LINE
  5
15E
330
6C
100
AcDbEntity
  8
Visible (ANSI)
100
AcDbLine
 10
114.5234281434519
 20
109.2210321914662
 30
0.0
 11
114.5234281434518
 21
73.09603219146625
 31
0.0
  0
LINE
  5
15F
330
6C
100
AcDbEntity
  8
Visible (ANSI)
100
AcDbLine
 10
114.5234281434519
 20
109.2210321914662
 30
0.0
 11
113.7571781434519
 21
109.2210321914662
 31
0.0
  0
LINE
  5
160
330
6C
100
AcDbEntity
  8
Hidden (ANSI)
 48
0.0131270596757531
100
AcDbLine
 10
113.648428143446
 20
109.2212321914662
 30
0.0
 11
113.742178143446
 21
109.2212321914662
 31
0.0
  0
LINE
  5
161
330
6C
100
AcDbEntity
  8
Hidden (ANSI)
 48
0.0131270596757531
100
AcDbLine
 10
113.7421781434516
 20
71.81478219146625
 30
0.0
 11
113.6484281434516
 21
71.81478219146625
 31
0.0
  0
LINE
  5
162
330
6C
100
AcDbEntity
  8
Hidden (ANSI)
 48
0.0131270596757531
100
AcDbLine
 10
113.7421781434516
 20
72.37728219146625
 30
0.0
 11
113.6484281434516
 21
72.37728219146625
 31
0.0
  0
LINE
  5
163
330
6C
100
AcDbEntity
  8
Hidden (ANSI)
 48
0.0131270596757531
100
AcDbLine
 10
113.7421781434516
 20
33.68978219146625
 30
0.0
 11
113.6484281434516
 21
33.68978219146625
 31
0.0
  0
LINE
  5
164
330
6C
100
AcDbEntity
  8
Hidden (ANSI)
 48
0.0131270596757531
100
AcDbLine
 10
113.7421781434516
 20
34.25228219146626
 30
0.0
 11
113.6484281434516
 21
34.25228219146626
 31
0.0
  0
LINE
  5
165
330
6C
100
AcDbEntity
  8
Hidden (ANSI)
 48
0.0131270596757531
100
AcDbLine
 10
113.7421781434516
 20
109.9397821914662
 30
0.0
 11
113.6484281434516
 21
109.9397821914662
 31
0.0
  0
LINE
  5
166
330
6C
100
AcDbEntity
  8
Hidden (ANSI)
 48
0.0131270596757531
100
AcDbLine
 10
113.7421781434516
 20
110.5022821914662
 30
0.0
 11
113.6484281434516
 21
110.5022821914662
 31
0.0
  0
MTEXT
  5
167
330
6C
100
AcDbEntity
  8
Symbol (ANSI)
100
AcDbMText
 10
110.004661145924
 20
25.80711061973998
 30
0.0
 40
1.620000020021528
 41
0.0
 46
0.0
 71
     7
 72
     1
  1
SIDE VIEW
  7
Text Style153
 73
     1
 44
1.0
  0
LINE
  5
168
330
6C
100
AcDbEntity
  8
Symbol (ANSI)
370
    30
100
AcDbLine
 10
109.9217169325617
 20
25.47149230151644
 30
0.0
 11
120.8691885080359
 21
25.47149230151644
 31
0.0
  0
ELLIPSE
  5
169
330
6C
100
AcDbEntity
  8
Visible (ANSI)
100
AcDbEllipse
 10
181.444428692477
 20
67.76540652133004
 30
0.0
 11
-0.1578969106966282
 21
0.274192415342809
 31
0.0
210
0.0
220
0.0
230
1.0
 40
0.578093115915809
 41
0.0
 42
6.283185307179586
  0
ELLIPSE
  5
16A
330
6C
100
AcDbEntity
  8
Visible (ANSI)
100
AcDbEllipse
 10
181.5190063608052
 20
67.80835294426907
 30
0.0
 11
-0.1578969106966283
 21
0.2741924153428091
 31
0.0
210
0.0
220
0.0
230
1.0
 40
0.578093115915809
 41
0.2374735152854966
 42
2.904119138304421
  0
ELLIPSE
  5
16B
330
6C
100
AcDbEntity
  8
Visible (ANSI)
100
AcDbEllipse
 10
167.0998218807859
 20
76.02591619987359
 30
0.0
 11
-0.1578969106966282
 21
0.274192415342809
 31
0.0
210
0.0
220
0.0
230
1.0
 40
0.578093115915809
 41
0.0
 42
6.283185307179586
  0
ELLIPSE
  5
16C
330
6C
100
AcDbEntity
  8
Visible (ANSI)
100
AcDbEllipse
 10
167.1743995491141
 20
76.06886262281263
 30
0.0
 11
-0.1578969106966272
 21
0.2741924153428072
 31
0.0
210
0.0
220
0.0
230
0.9999999999999998
 40
0.578093115915809
 41
0.2374735152853855
 42
2.904119138304346
  0
ELLIPSE
  5
16D
330
6C
100
AcDbEntity
  8
Visible (ANSI)
100
AcDbEllipse
 10
181.4444286924768
 20
32.7002993698806
 30
0.0
 11
-0.1578969106966282
 21
0.274192415342809
 31
0.0
210
0.0
220
0.0
230
1.0
 40
0.578093115915809
 41
0.0
 42
6.283185307179586
  0
ELLIPSE
  5
16E
330
6C
100
AcDbEntity
  8
Visible (ANSI)
100
AcDbEllipse
 10
181.5190063608051
 20
32.74324579281965
 30
0.0
 11
-0.157896910696628
 21
0.2741924153428085
 31
0.0
210
0.0
220
0.0
230
1.0
 40
0.5780931159158089
 41
0.2374735152854966
 42
2.904119138304431
  0
ELLIPSE
  5
16F
330
6C
100
AcDbEntity
  8
Visible (ANSI)
100
AcDbEllipse
 10
167.0998218807858
 20
40.96080904842415
 30
0.0
 11
-0.1578969106966282
 21
0.274192415342809
 31
0.0
210
0.0
220
0.0
230
1.0
 40
0.578093115915809
 41
0.0
 42
6.283185307179586
  0
ELLIPSE
  5
170
330
6C
100
AcDbEntity
  8
Visible (ANSI)
100
AcDbEllipse
 10
167.1743995491141
 20
41.00375547136319
 30
0.0
 11
-0.1578969106966284
 21
0.2741924153428092
 31
0.0
210
0.0
220
0.0
230
1.0
 40
0.5780931159158092
 41
0.2374735152854166
 42
2.904119138304337
  0
ELLIPSE
  5
171
330
6C
100
AcDbEntity
  8
Visible (ANSI)
100
AcDbEllipse
 10
181.444428692477
 20
102.8305136727794
 30
0.0
 11
-0.1578969106966282
 21
0.274192415342809
 31
0.0
210
0.0
220
0.0
230
1.0
 40
0.578093115915809
 41
0.0
 42
6.283185307179586
  0
ELLIPSE
  5
172
330
6C
100
AcDbEntity
  8
Visible (ANSI)
100
AcDbEllipse
 10
181.5190063608053
 20
102.8734600957185
 30
0.0
 11
-0.1578969106966319
 21
0.2741924153428154
 31
0.0
210
0.0
220
0.0
230
1.0
 40
0.578093115915809
 41
0.2374735152854657
 42
2.904119138304421
  0
ELLIPSE
  5
173
330
6C
100
AcDbEntity
  8
Visible (ANSI)
100
AcDbEllipse
 10
167.0998218807859
 20
111.091023351323
 30
0.0
 11
-0.1578969106966282
 21
0.274192415342809
 31
0.0
210
0.0
220
0.0
230
1.0
 40
0.578093115915809
 41
0.0
 42
6.283185307179586
  0
ELLIPSE
  5
174
330
6C
100
AcDbEntity
  8
Visible (ANSI)
100
AcDbEllipse
 10
167.1743995491142
 20
111.133969774262
 30
0.0
 11
-0.1578969106966315
 21
0.2741924153428146
 31
0.0
210
0.0
220
0.0
230
1.0
 40
0.578093115915809
 41
0.2374735152853233
 42
2.904119138304233
  0
ELLIPSE
  5
175
330
6C
100
AcDbEntity
  8
Visible (ANSI)
100
AcDbEllipse
 10
166.4902737383161
 20
77.39630784669498
 30
0.0
 11
-0.1223437499999999
 21
0.0000000000000003
 31
0.0
210
0.0
220
0.0
230
1.0
 40
0.575861700985316
 41
0.0000000000000053
 42
0.785398163397125
  0
LINE
  5
176
330
6C
100
AcDbEntity
  8
Visible (ANSI)
100
AcDbLine
 10
167.0878894538532
 20
75.91471367362462
 30
0.0
 11
167.0676180305657
 21
75.90304013732887
 31
0.0
  0
LINE
  5
177
330
6C
100
AcDbEntity
  8
Visible (ANSI)
100
AcDbLine
 10
167.0367959414188
 20
75.94413647060436
 30
0.0
 11
167.0878894538532
 21
75.91471367362462
 31
0.0
  0
ELLIPSE
  5
178
330
6C
100
AcDbEntity
  8
Visible (ANSI)
100
AcDbEllipse
 10
166.4902737383161
 20
75.55682681579927
 30
0.0
 11
-0.1223437499999999
 21
0.0000000000000003
 31
0.0
210
0.0
220
0.0
230
1.0
 40
0.575861700985316
 41
5.497787143780334
 42
7.068583470576616
  0
LINE
  5
179
330
6C
100
AcDbEntity
  8
Visible (ANSI)
100
AcDbLine
 10
166.4037636430553
 20
77.34648999608572
 30
0.0
 11
166.4037636430553
 21
75.50700896519
 31
0.0
  0
LINE
  5
17A
330
6C
100
AcDbEntity
  8
Visible (ANSI)
100
AcDbLine
 10
167.0878894538532
 20
75.88012346980448
 30
0.0
 11
167.0878894538532
 21
75.91471367362462
 31
0.0
  0
LINE
  5
17B
330
6C
100
AcDbEntity
  8
Visible (ANSI)
100
AcDbLine
 10
167.0878894538533
 20
110.9452306212539
 30
0.0
 11
167.0878894538533
 21
110.979820825074
 31
0.0
  0
LINE
  5
17C
330
6C
100
AcDbEntity
  8
Visible (ANSI)
100
AcDbLine
 10
167.0878894538533
 20
110.979820825074
 30
0.0
 11
167.0676180305657
 21
110.9681472887783
 31
0.0
  0
LINE
  5
17D
330
6C
100
AcDbEntity
  8
Visible (ANSI)
100
AcDbLine
 10
167.0367959414189
 20
111.0092436220538
 30
0.0
 11
167.0878894538533
 21
110.979820825074
 31
0.0
  0
LINE
  5
17E
330
6C
100
AcDbEntity
  8
Visible (ANSI)
100
AcDbLine
 10
166.4039227420811
 20
110.5720244976038
 30
0.0
 11
166.4037636430554
 21
110.5721161166394
 31
0.0
  0
LINE
  5
17F
330
6C
100
AcDbEntity
  8
Visible (ANSI)
100
AcDbLine
 10
166.4037636430552
 20
42.28138284463627
 30
0.0
 11
166.403922742081
 21
42.28129122560067
 31
0.0
  0
ELLIPSE
  5
180
330
6C
100
AcDbEntity
  8
Visible (ANSI)
100
AcDbEllipse
 10
166.490273738316
 20
42.33120069524553
 30
0.0
 11
-0.12234375
 21
0.0000000000000003
 31
0.0
210
0.0
220
0.0
230
1.0
 40
0.5758617009853159
 41
0.0
 42
0.7853981633970771
  0
LINE
  5
181
330
6C
100
AcDbEntity
  8
Visible Narrow (ANSI)
100
AcDbLine
 10
166.4037636430553
 20
75.50700896519
 30
0.0
 11
166.4037636430552
 21
42.28138284463627
 31
0.0
  0
ELLIPSE
  5
182
330
6C
100
AcDbEntity
  8
Visible (ANSI)
100
AcDbEllipse
 10
166.4902737383162
 20
110.6219339672487
 30
0.0
 11
-0.12234375
 21
0.0000000000000003
 31
0.0
210
0.0
220
0.0
230
1.0
 40
0.575861700985316
 41
5.497787143778906
 42
7.06858347057671
  0
LINE
  5
183
330
6C
100
AcDbEntity
  8
Visible Narrow (ANSI)
100
AcDbLine
 10
166.4037636430554
 20
110.5721161166394
 30
0.0
 11
166.4037636430553
 21
77.34648999608572
 31
0.0
  0
LINE
  5
184
330
6C
100
AcDbEntity
  8
Visible (ANSI)
100
AcDbLine
 10
166.403922742081
 20
42.28129122560067
 30
0.0
 11
166.403922742081
 21
40.55677775913594
 31
0.0
  0
LINE
  5
185
330
6C
100
AcDbEntity
  8
Visible (ANSI)
100
AcDbLine
 10
166.4039227420811
 20
110.5722084457069
 30
0.0
 11
166.4039227420811
 21
110.5720244976038
 31
0.0
  0
LINE
  5
186
330
6C
100
AcDbEntity
  8
Visible (ANSI)
100
AcDbLine
 10
166.4037636430554
 20
110.5723000647425
 30
0.0
 11
166.4039227420811
 21
110.5722084457069
 31
0.0
  0
LINE
  5
187
330
6C
100
AcDbEntity
  8
Visible (ANSI)
100
AcDbLine
 10
166.3679299883161
 20
75.55682681579927
 30
0.0
 11
166.367929988316
 21
42.33120069524554
 31
0.0
  0
LINE
  5
188
330
6C
100
AcDbEntity
  8
Visible (ANSI)
100
AcDbLine
 10
166.3679299883162
 20
110.6219339672487
 30
0.0
 11
166.3679299883161
 21
77.39630784669498
 31
0.0
  0
LINE
  5
189
330
6C
100
AcDbEntity
  8
Visible (ANSI)
100
AcDbLine
 10
182.2150645985358
 20
68.26393183927891
 30
0.0
 11
182.2150645985358
 21
66.48777914805693
 31
0.0
  0
LINE
  5
18A
330
6C
100
AcDbEntity
  8
Visible (ANSI)
100
AcDbLine
 10
182.1404869302076
 20
66.44483272511786
 30
0.0
 11
182.1404869302076
 21
68.28431375601358
 31
0.0
  0
LINE
  5
18B
330
6C
100
AcDbEntity
  8
Visible (ANSI)
100
AcDbLine
 10
182.2150645985358
 20
66.48777914805693
 30
0.0
 11
182.1404869302076
 21
66.44483272511786
 31
0.0
  0
LINE
  5
18C
330
6C
100
AcDbEntity
  8
Visible (ANSI)
100
AcDbLine
 10
182.2150645985358
 20
66.48777914805693
 30
0.0
 11
182.2152236975616
 21
66.4876875290213
 31
0.0
  0
LINE
  5
18D
330
6C
100
AcDbEntity
  8
Visible (ANSI)
100
AcDbLine
 10
182.1406460292334
 20
66.44474110608228
 30
0.0
 11
182.1404869302076
 21
66.44483272511786
 31
0.0
  0
ELLIPSE
  5
18E
330
6C
100
AcDbEntity
  8
Visible (ANSI)
100
AcDbEllipse
 10
182.2271561244942
 20
66.49455895669156
 30
0.0
 11
-0.1223437499999922
 21
0.0000000000000076
 31
0.0
210
0.0
220
0.0
230
1.0
 40
0.5758617009853159
 41
0.7853981633978285
 42
2.35619449019294
  0
LINE
  5
18F
330
6C
100
AcDbEntity
  8
Visible (ANSI)
100
AcDbLine
 10
182.9232143622245
 20
66.79575653623733
 30
0.0
 11
182.3136662197549
 21
66.4447411060823
 31
0.0
  0
LINE
  5
190
330
6C
100
AcDbEntity
  8
Visible (ANSI)
100
AcDbLine
 10
182.8486366938963
 20
66.83870295917642
 30
0.0
 11
182.9232143622245
 21
66.79575653623733
 31
0.0
  0
LINE
  5
191
330
6C
100
AcDbEntity
  8
Visible (ANSI)
100
AcDbLine
 10
182.2390885514267
 20
66.48768752902134
 30
0.0
 11
182.8486366938963
 21
66.83870295917642
 31
0.0
  0
ELLIPSE
  5
192
330
6C
100
AcDbEntity
  8
Visible (ANSI)
100
AcDbEllipse
 10
182.2271561244942
 20
66.49455895669156
 30
0.0
 11
0.0168749999999978
 21
0.000000000000001
 31
0.0
210
0.0
220
0.0
230
1.0
 40
0.575861700985316
 41
3.926990816988883
 42
5.497787143783798
  0
LINE
  5
193
330
6C
100
AcDbEntity
  8
Visible (ANSI)
100
AcDbLine
 10
182.313666219755
 20
68.284222136978
 30
0.0
 11
182.9232143622245
 21
68.63523756713306
 31
0.0
  0
ELLIPSE
  5
194
330
6C
100
AcDbEntity
  8
Visible (ANSI)
100
AcDbEllipse
 10
182.2271561244942
 20
68.33403998758729
 30
0.0
 11
0.1223437499999953
 21
0.000000000000007
 31
0.0
210
0.0
220
0.0
230
1.0
 40
0.5758617009853159
 41
3.926990816987152
 42
5.497787143782075
  0
LINE
  5
195
330
6C
100
AcDbEntity
  8
Visible (ANSI)
100
AcDbLine
 10
182.1404869302076
 20
68.28431375601358
 30
0.0
 11
182.1406460292334
 21
68.284222136978
 31
0.0
  0
LINE
  5
196
330
6C
100
AcDbEntity
  8
Visible (ANSI)
100
AcDbLine
 10
182.2152236975615
 20
33.19881564879817
 30
0.0
 11
182.2152236975615
 21
31.53754794200287
 31
0.0
  0
LINE
  5
197
330
6C
100
AcDbEntity
  8
Visible (ANSI)
100
AcDbLine
 10
182.1406460292333
 20
33.21893103742548
 30
0.0
 11
182.1408058921882
 21
33.21902309637865
 31
0.0
  0
LINE
  5
198
330
6C
100
AcDbEntity
  8
Visible (ANSI)
100
AcDbLine
 10
182.1406460292333
 20
31.49460151906382
 30
0.0
 11
182.1406460292333
 21
33.21893103742548
 31
0.0
  0
LINE
  5
199
330
6C
100
AcDbEntity
  8
Visible (ANSI)
100
AcDbLine
 10
182.2152236975615
 20
31.53754794200287
 30
0.0
 11
182.1406460292333
 21
31.49460151906382
 31
0.0
  0
LINE
  5
19A
330
6C
100
AcDbEntity
  8
Visible (ANSI)
100
AcDbLine
 10
166.4037636430554
 20
112.2966295831041
 30
0.0
 11
166.4037636430554
 21
110.5723000647425
 31
0.0
  0
LINE
  5
19B
330
6C
100
AcDbEntity
  8
Visible (ANSI)
100
AcDbLine
 10
166.4783413113836
 20
112.3395760060432
 30
0.0
 11
166.4037636430554
 21
112.2966295831041
 31
0.0
  0
LINE
  5
19C
330
6C
100
AcDbEntity
  8
Visible (ANSI)
100
AcDbLine
 10
182.215064598536
 20
103.2773997659711
 30
0.0
 11
166.4783413113836
 21
112.3395760060432
 31
0.0
  0
LINE
  5
19D
330
6C
100
AcDbEntity
  8
Visible (ANSI)
100
AcDbLine
 10
166.4037636430554
 20
112.2966295831041
 30
0.0
 11
182.1404869302076
 21
103.234453343032
 31
0.0
  0
LINE
  5
19E
330
6C
100
AcDbEntity
  8
Visible (ANSI)
100
AcDbLine
 10
182.1406460292333
 20
31.49460151906382
 30
0.0
 11
166.403922742081
 21
40.55677775913594
 31
0.0
  0
LINE
  5
19F
330
6C
100
AcDbEntity
  8
Visible (ANSI)
100
AcDbLine
 10
182.215064598536
 20
103.2773997659711
 30
0.0
 11
182.2150645985359
 21
101.5528862995063
 31
0.0
  0
LINE
  5
1A0
330
6C
100
AcDbEntity
  8
Visible Narrow (ANSI)
100
AcDbLine
 10
182.1406460292333
 20
33.21911498552856
 30
0.0
 11
182.1406460292334
 21
66.44474110608228
 31
0.0
  0
ELLIPSE
  5
1A1
330
6C
100
AcDbEntity
  8
Visible (ANSI)
100
AcDbEllipse
 10
182.227156124494
 20
33.26893283613787
 30
0.0
 11
0.1223437499999954
 21
0.000000000000007
 31
0.0
210
0.0
220
0.0
230
1.0
 40
0.5758617009853161
 41
3.926990816987247
 42
5.497787143782389
  0
LINE
  5
1A2
330
6C
100
AcDbEntity
  8
Visible Narrow (ANSI)
100
AcDbLine
 10
182.3136662197549
 20
33.21911498552861
 30
0.0
 11
182.3136662197549
 21
66.4447411060823
 31
0.0
  0
LINE
  5
1A3
330
6C
100
AcDbEntity
  8
Visible Narrow (ANSI)
100
AcDbLine
 10
182.313666219755
 20
68.284222136978
 30
0.0
 11
182.313666219755
 21
101.5098482575317
 31
0.0
  0
ELLIPSE
  5
1A4
330
6C
100
AcDbEntity
  8
Visible (ANSI)
100
AcDbEllipse
 10
182.2271561244942
 20
101.559666108141
 30
0.0
 11
0.1223437499999953
 21
0.000000000000007
 31
0.0
210
0.0
220
0.0
230
1.0
 40
0.575861700985316
 41
3.926990816987151
 42
5.497787143782076
  0
LINE
  5
1A5
330
6C
100
AcDbEntity
  8
Visible Narrow (ANSI)
100
AcDbLine
 10
182.1406460292334
 20
68.284222136978
 30
0.0
 11
182.1406460292335
 21
101.5098482575317
 31
0.0
  0
LINE
  5
1A6
330
6C
100
AcDbEntity
  8
Visible (ANSI)
100
AcDbLine
 10
182.1404869302075
 20
33.21902265646108
 30
0.0
 11
182.1406466457306
 21
33.21911463051389
 31
0.0
  0
LINE
  5
1A7
330
6C
100
AcDbEntity
  8
Visible (ANSI)
100
AcDbLine
 10
182.1406460292333
 20
33.21893103742548
 30
0.0
 11
182.1404869302075
 21
33.21902265646108
 31
0.0
  0
LINE
  5
1A8
330
6C
100
AcDbEntity
  8
Visible (ANSI)
100
AcDbLine
 10
182.1404869302076
 20
103.234453343032
 30
0.0
 11
182.215064598536
 21
103.2773997659711
 31
0.0
  0
ELLIPSE
  5
1A9
330
6C
100
AcDbEntity
  8
Visible (ANSI)
100
AcDbEllipse
 10
182.2271561244942
 20
101.559666108141
 30
0.0
 11
0.0168749999999989
 21
0.000000000000001
 31
0.0
210
0.0
220
0.0
230
1.0
 40
0.575861700985316
 41
3.92699081698957
 42
5.497787143783798
  0
LINE
  5
1AA
330
6C
100
AcDbEntity
  8
Visible (ANSI)
100
AcDbLine
 10
182.1404869302076
 20
101.5099398765673
 30
0.0
 11
182.2150645985359
 21
101.5528862995063
 31
0.0
  0
LINE
  5
1AB
330
6C
100
AcDbEntity
  8
Visible (ANSI)
100
AcDbLine
 10
182.1404869302076
 20
101.5099398765673
 30
0.0
 11
182.1404869302076
 21
103.234453343032
 31
0.0
  0
LINE
  5
1AC
330
6C
100
AcDbEntity
  8
Visible (ANSI)
100
AcDbLine
 10
182.1404869302075
 20
33.21902265646108
 30
0.0
 11
182.1404869302075
 21
33.21920660456417
 31
0.0
  0
LINE
  5
1AD
330
6C
100
AcDbEntity
  8
Visible (ANSI)
100
AcDbLine
 10
182.2150645985359
 20
101.5528862995063
 30
0.0
 11
182.2152236975617
 21
101.5527946804707
 31
0.0
  0
LINE
  5
1AE
330
6C
100
AcDbEntity
  8
Visible (ANSI)
100
AcDbLine
 10
182.9232143622245
 20
66.79575653623733
 30
0.0
 11
182.9232143622245
 21
33.57013041568368
 31
0.0
  0
LINE
  5
1AF
330
6C
100
AcDbEntity
  8
Visible (ANSI)
100
AcDbLine
 10
182.3136662197549
 20
33.21911498552861
 30
0.0
 11
182.9232143622245
 21
33.57013041568368
 31
0.0
  0
LINE
  5
1B0
330
6C
100
AcDbEntity
  8
Visible (ANSI)
100
AcDbLine
 10
182.9232143622247
 20
101.8608636876868
 30
0.0
 11
182.9232143622245
 21
68.63523756713306
 31
0.0
  0
LINE
  5
1B1
330
6C
100
AcDbEntity
  8
Visible (ANSI)
100
AcDbLine
 10
182.9232143622247
 20
101.8608636876868
 30
0.0
 11
182.313666219755
 21
101.5098482575317
 31
0.0
  0
LINE
  5
1B2
330
6C
100
AcDbEntity
  8
Visible (ANSI)
100
AcDbLine
 10
182.1404869302075
 20
33.21920660456417
 30
0.0
 11
182.1406460292333
 21
33.21911498552856
 31
0.0
  0
LINE
  5
1B3
330
6C
100
AcDbEntity
  8
Visible (ANSI)
100
AcDbLine
 10
182.8486366938964
 20
101.9038101106259
 30
0.0
 11
182.9232143622247
 21
101.8608636876868
 31
0.0
  0
LINE
  5
1B4
330
6C
100
AcDbEntity
  8
Visible (ANSI)
100
AcDbLine
 10
182.2390885514267
 20
101.5527946804708
 30
0.0
 11
182.8486366938964
 21
101.9038101106259
 31
0.0
  0
LINE
  5
1B5
330
6C
100
AcDbEntity
  8
Visible (ANSI)
100
AcDbLine
 10
182.1406460292335
 20
101.5098482575317
 30
0.0
 11
182.1404869302076
 21
101.5099398765673
 31
0.0
  0
ARC
  5
1B6
330
6C
100
AcDbEntity
  8
Visible (ANSI)
100
AcDbCircle
 10
48.08208000790478
 20
131.7237448519349
 30
0.0
 40
0.015
100
AcDbArc
 50
180.0
 51
269.9999999998196
  0
ARC
  5
1B7
330
6C
100
AcDbEntity
  8
Visible (ANSI)
100
AcDbCircle
 10
48.08208000790478
 20
131.7237448519349
 30
0.0
 40
0.10875
100
AcDbArc
 50
180.0
 51
269.9999999999751
  0
LINE
  5
1B8
330
6C
100
AcDbEntity
  8
Hidden (ANSI)
 48
0.0131270596757531
100
AcDbLine
 10
48.08228000790474
 20
131.6149948519349
 30
0.0
 11
48.08228000790474
 21
131.708744851935
 31
0.0
  0
LINE
  5
1B9
330
6C
100
AcDbEntity
  8
Visible (ANSI)
100
AcDbLine
 10
48.06708000790475
 20
132.489994851935
 30
0.0
 11
48.06708000790479
 21
131.7237448519353
 31
0.0
  0
LINE
  5
1BA
330
6C
100
AcDbEntity
  8
Visible (ANSI)
100
AcDbLine
 10
47.97333000790476
 20
132.489994851935
 30
0.0
 11
48.06708000790475
 21
132.489994851935
 31
0.0
  0
LINE
  5
1BB
330
6C
100
AcDbEntity
  8
Visible (ANSI)
100
AcDbLine
 10
47.97333000790477
 20
131.7237448519353
 30
0.0
 11
47.97333000790476
 21
132.489994851935
 31
0.0
  0
LINE
  5
1BC
330
6C
100
AcDbEntity
  8
Visible (ANSI)
100
AcDbLine
 10
67.86438000790479
 20
131.7087448519355
 30
0.0
 11
48.08208000790473
 21
131.7087448519355
 31
0.0
  0
LINE
  5
1BD
330
6C
100
AcDbEntity
  8
Visible (ANSI)
100
AcDbLine
 10
48.08208000790473
 20
131.6149948519355
 30
0.0
 11
67.86438000790479
 21
131.6149948519355
 31
0.0
  0
LINE
  5
1BE
330
6C
100
AcDbEntity
  8
Visible (ANSI)
100
AcDbLine
 10
67.86438000790477
 20
131.708744851935
 30
0.0
 11
67.86458000790478
 21
131.708744851935
 31
0.0
  0
LINE
  5
1BF
330
6C
100
AcDbEntity
  8
Visible (ANSI)
100
AcDbLine
 10
67.97333000790477
 20
132.489994851935
 30
0.0
 11
67.97333000790477
 21
131.723744851935
 31
0.0
  0
LINE
  5
1C0
330
6C
100
AcDbEntity
  8
Visible (ANSI)
100
AcDbLine
 10
67.87958000790476
 20
132.489994851935
 30
0.0
 11
67.97333000790477
 21
132.489994851935
 31
0.0
  0
LINE
  5
1C1
330
6C
100
AcDbEntity
  8
Visible (ANSI)
100
AcDbLine
 10
67.87958000790474
 20
131.723744851935
 30
0.0
 11
67.87958000790476
 21
132.489994851935
 31
0.0
  0
LINE
  5
1C2
330
6C
100
AcDbEntity
  8
Visible (ANSI)
100
AcDbLine
 10
67.86458000790478
 20
131.6149948519349
 30
0.0
 11
67.86438000790477
 21
131.6149948519349
 31
0.0
  0
ARC
  5
1C3
330
6C
100
AcDbEntity
  8
Visible (ANSI)
100
AcDbCircle
 10
67.86458000790476
 20
131.7237448519349
 30
0.0
 40
0.1087499999999959
100
AcDbArc
 50
270.00000000001
 51
0.0
  0
LINE
  5
1C4
330
6C
100
AcDbEntity
  8
Visible (ANSI)
100
AcDbLine
 10
67.86438000790479
 20
131.6149948519355
 30
0.0
 11
67.86438000790479
 21
131.7087448519355
 31
0.0
  0
ARC
  5
1C5
330
6C
100
AcDbEntity
  8
Visible (ANSI)
100
AcDbCircle
 10
67.86458000790476
 20
131.7237448519349
 30
0.0
 40
0.014999999999999
100
AcDbArc
 50
270.0000000000721
 51
0.0
  0
LINE
  5
1C6
330
6C
100
AcDbEntity
  8
Hidden (ANSI)
 48
0.0131270596757531
100
AcDbLine
 10
67.86458000790479
 20
131.6149948519135
 30
0.0
 11
67.86458000790479
 21
131.7087448519135
 31
0.0
  0
LINE
  5
1C7
330
6C
100
AcDbEntity
  8
Visible (ANSI)
100
AcDbLine
 10
48.08208000790473
 20
131.7087448519355
 30
0.0
 11
48.08208000790473
 21
131.6149948519355
 31
0.0
  0
LINE
  5
1C8
330
6C
100
AcDbEntity
  8
Hidden (ANSI)
 48
0.0131270596757531
100
AcDbLine
 10
67.27063000790472
 20
131.7087448519352
 30
0.0
 11
67.27063000790472
 21
131.6149948519352
 31
0.0
  0
LINE
  5
1C9
330
6C
100
AcDbEntity
  8
Hidden (ANSI)
 48
0.0131270596757531
100
AcDbLine
 10
66.70813000790473
 20
131.7087448519352
 30
0.0
 11
66.70813000790473
 21
131.6149948519352
 31
0.0
  0
LINE
  5
1CA
330
6C
100
AcDbEntity
  8
Hidden (ANSI)
 48
0.0131270596757531
100
AcDbLine
 10
49.23833000790473
 20
131.7087448519352
 30
0.0
 11
49.23833000790473
 21
131.6149948519352
 31
0.0
  0
LINE
  5
1CB
330
6C
100
AcDbEntity
  8
Hidden (ANSI)
 48
0.0131270596757531
100
AcDbLine
 10
48.67583000790474
 20
131.7087448519352
 30
0.0
 11
48.67583000790474
 21
131.6149948519352
 31
0.0
  0
MTEXT
  5
1CC
330
6C
100
AcDbEntity
  8
Symbol (ANSI)
100
AcDbMText
 10
52.73875870323549
 20
125.6239918537819
 30
0.0
 40
1.620000020021528
 41
0.0
 46
0.0
 71
     7
 72
     1
  1
TOP VIEW
  7
Text Style153
 73
     1
 44
1.0
  0
LINE
  5
1CD
330
6C
100
AcDbEntity
  8
Symbol (ANSI)
370
    30
100
AcDbLine
 10
52.74005470656927
 20
125.2936247492209
 30
0.0
 11
62.96154565103365
 21
125.2936247492209
 31
0.0
  0
DIMENSION
  5
1CE
330
6C
100
AcDbEntity
  8
Dimension (ANSI)
100
AcDbDimension
280
     0
  2
*D4
 10
113.6484281434519
 20
97.02755161103652
 30
0.0
 11
120.4941161220669
 21
97.02755161103652
 31
0.0
 70
   160
  1
<>{\PTYP.}
 71
     4
 42
0.8750000000000426
 73
     0
 74
     0
 75
     0
  3
Default (ANSI)
100
AcDbAlignedDimension
 13
114.5234281434519
 23
108.3083309350906
 33
0.0
 14
113.6484281434519
 24
73.09603219146625
 34
0.0
 50
180.0
100
AcDbRotatedDimension
1001
ACAD
1000
DSTYLE
1002
{
1070
   289
1070
     1
1070
    73
1070
     0
1070
    74
1070
     0
1070
   271
1070
     2
1070
    75
1070
     1
1070
   272
1070
     2
1070
    48
1040
0.0
1070
    47
1040
0.0
1002
}
  0
LINE
  5
2C7
330
6C
100
AcDbEntity
  8
Center Mark (ANSI)
  6
CHAIN
 48
0.1619282215833664
100
AcDbLine
 10
48.95708000788695
 20
112.1897821914662
 30
0.0
 11
48.95708000788695
 21
108.2522821914662
 31
0.0
  0
LINE
  5
2C8
330
6C
100
AcDbEntity
  8
Center Mark (ANSI)
  6
CHAIN
 48
0.1619282215833664
100
AcDbLine
 10
66.98938000788695
 20
112.1897821914662
 30
0.0
 11
66.98938000788695
 21
108.2522821914662
 31
0.0
  0
LINE
  5
2C9
330
6C
100
AcDbEntity
  8
Centerline (ANSI)
  6
CHAIN
 48
0.9524481296539306
100
AcDbLine
 10
46.98833000788694
 20
110.2210321914662
 30
0.0
 11
68.95813000788695
 21
110.2210321914662
 31
0.0
  0
LINE
  5
2CA
330
6C
100
AcDbEntity
  8
Center Mark (ANSI)
  6
CHAIN
 48
0.1619282215833664
100
AcDbLine
 10
50.92583000788696
 20
110.2210321914662
 30
0.0
 11
46.98833000788694
 21
110.2210321914662
 31
0.0
  0
LINE
  5
2CB
330
6C
100
AcDbEntity
  8
Center Mark (ANSI)
  6
CHAIN
 48
0.1619282215833664
100
AcDbLine
 10
50.92583000788696
 20
72.09603219146625
 30
0.0
 11
46.98833000788694
 21
72.09603219146625
 31
0.0
  0
LINE
  5
2CC
330
6C
100
AcDbEntity
  8
Centerline (ANSI)
  6
CHAIN
 48
0.9524481296539306
100
AcDbLine
 10
48.95708000788695
 20
112.1897821914662
 30
0.0
 11
48.95708000788695
 21
70.12728219146625
 31
0.0
  0
LINE
  5
2CD
330
6C
100
AcDbEntity
  8
Center Mark (ANSI)
  6
CHAIN
 48
0.1619282215833664
100
AcDbLine
 10
48.95708000788695
 20
74.06478219146625
 30
0.0
 11
48.95708000788695
 21
70.12728219146625
 31
0.0
  0
LINE
  5
2CE
330
6C
100
AcDbEntity
  8
Center Mark (ANSI)
  6
CHAIN
 48
0.1619282215833664
100
AcDbLine
 10
66.98938000788695
 20
74.06478219146625
 30
0.0
 11
66.98938000788695
 21
70.12728219146625
 31
0.0
  0
LINE
  5
2CF
330
6C
100
AcDbEntity
  8
Centerline (ANSI)
  6
CHAIN
 48
0.9524481296539306
100
AcDbLine
 10
46.98833000788694
 20
72.09603219146625
 30
0.0
 11
68.95813000788695
 21
72.09603219146625
 31
0.0
  0
LINE
  5
2D0
330
6C
100
AcDbEntity
  8
Center Mark (ANSI)
  6
CHAIN
 48
0.1619282215833664
100
AcDbLine
 10
48.95708000788695
 20
35.93978219146625
 30
0.0
 11
48.95708000788695
 21
32.00228219146625
 31
0.0
  0
LINE
  5
2D1
330
6C
100
AcDbEntity
  8
Center Mark (ANSI)
  6
CHAIN
 48
0.1619282215833664
100
AcDbLine
 10
66.98938000788695
 20
35.93978219146625
 30
0.0
 11
66.98938000788695
 21
32.00228219146625
 31
0.0
  0
LINE
  5
2D2
330
6C
100
AcDbEntity
  8
Centerline (ANSI)
  6
CHAIN
 48
0.9524481296539306
100
AcDbLine
 10
46.98833000788694
 20
33.97103219146625
 30
0.0
 11
68.95813000788695
 21
33.97103219146625
 31
0.0
  0
LINE
  5
2D3
330
6C
100
AcDbEntity
  8
Center Mark (ANSI)
  6
CHAIN
 48
0.1619282215833664
100
AcDbLine
 10
50.92583000788696
 20
72.09603219146625
 30
0.0
 11
46.98833000788694
 21
72.09603219146625
 31
0.0
  0
LINE
  5
2D4
330
6C
100
AcDbEntity
  8
Center Mark (ANSI)
  6
CHAIN
 48
0.1619282215833664
100
AcDbLine
 10
50.92583000788696
 20
33.97103219146625
 30
0.0
 11
46.98833000788694
 21
33.97103219146625
 31
0.0
  0
LINE
  5
2D5
330
6C
100
AcDbEntity
  8
Centerline (ANSI)
  6
CHAIN
 48
0.9524481296539306
100
AcDbLine
 10
48.95708000788695
 20
74.06478219146625
 30
0.0
 11
48.95708000788695
 21
32.00228219146625
 31
0.0
  0
LINE
  5
2D6
330
6C
100
AcDbEntity
  8
Center Mark (ANSI)
  6
CHAIN
 48
0.1619282215833664
100
AcDbLine
 10
68.95813000788695
 20
72.09603219146625
 30
0.0
 11
65.02063000788694
 21
72.09603219146625
 31
0.0
  0
LINE
  5
2D7
330
6C
100
AcDbEntity
  8
Center Mark (ANSI)
  6
CHAIN
 48
0.1619282215833664
100
AcDbLine
 10
68.95813000788695
 20
33.97103219146625
 30
0.0
 11
65.02063000788694
 21
33.97103219146625
 31
0.0
  0
LINE
  5
2D8
330
6C
100
AcDbEntity
  8
Centerline (ANSI)
  6
CHAIN
 48
0.9524481296539306
100
AcDbLine
 10
66.98938000788695
 20
74.06478219146625
 30
0.0
 11
66.98938000788695
 21
32.00228219146625
 31
0.0
  0
LINE
  5
2D9
330
6C
100
AcDbEntity
  8
Center Mark (ANSI)
  6
CHAIN
 48
0.1619282215833664
100
AcDbLine
 10
68.95813000788695
 20
110.2210321914662
 30
0.0
 11
65.02063000788694
 21
110.2210321914662
 31
0.0
  0
LINE
  5
2DA
330
6C
100
AcDbEntity
  8
Center Mark (ANSI)
  6
CHAIN
 48
0.1619282215833664
100
AcDbLine
 10
68.95813000788695
 20
72.09603219146625
 30
0.0
 11
65.02063000788694
 21
72.09603219146625
 31
0.0
  0
LINE
  5
2DB
330
6C
100
AcDbEntity
  8
Centerline (ANSI)
  6
CHAIN
 48
0.9524481296539306
100
AcDbLine
 10
66.98938000788695
 20
112.1897821914662
 30
0.0
 11
66.98938000788695
 21
70.12728219146625
 31
0.0
  0
DIMENSION
  5
2DC
330
6C
100
AcDbEntity
  8
Dimension (ANSI)
100
AcDbDimension
280
     0
  2
*D5
 10
26.65588720860343
 20
33.09603219146627
 30
0.0
 11
26.65588720860342
 21
72.09603219146625
 31
0.0
 70
   160
  1
<>
 42
77.99999999999997
 73
     0
 74
     0
 75
     0
  3
Default (ANSI)
100
AcDbAlignedDimension
 13
48.08208000788695
 23
111.0960321914662
 33
0.0
 14
48.08228000788698
 24
33.09603219146626
 34
0.0
 50
270.0
100
AcDbRotatedDimension
1001
ACAD
1000
DSTYLE
1002
{
1070
   289
1070
     1
1070
   271
1070
     2
1070
   272
1070
     2
1070
    48
1040
0.0
1070
    47
1040
0.0
1002
}
  0
DIMENSION
  5
3C6
330
6C
100
AcDbEntity
  8
Dimension (ANSI)
100
AcDbDimension
280
     0
  2
*D6
 10
42.80788136414514
 20
72.09603219146625
 30
0.0
 11
42.80788136414513
 21
53.03353219146625
 31
0.0
 70
   160
  1
<>
 42
38.12500000000001
 73
     0
 74
     0
 75
     0
  3
Default (ANSI)
100
AcDbAlignedDimension
 13
46.98833000788694
 23
33.97103219146625
 33
0.0
 14
46.98833000788694
 24
72.09603219146625
 34
0.0
 50
90.0
100
AcDbRotatedDimension
1001
ACAD
1000
DSTYLE
1002
{
1070
   289
1070
     1
1070
   271
1070
     2
1070
   272
1070
     2
1070
    48
1040
0.0
1070
    47
1040
0.0
1002
}
  0
DIMENSION
  5
4B0
330
6C
100
AcDbEntity
  8
Dimension (ANSI)
100
AcDbDimension
280
     0
  2
*D7
 10
46.63822539557012
 20
33.09603219146627
 30
0.0
 11
42.80788136414513
 21
29.29419278457266
 31
0.0
 70
   160
  1
<>
 71
     5
 42
0.8749999999999857
 73
     0
 74
     0
 75
     0
  3
Default (ANSI)
100
AcDbAlignedDimension
 13
46.98833000788694
 23
33.97103219146625
 33
0.0
 14
48.08228000788698
 24
33.09603219146626
 34
0.0
 50
90.0
100
AcDbRotatedDimension
1001
ACAD
1000
DSTYLE
1002
{
1070
   289
1070
     1
1070
   271
1070
     2
1070
   272
1070
     2
1070
    48
1040
0.0
1070
    47
1040
0.0
1002
}
  0
DIMENSION
  5
5B0
330
6C
100
AcDbEntity
  8
Dimension (ANSI)
100
AcDbDimension
280
     0
  2
*D8
 10
67.97333000788697
 20
119.0275402589932
 30
0.0
 11
57.97333000788698
 21
119.0275402589932
 31
0.0
 70
   160
  1
<>
 42
19.99999999999998
 73
     0
 74
     0
 75
     0
  3
Default (ANSI)
100
AcDbAlignedDimension
 13
47.97333000788699
 23
109.2210321914662
 33
0.0
 14
67.97333000788697
 24
109.2210321914662
 34
0.0
 50
180.0
100
AcDbRotatedDimension
1001
ACAD
1000
DSTYLE
1002
{
1070
   289
1070
     1
1070
    73
1070
     0
1070
    74
1070
     0
1070
   271
1070
     2
1070
   272
1070
     2
1070
    48
1040
0.0
1070
    47
1040
0.0
1002
}
  0
DIMENSION
  5
69A
330
6C
100
AcDbEntity
  8
Dimension (ANSI)
100
AcDbDimension
280
     0
  2
*D9
 10
66.79050622567821
 20
33.77215840925757
 30
0.0
 11
78.19295884586562
 21
39.47849091736481
 31
0.0
 70
   163
  1
<>{\P(6 PL.)}
 71
     5
 42
0.5625000000000142
 73
     0
 74
     0
 75
     0
  3
Default (ANSI)
100
AcDbDiametricDimension
 15
67.1882537900957
 25
34.16990597367494
 35
0.0
 40
0.0
1001
ACAD
1000
DSTYLE
1002
{
1070
   144
1040
1.000000000000025
1070
   271
1070
     3
1070
   272
1070
     2
1070
    48
1040
0.0
1070
    47
1040
0.0
1002
}
1001
ACAD_DSTYLE_DIMRADIAL_EXTENSION
1070
   387
1070
     1
1070
   388
1040
0.0
1070
   390
1040
0.0
  0
DIMENSION
  5
755
330
6C
100
AcDbEntity
  8
Dimension (ANSI)
100
AcDbDimension
280
     0
  2
*D10
 10
66.98938000788695
 20
114.8937341261563
 30
0.0
 11
57.6702349737604
 21
114.8937341261563
 31
0.0
 70
   160
  1
<>
 42
18.0323
 73
     0
 74
     0
 75
     0
  3
Default (ANSI)
100
AcDbAlignedDimension
 13
48.95708000788695
 23
112.1897821914662
 33
0.0
 14
66.98938000788695
 24
112.1897821914662
 34
0.0
 50
180.0
100
AcDbRotatedDimension
1001
ACAD
1000
DSTYLE
1002
{
1070
   289
1070
     1
1070
    73
1070
     0
1070
    74
1070
     0
1070
   271
1070
     2
1070
   272
1070
     2
1070
    48
1040
0.0
1070
    47
1040
0.0
1002
}
  0
DIMENSION
  5
83F
330
6C
100
AcDbEntity
  8
Dimension (ANSI)
100
AcDbDimension
280
     0
  2
*D11
 10
48.95708000788695
 20
114.8937341261563
 30
0.0
 11
42.12768661354631
 21
114.8937341261563
 31
0.0
 70
   160
  1
<>
 42
0.9837499999999579
 73
     0
 74
     0
 75
     0
  3
Default (ANSI)
100
AcDbAlignedDimension
 13
47.97333000788699
 23
109.2210321914662
 33
0.0
 14
48.95708000788695
 24
112.1897821914662
 34
0.0
 50
180.0
100
AcDbRotatedDimension
1001
ACAD
1000
DSTYLE
1002
{
1070
   289
1070
     1
1070
    73
1070
     0
1070
    74
1070
     0
1070
   271
1070
     2
1070
   272
1070
     2
1070
    48
1040
0.0
1070
    47
1040
0.0
1002
}
  0
DIMENSION
  5
929
330
6C
100
AcDbEntity
  8
Dimension (ANSI)
100
AcDbDimension
280
     0
  2
*D12
 10
35.7272528907926
 20
33.97103219146625
 30
0.0
 11
35.7272528907926
 21
72.09603219146625
 31
0.0
 70
   160
  1
<>
 42
76.25
 73
     0
 74
     0
 75
     0
  3
Default (ANSI)
100
AcDbAlignedDimension
 13
46.98833000788694
 23
110.2210321914662
 33
0.0
 14
46.98833000788694
 24
33.97103219146625
 34
0.0
 50
90.0
100
AcDbRotatedDimension
1001
ACAD
1000
DSTYLE
1002
{
1070
   289
1070
     1
1070
   271
1070
     2
1070
   272
1070
     2
1070
    48
1040
0.0
1070
    47
1040
0.0
1002
}
  0
MTEXT
  5
A13
102
{ACAD_XDICTIONARY
360
B14
102
}
330
6C
100
AcDbEntity
  8
Symbol (ANSI)
100
AcDbMText
 10
125.588761808681
 20
14.32846724681194
 30
0.0
 40
1.350000043084302
 41
99.67572595190819
 46
0.0
 71
     4
 72
     1
  3
{\fRomanS|b0|i0|c0|p2;\H2x;PART#: WA90SMP20\P(DATA SUBJECT TO CHANGE WITHOUT NOTICE)\H1.6157x; \H0.61894x;\P \H1.352x; \H0.73963x;\P\H0.6x;THIS DRAWING IS PROPERTY OF HUBBELL INC. WIEGMANN\H1.5633x; \H0.63966x;\PALL INFORMATION IS PROPRIETARY AND NOT
  1
 TO BE DUPLICATED\H1.234x; \H0.81039x;\P\H1.2571x; }
  7
Note Text (ANSI)
 73
     1
 44
0.8026435375213623
  0
MTEXT
  5
A15
102
{ACAD_XDICTIONARY
360
B16
102
}
330
6C
100
AcDbEntity
  8
Symbol (ANSI)
100
AcDbMText
 10
125.588761808681
 20
14.32846724681194
 30
0.0
 40
1.350000043084302
 41
99.67572595190819
 46
0.0
 71
     4
 72
     1
  3
{\fRomanS|b0|i0|c0|p2;\H2x;PART#: WA90SMP20\P(DATA SUBJECT TO CHANGE WITHOUT NOTICE)\H1.6157x; \H0.61894x;\P \H1.352x; \H0.73963x;\P\H0.6x;THIS DRAWING IS PROPERTY OF HUBBELL INC. WIEGMANN\H1.5633x; \H0.63966x;\PALL INFORMATION IS PROPRIETARY AND NOT
  1
 TO BE DUPLICATED\H1.234x; \H0.81039x;\P\H1.2571x; }
  7
Note Text (ANSI)
 73
     1
 44
0.8026435375213623
  0
DIMENSION
  5
A16
330
6C
100
AcDbEntity
  8
Dimension (ANSI)
100
AcDbDimension
280
     0
  2
*D13
 10
113.6484281434519
 20
109.7232413634879
 30
0.0
 11
126.3264441710488
 21
109.7232413634879
 31
0.0
 70
   160
  1
{12 GA. C.R.S.\P}(<>)
 71
     5
 42
0.09375
 73
     0
 74
     0
 75
     0
  3
Default (ANSI)
100
AcDbAlignedDimension
 13
113.7421781434519
 23
109.7232413634879
 33
0.0
 14
113.6484281434519
 24
109.7232413634879
 34
0.0
 50
180.0
100
AcDbRotatedDimension
1001
ACAD
1000
DSTYLE
1002
{
1070
   289
1070
     1
1070
    73
1070
     0
1070
    74
1070
     0
1070
   271
1070
     3
1070
    76
1070
     1
1070
    75
1070
     1
1070
   147
1040
0.031496062992126
1070
    72
1070
     0
1070
    71
1070
     0
1070
   272
1070
     2
1070
    48
1040
0.0
1070
    47
1040
0.0
1002
}
  0
ENDSEC
  0
SECTION
  2
OBJECTS
  0
DICTIONARY
  5
C
330
0
100
AcDbDictionary
281
     1
  3
ACAD_CIP_PREVIOUS_PRODUCT_INFO
350
B0F
  3
ACAD_COLOR
350
63
  3
ACAD_GROUP
350
D
  3
ACAD_LAYOUT
350
62
  3
ACAD_MATERIAL
350
10
  3
ACAD_MLEADERSTYLE
350
66
  3
ACAD_MLINESTYLE
350
5F
  3
ACAD_PLOTSETTINGS
350
61
  3
ACAD_PLOTSTYLENAME
350
E
  3
ACAD_SCALELIST
350
42
  3
ACAD_TABLESTYLE
350
64
  3
ACAD_VISUALSTYLE
350
29
  3
ACDB_RECOMPOSE_DATA
350
B18
  3
AcDbVariableDictionary
350
76
  0
DICTIONARY
  5
B14
330
A13
100
AcDbDictionary
280
     1
281
     1
  3
ACAD_MTEXT_2008_RT
360
B15
  0
DICTIONARY
  5
B16
330
A15
100
AcDbDictionary
280
     1
281
     1
  3
ACAD_MTEXT_2008_RT
360
B17
  0
XRECORD
  5
B0F
102
{ACAD_REACTORS
330
C
102
}
330
C
100
AcDbXrecord
280
     1
300
INVNTOR
300
2012
300
PDSP_F_S
  0
DICTIONARY
  5
63
102
{ACAD_REACTORS
330
C
102
}
330
C
100
AcDbDictionary
281
     1
  0
DICTIONARY
  5
D
102
{ACAD_REACTORS
330
C
102
}
330
C
100
AcDbDictionary
281
     1
  0
DICTIONARY
  5
62
102
{ACAD_REACTORS
330
C
102
}
330
C
100
AcDbDictionary
281
     1
  3
Layout1
350
6B
  3
Layout2
350
73
  3
Model
350
6F
  0
DICTIONARY
  5
10
102
{ACAD_REACTORS
330
C
102
}
330
C
100
AcDbDictionary
281
     1
  3
ByBlock
350
19
  3
ByLayer
350
11
  3
Global
350
21
  0
DICTIONARY
  5
66
102
{ACAD_REACTORS
330
C
102
}
330
C
100
AcDbDictionary
281
     1
  3
Standard
350
67
  0
DICTIONARY
  5
5F
102
{ACAD_REACTORS
330
C
102
}
330
C
100
AcDbDictionary
281
     1
  3
Standard
350
60
  0
DICTIONARY
  5
61
102
{ACAD_REACTORS
330
C
102
}
330
C
100
AcDbDictionary
281
     1
  0
ACDBDICTIONARYWDFLT
  5
E
102
{ACAD_REACTORS
330
C
102
}
330
C
100
AcDbDictionary
281
     1
  3
Normal
350
F
100
AcDbDictionaryWithDefault
340
F
  0
DICTIONARY
  5
42
102
{ACAD_REACTORS
330
C
102
}
330
C
100
AcDbDictionary
281
     1
  3
A0
350
43
  3
A1
350
44
  3
A2
350
45
  3
A3
350
46
  3
A4
350
47
  3
A5
350
48
  3
A6
350
49
  3
A7
350
4A
  3
A8
350
4B
  3
A9
350
4C
  3
B0
350
4D
  3
B1
350
4E
  3
B2
350
4F
  3
B3
350
50
  3
B4
350
51
  3
B5
350
52
  3
B6
350
53
  0
DICTIONARY
  5
64
102
{ACAD_REACTORS
330
C
102
}
330
C
100
AcDbDictionary
281
     1
  3
Standard
350
65
  0
DICTIONARY
  5
29
102
{ACAD_REACTORS
330
C
102
}
330
C
100
AcDbDictionary
281
     1
  3
2dWireframe
350
2F
  3
Basic
350
2E
  3
Brighten
350
35
  3
ColorChange
350
39
  3
Conceptual
350
32
  3
Dim
350
34
  3
EdgeColorOff
350
41
  3
Facepattern
350
38
  3
Flat
350
2A
  3
FlatWithEdges
350
2B
  3
Gouraud
350
2C
  3
GouraudWithEdges
350
2D
  3
Hidden
350
31
  3
JitterOff
350
3F
  3
Linepattern
350
37
  3
OverhangOff
350
40
  3
Realistic
350
33
  3
Shaded
350
3E
  3
Shaded with edges
350
3D
  3
Shades of Gray
350
3A
  3
Sketchy
350
3B
  3
Thicken
350
36
  3
Wireframe
350
30
  3
X-Ray
350
3C
  0
XRECORD
  5
B18
102
{ACAD_REACTORS
330
C
102
}
330
C
100
AcDbXrecord
280
     1
 90
        1
330
65
330
A13
330
A15
  0
DICTIONARY
  5
76
102
{ACAD_REACTORS
330
C
102
}
330
C
100
AcDbDictionary
281
     1
  3
CANNOSCALE
350
79
  3
CMLEADERSTYLE
350
78
  3
CTABLESTYLE
350
77
  0
XRECORD
  5
B15
102
{ACAD_REACTORS
330
B14
102
}
330
B14
100
AcDbXrecord
280
     1
 40
3089952.0
  1
\pxsm0.94;{\fRomanS|b0|i0;\H2.7000;PART#: WA90SMP20\P(DATA SUBJECT TO CHANGE WITHOUT NOTICE)\P \P\fRomanS|b0|i0;\H1.6200;THIS DRAWING IS PROPERTY OF HUBBELL INC. WIEGMANN\PALL INFORMATION IS PROPRIETARY AND NOT TO BE DUPLICATED\P}
  0
XRECORD
  5
B17
102
{ACAD_REACTORS
330
B16
102
}
330
B16
100
AcDbXrecord
280
     1
 40
3089952.0
  1
\pxsm0.94;{\fRomanS|b0|i0;\H2.7000;PART#: WA90SMP20\P(DATA SUBJECT TO CHANGE WITHOUT NOTICE)\P \P\fRomanS|b0|i0;\H1.6200;THIS DRAWING IS PROPERTY OF HUBBELL INC. WIEGMANN\PALL INFORMATION IS PROPRIETARY AND NOT TO BE DUPLICATED\P}
  0
LAYOUT
  5
6B
102
{ACAD_REACTORS
330
62
102
}
330
62
100
AcDbPlotSettings
  1

  2

  4

  6

 40
0.0
 41
0.0
 42
0.0
 43
0.0
 44
0.0
 45
0.0
 46
0.0
 47
0.0
 48
0.0
 49
0.0
140
0.0
141
0.0
142
1.0
143
1.0
 70
   688
 72
     0
 73
     0
 74
     5
  7

 75
    16
147
1.0
 76
     0
 77
     2
 78
   300
148
0.0
149
0.0
100
AcDbLayout
  1
Layout1
 70
     1
 71
     1
 10
0.0
 20
0.0
 11
12.0
 21
9.0
 12
0.0
 22
0.0
 32
0.0
 14
0.0
 24
0.0
 34
0.0
 15
0.0
 25
0.0
 35
0.0
146
0.0
 13
0.0
 23
0.0
 33
0.0
 16
1.0
 26
0.0
 36
0.0
 17
0.0
 27
1.0
 37
0.0
 76
     0
330
68
  0
LAYOUT
  5
73
102
{ACAD_REACTORS
330
62
102
}
330
62
100
AcDbPlotSettings
  1

  2

  4

  6

 40
0.0
 41
0.0
 42
0.0
 43
0.0
 44
0.0
 45
0.0
 46
0.0
 47
0.0
 48
0.0
 49
0.0
140
0.0
141
0.0
142
1.0
143
1.0
 70
   688
 72
     0
 73
     0
 74
     5
  7

 75
    16
147
1.0
 76
     0
 77
     2
 78
   300
148
0.0
149
0.0
100
AcDbLayout
  1
Layout2
 70
     1
 71
     2
 10
0.0
 20
0.0
 11
12.0
 21
9.0
 12
0.0
 22
0.0
 32
0.0
 14
0.0
 24
0.0
 34
0.0
 15
0.0
 25
0.0
 35
0.0
146
0.0
 13
0.0
 23
0.0
 33
0.0
 16
1.0
 26
0.0
 36
0.0
 17
0.0
 27
1.0
 37
0.0
 76
     0
330
70
  0
LAYOUT
  5
6F
102
{ACAD_REACTORS
330
62
102
}
330
62
100
AcDbPlotSettings
  1

  2

  4

  6

 40
0.0
 41
0.0
 42
0.0
 43
0.0
 44
0.0
 45
0.0
 46
0.0
 47
0.0
 48
0.0
 49
0.0
140
0.0
141
0.0
142
1.0
143
1.0
 70
  1712
 72
     0
 73
     0
 74
     0
  7

 75
     0
147
1.0
 76
     0
 77
     2
 78
   300
148
0.0
149
0.0
100
AcDbLayout
  1
Model
 70
     1
 71
     0
 10
0.0
 20
0.0
 11
12.0
 21
9.0
 12
0.0
 22
0.0
 32
0.0
 14
0.0
 24
0.0
 34
0.0
 15
0.0
 25
0.0
 35
0.0
146
0.0
 13
0.0
 23
0.0
 33
0.0
 16
1.0
 26
0.0
 36
0.0
 17
0.0
 27
1.0
 37
0.0
 76
     0
330
6C
  0
MATERIAL
  5
19
102
{ACAD_XDICTIONARY
360
1A
102
}
102
{ACAD_REACTORS
330
10
102
}
330
10
100
AcDbMaterial
  1
ByBlock
 72
     0
 43
0.0208333333333333
 43
0.0
 43
0.0
 43
0.0
 43
0.0
 43
0.0208333333333333
 43
0.0
 43
0.0
 43
0.0
 43
0.0
 43
1.0
 43
0.0
 43
0.0
 43
0.0
 43
0.0
 43
1.0
 77
     0
 47
0.0208333333333333
 47
0.0
 47
0.0
 47
0.0
 47
0.0
 47
0.0208333333333333
 47
0.0
 47
0.0
 47
0.0
 47
0.0
 47
1.0
 47
0.0
 47
0.0
 47
0.0
 47
0.0
 47
1.0
171
     0
 49
0.0208333333333333
 49
0.0
 49
0.0
 49
0.0
 49
0.0
 49
0.0208333333333333
 49
0.0
 49
0.0
 49
0.0
 49
0.0
 49
1.0
 49
0.0
 49
0.0
 49
0.0
 49
0.0
 49
1.0
175
     0
142
0.0208333333333333
142
0.0
142
0.0
142
0.0
142
0.0
142
0.0208333333333333
142
0.0
142
0.0
142
0.0
142
0.0
142
1.0
142
0.0
142
0.0
142
0.0
142
0.0
142
1.0
179
     0
144
0.0208333333333333
144
0.0
144
0.0
144
0.0
144
0.0
144
0.0208333333333333
144
0.0
144
0.0
144
0.0
144
0.0
144
1.0
144
0.0
144
0.0
144
0.0
144
0.0
144
1.0
147
0.0208333333333333
147
0.0
147
0.0
147
0.0
147
0.0
147
0.0208333333333333
147
0.0
147
0.0
147
0.0
147
0.0
147
1.0
147
0.0
147
0.0
147
0.0
147
0.0
147
1.0
  0
MATERIAL
  5
11
102
{ACAD_XDICTIONARY
360
12
102
}
102
{ACAD_REACTORS
330
10
102
}
330
10
100
AcDbMaterial
  1
ByLayer
 72
     0
 43
0.0208333333333333
 43
0.0
 43
0.0
 43
0.0
 43
0.0
 43
0.0208333333333333
 43
0.0
 43
0.0
 43
0.0
 43
0.0
 43
1.0
 43
0.0
 43
0.0
 43
0.0
 43
0.0
 43
1.0
 77
     0
 47
0.0208333333333333
 47
0.0
 47
0.0
 47
0.0
 47
0.0
 47
0.0208333333333333
 47
0.0
 47
0.0
 47
0.0
 47
0.0
 47
1.0
 47
0.0
 47
0.0
 47
0.0
 47
0.0
 47
1.0
171
     0
 49
0.0208333333333333
 49
0.0
 49
0.0
 49
0.0
 49
0.0
 49
0.0208333333333333
 49
0.0
 49
0.0
 49
0.0
 49
0.0
 49
1.0
 49
0.0
 49
0.0
 49
0.0
 49
0.0
 49
1.0
175
     0
142
0.0208333333333333
142
0.0
142
0.0
142
0.0
142
0.0
142
0.0208333333333333
142
0.0
142
0.0
142
0.0
142
0.0
142
1.0
142
0.0
142
0.0
142
0.0
142
0.0
142
1.0
179
     0
144
0.0208333333333333
144
0.0
144
0.0
144
0.0
144
0.0
144
0.0208333333333333
144
0.0
144
0.0
144
0.0
144
0.0
144
1.0
144
0.0
144
0.0
144
0.0
144
0.0
144
1.0
147
0.0208333333333333
147
0.0
147
0.0
147
0.0
147
0.0
147
0.0208333333333333
147
0.0
147
0.0
147
0.0
147
0.0
147
1.0
147
0.0
147
0.0
147
0.0
147
0.0
147
1.0
  0
MATERIAL
  5
21
102
{ACAD_XDICTIONARY
360
22
102
}
102
{ACAD_REACTORS
330
10
102
}
330
10
100
AcDbMaterial
  1
Global
 72
     0
 43
0.0208333333333333
 43
0.0
 43
0.0
 43
0.0
 43
0.0
 43
0.0208333333333333
 43
0.0
 43
0.0
 43
0.0
 43
0.0
 43
1.0
 43
0.0
 43
0.0
 43
0.0
 43
0.0
 43
1.0
 77
     0
 47
0.0208333333333333
 47
0.0
 47
0.0
 47
0.0
 47
0.0
 47
0.0208333333333333
 47
0.0
 47
0.0
 47
0.0
 47
0.0
 47
1.0
 47
0.0
 47
0.0
 47
0.0
 47
0.0
 47
1.0
171
     0
 49
0.0208333333333333
 49
0.0
 49
0.0
 49
0.0
 49
0.0
 49
0.0208333333333333
 49
0.0
 49
0.0
 49
0.0
 49
0.0
 49
1.0
 49
0.0
 49
0.0
 49
0.0
 49
0.0
 49
1.0
175
     0
142
0.0208333333333333
142
0.0
142
0.0
142
0.0
142
0.0
142
0.0208333333333333
142
0.0
142
0.0
142
0.0
142
0.0
142
1.0
142
0.0
142
0.0
142
0.0
142
0.0
142
1.0
179
     0
144
0.0208333333333333
144
0.0
144
0.0
144
0.0
144
0.0
144
0.0208333333333333
144
0.0
144
0.0
144
0.0
144
0.0
144
1.0
144
0.0
144
0.0
144
0.0
144
0.0
144
1.0
147
0.0208333333333333
147
0.0
147
0.0
147
0.0
147
0.0
147
0.0208333333333333
147
0.0
147
0.0
147
0.0
147
0.0
147
1.0
147
0.0
147
0.0
147
0.0
147
0.0
147
1.0
  0
MLEADERSTYLE
  5
67
102
{ACAD_XDICTIONARY
360
B12
102
}
102
{ACAD_REACTORS
330
66
102
}
330
66
100
AcDbMLeaderStyle
179
     2
170
     2
171
     1
172
     0
 90
        2
 40
0.0
 41
0.0
173
     1
 91
-1056964608
340
5B
 92
       -2
290
     1
 42
0.09
291
     1
 43
0.36
  3
Standard
 44
0.18
300

342
55
174
     1
178
     6
175
     1
176
     0
 93
-1056964608
 45
0.18
292
     0
297
     0
 46
0.18
 94
-1056964608
 47
1.0
 49
1.0
140
1.0
293
     1
141
0.0
294
     1
177
     0
142
1.0
295
     0
296
     0
143
0.125
271
     0
272
     9
273
     9
  0
MLINESTYLE
  5
60
102
{ACAD_REACTORS
330
5F
102
}
330
5F
100
AcDbMlineStyle
  2
STANDARD
 70
     0
  3

 62
   256
 51
90.0
 52
90.0
 71
     2
 49
0.5
 62
   256
  6
BYLAYER
 49
-0.5
 62
   256
  6
BYLAYER
  0
ACDBPLACEHOLDER
  5
F
102
{ACAD_REACTORS
330
E
102
}
330
E
  0
SCALE
  5
43
102
{ACAD_REACTORS
330
42
102
}
330
42
100
AcDbScale
 70
     0
300
1:1
140
1.0
141
1.0
290
     1
  0
SCALE
  5
44
102
{ACAD_REACTORS
330
42
102
}
330
42
100
AcDbScale
 70
     0
300
1/128" = 1'-0"
140
0.0078125
141
12.0
290
     0
  0
SCALE
  5
45
102
{ACAD_REACTORS
330
42
102
}
330
42
100
AcDbScale
 70
     0
300
1/64" = 1'-0"
140
0.015625
141
12.0
290
     0
  0
SCALE
  5
46
102
{ACAD_REACTORS
330
42
102
}
330
42
100
AcDbScale
 70
     0
300
1/32" = 1'-0"
140
0.03125
141
12.0
290
     0
  0
SCALE
  5
47
102
{ACAD_REACTORS
330
42
102
}
330
42
100
AcDbScale
 70
     0
300
1/16" = 1'-0"
140
0.0625
141
12.0
290
     0
  0
SCALE
  5
48
102
{ACAD_REACTORS
330
42
102
}
330
42
100
AcDbScale
 70
     0
300
3/32" = 1'-0"
140
0.09375
141
12.0
290
     0
  0
SCALE
  5
49
102
{ACAD_REACTORS
330
42
102
}
330
42
100
AcDbScale
 70
     0
300
1/8" = 1'-0"
140
0.125
141
12.0
290
     0
  0
SCALE
  5
4A
102
{ACAD_REACTORS
330
42
102
}
330
42
100
AcDbScale
 70
     0
300
3/16" = 1'-0"
140
0.1875
141
12.0
290
     0
  0
SCALE
  5
4B
102
{ACAD_REACTORS
330
42
102
}
330
42
100
AcDbScale
 70
     0
300
1/4" = 1'-0"
140
0.25
141
12.0
290
     0
  0
SCALE
  5
4C
102
{ACAD_REACTORS
330
42
102
}
330
42
100
AcDbScale
 70
     0
300
3/8" = 1'-0"
140
0.375
141
12.0
290
     0
  0
SCALE
  5
4D
102
{ACAD_REACTORS
330
42
102
}
330
42
100
AcDbScale
 70
     0
300
1/2" = 1'-0"
140
0.5
141
12.0
290
     0
  0
SCALE
  5
4E
102
{ACAD_REACTORS
330
42
102
}
330
42
100
AcDbScale
 70
     0
300
3/4" = 1'-0"
140
0.75
141
12.0
290
     0
  0
SCALE
  5
4F
102
{ACAD_REACTORS
330
42
102
}
330
42
100
AcDbScale
 70
     0
300
1" = 1'-0"
140
1.0
141
12.0
290
     0
  0
SCALE
  5
50
102
{ACAD_REACTORS
330
42
102
}
330
42
100
AcDbScale
 70
     0
300
1-1/2" = 1'-0"
140
1.5
141
12.0
290
     0
  0
SCALE
  5
51
102
{ACAD_REACTORS
330
42
102
}
330
42
100
AcDbScale
 70
     0
300
3" = 1'-0"
140
3.0
141
12.0
290
     0
  0
SCALE
  5
52
102
{ACAD_REACTORS
330
42
102
}
330
42
100
AcDbScale
 70
     0
300
6" = 1'-0"
140
6.0
141
12.0
290
     0
  0
SCALE
  5
53
102
{ACAD_REACTORS
330
42
102
}
330
42
100
AcDbScale
 70
     0
300
1'-0" = 1'-0"
140
12.0
141
12.0
290
     0
  0
TABLESTYLE
  5
65
102
{ACAD_XDICTIONARY
360
B10
102
}
102
{ACAD_REACTORS
330
64
102
}
330
64
100
AcDbTableStyle
280
     0
  3
Standard
 70
     0
 71
     0
 40
0.06
 41
0.06
280
     0
281
     0
  7
Standard
140
0.18
170
     2
 62
     0
 63
     7
283
     0
 90
      512
 91
        0
  1

274
    -2
284
     1
 64
     0
275
    -2
285
     1
 65
     0
276
    -2
286
     1
 66
     0
277
    -2
287
     1
 67
     0
278
    -2
288
     1
 68
     0
279
    -2
289
     1
 69
     0
  7
Standard
140
0.25
170
     5
 62
     0
 63
     7
283
     0
 90
      512
 91
        0
  1

274
    -2
284
     1
 64
     0
275
    -2
285
     1
 65
     0
276
    -2
286
     1
 66
     0
277
    -2
287
     1
 67
     0
278
    -2
288
     1
 68
     0
279
    -2
289
     1
 69
     0
  7
Standard
140
0.18
170
     5
 62
     0
 63
     7
283
     0
 90
      512
 91
        0
  1

274
    -2
284
     1
 64
     0
275
    -2
285
     1
 65
     0
276
    -2
286
     1
 66
     0
277
    -2
287
     1
 67
     0
278
    -2
288
     1
 68
     0
279
    -2
289
     1
 69
     0
  0
VISUALSTYLE
  5
2F
102
{ACAD_REACTORS
330
29
102
}
330
29
100
AcDbVisualStyle
  2
2dWireframe
 70
     4
177
     2
291
     0
 71
     0
176
     1
 72
     2
176
     1
 73
     0
176
     1
 90
        0
176
     1
 40
0.6
176
     1
 41
30.0
176
     1
 63
     7
421
 16777215
176
     1
 74
     1
176
     1
 91
        4
176
     1
 64
     7
176
     1
 65
   257
176
     1
 75
     1
176
     1
175
     1
176
     1
 42
1.0
176
     1
 92
        0
176
     1
 66
   257
176
     1
 43
1.0
176
     1
 76
     1
176
     1
 77
     6
176
     1
 78
     2
176
     1
 67
     7
176
     1
 79
     5
176
     1
170
     0
176
     1
171
     0
176
     1
290
     0
176
     1
 93
        1
176
     1
 44
0.0
176
     1
173
     0
176
     1
  0
VISUALSTYLE
  5
2E
102
{ACAD_REACTORS
330
29
102
}
330
29
100
AcDbVisualStyle
  2
Basic
 70
     7
177
     2
291
     1
 71
     1
176
     1
 72
     0
176
     1
 73
     1
176
     1
 90
        0
176
     1
 40
0.6
176
     1
 41
30.0
176
     1
 63
     7
421
 16777215
176
     1
 74
     0
176
     1
 91
        4
176
     1
 64
     7
176
     1
 65
   257
176
     1
 75
     1
176
     1
175
     1
176
     1
 42
1.0
176
     1
 92
        8
176
     1
 66
     7
176
     1
 43
1.0
176
     1
 76
     1
176
     1
 77
     6
176
     1
 78
     2
176
     1
 67
     7
176
     1
 79
     5
176
     1
170
     0
176
     1
171
     0
176
     1
290
     0
176
     1
 93
        1
176
     1
 44
0.0
176
     1
173
     0
176
     1
  0
VISUALSTYLE
  5
35
102
{ACAD_REACTORS
330
29
102
}
330
29
100
AcDbVisualStyle
  2
Brighten
 70
    12
177
     2
291
     1
 71
     2
176
     1
 72
     2
176
     1
 73
     0
176
     1
 90
        0
176
     1
 40
0.6
176
     1
 41
30.0
176
     1
 63
     7
421
 16777215
176
     1
 74
     1
176
     1
 91
        4
176
     1
 64
     7
176
     1
 65
   257
176
     1
 75
     1
176
     1
175
     1
176
     1
 42
1.0
176
     1
 92
        8
176
     1
 66
     7
176
     1
 43
1.0
176
     1
 76
     1
176
     1
 77
     6
176
     1
 78
     2
176
     1
 67
     7
176
     1
 79
     5
176
     1
170
     0
176
     1
171
     0
176
     1
290
     0
176
     1
 93
        1
176
     1
 44
50.0
176
     1
173
     0
176
     1
  0
VISUALSTYLE
  5
39
102
{ACAD_REACTORS
330
29
102
}
330
29
100
AcDbVisualStyle
  2
ColorChange
 70
    16
177
     2
291
     1
 71
     2
176
     1
 72
     2
176
     1
 73
     3
176
     1
 90
        0
176
     1
 40
0.6
176
     1
 41
30.0
176
     1
 63
     8
421
  8421504
176
     1
 74
     1
176
     1
 91
        4
176
     1
 64
     7
176
     1
 65
   257
176
     1
 75
     1
176
     1
175
     1
176
     1
 42
1.0
176
     1
 92
        8
176
     1
 66
     8
424
  8421504
176
     1
 43
1.0
176
     1
 76
     1
176
     1
 77
     6
176
     1
 78
     2
176
     1
 67
     7
176
     1
 79
     5
176
     1
170
     0
176
     1
171
     0
176
     1
290
     0
176
     1
 93
        1
176
     1
 44
0.0
176
     1
173
     0
176
     1
  0
VISUALSTYLE
  5
32
102
{ACAD_REACTORS
330
29
102
}
330
29
100
AcDbVisualStyle
  2
Conceptual
 70
     9
177
     2
291
     0
 71
     3
176
     1
 72
     2
176
     1
 73
     0
176
     1
 90
        0
176
     1
 40
0.6
176
     1
 41
30.0
176
     1
 63
     7
421
 16777215
176
     1
 74
     2
176
     1
 91
        2
176
     1
 64
     7
176
     1
 65
   257
176
     1
 75
     1
176
     1
175
     1
176
     1
 42
179.0
176
     1
 92
        8
176
     1
 66
     7
176
     1
 43
1.0
176
     1
 76
     1
176
     1
 77
     6
176
     1
 78
     2
176
     1
 67
     7
176
     1
 79
     3
176
     1
170
     0
176
     1
171
     0
176
     1
290
     0
176
     1
 93
        1
176
     1
 44
0.0
176
     1
173
     0
176
     1
  0
VISUALSTYLE
  5
34
102
{ACAD_REACTORS
330
29
102
}
330
29
100
AcDbVisualStyle
  2
Dim
 70
    11
177
     2
291
     1
 71
     2
176
     1
 72
     2
176
     1
 73
     0
176
     1
 90
        0
176
     1
 40
0.6
176
     1
 41
30.0
176
     1
 63
     7
421
 16777215
176
     1
 74
     1
176
     1
 91
        4
176
     1
 64
     7
176
     1
 65
   257
176
     1
 75
     1
176
     1
175
     1
176
     1
 42
1.0
176
     1
 92
        8
176
     1
 66
     7
176
     1
 43
1.0
176
     1
 76
     1
176
     1
 77
     6
176
     1
 78
     2
176
     1
 67
     7
176
     1
 79
     5
176
     1
170
     0
176
     1
171
     0
176
     1
290
     0
176
     1
 93
        1
176
     1
 44
-50.0
176
     1
173
     0
176
     1
  0
VISUALSTYLE
  5
41
102
{ACAD_REACTORS
330
29
102
}
330
29
100
AcDbVisualStyle
  2
EdgeColorOff
 70
    22
177
     2
291
     1
 71
     2
176
     0
 72
     2
176
     0
 73
     0
176
     0
 90
        0
176
     0
 40
0.6
176
     0
 41
30.0
176
     0
 63
     7
421
 16777215
176
     0
 74
     1
176
     0
 91
        4
176
     0
 64
     7
176
     0
 65
   257
176
     0
 75
     1
176
     0
175
     1
176
     0
 42
1.0
176
     0
 92
        8
176
     2
 66
     7
176
     0
 43
1.0
176
     0
 76
     1
176
     0
 77
     6
176
     0
 78
     2
176
     0
 67
     7
176
     0
 79
     5
176
     0
170
     0
176
     0
171
     0
176
     0
290
     0
176
     0
 93
        1
176
     0
 44
0.0
176
     0
173
     0
176
     0
  0
VISUALSTYLE
  5
38
102
{ACAD_REACTORS
330
29
102
}
330
29
100
AcDbVisualStyle
  2
Facepattern
 70
    15
177
     2
291
     1
 71
     2
176
     1
 72
     2
176
     1
 73
     0
176
     1
 90
        0
176
     1
 40
0.6
176
     1
 41
30.0
176
     1
 63
     7
421
 16777215
176
     1
 74
     1
176
     1
 91
        4
176
     1
 64
     7
176
     1
 65
   257
176
     1
 75
     1
176
     1
175
     1
176
     1
 42
1.0
176
     1
 92
        8
176
     1
 66
     7
176
     1
 43
1.0
176
     1
 76
     1
176
     1
 77
     6
176
     1
 78
     2
176
     1
 67
     7
176
     1
 79
     5
176
     1
170
     0
176
     1
171
     0
176
     1
290
     0
176
     1
 93
        1
176
     1
 44
0.0
176
     1
173
     0
176
     1
  0
VISUALSTYLE
  5
2A
102
{ACAD_REACTORS
330
29
102
}
330
29
100
AcDbVisualStyle
  2
Flat
 70
     0
177
     2
291
     1
 71
     2
176
     1
 72
     1
176
     1
 73
     1
176
     1
 90
        2
176
     1
 40
0.6
176
     1
 41
30.0
176
     1
 63
     7
421
 16777215
176
     1
 74
     0
176
     1
 91
        0
176
     1
 64
     7
176
     1
 65
   257
176
     1
 75
     1
176
     1
175
     1
176
     1
 42
1.0
176
     1
 92
        8
176
     1
 66
     7
176
     1
 43
1.0
176
     1
 76
     1
176
     1
 77
     6
176
     1
 78
     2
176
     1
 67
     7
176
     1
 79
     5
176
     1
170
     0
176
     1
171
     0
176
     1
290
     0
176
     1
 93
       13
176
     1
 44
0.0
176
     1
173
     0
176
     1
  0
VISUALSTYLE
  5
2B
102
{ACAD_REACTORS
330
29
102
}
330
29
100
AcDbVisualStyle
  2
FlatWithEdges
 70
     1
177
     2
291
     1
 71
     2
176
     1
 72
     1
176
     1
 73
     1
176
     1
 90
        2
176
     1
 40
0.6
176
     1
 41
30.0
176
     1
 63
     7
421
 16777215
176
     1
 74
     1
176
     1
 91
        0
176
     1
 64
     7
176
     1
 65
   257
176
     1
 75
     1
176
     1
175
     1
176
     1
 42
1.0
176
     1
 92
        0
176
     1
 66
   257
176
     1
 43
1.0
176
     1
 76
     1
176
     1
 77
     6
176
     1
 78
     2
176
     1
 67
     7
176
     1
 79
     5
176
     1
170
     0
176
     1
171
     0
176
     1
290
     0
176
     1
 93
       13
176
     1
 44
0.0
176
     1
173
     0
176
     1
  0
VISUALSTYLE
  5
2C
102
{ACAD_REACTORS
330
29
102
}
330
29
100
AcDbVisualStyle
  2
Gouraud
 70
     2
177
     2
291
     1
 71
     2
176
     1
 72
     2
176
     1
 73
     1
176
     1
 90
        2
176
     1
 40
0.6
176
     1
 41
30.0
176
     1
 63
     7
421
 16777215
176
     1
 74
     0
176
     1
 91
        0
176
     1
 64
     7
176
     1
 65
   257
176
     1
 75
     1
176
     1
175
     1
176
     1
 42
1.0
176
     1
 92
        0
176
     1
 66
     7
176
     1
 43
1.0
176
     1
 76
     1
176
     1
 77
     6
176
     1
 78
     2
176
     1
 67
     7
176
     1
 79
     5
176
     1
170
     0
176
     1
171
     0
176
     1
290
     0
176
     1
 93
       13
176
     1
 44
0.0
176
     1
173
     0
176
     1
  0
VISUALSTYLE
  5
2D
102
{ACAD_REACTORS
330
29
102
}
330
29
100
AcDbVisualStyle
  2
GouraudWithEdges
 70
     3
177
     2
291
     1
 71
     2
176
     1
 72
     2
176
     1
 73
     1
176
     1
 90
        2
176
     1
 40
0.6
176
     1
 41
30.0
176
     1
 63
     7
421
 16777215
176
     1
 74
     1
176
     1
 91
        0
176
     1
 64
     7
176
     1
 65
   257
176
     1
 75
     1
176
     1
175
     1
176
     1
 42
1.0
176
     1
 92
        0
176
     1
 66
   257
176
     1
 43
1.0
176
     1
 76
     1
176
     1
 77
     6
176
     1
 78
     2
176
     1
 67
     7
176
     1
 79
     5
176
     1
170
     0
176
     1
171
     0
176
     1
290
     0
176
     1
 93
       13
176
     1
 44
0.0
176
     1
173
     0
176
     1
  0
VISUALSTYLE
  5
31
102
{ACAD_REACTORS
330
29
102
}
330
29
100
AcDbVisualStyle
  2
Hidden
 70
     6
177
     2
291
     0
 71
     1
176
     1
 72
     2
176
     1
 73
     2
176
     1
 90
        0
176
     1
 40
0.6
176
     1
 41
30.0
176
     1
 63
     7
421
 16777215
176
     1
 74
     2
176
     1
 91
        2
176
     1
 64
     7
176
     1
 65
   257
176
     1
 75
     2
176
     1
175
     1
176
     1
 42
40.0
176
     1
 92
        0
176
     1
 66
   257
176
     1
 43
1.0
176
     1
 76
     1
176
     1
 77
     6
176
     1
 78
     2
176
     1
 67
     7
176
     1
 79
     3
176
     1
170
     0
176
     1
171
     0
176
     1
290
     0
176
     1
 93
        1
176
     1
 44
0.0
176
     1
173
     0
176
     1
  0
VISUALSTYLE
  5
3F
102
{ACAD_REACTORS
330
29
102
}
330
29
100
AcDbVisualStyle
  2
JitterOff
 70
    20
177
     2
291
     1
 71
     2
176
     0
 72
     2
176
     0
 73
     0
176
     0
 90
        0
176
     0
 40
0.6
176
     0
 41
30.0
176
     0
 63
     7
421
 16777215
176
     0
 74
     1
176
     0
 91
        4
176
     0
 64
     7
176
     0
 65
   257
176
     0
 75
     1
176
     0
175
     1
176
     0
 42
1.0
176
     0
 92
       10
176
     2
 66
     7
176
     0
 43
1.0
176
     0
 76
     1
176
     0
 77
     6
176
     0
 78
     2
176
     0
 67
     7
176
     0
 79
     5
176
     0
170
     0
176
     0
171
     0
176
     0
290
     0
176
     0
 93
        1
176
     0
 44
0.0
176
     0
173
     0
176
     0
  0
VISUALSTYLE
  5
37
102
{ACAD_REACTORS
330
29
102
}
330
29
100
AcDbVisualStyle
  2
Linepattern
 70
    14
177
     2
291
     1
 71
     2
176
     1
 72
     2
176
     1
 73
     0
176
     1
 90
        0
176
     1
 40
0.6
176
     1
 41
30.0
176
     1
 63
     7
421
 16777215
176
     1
 74
     1
176
     1
 91
        4
176
     1
 64
     7
176
     1
 65
   257
176
     1
 75
     7
176
     1
175
     7
176
     1
 42
1.0
176
     1
 92
        8
176
     1
 66
     7
176
     1
 43
1.0
176
     1
 76
     1
176
     1
 77
     6
176
     1
 78
     2
176
     1
 67
     7
176
     1
 79
     5
176
     1
170
     0
176
     1
171
     0
176
     1
290
     0
176
     1
 93
        1
176
     1
 44
0.0
176
     1
173
     0
176
     1
  0
VISUALSTYLE
  5
40
102
{ACAD_REACTORS
330
29
102
}
330
29
100
AcDbVisualStyle
  2
OverhangOff
 70
    21
177
     2
291
     1
 71
     2
176
     0
 72
     2
176
     0
 73
     0
176
     0
 90
        0
176
     0
 40
0.6
176
     0
 41
30.0
176
     0
 63
     7
421
 16777215
176
     0
 74
     1
176
     0
 91
        4
176
     0
 64
     7
176
     0
 65
   257
176
     0
 75
     1
176
     0
175
     1
176
     0
 42
1.0
176
     0
 92
        9
176
     2
 66
     7
176
     0
 43
1.0
176
     0
 76
     1
176
     0
 77
     6
176
     0
 78
     2
176
     0
 67
     7
176
     0
 79
     5
176
     0
170
     0
176
     0
171
     0
176
     0
290
     0
176
     0
 93
        1
176
     0
 44
0.0
176
     0
173
     0
176
     0
  0
VISUALSTYLE
  5
33
102
{ACAD_REACTORS
330
29
102
}
330
29
100
AcDbVisualStyle
  2
Realistic
 70
     8
177
     2
291
     0
 71
     2
176
     1
 72
     3
176
     1
 73
     0
176
     1
 90
        2
176
     1
 40
0.6
176
     1
 41
30.0
176
     1
 63
     7
421
 16777215
176
     1
 74
     0
176
     1
 91
        0
176
     1
 64
     7
176
     1
 65
   257
176
     1
 75
     1
176
     1
175
     1
176
     1
 42
1.0
176
     1
 92
        8
176
     1
 66
   257
176
     1
 43
1.0
176
     1
 76
     1
176
     1
 77
     6
176
     1
 78
     2
176
     1
 67
     7
176
     1
 79
     3
176
     1
170
     0
176
     1
171
     0
176
     1
290
     0
176
     1
 93
       13
176
     1
 44
0.0
176
     1
173
     0
176
     1
  0
VISUALSTYLE
  5
3E
102
{ACAD_REACTORS
330
29
102
}
330
29
100
AcDbVisualStyle
  2
Shaded
 70
    27
177
     2
291
     0
 71
     2
176
     1
 72
     2
176
     1
 73
     1
176
     1
 90
        2
176
     1
 40
0.6
176
     1
 41
30.0
176
     1
 63
     7
421
 16777215
176
     1
 74
     0
176
     1
 91
        4
176
     1
 64
     7
176
     1
 65
   257
176
     1
 75
     1
176
     1
175
     1
176
     1
 42
1.0
176
     1
 92
        8
176
     1
 66
   257
176
     1
 43
1.0
176
     1
 76
     1
176
     1
 77
     6
176
     1
 78
     2
176
     1
 67
     8
425
  7895160
176
     1
 79
     3
176
     1
170
     0
176
     1
171
     0
176
     1
290
     0
176
     1
 93
        5
176
     1
 44
0.0
176
     1
173
     0
176
     1
  0
VISUALSTYLE
  5
3D
102
{ACAD_REACTORS
330
29
102
}
330
29
100
AcDbVisualStyle
  2
Shaded with edges
 70
    26
177
     2
291
     0
 71
     2
176
     1
 72
     2
176
     1
 73
     1
176
     1
 90
        2
176
     1
 40
0.6
176
     1
 41
30.0
176
     1
 63
     7
421
 16777215
176
     1
 74
     1
176
     1
 91
       10
176
     1
 64
     7
176
     1
 65
   257
176
     1
 75
     2
176
     1
175
     1
176
     1
 42
1.0
176
     1
 92
        8
176
     1
 66
   257
176
     1
 43
1.0
176
     1
 76
     1
176
     1
 77
     6
176
     1
 78
     2
176
     1
 67
     7
176
     1
 79
     3
176
     1
170
     0
176
     1
171
     0
176
     1
290
     0
176
     1
 93
        5
176
     1
 44
0.0
176
     1
173
     0
176
     1
  0
VISUALSTYLE
  5
3A
102
{ACAD_REACTORS
330
29
102
}
330
29
100
AcDbVisualStyle
  2
Shades of Gray
 70
    23
177
     2
291
     0
 71
     2
176
     1
 72
     2
176
     1
 73
     3
176
     1
 90
        0
176
     1
 40
0.6
176
     1
 41
30.0
176
     1
 63
     7
421
 16777215
176
     1
 74
     2
176
     1
 91
        2
176
     1
 64
     7
176
     1
 65
     7
176
     1
 75
     1
176
     1
175
     1
176
     1
 42
40.0
176
     1
 92
        8
176
     1
 66
     7
176
     1
 43
1.0
176
     1
 76
     1
176
     1
 77
     6
176
     1
 78
     2
176
     1
 67
     7
176
     1
 79
     3
176
     1
170
     0
176
     1
171
     0
176
     1
290
     0
176
     1
 93
        1
176
     1
 44
0.0
176
     1
173
     0
176
     1
  0
VISUALSTYLE
  5
3B
102
{ACAD_REACTORS
330
29
102
}
330
29
100
AcDbVisualStyle
  2
Sketchy
 70
    24
177
     2
291
     0
 71
     1
176
     1
 72
     2
176
     1
 73
     2
176
     1
 90
        0
176
     1
 40
0.6
176
     1
 41
30.0
176
     1
 63
     7
421
 16777215
176
     1
 74
     2
176
     1
 91
        2
176
     1
 64
     7
176
     1
 65
     7
176
     1
 75
     1
176
     1
175
     1
176
     1
 42
40.0
176
     1
 92
       11
176
     1
 66
     7
176
     1
 43
1.0
176
     1
 76
     1
176
     1
 77
     6
176
     1
 78
     2
176
     1
 67
     7
176
     1
 79
     6
176
     1
170
     0
176
     1
171
     0
176
     1
290
     0
176
     1
 93
        1
176
     1
 44
0.0
176
     1
173
     0
176
     1
  0
VISUALSTYLE
  5
36
102
{ACAD_REACTORS
330
29
102
}
330
29
100
AcDbVisualStyle
  2
Thicken
 70
    13
177
     2
291
     1
 71
     2
176
     1
 72
     2
176
     1
 73
     0
176
     1
 90
        0
176
     1
 40
0.6
176
     1
 41
30.0
176
     1
 63
     7
421
 16777215
176
     1
 74
     1
176
     1
 91
        4
176
     1
 64
     7
176
     1
 65
   257
176
     1
 75
     1
176
     1
175
     1
176
     1
 42
1.0
176
     1
 92
       12
176
     1
 66
     7
176
     1
 43
1.0
176
     1
 76
     1
176
     1
 77
     6
176
     1
 78
     2
176
     1
 67
     7
176
     1
 79
     5
176
     1
170
     0
176
     1
171
     0
176
     1
290
     0
176
     1
 93
        1
176
     1
 44
0.0
176
     1
173
     0
176
     1
  0
VISUALSTYLE
  5
30
102
{ACAD_REACTORS
330
29
102
}
330
29
100
AcDbVisualStyle
  2
Wireframe
 70
     5
177
     2
291
     0
 71
     0
176
     1
 72
     2
176
     1
 73
     0
176
     1
 90
        0
176
     1
 40
0.6
176
     1
 41
30.0
176
     1
 63
     7
421
 16777215
176
     1
 74
     1
176
     1
 91
        4
176
     1
 64
     7
176
     1
 65
   257
176
     1
 75
     1
176
     1
175
     1
176
     1
 42
1.0
176
     1
 92
        0
176
     1
 66
   257
176
     1
 43
1.0
176
     1
 76
     1
176
     1
 77
     6
176
     1
 78
     2
176
     1
 67
     7
176
     1
 79
     3
176
     1
170
     0
176
     1
171
     0
176
     1
290
     0
176
     1
 93
        1
176
     1
 44
0.0
176
     1
173
     0
176
     1
  0
VISUALSTYLE
  5
3C
102
{ACAD_REACTORS
330
29
102
}
330
29
100
AcDbVisualStyle
  2
X-Ray
 70
    25
177
     2
291
     0
 71
     2
176
     1
 72
     2
176
     1
 73
     1
176
     1
 90
        1
176
     1
 40
0.5
176
     1
 41
30.0
176
     1
 63
     7
421
 16777215
176
     1
 74
     1
176
     1
 91
        0
176
     1
 64
     7
176
     1
 65
   257
176
     1
 75
     1
176
     1
175
     1
176
     1
 42
1.0
176
     1
 92
        8
176
     1
 66
     7
176
     1
 43
1.0
176
     1
 76
     1
176
     1
 77
     6
176
     1
 78
     2
176
     1
 67
     7
176
     1
 79
     3
176
     1
170
     0
176
     1
171
     0
176
     1
290
     0
176
     1
 93
       13
176
     1
 44
0.0
176
     1
173
     0
176
     1
  0
DICTIONARYVAR
  5
79
102
{ACAD_REACTORS
330
76
102
}
330
76
100
DictionaryVariables
280
     0
  1
1:1
  0
DICTIONARYVAR
  5
78
102
{ACAD_REACTORS
330
76
102
}
330
76
100
DictionaryVariables
280
     0
  1
STANDARD
  0
DICTIONARYVAR
  5
77
102
{ACAD_REACTORS
330
76
102
}
330
76
100
DictionaryVariables
280
     0
  1
STANDARD
  0
DICTIONARY
  5
1A
330
19
100
AcDbDictionary
280
     1
281
     1
  3
BUMPTILE
360
1C
  3
DIFFUSETILE
360
1B
  3
OPACITYTILE
360
1F
  3
REFLECTIONTILE
360
1E
  3
REFRACTIONTILE
360
20
  3
SPECULARTILE
360
1D
  0
DICTIONARY
  5
12
330
11
100
AcDbDictionary
280
     1
281
     1
  3
BUMPTILE
360
14
  3
DIFFUSETILE
360
13
  3
FBXASSET
360
109
  3
OPACITYTILE
360
17
  3
REFLECTIONTILE
360
16
  3
REFRACTIONTILE
360
18
  3
SPECULARTILE
360
15
  0
DICTIONARY
  5
22
330
21
100
AcDbDictionary
280
     1
281
     1
  3
BUMPTILE
360
24
  3
DIFFUSETILE
360
23
  3
FBXASSET
360
BA
  3
OPACITYTILE
360
27
  3
REFLECTIONTILE
360
26
  3
REFRACTIONTILE
360
28
  3
SPECULARTILE
360
25
  0
DICTIONARY
  5
B12
330
67
100
AcDbDictionary
280
     1
281
     1
  3
ACAD_XREC_ROUNDTRIP
360
B13
  0
DICTIONARY
  5
B10
330
65
100
AcDbDictionary
280
     1
281
     1
  3
ACAD_ROUNDTRIP_2008_TABLESTYLE_CELLSTYLEMAP
360
B11
  0
XRECORD
  5
1C
102
{ACAD_REACTORS
330
1A
102
}
330
1A
100
AcDbXrecord
280
     1
270
     1
271
     1
  0
XRECORD
  5
1B
102
{ACAD_REACTORS
330
1A
102
}
330
1A
100
AcDbXrecord
280
     1
270
     1
271
     1
  0
XRECORD
  5
1F
102
{ACAD_REACTORS
330
1A
102
}
330
1A
100
AcDbXrecord
280
     1
270
     1
271
     1
  0
XRECORD
  5
1E
102
{ACAD_REACTORS
330
1A
102
}
330
1A
100
AcDbXrecord
280
     1
270
     1
271
     1
  0
XRECORD
  5
20
102
{ACAD_REACTORS
330
1A
102
}
330
1A
100
AcDbXrecord
280
     1
270
     1
271
     1
  0
XRECORD
  5
1D
102
{ACAD_REACTORS
330
1A
102
}
330
1A
100
AcDbXrecord
280
     1
270
     1
271
     1
  0
XRECORD
  5
14
102
{ACAD_REACTORS
330
12
102
}
330
12
100
AcDbXrecord
280
     1
270
     1
271
     1
  0
XRECORD
  5
13
102
{ACAD_REACTORS
330
12
102
}
330
12
100
AcDbXrecord
280
     1
270
     1
271
     1
  0
XRECORD
  5
109
102
{ACAD_REACTORS
330
12
102
}
330
12
100
AcDbXrecord
280
     1
 70
     1
 90
1959938040
 71
     1
  1
F824A14D-C129-4A5A-ABE8-D1F245B94D0F
311
504B03040A0000080000D238DB423DEE336E79000000790000001B0000006175746F6465736B2D64657369676E2D7061636B6167652E786D6C3C3F786D6C2076657273696F6E3D22312E302220656E636F64696E673D227574662D3822203F3E3C666F726D6174733E3C666F726D61743E687474703A2F2F736368656D612E
311
6175746F6465736B2E636F6D2F64657369676E2D7061636B6167652F323030393C2F666F726D61743E3C2F666F726D6174733E504B0304140006080800D238DB42D486FD9CA0000000F4000000130000005B436F6E74656E745F54797065735D2E786D6C7D8EC10E82300C865F65E91D8A1E8C310C0EEA1BF002731658846E
311
D98AC1B77784ABF1D8FE5FBFBF75BBCE937A534CCEB38643598122B6FEE978D0B0485F9C41B54DDD7D022595594E1A469170414C76A4D9A4D207E29CF43ECE46F218070CC6BECC4078ACAA135ACF422C856C0E68EA1BF5669944DDD7BCDE7B1F8E415D77AECB980613C2E4AC91FC167A2B244592486606FC29C8FD7F045B9A
311
EF7053A7E60B504B0304140006080800D238DB42A8262EA8EC0000007C01000008000000636F72652E786D6C8D90416EC3201045AF82665B61631387C4C244719A9CA01740405C94182C03558F5F9C3852BBEB6A467FFE9B197D7EF81EEFE8CBCCC17AD741551040C629AFAD1B3A48F18A77800E82CFDEC75F36404E8EA683
311
4506C187D9A769959477D1B89855E7B5594519828980D43D371D04F5694659C814B323DC8A49AA9B1C4C51BDBA0CA764357A1EB13AEFB3576B6610A71D391EFBE682297DDFE04DD39F71DFF4156ECEECC4E8A566A77DCDCB05163CDAF1755FCD4646A341D4A4A2986C71CD3E086BC9B6A5EC8D342D25BC5CEC7FA034E97F42
311
C9BA48EBF5DD27164054F991C740F072C922974750B92EB9891F504B0304140006080800D238DB4255019EA25F0000007C00000007000000636E782E786D6C4DCB3B0E80201045D1AD90E915ED2CF8AC45050C11660C8261F98AB1B07AC9C97D42D718D865D3E909258CFD00CCE24AC6E326A164D74DC0B4128928FF326038
311
472BA13128B1252AC747C6BAB984FC68F0B87FE8960A5C09FE86CFB69FBA01504B0304140006080800D238DB42AC8F062E68010000020300000C0000006662782F636F72652E786D6C8D52ED8E8230107C95A67F2FD002229E2935E2E913DC0B54A81C115A525AE2E3DFF261382FC61892D2CCECECCE0EB0DDADA9512F4D57
311
6995E2C0A7184995EBA252658A9DBD781B8C769C19ADED9F328C9468648A071873561AEDDA19CAB5B2525940952EE40C8AAE9316A3BC864B8ABBFC4736C217CE424577F55B915F4529FDC0071AEA38EBAC0103681A329C985FCE3746269C33E7AA6266AB02A655974A1ACC0F1BBADF67F1C98BA2AF95B78AB3A397C559E0C5
311
C7E49044A730397C868C0C62CE6CD5DCDDE5460A2B0BCC431A441E5D7B61F24D932D5D6FA3E483C6DB883232943F885C5BBC297295B25138DB9D641DE6011819897FDB42441675A2073F8433328408AF31E1C7A0211008D98A737DDFE30A502F73ABCD0A9842BB85EA45ED244CA5687C189958E83C3680CD9EF6095FF479DD
311
033EA05025581316AE676787E96C9A3A47D14AE3F5F68694368DA8177393C5E55C063D95E7BAD6E61D35995725739864F87BF92F504B0304140006080800D238DB42E0C2DD657C0000009D0000000B0000006662782F636E782E786D6C4DCCD10A83201886E15B91FFDCA533D4408D35BC90581632D3703A76F9ABD1C18E3E
311
78F87855FF59037ABBFCF2296AA01702C8C5479A7C5C34D4326309A8372AA754FE6E80E2B83A0D0783514B4E753B6972F35843D935F8F83C91DD19ED8415989381E05630893B6939262DB95A2AD96D101C1AA39A5F69DF236CBE504B0304140006080800D238DB420ADC07A72B01000014020000310000006662782F334333
311
31393745372D363042302D343733382D393845362D3034303245313833414237362F636F72652E786D6C8D515B6EC32010BC8AC557AA0A1B1B07DB11266AAADCA017700C495062B07854397E97DA91DABFFCB068766676B4CBF78FE99E7D2BE7B5353D2A73823265462BB5B9F42886336E51B617DC591BFED050668649F528
311
C148F08BB3715EA1D19AA04C00D458A95670F05E05948D77F8F4C88F57350DF9100330FC2D9F87F1365C545EE6D0069EE03E3808902D43D28B04FDA465D71C1BCCC881E0BAA12DEEDA23C3A426D5B16CE9C7A161BC588482C7A8E52AD712E2E8B356EE559324163CE8E9197F746A084A2251919262C270D57C916647D88E36
311
EF64BBA3841789FE4F1467F9A2286A1368B5C65D641E8992174B437069E3E9FE0CA31EB375214BF3365E8D6F48901C62B18E74B080850A0B004F56AF9E3E58070BDEDC4EC02EB78B31AB052FD28DA0FC1E106ABAA7F801504B0304140006080800D238DB42791F3E884F01000033030000300000006662782F334333313937
311
45372D363042302D343733382D393845362D3034303245313833414237362F636E782E786D6CD593CD6E022114855F85B06DE6CFB16363184CBAE81374D12DC255A90C4CF869EADBF7A268DDB8E8B21B3239F770CECD17866DBE2743BEC007EDEC48BBBAA504AC744ADBFD4853DC552F946C38F3CEC53B1B25564C30D22C53
311
CEF6DEA5B9480A76229988AAD1F658440FC1252F21A09C6F12E3A4301800B64A28C2B405A540919B11BF76E0711514B727120F40DE5E3F88DB7E828C81353985B326777096CFD27467A2441A11C248833CC0246A91A253108EB51251D45D7DED7AB0D36F12C917AE95C96B92CB479A4FCACB463572640D0E390BD123BD628A
311
A7192817F36CB41411213767E3C5C359D2360ECBE2D508DEA3BB1BFAE512C3CE33CEA29EA038A407114151BE68BBBE6A876AB17A6F57EB7658F7ABA7F679DDB7ACC976CEB6CE99720963C0BB99486723D84879C79A3C7E84AFF888D21E593B7FFA034804505A2F746E19FF994F737EDF88CBE35FC07F00504B030414000608
311
0800D238DB42039D2D30A305000081100000340000006662782F33433331393745372D363042302D343733382D393845362D3034303245313833414237362F6F626A656374732E786D6CAD575B6FDB3614FE2B82F6B23DF822DBE9924151E14B5D185DDAA2468B3D1830688952B850179054E2ECD7EFA348C9926327DED017
311
5D78393CE73BDFB9D07FBF4FB9F34885647976EB7AFDA1EBD02CCC239625B76EA9E2DEB5EBBC0F7C91E7AAB5CC753292D25B570FBB819F88BC2CEC50446352727534BA9CFDE5C89066D475424EA4BC7565784F53D227A5CA232A1FFA1151A49FC4FBBED7370BBB6213418AFB23A105113453D014E319A4384629AFFB3B7407
311
813FD0F381AF9F76D5F8FCAA41654FF77C964945B2F0C5614762C6DE64F1617475D3BB9A4CC6BDC9BB91D79B2D678B9EF7FB78387F379FDF4C3FDCE060A90424594D048DDDE023B0112CF407662AF04B96A9F1C82EB10E1A08FAC8B4A7DC60E478FEC0AC69ACB3469E523FCCB38C86155640A3B2CF8A8E6841B3083E675442
311
B31642C3EEAFA7716C4D8FF5BF3DB23D7C1902ED1D2D41B5EEF5BBAD69BEFB1B26C84B182424D50C34585A430D578707847779CEED1C934E4A14158C7087B39D20E2D90DB0542F09FC8E18CD64A1A3415BE006F08299EED20561F436CF4F6919979C6B1ABB4115055BC40A55B2D28CFD43C541FB3632D009BED26CB8B606A9
311
E782BAC18DA1C8F5119B0C904ECC490297C34CBD733C3A3274AEE374B570834FCBDD7EAD63F7F4E185C80B2A94A60FA8553BAE7E6B94AC4EDE459ED31BDC23550EA07C03F29F11EA0755E037C1F693FDC49EA204C9649C8B14BE71864E6F88C7D0F1AAA7FE6E7DF9836673D77BE7F084B335543F01CFAE0D6D5FB6E00CFC47
311
103E17636BDA3A241C69E38E65004893C4E139869087E3DDDE0D56C872C8CAD84578E0C164A8FB884F7F60C520515427B5DE19B03C4A8B172468C05631126A18F25B050F7E7A91CEAA83EDB273F05EFD14BA4E17EB4FEB52C424A47736A61734661953287107DEB415EA60DEB1E8813E3FE52282A12FF15EB7F14EED511268
311
6BCC35F0499DD3F5CFE1E4CE0121F625B94E37FE1B27C0085D585BF2EF980C29E724A379599FFB6AFD40D93010EB60D74C6E0ACCA1B0803466E6280651A443C10A0D6253AD9AA4D93F63DDF7D56730D20D66CF7F92E776F6DA1D726F98F35C6C77CF5B93964E42FDA3CB6D8BC1404B01DDAB20A9E3DF82BE8D581C971249F0
311
04AE3F56F3B6EF745A408AA8A59A6899C07E04171196B4B55C546B415049F36CCB50371177270F68CB07A4960195C0731A4BCAE32DE3BC4CB731E3A846DB941467E0F8FFFAEFCAB4D892342F3375467647755487AEEE1DF6CA27A2C27B375857EFDE0CB937A2D11932E85A7202AB8E6B97D7A3C9141D446FEE8D6E7A93E9D5
311
B4379D7DB8EE2DBCE5687235BB992C86CBDA4F4693C0AF4B4D3BA2E1259436BF14CCBAEFFB0AF16393801BDC1125371F4D78D6EFEFAB3E7A617F803DA897CDC669F488BE8F466F0B38AC3C296895169CA6345344C7D09DFEE0DF08FA8C8E32667C9592845E20E5CBC7F5913118B960DF571DEFF4E968AF1D9DEB803C2944DD
311
97E92E238C1F6D4C0C92FD224B2C7EB54F9AB72934F5AFFEB38E41672A73CE22E4C1C849689E52856C784111122995A05EBBA78FECDDE382DD8FA6435464C769ADC93D4193CC25C202D42A43D51D777E4153A7FBAA5B17E5B6FF8087CD14AE03CEDCBA68D2150BA9ECEF50A0752B54090797DA9D3C1A7F92251CBDB6D9D4FC
311
37BB34369D92DC2CB9A47FB27699146E0D401A29D037A02182772A6502BFD2CDCE87FFC9F05A1D87287CEE4AD5D87218688CA98E41881AA3EC6D014DCC833D7A8F407DDD2CAF5FADE92072D12DEB551218A93D454452DD14B47E56A5E9E2EB001D8AB3FAE214BC4CE0CBCB25F50405994B1DE06011586165164481AAF33F36
311
5F458E9B6CEA2C1928E0FCBABF7EF7DB669EA7699E99A1CDD4DE879DF53D6EB7D106C981EA6B89DC8C86DE68535D07EC0D65BB2392F649241F3000CF0AD600DD713F7869EE8CA84366A25937D0AE3862E86AE1D8C23681504B97766ED5E0A0F1C8A88318D2574A1D31ED05C5AB378241B5142A08F4F2C1BF504B0304140006
311
080000D238DB42000000000000000000000000350000006662782F33433331393745372D363042302D343733382D393845362D3034303245313833414237362F76657274696365732E62696E504B0304140006080800D238DB42F270F1330600000004000000360000006662782F33433331393745372D363042302D343733
311
382D393845362D3034303245313833414237362F747269616E676C65732E62696E636660600000504B0304140006080000D238DB42000000000000000000000000370000006662782F33433331393745372D363042302D343733382D393845362D3034303245313833414237362F617474726962757465732E62696E504B03
311
04140006080800D238DB42D5987DFC8F00000041010000360000006662782F33433331393745372D363042302D343733382D393845362D3034303245313833414237362F6469726563746F72792E786D6C858F410EC2201045AF4266AF15DDB800BA74E7C21B903225242D6328188F2FA5C4183471359997F9FF81E89FF3C4
311
1E1816475E02DF1F80A11FC8386F25A438EECEC07A250251FC3803E6F58C12560C4AD840E95E91C151A72936F496F35732D860FE635F62C8F2DA16B505C545B74125BAA2FA9E05D7CC053D063734D5C7665FD55B6B8D15D5E9BFEAFD8490FFA45E504B0304140006080800D238DB42C0CC7399FF000000A00100003B000000
311
6662782F33433331393745372D363042302D343733382D393845362D3034303245313833414237362F7265736F75726365732F636F72652E786D6C8D504B6E833010BD8A35DBCA60700809328E429A9EA017B0CC845A0976E44FD5E3D724546A77DDCC8CDE47F3F4C4E16BBE914FF4C138DB4355302068B51B8D9D7A48F142
311
77400E5278E7E22F1910AB66EC6181418AC9BB745F21ED6C441B336ADD882BA842C00844DFF2D143D01F38AB42A59815E15ADC95BEAA098BAAC874D64911A2CF01C8F3C932417A0C2E798D41944F568A94CCB86ACC987F9A8B410FF2B463C7E3D09C29E7AF1BBA6986331D9AA1A2CDB93DB5FCAD6E4FFB5A948B598A68E69F
311
8CDAA38A3882AC59C529DBD2BA7D676DC7B61D6F5F58D37126CA45FEC794EEE33F4DC9D8C8EB35EED316405639C88390A25CFACAEB5166DE4BB7F21B504B010214000A0000080000D238DB423DEE336E79000000790000001B00000000000000000000000000000000006175746F6465736B2D64657369676E2D7061636B61
311
67652E786D6C504B01021400140006080800D238DB42D486FD9CA0000000F40000001300000000000000000000000000B20000005B436F6E74656E745F54797065735D2E786D6C504B01021400140006080800D238DB42A8262EA8EC0000007C010000080000000000000000000000000083010000636F72652E786D6C504B
311
01021400140006080800D238DB4255019EA25F0000007C000000070000000000000000000000000095020000636E782E786D6C504B01021400140006080800D238DB42AC8F062E68010000020300000C00000000000000000000000000190300006662782F636F72652E786D6C504B01021400140006080800D238DB42E0C2
311
DD657C0000009D0000000B00000000000000000000000000AB0400006662782F636E782E786D6C504B01021400140006080800D238DB420ADC07A72B010000140200003100000000000000000000000000500500006662782F33433331393745372D363042302D343733382D393845362D3034303245313833414237362F63
311
6F72652E786D6C504B01021400140006080800D238DB42791F3E884F010000330300003000000000000000000000000000CA0600006662782F33433331393745372D363042302D343733382D393845362D3034303245313833414237362F636E782E786D6C504B01021400140006080800D238DB42039D2D30A30500008110
311
00003400000000000000000000000000670800006662782F33433331393745372D363042302D343733382D393845362D3034303245313833414237362F6F626A656374732E786D6C504B01021400140006080000D238DB4200000000000000000000000035000000000000000000000000005C0E00006662782F3343333139
311
3745372D363042302D343733382D393845362D3034303245313833414237362F76657274696365732E62696E504B01021400140006080800D238DB42F270F13306000000040000003600000000000000000000000000AF0E00006662782F33433331393745372D363042302D343733382D393845362D303430324531383341
311
4237362F747269616E676C65732E62696E504B01021400140006080000D238DB420000000000000000000000003700000000000000000000000000090F00006662782F33433331393745372D363042302D343733382D393845362D3034303245313833414237362F617474726962757465732E62696E504B01021400140006
311
080800D238DB42D5987DFC8F0000004101000036000000000000000000000000005E0F00006662782F33433331393745372D363042302D343733382D393845362D3034303245313833414237362F6469726563746F72792E786D6C504B01021400140006080800D238DB42C0CC7399FF000000A00100003B00000000000000
311
000000000000411000006662782F33433331393745372D363042302D343733382D393845362D3034303245313833414237362F7265736F75726365732F636F72652E786D6C504B0506000000000E000E0080040000991100000000
310
504B03040A0000080000D238DB423DEE336E79000000790000001B0000006175746F6465736B2D64657369676E2D7061636B6167652E786D6C3C3F786D6C2076657273696F6E3D22312E302220656E636F64696E673D227574662D3822203F3E3C666F726D6174733E3C666F726D61743E687474703A2F2F736368656D612E
310
6175746F6465736B2E636F6D2F64657369676E2D7061636B6167652F323030393C2F666F726D61743E3C2F666F726D6174733E504B0304140006080800D238DB42D486FD9CA0000000F4000000130000005B436F6E74656E745F54797065735D2E786D6C7D8EC10E82300C865F65E91D8A1E8C310C0EEA1BF002731658846E
310
D98AC1B77784ABF1D8FE5FBFBF75BBCE937A534CCEB38643598122B6FEE978D0B0485F9C41B54DDD7D022595594E1A469170414C76A4D9A4D207E29CF43ECE46F218070CC6BECC4078ACAA135ACF422C856C0E68EA1BF5669944DDD7BCDE7B1F8E415D77AECB980613C2E4AC91FC167A2B244592486606FC29C8FD7F045B9A
310
EF7053A7E60B504B0304140006080800D238DB4297266F57E80000007C01000008000000636F72652E786D6C8D90416EC3201045AF82D856D8606CE35898286D8ED00B20200E4A0C9681AAC72F248ED4EEBA9AE1F3DFCCE8F3E3F772075F660BD6BB09920A43609CF2DABA7982295ED000C151F0CDFBF8CB0681938B996091
310
A1E0F3E6D3BA4BCABB685CCCAAF3DAECA20CC14408D43D37130CEA6A1659C914B323DCAA55AA9B9C4D455E5D8653B21A3C97589DE7D98B351B1487A1A3ECC028628C9E51DB7E9CD0E98C497E36A46DDF87BEEB08AF0B2C78B4CB6BBFDA8C8C4643D1604211EE51C33E311B713F52F686BB91625E17FB1F28ADFA9F50B22ED2
310
663FF7890528CA218F0FC1EB92452E8FA0722DB9891F504B0304140006080800D238DB4255019EA25F0000007C00000007000000636E782E786D6C4DCB3B0E80201045D1AD90E915ED2CF8AC45050C11660C8261F98AB1B07AC9C97D42D718D865D3E909258CFD00CCE24AC6E326A164D74DC0B4128928FF326038472BA131
310
28B1252AC747C6BAB984FC68F0B87FE8960A5C09FE86CFB69FBA01504B0304140006080800D238DB4251E38BD365010000020300000C0000006662782F636F72652E786D6C8D52ED8E8230107C95A67F2FD0F2256A4A8D773EC2BD4085CA35424B4A4B7CFC5B3E0CE7C51843026567676776801D6E6D8306697B657481A390
310
622475692AA5EB027B7709B6181D38B3C6B83F6D1869D1CA028F65CC596D8DEF965269B493DA41559B4A2E45D1F7D26154367028705FFEC85684C23BE8E8AF6127CAABA865188500431F67BDB36000CD22E31DF3CBF9C6C85CE7CC7B552DA8AA404D5D94B498EFB65992EFF224C8F3E414A4E9D731389E6804AF7194A69FDB
310
4D96458C8C64CE9C6AEFEE4A2B859315E6318D92806E8238FFA6F99E6EF649FE41B37D421919DB1F48BEABDE2479A55D122F76675A8FF9686402FE6D0B1139D48B01FC10CEC818223CA6841F838640206427CECD7D8F2B9406593A6353402AE35768108D97A04AD1743132A330791A009B3D9D13BF98F37A067C40A16BB026
310
1C1CCFDE8DEA6C565DA2E8A40D067743DAD85634ABB9D9E27A5F859ED24BD318FB0E9B2CAB92254C32FEBDFC17504B0304140006080800D238DB429474177B7E0000009D0000000B0000006662782F636E782E786D6C4DCCD10A83201886E15B91FFDCB59866821A39D77DC4B290990EA76397BF1A1DECE883878F57749FD5
310
A3B74D2F178384FA740664C33D4E2E2C124A9E710BA85322C598FF6E80C2B85A093B83124B8AE579D064E7B1F8BCA977E1712031FDD05C1A8A35E51493EB4D636E588F291F0C31ACD62D65502951FD4ADBEE61F505504B0304140006080800D238DB427558C51B2D01000014020000310000006662782F3444414636333635
310
2D423539352D344345422D394437412D3539464434443731423835372F636F72652E786D6C8D515B6EC32010BC8AC557AA0A1B0763C711264AEAE604BD8003244189C1E251E5F885DA91DABFFCB068766676B44B778FF19E7D4BEB94D11D28730432A9B9114A5F3A10FC196E40B663D41AE3FFD040A687517620C180D18B35
310
615A206EB497DA47541B211770704E7A90F17BFC74C0F1AB1C877C083E32DC2D9F067E1B2E322FF3D88E3C469DB73140360F492F6055BF3FD6B826F0405A02AB8FCF036CFB660F497BECABBE290F1BD2D06216321A82128B5C8918479D95B4AF9A2431A35E8DCFF8DCCAC14B01D81A9518A21AAE9B2FD46C51BDC5CD3B225B
310
8C6891E8FF4461122F8A82D21EAF97B8B3CC0156D2626E302A4C38DD9F61E46332D66769DECA49FE0618CA632CD25625A6C54C8D0B889E75B5783A6F6C5CF0EA768A6CBC18D715A345BA512CBF078C35DD93FD00504B0304140006080800D238DB421FB8F19F5601000033030000300000006662782F34444146363336352D
310
423539352D344345422D394437412D3539464434443731423835372F636E782E786D6CBD93CD6EC23010845FC5F2B5CA1FA10121C7483DF4097AE8D5B1177049ECC83F5579FBAEC1502E1C2A55BD58D1EC7866F5C961DBAF69249FE0BCB6A6A74D595302465AA5CDBEA731EC8A35255BCE9CB5E1CE46891113F434C994B3BD
310
B371CE92829D88634075D4E6984507DE4627C1A39C6E92D14A3162009822A208D3004A812237237EEDC0E12A280E27120E405E5FDE891D3E4006CFAA94C259953A384B676EBA33512247E17D4FBD3CC0244A118355E08FA51241944D79ED7AB0D34F124917AE95D16992CA7B9A4ECAF346257264150E39F3C121BD6C0AA719
310
2817F33C6A290242AECEC68B87B3A84DE896D9AB11BC4377BBE8D66B0C3BCF380B7A82EC900E440045F9A26EDAA2EE8AC5EAAD5E6DEA6ED3AE9EEAE74D5BB32AD9391BAC1DF3258C01676722AD096002E50DABD2F811BEEC234A3B646DDDE9172011406EBDD0B965FC259FA66B97CB7FE4539DDF37E272F817F06F504B0304
310
140006080800D238DB426EBED29B630700009A1B0000340000006662782F34444146363336352D423539352D344345422D394437412D3539464434443731423835372F6F626A656374732E786D6CED59DD73A33610FF5718FAD23E181BDBB9261D42C7B12F379E6BDA9B73EFA60F9E616490891A211849E4E2FEF55D7D8081
310
9804B7E95B1F6C4048ABDDDF7E6A097E7ECAA8F388B92039BB767D6FE23A98C57942587AED96723FBA749D9FC380E7B96C4C731D86327CEDAA61370C529E97851D4AF01E955476466F6FFE70448C19769D982221AE5D11DFE30C79A8947982C583972089BC74FFE4F99E99D8269B7254DC7788168863268153186740C5314C
310
F9EDC7893B0E83B17A1F06EADFCE9A0D9A35EF9F35D652B7B9244C48C4E2672C75C8CC06B134F3E7ABF7D38BABD1C57C3E1BCDDF4DFDD1CDEDCD6AE4FF389B2CDF2D97578BF757C0DE2ECFA99529C1056609E8EFE0867E30566F6AD12D02A7B88E73C670AC8104A8B4585D82040BD8AA01DFA4FDE82B891AAFB5848DE7B97A
310
6F59680CCFDA54FA660D03A2451704B1DB551257D7A67CF9EE4F105C0C314A2EB0046E85E4A05D0B0F07AF70C3493036A361B03BEA82082743127382A843C98E230E4A81A96A4A189805968C720E0EA41C2581D69C79DDB62DF0CCD75DE71497FB9252E5196EA81D2B02F7C35268CEC85F981FB96F22033C81B42561F2D272
310
290F0576C3AB60AC07C3405D6653FBD200E9EC294A8546C4BCED08BA54AEBF5EB9E1C7DBDDD3468583D39B173C2F3097CAE8941E355F60C8F6AA50B2DBFA8334A71680300654BBF208CA6740FE57881E4756406F9C3CCD9FE676AEE488897DCE33D08D33714613F89B38BEFE57F78DBB605C2F6E6BAF0F4F705305D5E5BFC7
310
B32D83C6CAF2DF80330C1EC1E0733EB3AF3631A260CF77840140CA481C9AC31084F6FDEEC90DD7103821D0C32A44431F4406761FE136185B3247AD54EE65BD8E01A2768FD91025016CDA22818D1E3D7D80ECC1497C545353C43E782FDEC45C17ABCDC74DC9F728C677D6A757784F189190354F33D4C2BC25D1033E7CCB7902
310
823EC77BD3C43BB35B09405B61AE804F2B10D4C371E7D60631AC4B73156E825776002154AE6ED0BF2322C6942286F3B2DAB78E6ECA506B8FB735831B4E0DC4B369C784397E24AAAA00A739CE68310A793FE6A45020BAE10723591D34BD1EE9BEAC7F058BACE7F7CC5A3308BD0CD1DF75D03A8143CBB22BA42D10B5C0BB6338
310
8F739AF36877884CA473A1960036DADEF2B5451462BD5192A2021EA4FDAE0A29A991364AC87E5F0A88AB2758FCBA5E36CD61E2CDFC0BA7F9DF71C639445BF05DC4ADDF75F6884886521CED51D2B75D73B79AB6D0247B4873BCA720177924F21021194D129C9E03CD59C4AFDE947A4A732108C302F2D549F09B684C3C082446
310
9B15CB4AAB1DA08988322C113D070145A6075C9D76748D1B43E9F03A8FB5F5BEA4B126D1FFC82238825A32671181521472C8AB8CFBDE05C49036BA06E50EBE606D156D2D062DA184880FD1374CD27B790EEA867C0FEE311C494A19E5058AC1AC07907DE62B4AA91DDE77287E50F9238A4BFA56062230DD4784D2328BE04718
310
9C3C86B8761D985E44A141DCC43E893328CA902CF9904DDE5D4C9EED636A866E086C6CB42714C27694A1A207F55640D4F58853836FA9F7287557664584B2BC64830CC59B75BDC992EFAA55911DC8AF2A15A16CAC085B82614098ACB36A15B3C1D475600537D281EA10099415D49CC25E493C7EED4D9A72EF06DCFAE9DB6E90
310
41E1D7A3BD66449D5730581E5B8581F886647CEF861B7D1DDD40FD9DE0E498EAAB5AB3590102622A92979C58157D594379636B3437BC43526C3F98AC5B5DBFAC3DE87E04635803B54BBD70AD80CE309348552677EA867E4610825B34CCF85AE5D473A82C9244578D88DE923E75B6CA88D6A619F18A7BCCF20C7E6C4B584CCB
310
046F51221EA23B49A30D51AC5B29BD8C5418BF28E06F1F361D78606480489F548187BF75D6DAD1A52A974E1291F765B6638840106C89961ADD78054BAD462A2DD75775A680BA0B0CCCAA78FEFFC9A2D98EF8FF64915AC3F857278B9BC32FE8D0EC8B34D279ACECFAAC63409D9F1495B73806E8B6434DB5CE2226995BF9AD33
310
451014AB283FB81AAB828621D8C7F13FCEDA7D59D06CD7E1FFBCACED3FAB38CECA2AADC9AA4B75A2725D3773D8EDE574BE80DEE468E94FAF46F3C5C562B4B8797F395AF9B7D3F9C5CDD57C35B9ADD1D48E1A067530D3B90B9E4D50AB86D593C500BAB222A72481D37CE2A41862BE8433FD80F639CFB080E4D96C7627B6293F
310
60F5A3E9734AB4A3B8E2E41E4183980A48EB805119CBF6B8F31DB426251CB4AF5D681A790FF067ADD27520F35CBBD02A9024C6C2DB419B4935F4347148B93AF75B62800F62A94A896651FD5CAF52D8B4C27F3D65481AB072B57A1850B815D0FD6A7528346F96A7F82CC12B761C24E176574AA8D68C2CC7815A18BDCD51FD46
310
364AD883DDFA095CF765B17C4FCF692132E893C18B4660A88E24E2A9EE772BC62C4B8BD5A731F4D99CF56F4E41CB1474399CD2886330E6521554604560159666812498EAF2A7ED279EC3279ECCD15591F3FDD3E5BB1FB6CB3CCB726686B60B389525F0A1C8D9DCC3679F640BC50356CD75B19D4EFCE95637B56D9F3DDA2181
310
3D5515C140554C28413A260776F9AC4165DB9763A58ACEF4F5CAB141149A01C68E9EF578CD472E077C487D4E511EA3FDBC92F6C5BEF6584F059BE0D0910EFF06504B0304140006080000D238DB42000000000000000000000000350000006662782F34444146363336352D423539352D344345422D394437412D3539464434
310
443731423835372F76657274696365732E62696E504B0304140006080800D238DB42F270F1330600000004000000360000006662782F34444146363336352D423539352D344345422D394437412D3539464434443731423835372F747269616E676C65732E62696E636660600000504B0304140006080000D238DB42000000
310
000000000000000000370000006662782F34444146363336352D423539352D344345422D394437412D3539464434443731423835372F617474726962757465732E62696E504B0304140006080800D238DB42D5987DFC8F00000041010000360000006662782F34444146363336352D423539352D344345422D394437412D35
310
39464434443731423835372F6469726563746F72792E786D6C858F410EC2201045AF4266AF15DDB800BA74E7C21B903225242D6328188F2FA5C4183471359997F9FF81E89FF3C41E1816475E02DF1F80A11FC8386F25A438EECEC07A250251FC3803E6F58C12560C4AD840E95E91C151A72936F496F35732D860FE635F62C8
310
F2DA16B505C545B74125BAA2FA9E05D7CC053D063734D5C7665FD55B6B8D15D5E9BFEAFD8490FFA45E504B0304140006080800D238DB42848D41CFFB000000A00100003B0000006662782F34444146363336352D423539352D344345422D394437412D3539464434443731423835372F7265736F75726365732F636F72652E
310
786D6C8D50596E833010BD0A9ADF0A30AB09328ED2E608BD806526D44AB09197AAC7AF1DA8D4FEF5C7E3798BE6E9B1F3D7FAC83ED13A65F404554120432DCDACF43241F0B77C80ECCC9935C6FF9241A6C58A132418385BAC09DB0149A33D6A1F516D663C40E11C7AC8E4237E2670F203575188E0A3C2DD8B4DC8BB58B0A88A
310
48471D67CEDB1820DB8FA417B845678295E858B9B39C85A0E643A3E67853DD145AE0A7A16BE889D639A5CD356FDBB74B7EB9922AAE75D5B6AF43DF75152B939933AFD69F8CD2A2F03803AF49D5E4A4CF6BFA4EE848FAB1A12FA41B1BC2CA24FF630ADBFC4F5350DA37F51177B739E029C893E0AC4C7DC5F12C33CED42DFF06
310
504B010214000A0000080000D238DB423DEE336E79000000790000001B00000000000000000000000000000000006175746F6465736B2D64657369676E2D7061636B6167652E786D6C504B01021400140006080800D238DB42D486FD9CA0000000F40000001300000000000000000000000000B20000005B436F6E74656E74
310
5F54797065735D2E786D6C504B01021400140006080800D238DB4297266F57E80000007C010000080000000000000000000000000083010000636F72652E786D6C504B01021400140006080800D238DB4255019EA25F0000007C000000070000000000000000000000000091020000636E782E786D6C504B01021400140006
310
080800D238DB4251E38BD365010000020300000C00000000000000000000000000150300006662782F636F72652E786D6C504B01021400140006080800D238DB429474177B7E0000009D0000000B00000000000000000000000000A40400006662782F636E782E786D6C504B01021400140006080800D238DB427558C51B2D
310
0100001402000031000000000000000000000000004B0500006662782F34444146363336352D423539352D344345422D394437412D3539464434443731423835372F636F72652E786D6C504B01021400140006080800D238DB421FB8F19F56010000330300003000000000000000000000000000C70600006662782F344441
310
46363336352D423539352D344345422D394437412D3539464434443731423835372F636E782E786D6C504B01021400140006080800D238DB426EBED29B630700009A1B000034000000000000000000000000006B0800006662782F34444146363336352D423539352D344345422D394437412D353946443444373142383537
310
2F6F626A656374732E786D6C504B01021400140006080000D238DB420000000000000000000000003500000000000000000000000000201000006662782F34444146363336352D423539352D344345422D394437412D3539464434443731423835372F76657274696365732E62696E504B01021400140006080800D238DB42
310
F270F13306000000040000003600000000000000000000000000731000006662782F34444146363336352D423539352D344345422D394437412D3539464434443731423835372F747269616E676C65732E62696E504B01021400140006080000D238DB420000000000000000000000003700000000000000000000000000CD
310
1000006662782F34444146363336352D423539352D344345422D394437412D3539464434443731423835372F617474726962757465732E62696E504B01021400140006080800D238DB42D5987DFC8F000000410100003600000000000000000000000000221100006662782F34444146363336352D423539352D344345422D
310
394437412D3539464434443731423835372F6469726563746F72792E786D6C504B01021400140006080800D238DB42848D41CFFB000000A00100003B00000000000000000000000000051200006662782F34444146363336352D423539352D344345422D394437412D3539464434443731423835372F7265736F7572636573
310
2F636F72652E786D6C504B0506000000000E000E0080040000591300000000
  0
XRECORD
  5
17
102
{ACAD_REACTORS
330
12
102
}
330
12
100
AcDbXrecord
280
     1
270
     1
271
     1
  0
XRECORD
  5
16
102
{ACAD_REACTORS
330
12
102
}
330
12
100
AcDbXrecord
280
     1
270
     1
271
     1
  0
XRECORD
  5
18
102
{ACAD_REACTORS
330
12
102
}
330
12
100
AcDbXrecord
280
     1
270
     1
271
     1
  0
XRECORD
  5
15
102
{ACAD_REACTORS
330
12
102
}
330
12
100
AcDbXrecord
280
     1
270
     1
271
     1
  0
XRECORD
  5
24
102
{ACAD_REACTORS
330
22
102
}
330
22
100
AcDbXrecord
280
     1
270
     1
271
     1
  0
XRECORD
  5
23
102
{ACAD_REACTORS
330
22
102
}
330
22
100
AcDbXrecord
280
     1
270
     1
271
     1
  0
XRECORD
  5
BA
102
{ACAD_REACTORS
330
22
102
}
330
22
100
AcDbXrecord
280
     1
 70
     1
 90
1959938040
 71
     1
  1
4D14946C-74A8-4F48-9F40-E46CF5599D92
311
504B03040A0000080000D138DB423DEE336E79000000790000001B0000006175746F6465736B2D64657369676E2D7061636B6167652E786D6C3C3F786D6C2076657273696F6E3D22312E302220656E636F64696E673D227574662D3822203F3E3C666F726D6174733E3C666F726D61743E687474703A2F2F736368656D612E
311
6175746F6465736B2E636F6D2F64657369676E2D7061636B6167652F323030393C2F666F726D61743E3C2F666F726D6174733E504B0304140006080800D138DB42D486FD9CA0000000F4000000130000005B436F6E74656E745F54797065735D2E786D6C7D8EC10E82300C865F65E91D8A1E8C310C0EEA1BF002731658846E
311
D98AC1B77784ABF1D8FE5FBFBF75BBCE937A534CCEB38643598122B6FEE978D0B0485F9C41B54DDD7D022595594E1A469170414C76A4D9A4D207E29CF43ECE46F218070CC6BECC4078ACAA135ACF422C856C0E68EA1BF5669944DDD7BCDE7B1F8E415D77AECB980613C2E4AC91FC167A2B244592486606FC29C8FD7F045B9A
311
EF7053A7E60B504B0304140006080800D138DB42C1DF3043EC0000007C01000008000000636F72652E786D6C8D904D6EC3201085AF82665B61837F130B13D94D7D825E0061E2A0C46019A87AFCE2C491DA5D57337AF3BE99D163A7EFF98EBED4EAB4352DD084005246DA519BA985E02FF800E8C4D96AADFF650364C4AC5AD8
311
64E06C5A6D5876495AE395F151357654BB289C531E90BCC7A60527AF6A1689083E3ADC2D5984BC894925F4D54538043DA2E7113DC67DFAA2D50ABC3B1ECA8E9EDFF1072D2B5C0C4782FB6238E3ACEF3BDAD525CDEA81A51BCC99D7F3EBBE5C95F06A049E119A6352E1ACFE247543AA262FDE48D9E484A59BFD0F1496F19F50
311
D0C6E7D9FEEE1373C0697CE431E02CDDB288E51154AC5B6EFC07504B0304140006080800D138DB4255019EA25F0000007C00000007000000636E782E786D6C4DCB3B0E80201045D1AD90E915ED2CF8AC45050C11660C8261F98AB1B07AC9C97D42D718D865D3E909258CFD00CCE24AC6E326A164D74DC0B4128928FF326038
311
472BA13128B1252AC747C6BAB984FC68F0B87FE8960A5C09FE86CFB69FBA01504B0304140006080800D138DB42A2E3B14368010000020300000C0000006662782F636F72652E786D6C8D525B6E833010BC8AE5DF0A6C5E79C938224D73825EC00187A2808D8C8D72FC2E8F88A68AA208C958333BBBB3036C7F6B6AD44BD355
311
5AA538F0294652E5BAA8549962672FDE06A33D67466BFBA70C23251A99E201C69C9546BB768672ADAC541650A50B3983A2EBA4C528AFE192E22EFF918DF085B350D15DFD56E457514A3FF081863ACE3A6BC0009A860C27E697F38D9109E7CCB9AA98D9AA8069D5A59206F36CBB49B2E0F8E97D05C9CA8B4F5BEA1DE2D3D10B
311
0F872CC8D64910AE4F8C0C62CE6CD5DCDDE5460A2B0BCC431A441E5D79E1FA9BAE7774B58BE20F9AEC22CAC850FE20726DF1A6C855CA46E16C7792759807606424FE6D0B1159D4891EFC10CEC81022BCC6841F83864020642BCEF57D8F2B40BDCCAD36313085760BD58BDA49984AD1F83032B1D0796C009B3DED13BEE8F3BA
311
077C40A14AB0262C5CCFCE0ED3D934758EA295C6EBED0D296D1A512FE6268BCBB90C7A2ACF75ADCD3B6A32AF4AE630C9F0F7F25F504B0304140006080800D138DB4222B9C3177D0000009D0000000B0000006662782F636E782E786D6C4DCCD10A83201886E15B91FFDCD5C052418D34BC8F5816B2D2703A76F9ABD1C18E3E
311
78F87845F7D956F476E9E5639070BFD5805C78C4C9874542C93366803A25528CF9EF06288C9B93703228B1A458F68B26378F65CD87AE3E3C2FB4762094328E35B13D26AD6930E3B4C70D350337BA35A4D6502951FD4AC79E61F505504B0304140006080800D138DB421DBA377B2C01000012020000310000006662782F4646
311
4434373738392D423446412D343643352D383937412D3537434439434236433430422F636F72652E786D6C8D51DB8EC22014FC15C2939B4D5BDAD2A28662B4C62FD81FA8804AB4D070D9F8F90BDB9AECBEF9C2217366E60C1CBA7B8E0FF02DAD534677B0CC110452732394BE7630F84BB68660C7A835C6FFA141A087517630
311
C190D1AB35615A206EB497DA47541B211770704E7A08F8235E3AE8F84D8E433E041F19EE9E4F03BF0F579997796C471EA3CEDB1800CC43D209D9E974C484AC37D9019FF6196EFB265B6FC83E6B487FDCF487B6C7E8408B59C868084A2C7225621C7551D2BE6B92C48C7A35BEE2732B072F0564152AEB0CB55945BE10D9A276
311
5BE34FD46C6B448B44FF270A9378531494F675B5C49D650EB2921673835161C2F9F10A239F93B11EA4792B27F90764284765D554841633313E3F3AB6787174DED8F8BDABFB3972CB66B66D31A345DA502CBFEB8B356D93FD00504B0304140006080800D138DB427A20B21A4F01000033030000300000006662782F46464434
311
373738392D423446412D343643352D383937412D3537434439434236433430422F636E782E786D6CD593CD6EC32010845F0571ADFC17BB4E156122F5D027E8A1570C9B84068305B86ADEBE4B42D25C72E8B11764CD0E33AB4F986DBF2743BEC007EDEC409BB2A604AC744ADBFD4097B82B5E28D972E69D8B77364AAC9860A0
311
49A69CEDBD5BE62C29D889C544548DB6C72C7A086EF11202CAE926314E0A8301608B05459846500A14B919F16B071E5741713C917800F2F6FA41DCF809320656A514CEAAD4C1593A73D39D8912694408030DF2009328C5129D82702C9588A26CCA6BD7839D7E9348BA70AD5CBC26A97CA0E9A43C6F54224756E190B3103DD2
311
CBA6789A817231CF464B11117275365E3C9C2DDAC6BECB5E8DE03DBA9BBEED3A0C3BCF388B7A82EC901E440445F9AA6EDAA2EE8BD5FABD5E6FEA7ED3764FF5F3A6AD5995EC9C8DCE997C0963C0BB99486723D84879C3AA347E842FFB88D21E593B7FFA034804905B2F746E19FF994F757EDF88CBE35FC07F00504B03041400
311
06080800D138DB4226C757B3A205000080100000340000006662782F46464434373738392D423446412D343643352D383937412D3537434439434236433430422F6F626A656374732E786D6CAD57DB6EDB3810FD1541FBB2FBE08B6C258D178A8AC4AE0BA3485BD468B10F060C4AA2146EA80B282A75F6EBF750A46EAE9D7A
311
177DB12C6A389C3973E642EFED21E5D6331525CBB35BDB194F6D8B66611EB12CB9B52B198F6E6CEBADEF893C973D31DBCA484A6F6DB56CFB5E22F2AA304B118D49C5E5D1EAFAFE2FAB0C69466D2BE4A42C6FED327CA42919934AE6112D9FC61191649CC487B133D68243B58920C5E391D282089A49588AF50C5A2C6D94337C
311
9DDA13DF9BA8EFBEA77E8DD4FCBCD4A4F667783ECB4A49B2F087C38ED4CC1D77F56E76B5185DB9EE7CE45ECF9CD1FDFA7E3572DECCA7CBEBE57271F76E81834B29A0C95822686CFBEF818D60A137D19F7CAF62999CCF8C8809D044D067A62265FB33CBF1265AA6F5CE3879CAFC30CF321AD658018DDA3FA33AA205CD22C49C
311
D11296F5109A0E5F1D8563EFF35CBD9B23FBCB9721D0DFD153D4D8DE3CFB96E6C1DF70A1BC8441A2A48A811A4BE3A8E6EAB44338C8736EBEB1D24A89A482116E711608225E6C1FA24AC4F7066A149385CA06E581ED230AFAF3902E48A39FF3FC949571C5B9A2B1EDD759B047AE5059D696B17FA8E8ACEF23039B102BC5861B
311
E3907C29A8ED2F34456E8ED8A481B4624E12841C6EAA9DF3D991A34B95A79B95ED7F580787ADCADDD38717222FA8908A3EA05613B8E6A95032363917454E6DB08F4CE940F902E43F22D53B531037C10EEEC135A74841B232CE458AD858536B34C5CFD472EA5FF5BFF7CF9BB49B87D13B872782ADA0FA05780E7DE8C7B207A7
311
EF3D83F0B9981BD7B621E1281B0F2C03408A2416CFB1843A1C0707DBDFA0CAA12A6317E1BE039761EE33FE7A13A30685A23EA9F7CC80E55159BCA04003B69A91304393DF18D8C5E98772561F6CC4CEC17BF54BE87AB7DA7ED8562226217D3039BDA231CB98448BEB78D3376880F9C0A327FAF23D17111CFD11EF6D1FEFD41C
311
55026D85B9023E696ABA7AE94E1E1C10625F92AB72E3FDE40438A11A6B4FFF032B43CA39C9685E35E7BEDA3FD03634C42AD91593DB06D3351690467F39CA4134E950B04281D876ABB6688ECF78F775F3118C843CCF03C23BA1A02BBD61CE73B10F5EF6BA2A9D44FADB90DA068289D202B6D739D2A4BFC17C1FB138AE4AD4C0
311
13B07EDB2CFBA153550115A2D1AA93C585FBC82D220C671BBD68D682A091E6D99EA16D22ED4E1ED0D70F440D016A85E72C2E298FF78CF32ADDC78CA319ED53529C81E3FFDB1F5469B127695E65F28CEE81E9680E43DB07E42DBF13193EDAFEB67E8EEE517A231A75611E08AB567202AB4168DD95E32EDCEBE5E88D7B773372
311
D7EECD68B176A7A377585B5F5D2D16ABC5AC899356EE7B4DA7E92734A284CEE6558299F07DDD207D4C0DB0FD0722CBDD7B9D9DCDF3EB668C51D89B600FDA65BBF12E7AC6D847A39F2BE8244F2ADAA405A729CD245129F4A0FEF02F0463C6C018BDBE4949422FD0F2E9FDF6C819AC5CB0EFB34A77FAFD68AF595DAA843CA944
311
3E56699011C68F36261AC971912506BF2626ED53F799E655BD99C060302D73CE2294C1C84A689E52896278410F12292D41BDFE481F99ABC705BB9FF5802849C06963C923C18CCC4BA405A8558572B86EFD86994E8D55B736BAEDF8093FA652D81638736B6346972CA4E538407F569350AD1C5CEA0FF298FB4996708CDA7A53
311
FBDEEE52D80C3A722B72C9F864FCD215DC38803252606CC03C84E8D4C6F85E6D9BF91EFE27C71B732C22F137A864EB4BB7D03A531F8314D54E99CB0266982773F40189FABA5BCEB896192072D125EB551268AD234944525F14947DC6A4BBD5E70906146BF3C92A78952096976B1A090A32572AC1C122B0C2E82C880455977F
311
EE3E8B1C17D9D45A3350C0FAFD7073FDC76E99A7699EE9A5DD9DB90E5BDB475C6EA31D8A0355B79272379B3AB35D7D1B3017947D404A3A2651F984054456B016E841F8C14B7D65441FD21F5AB9890AC51143372BCB3436174A0D5DFAB5558183B923A3167248DD2855C6F4058A572F04935A1426088CF2FEBF504B03041400
311
06080000D138DB42000000000000000000000000350000006662782F46464434373738392D423446412D343643352D383937412D3537434439434236433430422F76657274696365732E62696E504B0304140006080800D138DB42F270F1330600000004000000360000006662782F46464434373738392D423446412D3436
311
43352D383937412D3537434439434236433430422F747269616E676C65732E62696E636660600000504B0304140006080000D138DB42000000000000000000000000370000006662782F46464434373738392D423446412D343643352D383937412D3537434439434236433430422F617474726962757465732E62696E504B
311
0304140006080800D138DB42D5987DFC8F00000041010000360000006662782F46464434373738392D423446412D343643352D383937412D3537434439434236433430422F6469726563746F72792E786D6C858F410EC2201045AF4266AF15DDB800BA74E7C21B903225242D6328188F2FA5C4183471359997F9FF81E89FF3
311
C41E1816475E02DF1F80A11FC8386F25A438EECEC07A250251FC3803E6F58C12560C4AD840E95E91C151A72936F496F35732D860FE635F62C8F2DA16B505C545B74125BAA2FA9E05D7CC053D063734D5C7665FD55B6B8D15D5E9BFEAFD8490FFA45E504B0304140006080800D138DB42D2741EDBFF000000A00100003B0000
311
006662782F46464434373738392D423446412D343643352D383937412D3537434439434236433430422F7265736F75726365732F636F72652E786D6C8D50596AC33010BD8A99DF225BF212274156B04973825E40C8134724968296D2E3578E5D68FFFA3333BC85793C7EFA9A1FD9273AAFADE980E5143234CA8EDA4C1DC470
311
257BC84E823B6BC32F196446CED8C10283E093B3F1B941CA9A802624D4D81137507A8F0132F54847075EDD7096B98C2129FC3D7F4A759713E62C4F74D209EE834B01B2F5C9324138F4363A859E172B2B788C7ADC347A4C3FF555A303D11FF64DCFCE037967CD8ED4970325437D399372187AD6B70D2BDB0B2F16B3E041CF3F
311
19954319700451525611BA2365FB41DB23DD1DABFA8D36C78AF26291FF31C5E7F84F53D42654E51677B579102C05791182174B5F69BDCA4C7BE9567C03504B010214000A0000080000D138DB423DEE336E79000000790000001B00000000000000000000000000000000006175746F6465736B2D64657369676E2D7061636B
311
6167652E786D6C504B01021400140006080800D138DB42D486FD9CA0000000F40000001300000000000000000000000000B20000005B436F6E74656E745F54797065735D2E786D6C504B01021400140006080800D138DB42C1DF3043EC0000007C010000080000000000000000000000000083010000636F72652E786D6C50
311
4B01021400140006080800D138DB4255019EA25F0000007C000000070000000000000000000000000095020000636E782E786D6C504B01021400140006080800D138DB42A2E3B14368010000020300000C00000000000000000000000000190300006662782F636F72652E786D6C504B01021400140006080800D138DB4222
311
B9C3177D0000009D0000000B00000000000000000000000000AB0400006662782F636E782E786D6C504B01021400140006080800D138DB421DBA377B2C010000120200003100000000000000000000000000510500006662782F46464434373738392D423446412D343643352D383937412D3537434439434236433430422F
311
636F72652E786D6C504B01021400140006080800D138DB427A20B21A4F010000330300003000000000000000000000000000CC0600006662782F46464434373738392D423446412D343643352D383937412D3537434439434236433430422F636E782E786D6C504B01021400140006080800D138DB4226C757B3A205000080
311
1000003400000000000000000000000000690800006662782F46464434373738392D423446412D343643352D383937412D3537434439434236433430422F6F626A656374732E786D6C504B01021400140006080000D138DB4200000000000000000000000035000000000000000000000000005D0E00006662782F46464434
311
373738392D423446412D343643352D383937412D3537434439434236433430422F76657274696365732E62696E504B01021400140006080800D138DB42F270F13306000000040000003600000000000000000000000000B00E00006662782F46464434373738392D423446412D343643352D383937412D3537434439434236
311
433430422F747269616E676C65732E62696E504B01021400140006080000D138DB4200000000000000000000000037000000000000000000000000000A0F00006662782F46464434373738392D423446412D343643352D383937412D3537434439434236433430422F617474726962757465732E62696E504B010214001400
311
06080800D138DB42D5987DFC8F0000004101000036000000000000000000000000005F0F00006662782F46464434373738392D423446412D343643352D383937412D3537434439434236433430422F6469726563746F72792E786D6C504B01021400140006080800D138DB42D2741EDBFF000000A00100003B000000000000
311
00000000000000421000006662782F46464434373738392D423446412D343643352D383937412D3537434439434236433430422F7265736F75726365732F636F72652E786D6C504B0506000000000E000E00800400009A1100000000
310
504B03040A0000080000D138DB423DEE336E79000000790000001B0000006175746F6465736B2D64657369676E2D7061636B6167652E786D6C3C3F786D6C2076657273696F6E3D22312E302220656E636F64696E673D227574662D3822203F3E3C666F726D6174733E3C666F726D61743E687474703A2F2F736368656D612E
310
6175746F6465736B2E636F6D2F64657369676E2D7061636B6167652F323030393C2F666F726D61743E3C2F666F726D6174733E504B0304140006080800D138DB42D486FD9CA0000000F4000000130000005B436F6E74656E745F54797065735D2E786D6C7D8EC10E82300C865F65E91D8A1E8C310C0EEA1BF002731658846E
310
D98AC1B77784ABF1D8FE5FBFBF75BBCE937A534CCEB38643598122B6FEE978D0B0485F9C41B54DDD7D022595594E1A469170414C76A4D9A4D207E29CF43ECE46F218070CC6BECC4078ACAA135ACF422C856C0E68EA1BF5669944DDD7BCDE7B1F8E415D77AECB980613C2E4AC91FC167A2B244592486606FC29C8FD7F045B9A
310
EF7053A7E60B504B0304140006080800D138DB424093306BE80000007C01000008000000636F72652E786D6C8D905D6EC3201084AF82F6B5C2C6F827B6858922F708BD0002E2A2C46019A87AFC42E248ED5B9F7634CCC7AE869DBFD73BFAD2BB37CE4E50150490B6D22963970962B8E21ED099B3DDB9F02B06C88A554F906D
310
E06CD95DDC0E4B3A1BB40DC9B54EE9C314DEEB0048DE9398C0CB4FBD8A42C49012FE566C42DEC4A28BEAA5121CA351E8B9C4A8F49FB91ABD039F07425BD2CEB8A7738D1B3224756909EE2FFDD03474789FBB8A9519E62C98F5B55FEE5A04AD805352D59874989E3EC86924DD58376FA41D6BC2CA1CFF03C54DFD138AC6869A
310
1EE73E310F3C1FF278E0ACCC5DA4F1282ACDDC1BFF01504B0304140006080800D138DB4255019EA25F0000007C00000007000000636E782E786D6C4DCB3B0E80201045D1AD90E915ED2CF8AC45050C11660C8261F98AB1B07AC9C97D42D718D865D3E909258CFD00CCE24AC6E326A164D74DC0B4128928FF326038472BA131
310
28B1252AC747C6BAB984FC68F0B87FE8960A5C09FE86CFB69FBA01504B0304140006080800D138DB4263BC86F764010000020300000C0000006662782F636F72652E786D6C8D52ED8E8320107C15C2DF8B825F6D6D90A6F11EE15E802AF548150C82E9E3DFFAD178BD34CDC504C9CCCEEEEC283BDDBB168DD20ECAE8024721
310
C548EACAD44A3705F6EE1A1C303A71668D71BFCA30D2A293059E60CC59638DEF57A832DA49ED00D5A6962B2886413A8CAA162E051EAA6FD98950780715C32DEC4575138D0CA31068A8E36C70160CA065C874627EBDDC195970CEBC57F5CAAA1AA6A9AB9216F332A77146B33238C46512A43487DB39A3C1E17CC8D334CE3FCB
310
5DC4C824E6CCA9EEE1AEB2523859631ED32809E82E88F75F747FA4BB63927ED0EC985046A6F22791EFEB7F8ABCD22E8957BB8B6CC07C3232137FB685881C1AC4087E0867640A115E73C2CF41432010B21397F6B1C70DA05156CED81498DAF88D1A45EB254CA5687E185958E83C3780CD5EF689DFF479DF033EA0D00D58130E
310
AE17EFA6E96C99BA46D14B1B8CEE8EB4B19D6837738BC5EDDC06BD9457A635F63F6AB2AE4AD630C9F4F7F21F504B0304140006080800D138DB42A21928C77E0000009D0000000B0000006662782F636E782E786D6C4DCCD10A83201886E15B91FFDCA5946B0335D4DA7DC4B290990EA76397BF1A1DECE883878F97779FD5A3
310
B74D2F1783007A22806CB8C7C9854540C933BE00EA244F31E6BF1BA030AE56C0CE20F99262791E34D9792C3E6FEA5D781CC828AB2969066CC86070C3CE377C6DA9C1AAD55AF754E9BA5750495EFD4ADBEE61F905504B0304140006080800D138DB4217AF635D2B01000014020000310000006662782F35313533313034452D
310
433045432D343536462D393731432D4137424242443141423344412F636F72652E786D6C8D515B6EC32010BC0AE22B55850DC68F36C24471929EA0172036715162B07854397EA176A4F62F3F2C9A9D991DEDB2DD7DBA816F699D32BA8524C31048DD9B41E9B185C15FD01B043BCEAC31FE0F0D022D26D9C20443CE466BC2BC
310
42BDD15E6A1F516D06B982C239E921E86FF1D342D77FC9496422F8C870D76C16FD558C3223596C471E67CEDB18002C43D20B79452A4A707942077C3AA0B2AA3FD07B430E68DF745D7724FB8E1EF72C5F849C85A08655AE8618475D94B4CF9A2431675E4D8FF8BD95C2CB01F202138A708D8AE613375B5C6F69F98AAB2DC52C
310
4FF47FA2300F4F8A82D29E166BDC45E620272C5F1A9C0D269C6F8F30F23E1BEB419AB771B27F811C6731564128A958BE50E302A2675DAE9ECE1B1B17BCB99E239BAEC675C9599E6E14CBEF01634DF7E43F504B0304140006080800D138DB421C877D0D5601000033030000300000006662782F35313533313034452D433045
310
432D343536462D393731432D4137424242443141423344412F636E782E786D6CBD93CD6EC23010845FC5F2B5CA1F4903428E917AE813F4D0ABB1177049ECC83F5579FBAEC1502E1C2A55BD58D1EC7866F5C9619BAF69249FE0BCB666A04D595302465AA5CD7EA031EC8A15251BCE9CB5E1CE468911130C34C994B3BDB371CE
310
92829D88634075D4E6984507DE4627C1A39C6E92D14A3162009822A208D3169402456E46FCDA81C35550DC9E483800797D792776FB01327856A514CEAAD4C1593A73D39D8912390AEF07EAE50126518A18AC027F2C9508A26CCA6BD7839D7E9248BA70AD8C4E93543ED074529E372A9123AB70C8990F0EE9655338CD40B998
310
E7514B11107275365E3C9C456D42DF65AF46F00EDDEDA25FAD30EC3CE32CE809B2433A100114E58BBA698BBA2F16CBB77AB9AEFB75DB3DD5CFEBB66655B273B6B576CC9730069C9D89B42680099437AC4AE347F8B28F28ED90B575A75F804400B9F542E796F1977C9ABEEDBA7FE4539DDF37E272F817F06F504B0304140006
310
080800D138DB42076C40C05F070000991B0000340000006662782F35313533313034452D433045432D343536462D393731432D4137424242443141423344412F6F626A656374732E786D6CED59DD73A33610FF5718FAD23E189B98A47187D0C9D9971B4F27EDCDB977D307CF3032C8448D108C247249FFFAAE3EC0404C827B
310
E9DB3DD8809056BBBFFDD412FEFA9853E70173410A76E5FADECC75304B8A94B0ECCAADE47E72E93ABF46212F0AD99AE63A0CE5F8CA55C36E1466BCA84A3B94E23DAAA8EC8DDEBCFBCB110966D875128A84B87245728773E4A14A162916F75E8A24F2B2FDA3E77B6662976CC65179D7235A228E99044E619C0115C730E5771F
310
67EE340AA7EA7D14AA7F3B6B3E6A56303C6BAAA5EE724998908825CF58EA91998F6269EE07ABF767E78BC97910CC27C1C5993F7977F36E35F17F9ECF9617CBE5E2FAFD02D8DB1505B532A5B8C42C05FD3DB9911F4ED59B46748BC031AE9382319C6820012A2D569F20C102B66AC137EB3EFA4AA2D66B2D61EB3950EF2D0BAD
310
E17997CAD0AC714074E8822076BB5AE2FADA96AFD8FD0D828B3146C90596C0AD901CB46BE1E1E0156E340BA766340A77075D10E1E448624E107528D971C4412930554D8942B3C09251CEC18194A324D09A33AFBBB6059EF9BAEB1CE3725F51AA3CC38DB463C5E07E580ACD19F907F303F76D64802790B6224C5E5A2EE55389
310
DD68114EF56014AACBFCCCBE34403A7B8A32A111316F7B822E95EBAF576EF4DBCDEE71A3C2C1F1CD4B5E94984B65744A8F9A2F30647B5528D96DFD519A530B401803AA5D7900E51320FF3B448F032BA0374E1E83C7C0CE951C31B12F780EBA7166CE64067F33C7D7FFEABE75174E9BC55DED0DE1096EAAA0BAFC763CBB3268
310
AC2CFF2D38A3F0010CBEE073FB6A93200AF67C4B1800A48CC4A1050C4168DFEF1EDD680D8113023DAC4234F2416460F7016EC3A92573D04AED5ED6EB18206AF7988F5112C0A62D12D818D0D307C81E9C240735B5451C82F7FC4DCCF57AB5F96D53F13D4AF0ADF5E915DE13462464CDE30C7530EF48748F9FBE163C05419FE3
310
BD69E39DDBAD04A0AD3057C0673508EAE1B073678304D665850A37E12B3B80102A57B7E8DF1291604A11C34555EFDB443765A88DC7DB9AC18DCE0CC4F3B39E0973FC405455014E7398D16114F27EC249A94074A30F46B226687A03D27D5EFF0E16D9CC1F98B566107A19A27FEAA07504878E65D7485B201A817787709E14B4
310
E0F1EE293691CE855A02D8E87ACB970E5188F546498A0A7890F6BB3AA46446DA3825FB7D2520AE1E61F1CB7AD936879937F7CF9DF67FCF190388B6E0BB885BBFEBED11931C6538DEA37468BBF66E0D6DA1490E90E6784F412EF240E4538C643C4B71760A3427115FBC29F58C1642108605E4ABA3E0B7D1987910488C366B96
310
95567B401311E758227A0A028ACC00B83AEDE81A3781D2E1751E1BEB7D49636DA2FF93457004B564C16202A528E4905719F7BD7388215D740DCA3D7CC1DA6ADA5A0C5A4109913CC55F31C9EEE429A81BF203B8277024A9645C942801B31E41F699AF28A5F678DFA1E45EE58F38A9E85B1988C0741F134AAB3C861F6170F218
310
E3DA4D607A1185167113FB24CEA12843B2E26336B9389F3DDBC7D40CFD10D8DA684F2884ED3847E500EA9D80A8EB11A701DF521F50EAAECACB18E545C546198A37EF7B9325DF57AB223B925F552A42D95813B604A39030D964D53A6683A9EBC00A6EA403D5532C505E52730A7B25F1F88D3769CA831B70EBA76FBB410E85DF
310
80F6DA1135A861B03C760A03F115C9E4CE8D36FA3A7907F5778AD343AAAF6BCD76050888A9485E716255F4790DE58DADD1DCE81649B1FD60B26E7DFDBCF6A0FB114E610DD42ECDC2B5023AC74C225599DCAA1BFA094108EED030E36B95534FA1729DA6BA6A44F4860CA9B353467436CD8957DE6156E4F0635BC2125AA5788B
310
52711FDF4A1A6F8862DD4AE9E5A4C6F84501FFF8B0E9C103232344FAA80A3CFCB5B7D68E2E55B9749488BCABF21D4304826047B4CCE8C62B596635526BB9B9AA3305D45D606056C5C1F79345BB1DF1FD649159C3F8B693052D76881EA24D2B9B27CAAC4F3A0534E94951798B5380EE3A34549B246272B915DFFA520C31B10E
310
F2A38BB13A661882431CFFE7A43D9404CD763DFE4F4BDAFEB382E3A4A4D299AC9A54470AD7752785ADFC60115C2C273F07D79793E026B89C2C6E82D9E43D8CDD9C9F2F16AB4593890DF1286C62994E5DF06C625A3DAC9E2C06D094150525291CE65327C310F2251CE94774CF798E05E4CE76AF3BB53DF911AB1F4C9B53A21D
310
C535277708FAC35440560731AA4476C79D1FA03329E19C7DE542CFC8BB873F6B95AE0389E7CA854E81240916DE0EBA4CAA9FA78943C6D5A9DF1283388658A632A259D43C37AB14369DE8DF4C199305AC5C9D1606D46D2534BF3A0D0ACD9BE5293949F09A1D0749B8DD55128A3523CB61A011466F7350BF918D12766FB77E04
310
D77D592CDFD3733A888CFA62F0A21118AA138978A6DBDD8A31CBD2F5EAE314DA6CCEFA0FA7A45506BA1C4F69C2311873A5EA29B022B00A4BB344124C75F9CBF6232FE00B4FEEE8A2C8F9F1F1F2E2A7EDB2C8F38299A1ED351CCA52F84EE46CEEE0AB4FBA85DA01ABDEBAD89ECDFCB3ADEE69DB367BBC43027BAA288281BA96
310
5082F44C0EECF2597FCA762FA74A15BDE9EB95638328F4028C1D3D6BF19A6F5C0EF890FA9AA23C46FB792DED8B6DEDA99E0A36C1A1211DFD0B504B0304140006080000D138DB42000000000000000000000000350000006662782F35313533313034452D433045432D343536462D393731432D413742424244314142334441
310
2F76657274696365732E62696E504B0304140006080800D138DB42F270F1330600000004000000360000006662782F35313533313034452D433045432D343536462D393731432D4137424242443141423344412F747269616E676C65732E62696E636660600000504B0304140006080000D138DB4200000000000000000000
310
0000370000006662782F35313533313034452D433045432D343536462D393731432D4137424242443141423344412F617474726962757465732E62696E504B0304140006080800D138DB42D5987DFC8F00000041010000360000006662782F35313533313034452D433045432D343536462D393731432D4137424242443141
310
423344412F6469726563746F72792E786D6C858F410EC2201045AF4266AF15DDB800BA74E7C21B903225242D6328188F2FA5C4183471359997F9FF81E89FF3C41E1816475E02DF1F80A11FC8386F25A438EECEC07A250251FC3803E6F58C12560C4AD840E95E91C151A72936F496F35732D860FE635F62C8F2DA16B505C545
310
B74125BAA2FA9E05D7CC053D063734D5C7665FD55B6B8D15D5E9BFEAFD8490FFA45E504B0304140006080800D138DB4253381EF3FB000000A00100003B0000006662782F35313533313034452D433045432D343536462D393731432D4137424242443141423344412F7265736F75726365732F636F72652E786D6C8D50596E
310
833010BD0A9ADFCA60B6049071D4D223F4029699102BC1465EAA1EBF76A052FBD79F99D15B344F8F5DBED647F689D629A34728730A196A6966A5971182BF920EB20B67D618FF4B0699162B8E9060E06CB1266C07248DF6A87D44B599F1008573E821938F788CE0E40D57918BE0A3C2DDF34DC8BB58302FF348471D67CEDB18
310
20DB9FA409DCA233C14A74ACD859CE4250F3A15173FCA9AE0A2DF0A9A7554BDB37D255534D1ADA4FA47B6D691C5DDF3455FF3E9D4A562433675EAD3F19A545E171065ED1B226F444AAF3073D0FF434D4CD0B6D879AB222C9FF98C236FFD31494F67575C4DD6D0E780AF224382B525F713DCB8C3B75CBBF01504B010214000A
310
0000080000D138DB423DEE336E79000000790000001B00000000000000000000000000000000006175746F6465736B2D64657369676E2D7061636B6167652E786D6C504B01021400140006080800D138DB42D486FD9CA0000000F40000001300000000000000000000000000B20000005B436F6E74656E745F54797065735D
310
2E786D6C504B01021400140006080800D138DB424093306BE80000007C010000080000000000000000000000000083010000636F72652E786D6C504B01021400140006080800D138DB4255019EA25F0000007C000000070000000000000000000000000091020000636E782E786D6C504B01021400140006080800D138DB42
310
63BC86F764010000020300000C00000000000000000000000000150300006662782F636F72652E786D6C504B01021400140006080800D138DB42A21928C77E0000009D0000000B00000000000000000000000000A30400006662782F636E782E786D6C504B01021400140006080800D138DB4217AF635D2B01000014020000
310
31000000000000000000000000004A0500006662782F35313533313034452D433045432D343536462D393731432D4137424242443141423344412F636F72652E786D6C504B01021400140006080800D138DB421C877D0D56010000330300003000000000000000000000000000C40600006662782F35313533313034452D43
310
3045432D343536462D393731432D4137424242443141423344412F636E782E786D6C504B01021400140006080800D138DB42076C40C05F070000991B00003400000000000000000000000000680800006662782F35313533313034452D433045432D343536462D393731432D4137424242443141423344412F6F626A656374
310
732E786D6C504B01021400140006080000D138DB420000000000000000000000003500000000000000000000000000191000006662782F35313533313034452D433045432D343536462D393731432D4137424242443141423344412F76657274696365732E62696E504B01021400140006080800D138DB42F270F133060000
310
000400000036000000000000000000000000006C1000006662782F35313533313034452D433045432D343536462D393731432D4137424242443141423344412F747269616E676C65732E62696E504B01021400140006080000D138DB420000000000000000000000003700000000000000000000000000C61000006662782F
310
35313533313034452D433045432D343536462D393731432D4137424242443141423344412F617474726962757465732E62696E504B01021400140006080800D138DB42D5987DFC8F0000004101000036000000000000000000000000001B1100006662782F35313533313034452D433045432D343536462D393731432D4137
310
424242443141423344412F6469726563746F72792E786D6C504B01021400140006080800D138DB4253381EF3FB000000A00100003B00000000000000000000000000FE1100006662782F35313533313034452D433045432D343536462D393731432D4137424242443141423344412F7265736F75726365732F636F72652E78
310
6D6C504B0506000000000E000E0080040000521300000000
  0
XRECORD
  5
27
102
{ACAD_REACTORS
330
22
102
}
330
22
100
AcDbXrecord
280
     1
270
     1
271
     1
  0
XRECORD
  5
26
102
{ACAD_REACTORS
330
22
102
}
330
22
100
AcDbXrecord
280
     1
270
     1
271
     1
  0
XRECORD
  5
28
102
{ACAD_REACTORS
330
22
102
}
330
22
100
AcDbXrecord
280
     1
270
     1
271
     1
  0
XRECORD
  5
25
102
{ACAD_REACTORS
330
22
102
}
330
22
100
AcDbXrecord
280
     1
270
     1
271
     1
  0
XRECORD
  5
B13
102
{ACAD_REACTORS
330
B12
102
}
330
B12
100
AcDbXrecord
280
     1
102
ACAD_ROUNDTRIP_2012_MLEADER_STYLE
298
     1
  0
CELLSTYLEMAP
  5
B11
102
{ACAD_REACTORS
330
B10
102
}
330
B10
100
AcDbCellStyleMap
 90
        3
300
CELLSTYLE
  1
TABLEFORMAT_BEGIN
 90
        5
170
     1
 91
        0
 92
    32768
 62
   257
 93
        1
300
CONTENTFORMAT
  1
CONTENTFORMAT_BEGIN
 90
        0
 91
        0
 92
      512
 93
        0
300

 40
0.0
140
1.0
 94
        5
 62
     0
340
55
144
0.25
309
CONTENTFORMAT_END
171
     0
 94
        0
309
TABLEFORMAT_END
  1
CELLSTYLE_BEGIN
 90
        1
 91
        1
300
_TITLE
309
CELLSTYLE_END
300
CELLSTYLE
  1
TABLEFORMAT_BEGIN
 90
        5
170
     1
 91
        0
 92
        0
 62
   257
 93
        1
300
CONTENTFORMAT
  1
CONTENTFORMAT_BEGIN
 90
        0
 91
        0
 92
      512
 93
        0
300

 40
0.0
140
1.0
 94
        5
 62
     0
340
55
144
0.18
309
CONTENTFORMAT_END
171
     0
 94
        0
309
TABLEFORMAT_END
  1
CELLSTYLE_BEGIN
 90
        2
 91
        1
300
_HEADER
309
CELLSTYLE_END
300
CELLSTYLE
  1
TABLEFORMAT_BEGIN
 90
        5
170
     1
 91
        0
 92
        0
 62
   257
 93
        1
300
CONTENTFORMAT
  1
CONTENTFORMAT_BEGIN
 90
        0
 91
        0
 92
      512
 93
        0
300

 40
0.0
140
1.0
 94
        2
 62
     0
340
55
144
0.18
309
CONTENTFORMAT_END
171
     0
 94
        0
309
TABLEFORMAT_END
  1
CELLSTYLE_BEGIN
 90
        3
 91
        2
300
_DATA
309
CELLSTYLE_END
  0
ENDSEC
  0
EOF
