  0
SECTION
  2
HEADER
  9
$ACADVER
  1
AC1024
  9
$ACADMAINTVER
 70
    63
  9
$DWGCODEPAGE
  3
ANSI_1252
  9
$AUTHOR
  1
PR
  9
$REVISIONNUMBER
  1
-
  9
$CUSTOMPROPERTYTAG
  1
Manager
  9
$CUSTOMPROPERTY
  1

  9
$CUSTOMPROPERTYTAG
  1
Company
  9
$CUSTOMPROPERTY
  1

  9
$CUSTOMPROPERTYTAG
  1
Category
  9
$CUSTOMPROPERTY
  1

  9
$CUSTOMPROPERTYTAG
  1
Part Number
  9
$CUSTOMPROPERTY
  1
WA90SMP20G-S
  9
$CUSTOMPROPERTYTAG
  1
Description
  9
$CUSTOMPROPERTY
  1
N1P PANEL MASTER VIEW
  9
$CUSTOMPROPERTYTAG
  1
Project
  9
$CUSTOMPROPERTY
  1

  9
$CUSTOMPROPERTYTAG
  1
Designer
  9
$CUSTOMPROPERTY
  1
PR
  9
$CUSTOMPROPERTYTAG
  1
Engineer
  9
$CUSTOMPROPERTY
  1

  9
$CUSTOMPROPERTYTAG
  1
Authority
  9
$CUSTOMPROPERTY
  1

  9
$CUSTOMPROPERTYTAG
  1
Cost Center
  9
$CUSTOMPROPERTY
  1

  9
$CUSTOMPROPERTYTAG
  1
Vendor
  9
$CUSTOMPROPERTY
  1

  9
$CUSTOMPROPERTYTAG
  1
User Status
  9
$CUSTOMPROPERTY
  1

  9
$CUSTOMPROPERTYTAG
  1
Design Status
  9
$CUSTOMPROPERTY
  1
WorkInProgress
  9
$CUSTOMPROPERTYTAG
  1
Checked by
  9
$CUSTOMPROPERTY
  1
NJ
  9
$CUSTOMPROPERTYTAG
  1
Engr Approved by
  9
$CUSTOMPROPERTY
  1

  9
$CUSTOMPROPERTYTAG
  1
Date Eng Approved
  9
$CUSTOMPROPERTY
  1
06/24/2013
  9
$CUSTOMPROPERTYTAG
  1
Mfg Approved by
  9
$CUSTOMPROPERTY
  1

  9
$CUSTOMPROPERTYTAG
  1
DWG. NO
  9
$CUSTOMPROPERTY
  1

  9
$CUSTOMPROPERTYTAG
  1
NUMBER OF SHEETS
  9
$CUSTOMPROPERTY
  1
1
  9
$CUSTOMPROPERTYTAG
  1
DRAWING #
  9
$CUSTOMPROPERTY
  1
1
  9
$INSBASE
 10
0.0
 20
0.0
 30
0.0
  9
$EXTMIN
 10
0.0
 20
0.0
 30
0.0
  9
$EXTMAX
 10
229.5
 20
148.5
 30
0.0
  9
$LIMMIN
 10
0.0
 20
0.0
  9
$LIMMAX
 10
229.5
 20
148.5
  9
$ORTHOMODE
 70
     0
  9
$REGENMODE
 70
     1
  9
$FILLMODE
 70
     1
  9
$QTEXTMODE
 70
     0
  9
$MIRRTEXT
 70
     0
  9
$LTSCALE
 40
13.5
  9
$ATTMODE
 70
     1
  9
$TEXTSIZE
 40
0.2
  9
$TRACEWID
 40
0.05
  9
$TEXTSTYLE
  7
Standard
  9
$CLAYER
  8
0
  9
$CELTYPE
  6
ByLayer
  9
$CECOLOR
 62
   256
  9
$CELTSCALE
 40
1.0
  9
$DISPSILH
 70
     0
  9
$DIMSCALE
 40
1.0
  9
$DIMASZ
 40
0.0708661417322835
  9
$DIMEXO
 40
0.0625
  9
$DIMDLI
 40
0.38
  9
$DIMRND
 40
0.0
  9
$DIMDLE
 40
0.0
  9
$DIMEXE
 40
0.18
  9
$DIMTP
 40
0.0
  9
$DIMTM
 40
0.0
  9
$DIMTXT
 40
0.0708661417322835
  9
$DIMCEN
 40
0.09
  9
$DIMTSZ
 40
0.0
  9
$DIMTOL
 70
     0
  9
$DIMLIM
 70
     0
  9
$DIMTIH
 70
     1
  9
$DIMTOH
 70
     1
  9
$DIMSE1
 70
     0
  9
$DIMSE2
 70
     0
  9
$DIMTAD
 70
     0
  9
$DIMZIN
 70
     0
  9
$DIMBLK
  1

  9
$DIMASO
 70
     1
  9
$DIMSHO
 70
     1
  9
$DIMPOST
  1

  9
$DIMAPOST
  1

  9
$DIMALT
 70
     0
  9
$DIMALTD
 70
     2
  9
$DIMALTF
 40
25.4
  9
$DIMLFAC
 40
1.0
  9
$DIMTOFL
 70
     0
  9
$DIMTVP
 40
0.0
  9
$DIMTIX
 70
     0
  9
$DIMSOXD
 70
     0
  9
$DIMSAH
 70
     0
  9
$DIMBLK1
  1

  9
$DIMBLK2
  1

  9
$DIMSTYLE
  2
STANDARD
  9
$DIMCLRD
 70
     0
  9
$DIMCLRE
 70
     0
  9
$DIMCLRT
 70
     0
  9
$DIMTFAC
 40
1.0
  9
$DIMGAP
 40
0.09
  9
$DIMJUST
 70
     0
  9
$DIMSD1
 70
     0
  9
$DIMSD2
 70
     0
  9
$DIMTOLJ
 70
     1
  9
$DIMTZIN
 70
     0
  9
$DIMALTZ
 70
     0
  9
$DIMALTTZ
 70
     0
  9
$DIMUPT
 70
     0
  9
$DIMDEC
 70
     4
  9
$DIMTDEC
 70
     4
  9
$DIMALTU
 70
     2
  9
$DIMALTTD
 70
     2
  9
$DIMTXSTY
  7
Standard
  9
$DIMAUNIT
 70
     0
  9
$DIMADEC
 70
     0
  9
$DIMALTRND
 40
0.0
  9
$DIMAZIN
 70
     0
  9
$DIMDSEP
 70
    46
  9
$DIMATFIT
 70
     3
  9
$DIMFRAC
 70
     0
  9
$DIMLDRBLK
  1

  9
$DIMLUNIT
 70
     2
  9
$DIMLWD
 70
    -2
  9
$DIMLWE
 70
    -2
  9
$DIMTMOVE
 70
     0
  9
$DIMFXL
 40
1.0
  9
$DIMFXLON
 70
     0
  9
$DIMJOGANG
 40
0.7853981633974483
  9
$DIMTFILL
 70
     0
  9
$DIMTFILLCLR
 70
     0
  9
$DIMARCSYM
 70
     0
  9
$DIMLTYPE
  6

  9
$DIMLTEX1
  6

  9
$DIMLTEX2
  6

  9
$DIMTXTDIRECTION
 70
     0
  9
$LUNITS
 70
     2
  9
$LUPREC
 70
     4
  9
$SKETCHINC
 40
0.1
  9
$FILLETRAD
 40
0.0
  9
$AUNITS
 70
     0
  9
$AUPREC
 70
     0
  9
$MENU
  1
.
  9
$ELEVATION
 40
0.0
  9
$PELEVATION
 40
0.0
  9
$THICKNESS
 40
0.0
  9
$LIMCHECK
 70
     0
  9
$CHAMFERA
 40
0.0
  9
$CHAMFERB
 40
0.0
  9
$CHAMFERC
 40
0.0
  9
$CHAMFERD
 40
0.0
  9
$SKPOLY
 70
     0
  9
$TDCREATE
 40
2456471.308905440
  9
$TDUCREATE
 40
2456471.079738773
  9
$TDUPDATE
 40
2456471.308905451
  9
$TDUUPDATE
 40
2456471.079738784
  9
$TDINDWG
 40
0.0000486806
  9
$TDUSRTIMER
 40
0.0000486806
  9
$USRTIMER
 70
     1
  9
$ANGBASE
 50
0.0
  9
$ANGDIR
 70
     0
  9
$PDMODE
 70
     0
  9
$PDSIZE
 40
0.0
  9
$PLINEWID
 40
0.0
  9
$SPLFRAME
 70
     0
  9
$SPLINETYPE
 70
     6
  9
$SPLINESEGS
 70
     8
  9
$HANDSEED
  5
B0E
  9
$SURFTAB1
 70
     6
  9
$SURFTAB2
 70
     6
  9
$SURFTYPE
 70
     6
  9
$SURFU
 70
     6
  9
$SURFV
 70
     6
  9
$UCSBASE
  2

  9
$UCSNAME
  2

  9
$UCSORG
 10
0.0
 20
0.0
 30
0.0
  9
$UCSXDIR
 10
1.0
 20
0.0
 30
0.0
  9
$UCSYDIR
 10
0.0
 20
1.0
 30
0.0
  9
$UCSORTHOREF
  2

  9
$UCSORTHOVIEW
 70
     0
  9
$UCSORGTOP
 10
0.0
 20
0.0
 30
0.0
  9
$UCSORGBOTTOM
 10
0.0
 20
0.0
 30
0.0
  9
$UCSORGLEFT
 10
0.0
 20
0.0
 30
0.0
  9
$UCSORGRIGHT
 10
0.0
 20
0.0
 30
0.0
  9
$UCSORGFRONT
 10
0.0
 20
0.0
 30
0.0
  9
$UCSORGBACK
 10
0.0
 20
0.0
 30
0.0
  9
$PUCSBASE
  2

  9
$PUCSNAME
  2

  9
$PUCSORG
 10
0.0
 20
0.0
 30
0.0
  9
$PUCSXDIR
 10
1.0
 20
0.0
 30
0.0
  9
$PUCSYDIR
 10
0.0
 20
1.0
 30
0.0
  9
$PUCSORTHOREF
  2

  9
$PUCSORTHOVIEW
 70
     0
  9
$PUCSORGTOP
 10
0.0
 20
0.0
 30
0.0
  9
$PUCSORGBOTTOM
 10
0.0
 20
0.0
 30
0.0
  9
$PUCSORGLEFT
 10
0.0
 20
0.0
 30
0.0
  9
$PUCSORGRIGHT
 10
0.0
 20
0.0
 30
0.0
  9
$PUCSORGFRONT
 10
0.0
 20
0.0
 30
0.0
  9
$PUCSORGBACK
 10
0.0
 20
0.0
 30
0.0
  9
$USERI1
 70
     0
  9
$USERI2
 70
     0
  9
$USERI3
 70
     0
  9
$USERI4
 70
     0
  9
$USERI5
 70
     0
  9
$USERR1
 40
0.0
  9
$USERR2
 40
0.0
  9
$USERR3
 40
0.0
  9
$USERR4
 40
0.0
  9
$USERR5
 40
0.0
  9
$WORLDVIEW
 70
     1
  9
$SHADEDGE
 70
     3
  9
$SHADEDIF
 70
    70
  9
$TILEMODE
 70
     1
  9
$MAXACTVP
 70
    64
  9
$PINSBASE
 10
0.0
 20
0.0
 30
0.0
  9
$PLIMCHECK
 70
     0
  9
$PEXTMIN
 10
0.0
 20
0.0
 30
0.0
  9
$PEXTMAX
 10
229.5
 20
148.5
 30
0.0
  9
$PLIMMIN
 10
0.0
 20
0.0
  9
$PLIMMAX
 10
229.5
 20
148.5
  9
$UNITMODE
 70
     0
  9
$VISRETAIN
 70
     1
  9
$PLINEGEN
 70
     0
  9
$PSLTSCALE
 70
     1
  9
$TREEDEPTH
 70
  3020
  9
$CMLSTYLE
  2
Standard
  9
$CMLJUST
 70
     0
  9
$CMLSCALE
 40
1.0
  9
$PROXYGRAPHICS
 70
     1
  9
$MEASUREMENT
 70
     0
  9
$CELWEIGHT
370
    -1
  9
$ENDCAPS
280
     0
  9
$JOINSTYLE
280
     0
  9
$LWDISPLAY
290
     0
  9
$INSUNITS
 70
     1
  9
$HYPERLINKBASE
  1

  9
$STYLESHEET
  1

  9
$XEDIT
290
     1
  9
$CEPSNTYPE
380
     0
  9
$PSTYLEMODE
290
     1
  9
$FINGERPRINTGUID
  2
{27663EFA-172D-449E-B205-C1EBCCFE1CA5}
  9
$VERSIONGUID
  2
{64A3B98F-40B8-40FC-A32B-C99E2157E9E4}
  9
$EXTNAMES
290
     1
  9
$PSVPSCALE
 40
0.0
  9
$OLESTARTUP
290
     0
  9
$SORTENTS
280
   127
  9
$INDEXCTL
280
     0
  9
$HIDETEXT
280
     1
  9
$XCLIPFRAME
280
     2
  9
$HALOGAP
280
     0
  9
$OBSCOLOR
 70
   257
  9
$OBSLTYPE
280
     0
  9
$INTERSECTIONDISPLAY
280
     0
  9
$INTERSECTIONCOLOR
 70
   257
  9
$DIMASSOC
280
     1
  9
$PROJECTNAME
  1

  9
$CAMERADISPLAY
290
     0
  9
$LENSLENGTH
 40
50.0
  9
$CAMERAHEIGHT
 40
0.0
  9
$STEPSPERSEC
 40
2.0
  9
$STEPSIZE
 40
6.0
  9
$3DDWFPREC
 40
2.0
  9
$PSOLWIDTH
 40
0.25
  9
$PSOLHEIGHT
 40
4.0
  9
$LOFTANG1
 40
1.570796326794896
  9
$LOFTANG2
 40
1.570796326794896
  9
$LOFTMAG1
 40
0.0
  9
$LOFTMAG2
 40
0.0
  9
$LOFTPARAM
 70
     7
  9
$LOFTNORMALS
280
     1
  9
$LATITUDE
 40
37.795
  9
$LONGITUDE
 40
-122.394
  9
$NORTHDIRECTION
 40
0.0
  9
$TIMEZONE
 70
 -8000
  9
$LIGHTGLYPHDISPLAY
280
     1
  9
$TILEMODELIGHTSYNCH
280
     1
  9
$CMATERIAL
347
11
  9
$SOLIDHIST
280
     0
  9
$SHOWHIST
280
     1
  9
$DWFFRAME
280
     2
  9
$DGNFRAME
280
     0
  9
$REALWORLDSCALE
290
     1
  9
$INTERFERECOLOR
 62
     1
  9
$INTERFEREOBJVS
345
33
  9
$INTERFEREVPVS
346
30
  9
$CSHADOW
280
     0
  9
$SHADOWPLANELOCATION
 40
0.0
  0
ENDSEC
  0
SECTION
  2
CLASSES
  0
CLASS
  1
ACDBDICTIONARYWDFLT
  2
AcDbDictionaryWithDefault
  3
ObjectDBX Classes
 90
        0
 91
        1
280
     0
281
     0
  0
CLASS
  1
MATERIAL
  2
AcDbMaterial
  3
ObjectDBX Classes
 90
     1153
 91
        3
280
     0
281
     0
  0
CLASS
  1
VISUALSTYLE
  2
AcDbVisualStyle
  3
ObjectDBX Classes
 90
     4095
 91
       24
280
     0
281
     0
  0
CLASS
  1
SCALE
  2
AcDbScale
  3
ObjectDBX Classes
 90
     1153
 91
       17
280
     0
281
     0
  0
CLASS
  1
TABLESTYLE
  2
AcDbTableStyle
  3
ObjectDBX Classes
 90
     4095
 91
        1
280
     0
281
     0
  0
CLASS
  1
MLEADERSTYLE
  2
AcDbMLeaderStyle
  3
ACDB_MLEADERSTYLE_CLASS
 90
     4095
 91
        1
280
     0
281
     0
  0
CLASS
  1
DICTIONARYVAR
  2
AcDbDictionaryVar
  3
ObjectDBX Classes
 90
        0
 91
        3
280
     0
281
     0
  0
CLASS
  1
CELLSTYLEMAP
  2
AcDbCellStyleMap
  3
ObjectDBX Classes
 90
     1152
 91
        1
280
     0
281
     0
  0
ENDSEC
  0
SECTION
  2
TABLES
  0
TABLE
  2
VPORT
  5
8
330
0
100
AcDbSymbolTable
 70
     1
  0
VPORT
  5
57
330
8
100
AcDbSymbolTableRecord
100
AcDbViewportTableRecord
  2
*Active
 70
     0
 10
0.0
 20
0.0
 11
1.0
 21
1.0
 12
114.75
 22
74.25
 13
0.0
 23
0.0
 14
1.0
 24
1.0
 15
0.0
 25
0.0
 16
0.0
 26
0.0
 36
1.0
 17
0.0
 27
0.0
 37
0.0
 40
148.5
 41
1.545454545454545
 42
50.0
 43
0.0
 44
0.0
 50
0.0
 51
0.0
 71
     0
 72
   100
 73
     1
 74
     1
 75
     0
 76
     0
 77
     0
 78
     0
281
     0
 65
     1
110
0.0
120
0.0
130
0.0
111
1.0
121
0.0
131
0.0
112
0.0
122
1.0
132
0.0
 79
     0
146
0.0
 60
     3
 61
     5
292
     1
282
     1
141
0.0
142
0.0
 63
   250
421
  3355443
  0
ENDTAB
  0
TABLE
  2
LTYPE
  5
5
330
0
100
AcDbSymbolTable
 70
    59
  0
LTYPE
  5
5B
330
5
100
AcDbSymbolTableRecord
100
AcDbLinetypeTableRecord
  2
ByBlock
 70
     0
  3

 72
    65
 73
     0
 40
0.0
  0
LTYPE
  5
5C
330
5
100
AcDbSymbolTableRecord
100
AcDbLinetypeTableRecord
  2
ByLayer
 70
     0
  3

 72
    65
 73
     0
 40
0.0
  0
LTYPE
  5
5D
330
5
100
AcDbSymbolTableRecord
100
AcDbLinetypeTableRecord
  2
Continuous
 70
     0
  3
Solid line
 72
    65
 73
     0
 40
0.0
  0
LTYPE
  5
7C
330
5
100
AcDbSymbolTableRecord
100
AcDbLinetypeTableRecord
  2
BY_STANDARD
 70
     0
  3
By Standard ____________    ____    ____   _
 72
    65
 73
     6
 40
1.240299999999999
 49
0.6614
 74
     0
 49
-0.0827
 74
     0
 49
0.1654
 74
     0
 49
-0.0827
 74
     0
 49
0.1654
 74
     0
 49
-0.0827
 74
     0
  0
LTYPE
  5
7D
330
5
100
AcDbSymbolTableRecord
100
AcDbLinetypeTableRecord
  2
CHAIN
 70
     0
  3
Chain ____ _ ____ _ ____ _ ____ _ ____ _ ____
 72
    65
 73
     4
 40
0.7087
 49
0.4724000000000001
 74
     0
 49
-0.0591
 74
     0
 49
0.1181
 74
     0
 49
-0.0591
 74
     0
  0
LTYPE
  5
7E
330
5
100
AcDbSymbolTableRecord
100
AcDbLinetypeTableRecord
  2
DASH_DOT
 70
     0
  3
Dash dot __ . __ . __ . __ . __ . __ . __ . __
 72
    65
 73
     4
 40
0.37
 49
0.24
 74
     0
 49
-0.06
 74
     0
 49
0.01
 74
     0
 49
-0.06
 74
     0
  0
LTYPE
  5
7F
330
5
100
AcDbSymbolTableRecord
100
AcDbLinetypeTableRecord
  2
DOUBLE_DASH_DOT
 70
     0
  3
Double-Dash Dot __ __ . __ __ . __ __ . __ _
 72
    65
 73
     6
 40
0.4398
 49
0.24
 74
     0
 49
-0.06
 74
     0
 49
0.0098
 74
     0
 49
-0.06
 74
     0
 49
0.01
 74
     0
 49
-0.06
 74
     0
  0
LTYPE
  5
80
330
5
100
AcDbSymbolTableRecord
100
AcDbLinetypeTableRecord
  2
DASH_TRIPLE_DOT
 70
     0
  3
Dash Triple-Dot _ . . . _ . . . _ . . . _
 72
    65
 73
     8
 40
0.51
 49
0.24
 74
     0
 49
-0.06
 74
     0
 49
0.01
 74
     0
 49
-0.06
 74
     0
 49
0.01
 74
     0
 49
-0.06
 74
     0
 49
0.01
 74
     0
 49
-0.06
 74
     0
  0
LTYPE
  5
81
330
5
100
AcDbSymbolTableRecord
100
AcDbLinetypeTableRecord
  2
DASHED
 70
     0
  3
Dashed __ __ __ __ __ __ __ __ __ __ __ __ __ _
 72
    65
 73
     2
 40
0.2067
 49
0.1654
 74
     0
 49
-0.0413
 74
     0
  0
LTYPE
  5
82
330
5
100
AcDbSymbolTableRecord
100
AcDbLinetypeTableRecord
  2
DASH_DOUBLE_DOT
 70
     0
  3
Dash Double-Dot __ . . __ . . __ . . __ . .
 72
    65
 73
     6
 40
0.4398
 49
0.24
 74
     0
 49
-0.06
 74
     0
 49
0.0098
 74
     0
 49
-0.06
 74
     0
 49
0.01
 74
     0
 49
-0.06
 74
     0
  0
LTYPE
  5
83
330
5
100
AcDbSymbolTableRecord
100
AcDbLinetypeTableRecord
  2
DASHED_SPACE
 70
     0
  3
Dashed Space __ __ __ __ __ __ __ __ __ __ __ _
 72
    65
 73
     2
 40
0.2067
 49
0.1654
 74
     0
 49
-0.0413
 74
     0
  0
LTYPE
  5
84
330
5
100
AcDbSymbolTableRecord
100
AcDbLinetypeTableRecord
  2
DOTTED
 70
     0
  3
Dotted . . . . . . . . . . . . . . . . . . . . 
 72
    65
 73
     2
 40
0.0482
 49
0.0069
 74
     0
 49
-0.0413
 74
     0
  0
LTYPE
  5
85
330
5
100
AcDbSymbolTableRecord
100
AcDbLinetypeTableRecord
  2
DOUBLE_DASH_CHAIN
 70
     0
  3
Double-Dash Chain ______  __  __  ______  __  _
 72
    65
 73
     6
 40
1.240299999999999
 49
0.6614
 74
     0
 49
-0.0827
 74
     0
 49
0.1654
 74
     0
 49
-0.0827
 74
     0
 49
0.1654
 74
     0
 49
-0.0827
 74
     0
  0
LTYPE
  5
87
330
5
100
AcDbSymbolTableRecord
100
AcDbLinetypeTableRecord
  2
DOUBLE_DASH_DOUBLE_DOT
 70
     0
  3
Double-Dash Double-dot _ _ . . _ _ . . _
 72
    65
 73
     8
 40
0.7400000000000001
 49
0.24
 74
     0
 49
-0.06
 74
     0
 49
0.24
 74
     0
 49
-0.06
 74
     0
 49
0.01
 74
     0
 49
-0.06
 74
     0
 49
0.01
 74
     0
 49
-0.06
 74
     0
  0
LTYPE
  5
88
330
5
100
AcDbSymbolTableRecord
100
AcDbLinetypeTableRecord
  2
DOUBLE_DASH_TRIPLE_DOT
 70
     0
  3
Double Dash Triple Dot __ __ . . . __ __ . .
 72
    65
 73
    10
 40
0.8100000000000001
 49
0.24
 74
     0
 49
-0.06
 74
     0
 49
0.24
 74
     0
 49
-0.06
 74
     0
 49
0.01
 74
     0
 49
-0.06
 74
     0
 49
0.01
 74
     0
 49
-0.06
 74
     0
 49
0.01
 74
     0
 49
-0.06
 74
     0
  0
LTYPE
  5
89
330
5
100
AcDbSymbolTableRecord
100
AcDbLinetypeTableRecord
  2
LONG_DASH_DOTTED
 70
     0
  3
Long Dash Dotted ____ . ____ . ____ . ____ . _
 72
    65
 73
     4
 40
0.3543
 49
0.2362
 74
     0
 49
-0.0295
 74
     0
 49
0.0591
 74
     0
 49
-0.0295
 74
     0
  0
LTYPE
  5
8A
330
5
100
AcDbSymbolTableRecord
100
AcDbLinetypeTableRecord
  2
LONG_DASH_DOUBLE_DOT
 70
     0
  3
Long Dash Double Dot ________  .  .  ________  
 72
    65
 73
     6
 40
0.6799999999999999
 49
0.48
 74
     0
 49
-0.06
 74
     0
 49
0.01
 74
     0
 49
-0.06
 74
     0
 49
0.01
 74
     0
 49
-0.06
 74
     0
  0
LTYPE
  5
8B
330
5
100
AcDbSymbolTableRecord
100
AcDbLinetypeTableRecord
  2
LONG_DASH_TRIPLE_DOT
 70
     0
  3
Long Dash Triple Dot ____ ... ____ ... ____
 72
    65
 73
     8
 40
0.3689
 49
0.2362
 74
     0
 49
-0.0295
 74
     0
 49
0.0049
 74
     0
 49
-0.0295
 74
     0
 49
0.0049
 74
     0
 49
-0.0295
 74
     0
 49
0.0049
 74
     0
 49
-0.0295
 74
     0
  0
LTYPE
  5
8C
330
5
100
AcDbSymbolTableRecord
100
AcDbLinetypeTableRecord
  2
BORDER
 70
     0
  3
Border __ __ . __ __ . __ __ . __ __ . __ __ .
 72
    65
 73
     6
 40
1.75
 49
0.5
 74
     0
 49
-0.25
 74
     0
 49
0.5
 74
     0
 49
-0.25
 74
     0
 49
0.0
 74
     0
 49
-0.25
 74
     0
  0
LTYPE
  5
8D
330
5
100
AcDbSymbolTableRecord
100
AcDbLinetypeTableRecord
  2
BORDER2
 70
     0
  3
Border (.5x) __.__.__.__.__.__.__.__.__.__.__.
 72
    65
 73
     6
 40
0.875
 49
0.25
 74
     0
 49
-0.125
 74
     0
 49
0.25
 74
     0
 49
-0.125
 74
     0
 49
0.0
 74
     0
 49
-0.125
 74
     0
  0
LTYPE
  5
8E
330
5
100
AcDbSymbolTableRecord
100
AcDbLinetypeTableRecord
  2
BORDERX2
 70
     0
  3
Border (2x) ____  ____  .  ____  ____  .  ___
 72
    65
 73
     6
 40
3.5
 49
1.0
 74
     0
 49
-0.5
 74
     0
 49
1.0
 74
     0
 49
-0.5
 74
     0
 49
0.0
 74
     0
 49
-0.5
 74
     0
  0
LTYPE
  5
8F
330
5
100
AcDbSymbolTableRecord
100
AcDbLinetypeTableRecord
  2
CENTER
 70
     0
  3
Center ____ _ ____ _ ____ _ ____ _ ____ _ ____
 72
    65
 73
     4
 40
2.0
 49
1.25
 74
     0
 49
-0.25
 74
     0
 49
0.25
 74
     0
 49
-0.25
 74
     0
  0
LTYPE
  5
90
330
5
100
AcDbSymbolTableRecord
100
AcDbLinetypeTableRecord
  2
CENTER2
 70
     0
  3
Center (.5x) ___ _ ___ _ ___ _ ___ _ ___ _ ___
 72
    65
 73
     4
 40
1.125
 49
0.75
 74
     0
 49
-0.125
 74
     0
 49
0.125
 74
     0
 49
-0.125
 74
     0
  0
LTYPE
  5
91
330
5
100
AcDbSymbolTableRecord
100
AcDbLinetypeTableRecord
  2
CENTERX2
 70
     0
  3
Center (2x) ________  __  ________  __  _____
 72
    65
 73
     4
 40
4.0
 49
2.5
 74
     0
 49
-0.5
 74
     0
 49
0.5
 74
     0
 49
-0.5
 74
     0
  0
LTYPE
  5
92
330
5
100
AcDbSymbolTableRecord
100
AcDbLinetypeTableRecord
  2
DASHDOT2
 70
     0
  3
Dash dot (.5x) _._._._._._._._._._._._._._._.
 72
    65
 73
     4
 40
0.5
 49
0.25
 74
     0
 49
-0.125
 74
     0
 49
0.0
 74
     0
 49
-0.125
 74
     0
  0
LTYPE
  5
93
330
5
100
AcDbSymbolTableRecord
100
AcDbLinetypeTableRecord
  2
DASHDOTX2
 70
     0
  3
Dash dot (2x) ____  .  ____  .  ____  .  ___
 72
    65
 73
     4
 40
2.0
 49
1.0
 74
     0
 49
-0.5
 74
     0
 49
0.0
 74
     0
 49
-0.5
 74
     0
  0
LTYPE
  5
95
330
5
100
AcDbSymbolTableRecord
100
AcDbLinetypeTableRecord
  2
DASHED2
 70
     0
  3
Dashed (.5x) _ _ _ _ _ _ _ _ _ _ _ _ _ _ _ _ _
 72
    65
 73
     2
 40
0.375
 49
0.25
 74
     0
 49
-0.125
 74
     0
  0
LTYPE
  5
96
330
5
100
AcDbSymbolTableRecord
100
AcDbLinetypeTableRecord
  2
DASHEDX2
 70
     0
  3
Dashed (2x) ____  ____  ____  ____  ____  ___
 72
    65
 73
     2
 40
1.5
 49
1.0
 74
     0
 49
-0.5
 74
     0
  0
LTYPE
  5
97
330
5
100
AcDbSymbolTableRecord
100
AcDbLinetypeTableRecord
  2
DIVIDE
 70
     0
  3
Divide ____ . . ____ . . ____ . . ____ . . ____
 72
    65
 73
     6
 40
1.25
 49
0.5
 74
     0
 49
-0.25
 74
     0
 49
0.0
 74
     0
 49
-0.25
 74
     0
 49
0.0
 74
     0
 49
-0.25
 74
     0
  0
LTYPE
  5
98
330
5
100
AcDbSymbolTableRecord
100
AcDbLinetypeTableRecord
  2
DIVIDE2
 70
     0
  3
Divide (.5x) __..__..__..__..__..__..__..__.._
 72
    65
 73
     6
 40
0.625
 49
0.25
 74
     0
 49
-0.125
 74
     0
 49
0.0
 74
     0
 49
-0.125
 74
     0
 49
0.0
 74
     0
 49
-0.125
 74
     0
  0
LTYPE
  5
99
330
5
100
AcDbSymbolTableRecord
100
AcDbLinetypeTableRecord
  2
DIVIDEX2
 70
     0
  3
Divide (2x) ________  .  .  ________  .  .  _
 72
    65
 73
     6
 40
2.5
 49
1.0
 74
     0
 49
-0.5
 74
     0
 49
0.0
 74
     0
 49
-0.5
 74
     0
 49
0.0
 74
     0
 49
-0.5
 74
     0
  0
LTYPE
  5
9A
330
5
100
AcDbSymbolTableRecord
100
AcDbLinetypeTableRecord
  2
DOT
 70
     0
  3
Dot . . . . . . . . . . . . . . . . . . . . . .
 72
    65
 73
     2
 40
0.25
 49
0.0
 74
     0
 49
-0.25
 74
     0
  0
LTYPE
  5
9B
330
5
100
AcDbSymbolTableRecord
100
AcDbLinetypeTableRecord
  2
DOT2
 70
     0
  3
Dot (.5x) .....................................
 72
    65
 73
     2
 40
0.125
 49
0.0
 74
     0
 49
-0.125
 74
     0
  0
LTYPE
  5
9C
330
5
100
AcDbSymbolTableRecord
100
AcDbLinetypeTableRecord
  2
DOTX2
 70
     0
  3
Dot (2x) .  .  .  .  .  .  .  .  .  .  .  .  . 
 72
    65
 73
     2
 40
0.5
 49
0.0
 74
     0
 49
-0.5
 74
     0
  0
LTYPE
  5
9D
330
5
100
AcDbSymbolTableRecord
100
AcDbLinetypeTableRecord
  2
HIDDEN
 70
     0
  3
Hidden __ __ __ __ __ __ __ __ __ __ __ __ __ _
 72
    65
 73
     2
 40
0.375
 49
0.25
 74
     0
 49
-0.125
 74
     0
  0
LTYPE
  5
9E
330
5
100
AcDbSymbolTableRecord
100
AcDbLinetypeTableRecord
  2
HIDDEN2
 70
     0
  3
Hidden (.5x) _ _ _ _ _ _ _ _ _ _ _ _ _ _ _ _ _
 72
    65
 73
     2
 40
0.1875
 49
0.125
 74
     0
 49
-0.0625
 74
     0
  0
LTYPE
  5
9F
330
5
100
AcDbSymbolTableRecord
100
AcDbLinetypeTableRecord
  2
HIDDENX2
 70
     0
  3
Hidden (2x) ____ ____ ____ ____ ____ ____ ____
 72
    65
 73
     2
 40
0.75
 49
0.5
 74
     0
 49
-0.25
 74
     0
  0
LTYPE
  5
A0
330
5
100
AcDbSymbolTableRecord
100
AcDbLinetypeTableRecord
  2
PHANTOM
 70
     0
  3
Phantom ______  __  __  ______  __  __  ______
 72
    65
 73
     6
 40
2.5
 49
1.25
 74
     0
 49
-0.25
 74
     0
 49
0.25
 74
     0
 49
-0.25
 74
     0
 49
0.25
 74
     0
 49
-0.25
 74
     0
  0
LTYPE
  5
A1
330
5
100
AcDbSymbolTableRecord
100
AcDbLinetypeTableRecord
  2
PHANTOM2
 70
     0
  3
Phantom (.5x) ___ _ _ ___ _ _ ___ _ _ ___ _ _
 72
    65
 73
     6
 40
1.25
 49
0.625
 74
     0
 49
-0.125
 74
     0
 49
0.125
 74
     0
 49
-0.125
 74
     0
 49
0.125
 74
     0
 49
-0.125
 74
     0
  0
LTYPE
  5
A2
330
5
100
AcDbSymbolTableRecord
100
AcDbLinetypeTableRecord
  2
PHANTOMX2
 70
     0
  3
Phantom (2x) ____________    ____    ____   _
 72
    65
 73
     6
 40
5.0
 49
2.5
 74
     0
 49
-0.5
 74
     0
 49
0.5
 74
     0
 49
-0.5
 74
     0
 49
0.5
 74
     0
 49
-0.5
 74
     0
  0
LTYPE
  5
A3
330
5
100
AcDbSymbolTableRecord
100
AcDbLinetypeTableRecord
  2
ACAD_ISO02W100
 70
     0
  3
ISO dash __ __ __ __ __ __ __ __ __ __ __ __ __
 72
    65
 73
     2
 40
0.59
 49
0.47
 74
     0
 49
-0.12
 74
     0
  0
LTYPE
  5
A4
330
5
100
AcDbSymbolTableRecord
100
AcDbLinetypeTableRecord
  2
ACAD_ISO03W100
 70
     0
  3
ISO dash space __    __    __    __    __    __
 72
    65
 73
     2
 40
1.179999999999999
 49
0.47
 74
     0
 49
-0.71
 74
     0
  0
LTYPE
  5
A5
330
5
100
AcDbSymbolTableRecord
100
AcDbLinetypeTableRecord
  2
ACAD_ISO04W100
 70
     0
  3
ISO long-dash dot ____ . ____ . ____ . ____ . _
 72
    65
 73
     4
 40
1.179999999999999
 49
0.9399999999999998
 74
     0
 49
-0.12
 74
     0
 49
0.0
 74
     0
 49
-0.12
 74
     0
  0
LTYPE
  5
A6
330
5
100
AcDbSymbolTableRecord
100
AcDbLinetypeTableRecord
  2
ACAD_ISO05W100
 70
     0
  3
ISO long-dash double-dot ____ .. ____ .. ____ .
 72
    65
 73
     6
 40
1.299999999999999
 49
0.9399999999999998
 74
     0
 49
-0.12
 74
     0
 49
0.0
 74
     0
 49
-0.12
 74
     0
 49
0.0
 74
     0
 49
-0.12
 74
     0
  0
LTYPE
  5
A7
330
5
100
AcDbSymbolTableRecord
100
AcDbLinetypeTableRecord
  2
ACAD_ISO06W100
 70
     0
  3
ISO long-dash triple-dot ____ ... ____ ... ____
 72
    65
 73
     8
 40
1.419999999999999
 49
0.9399999999999998
 74
     0
 49
-0.12
 74
     0
 49
0.0
 74
     0
 49
-0.12
 74
     0
 49
0.0
 74
     0
 49
-0.12
 74
     0
 49
0.0
 74
     0
 49
-0.12
 74
     0
  0
LTYPE
  5
A8
330
5
100
AcDbSymbolTableRecord
100
AcDbLinetypeTableRecord
  2
ACAD_ISO07W100
 70
     0
  3
ISO dot . . . . . . . . . . . . . . . . . . . .
 72
    65
 73
     2
 40
0.12
 49
0.0
 74
     0
 49
-0.12
 74
     0
  0
LTYPE
  5
A9
330
5
100
AcDbSymbolTableRecord
100
AcDbLinetypeTableRecord
  2
ACAD_ISO08W100
 70
     0
  3
ISO long-dash short-dash ____ __ ____ __ ____ _
 72
    65
 73
     4
 40
0.95
 49
0.47
 74
     0
 49
-0.12
 74
     0
 49
0.24
 74
     0
 49
-0.12
 74
     0
  0
LTYPE
  5
AA
330
5
100
AcDbSymbolTableRecord
100
AcDbLinetypeTableRecord
  2
ACAD_ISO09W100
 70
     0
  3
ISO long-dash double-short-dash ____ __ __ ____
 72
    65
 73
     6
 40
1.31
 49
0.47
 74
     0
 49
-0.12
 74
     0
 49
0.24
 74
     0
 49
-0.12
 74
     0
 49
0.24
 74
     0
 49
-0.12
 74
     0
  0
LTYPE
  5
AB
330
5
100
AcDbSymbolTableRecord
100
AcDbLinetypeTableRecord
  2
ACAD_ISO10W100
 70
     0
  3
ISO dash dot __ . __ . __ . __ . __ . __ . __ .
 72
    65
 73
     4
 40
0.71
 49
0.47
 74
     0
 49
-0.12
 74
     0
 49
0.0
 74
     0
 49
-0.12
 74
     0
  0
LTYPE
  5
AC
330
5
100
AcDbSymbolTableRecord
100
AcDbLinetypeTableRecord
  2
ACAD_ISO11W100
 70
     0
  3
ISO double-dash dot __ __ . __ __ . __ __ . __ 
 72
    65
 73
     6
 40
1.299999999999999
 49
0.47
 74
     0
 49
-0.12
 74
     0
 49
0.47
 74
     0
 49
-0.12
 74
     0
 49
0.0
 74
     0
 49
-0.12
 74
     0
  0
LTYPE
  5
AD
330
5
100
AcDbSymbolTableRecord
100
AcDbLinetypeTableRecord
  2
ACAD_ISO12W100
 70
     0
  3
ISO dash double-dot __ . . __ . . __ . . __ . .
 72
    65
 73
     6
 40
0.8299999999999998
 49
0.47
 74
     0
 49
-0.12
 74
     0
 49
0.0
 74
     0
 49
-0.12
 74
     0
 49
0.0
 74
     0
 49
-0.12
 74
     0
  0
LTYPE
  5
AE
330
5
100
AcDbSymbolTableRecord
100
AcDbLinetypeTableRecord
  2
ACAD_ISO13W100
 70
     0
  3
ISO double-dash double-dot __ __ . . __ __ . . 
 72
    65
 73
     8
 40
1.419999999999999
 49
0.47
 74
     0
 49
-0.12
 74
     0
 49
0.47
 74
     0
 49
-0.12
 74
     0
 49
0.0
 74
     0
 49
-0.12
 74
     0
 49
0.0
 74
     0
 49
-0.12
 74
     0
  0
LTYPE
  5
AF
330
5
100
AcDbSymbolTableRecord
100
AcDbLinetypeTableRecord
  2
ACAD_ISO14W100
 70
     0
  3
ISO dash triple-dot __ . . . __ . . . __ . . . 
 72
    65
 73
     8
 40
0.95
 49
0.47
 74
     0
 49
-0.12
 74
     0
 49
0.0
 74
     0
 49
-0.12
 74
     0
 49
0.0
 74
     0
 49
-0.12
 74
     0
 49
0.0
 74
     0
 49
-0.12
 74
     0
  0
LTYPE
  5
B0
330
5
100
AcDbSymbolTableRecord
100
AcDbLinetypeTableRecord
  2
ACAD_ISO15W100
 70
     0
  3
ISO double-dash triple-dot __ __ . . . __ __ . 
 72
    65
 73
    10
 40
1.539999999999999
 49
0.47
 74
     0
 49
-0.12
 74
     0
 49
0.47
 74
     0
 49
-0.12
 74
     0
 49
0.0
 74
     0
 49
-0.12
 74
     0
 49
0.0
 74
     0
 49
-0.12
 74
     0
 49
0.0
 74
     0
 49
-0.12
 74
     0
  0
LTYPE
  5
B3
330
5
100
AcDbSymbolTableRecord
100
AcDbLinetypeTableRecord
  2
FENCELINE1
 70
     0
  3
Fenceline circle ----0-----0----0-----0----0---
 72
    65
 73
     4
 40
1.45
 49
0.25
 74
     0
 49
-0.1
 74
     4
 75
   133
340
B2
 46
0.1
 50
0.0
 44
-0.1
 45
0.0
 49
-0.1
 74
     0
 49
1.0
 74
     0
  0
LTYPE
  5
B4
330
5
100
AcDbSymbolTableRecord
100
AcDbLinetypeTableRecord
  2
FENCELINE2
 70
     0
  3
Fenceline square ----[]-----[]----[]-----[]----
 72
    65
 73
     4
 40
1.45
 49
0.25
 74
     0
 49
-0.1
 74
     4
 75
   132
340
B2
 46
0.1
 50
0.0
 44
-0.1
 45
0.0
 49
-0.1
 74
     0
 49
1.0
 74
     0
  0
LTYPE
  5
B5
330
5
100
AcDbSymbolTableRecord
100
AcDbLinetypeTableRecord
  2
TRACKS
 70
     0
  3
Tracks -|-|-|-|-|-|-|-|-|-|-|-|-|-|-|-|-|-|-|-|
 72
    65
 73
     2
 40
0.3
 49
0.15
 74
     4
 75
   130
340
B2
 46
0.25
 50
0.0
 44
0.0
 45
0.0
 49
0.15
 74
     0
  0
LTYPE
  5
B6
330
5
100
AcDbSymbolTableRecord
100
AcDbLinetypeTableRecord
  2
BATTING
 70
     0
  3
Batting SSSSSSSSSSSSSSSSSSSSSSSSSSSSSSSSSSSSSSS
 72
    65
 73
     4
 40
0.4001000000000001
 49
0.0001
 74
     0
 49
-0.1
 74
     4
 75
   134
340
B2
 46
0.1
 50
0.0
 44
-0.1
 45
0.0
 49
-0.2
 74
     4
 75
   134
340
B2
 46
0.1
 50
180.0
 44
0.1
 45
0.0
 49
-0.1
 74
     0
  0
LTYPE
  5
B7
330
5
100
AcDbSymbolTableRecord
100
AcDbLinetypeTableRecord
  2
HOT_WATER_SUPPLY
 70
     0
  3
Hot water supply ---- HW ---- HW ---- HW ----
 72
    65
 73
     3
 40
0.9
 49
0.5
 74
     0
 49
-0.2
 74
     2
 75
     0
340
55
 46
0.1
 50
0.0
 44
-0.1
 45
-0.05
  9
HW
 49
-0.2
 74
     0
  0
LTYPE
  5
B8
330
5
100
AcDbSymbolTableRecord
100
AcDbLinetypeTableRecord
  2
GAS_LINE
 70
     0
  3
Gas line ----GAS----GAS----GAS----GAS----GAS---
 72
    65
 73
     3
 40
0.95
 49
0.5
 74
     0
 49
-0.2
 74
     2
 75
     0
340
55
 46
0.1
 50
0.0
 44
-0.1
 45
-0.05
  9
GAS
 49
-0.25
 74
     0
  0
LTYPE
  5
B9
330
5
100
AcDbSymbolTableRecord
100
AcDbLinetypeTableRecord
  2
ZIGZAG
 70
     0
  3
Zig zag /\/\/\/\/\/\/\/\/\/\/\/\/\/\/\/\/\/\/\/
 72
    65
 73
     4
 40
0.8001000000000001
 49
0.0001
 74
     0
 49
-0.2
 74
     4
 75
   131
340
B2
 46
0.2
 50
0.0
 44
-0.2
 45
0.0
 49
-0.4
 74
     4
 75
   131
340
B2
 46
0.2
 50
180.0
 44
0.2
 45
0.0
 49
-0.2
 74
     0
  0
ENDTAB
  0
TABLE
  2
LAYER
  5
2
330
0
100
AcDbSymbolTable
 70
    27
  0
LAYER
  5
54
330
2
100
AcDbSymbolTableRecord
100
AcDbLayerTableRecord
  2
0
 70
     0
 62
     7
  6
Continuous
370
    18
390
F
347
21
  0
LAYER
  5
C0
330
2
100
AcDbSymbolTableRecord
100
AcDbLayerTableRecord
  2
Center Mark (ANSI)
 70
     0
 62
     7
  6
Continuous
370
    15
390
F
347
21
  0
LAYER
  5
C1
330
2
100
AcDbSymbolTableRecord
100
AcDbLayerTableRecord
  2
Centerline (ANSI)
 70
     0
 62
     7
  6
Continuous
370
    15
390
F
347
21
  0
LAYER
  5
C3
330
2
100
AcDbSymbolTableRecord
100
AcDbLayerTableRecord
  2
Dimension (ANSI)
 70
     0
 62
     7
  6
Continuous
370
    13
390
F
347
21
  0
LAYER
  5
C5
330
2
100
AcDbSymbolTableRecord
100
AcDbLayerTableRecord
  2
Hidden (ANSI)
 70
     0
 62
     7
  6
DASHED
370
    15
390
F
347
21
  0
LAYER
  5
CC
330
2
100
AcDbSymbolTableRecord
100
AcDbLayerTableRecord
  2
Symbol (ANSI)
 70
     0
 62
     7
  6
Continuous
370
    18
390
F
347
21
  0
LAYER
  5
CF
330
2
100
AcDbSymbolTableRecord
100
AcDbLayerTableRecord
  2
Visible (ANSI)
 70
     0
 62
     7
  6
Continuous
370
    13
390
F
347
21
  0
LAYER
  5
D0
330
2
100
AcDbSymbolTableRecord
100
AcDbLayerTableRecord
  2
Visible Narrow (ANSI)
 70
     0
 62
     7
  6
Continuous
370
    18
390
F
347
21
  0
LAYER
  5
1E5
330
2
100
AcDbSymbolTableRecord
100
AcDbLayerTableRecord
  2
Defpoints
 70
     0
 62
     7
  6
Continuous
290
     0
370
    -3
390
F
347
21
  0
ENDTAB
  0
TABLE
  2
STYLE
  5
3
330
0
100
AcDbSymbolTable
 70
    18
  0
STYLE
  5
55
330
3
100
AcDbSymbolTableRecord
100
AcDbTextStyleTableRecord
  2
Standard
 70
     0
 40
0.0
 41
1.0
 50
0.0
 71
     0
 42
0.2
  3
txt
  4

  0
STYLE
  5
5A
330
3
100
AcDbSymbolTableRecord
100
AcDbTextStyleTableRecord
  2
Annotative
 70
     0
 40
0.0
 41
1.0
 50
0.0
 71
     0
 42
0.2
  3
txt
  4

1001
AcadAnnotative
1000
AnnotativeData
1002
{
1070
     1
1070
     1
1002
}
  0
STYLE
  5
B2
330
3
100
AcDbSymbolTableRecord
100
AcDbTextStyleTableRecord
  2

 70
     1
 40
0.0
 41
1.0
 50
0.0
 71
     0
 42
0.2
  3
ltypeshp.shx
  4

  0
STYLE
  5
D4
330
3
100
AcDbSymbolTableRecord
100
AcDbTextStyleTableRecord
  2
ITALICC_120
 70
     0
 40
0.0
 41
1.0
 50
0.0
 71
     0
 42
0.2
  3
italicc.shx
  4

  0
STYLE
  5
D5
330
3
100
AcDbSymbolTableRecord
100
AcDbTextStyleTableRecord
  2
Label Text (ANSI)
 70
     0
 40
0.0
 41
1.0
 50
0.0
 71
     0
 42
0.2
  3
tahoma.ttf
  4

1001
ACAD
1000
Tahoma
1071
      256
  0
STYLE
  5
D6
330
3
100
AcDbSymbolTableRecord
100
AcDbTextStyleTableRecord
  2
Note Text (ANSI)
 70
     0
 40
0.0
 41
1.0
 50
0.0
 71
     0
 42
0.2
  3
tahoma.ttf
  4

1001
ACAD
1000
Tahoma
1071
      256
  0
STYLE
  5
D7
330
3
100
AcDbSymbolTableRecord
100
AcDbTextStyleTableRecord
  2
ROMANS
 70
     0
 40
0.0
 41
1.0
 50
0.0
 71
     0
 42
0.2
  3
romans.shx
  4

  0
STYLE
  5
D8
330
3
100
AcDbSymbolTableRecord
100
AcDbTextStyleTableRecord
  2
SANSSERIF_114
 70
     0
 40
0.0
 41
1.0
 50
0.0
 71
     0
 42
0.2
  3
tahoma.ttf
  4

1001
ACAD
1000
Tahoma
1071
      256
  0
STYLE
  5
D9
330
3
100
AcDbSymbolTableRecord
100
AcDbTextStyleTableRecord
  2
SANSSERIF_117
 70
     0
 40
0.0
 41
1.0
 50
0.0
 71
     0
 42
0.2
  3
tahoma.ttf
  4

1001
ACAD
1000
Tahoma
1071
      256
  0
STYLE
  5
DA
330
3
100
AcDbSymbolTableRecord
100
AcDbTextStyleTableRecord
  2
STANDARDAM_ANSI
 70
     0
 40
0.0
 41
1.0
 50
0.0
 71
     0
 42
0.2
  3
txt.shx
  4

  0
STYLE
  5
DB
330
3
100
AcDbSymbolTableRecord
100
AcDbTextStyleTableRecord
  2
StandardAM_ANSI$0
 70
     0
 40
0.0
 41
1.0
 50
0.0
 71
     0
 42
0.2
  3
txt.shx
  4

  0
STYLE
  5
DC
330
3
100
AcDbSymbolTableRecord
100
AcDbTextStyleTableRecord
  2
STANDARDAM_ANSI$3
 70
     0
 40
0.0
 41
1.0
 50
0.0
 71
     0
 42
0.2
  3
txt.shx
  4

  0
STYLE
  5
DD
330
3
100
AcDbSymbolTableRecord
100
AcDbTextStyleTableRecord
  2
STANDARDAM_ANSI$4
 70
     0
 40
0.0
 41
1.0
 50
0.0
 71
     0
 42
0.2
  3
txt.shx
  4

  0
STYLE
  5
DE
330
3
100
AcDbSymbolTableRecord
100
AcDbTextStyleTableRecord
  2
STANDARDAM_ANSI$7
 70
     0
 40
0.0
 41
1.0
 50
0.0
 71
     0
 42
0.2
  3
txt.shx
  4

  0
STYLE
  5
DF
330
3
100
AcDbSymbolTableRecord
100
AcDbTextStyleTableRecord
  2
STANDARDAM_ANSI$SF
 70
     0
 40
0.0
 41
1.0
 50
0.0
 71
     0
 42
0.2
  3
txt.shx
  4

  0
STYLE
  5
E0
330
3
100
AcDbSymbolTableRecord
100
AcDbTextStyleTableRecord
  2
STANDARDAM_ANSI$SH
 70
     0
 40
0.0
 41
1.0
 50
0.0
 71
     0
 42
0.2
  3
txt.shx
  4

  0
STYLE
  5
E1
330
3
100
AcDbSymbolTableRecord
100
AcDbTextStyleTableRecord
  2
STANDARDSTANDARD
 70
     0
 40
0.0
 41
1.0
 50
0.0
 71
     0
 42
0.2
  3
txt.shx
  4

  0
STYLE
  5
143
330
3
100
AcDbSymbolTableRecord
100
AcDbTextStyleTableRecord
  2
Text Style153
 70
     0
 40
0.0
 41
1.0
 50
0.0
 71
     0
 42
0.2
  3
tahoma.ttf
  4

1001
ACAD
1000
Tahoma
1071
      256
  0
ENDTAB
  0
TABLE
  2
VIEW
  5
6
330
0
100
AcDbSymbolTable
 70
     0
  0
ENDTAB
  0
TABLE
  2
UCS
  5
7
330
0
100
AcDbSymbolTable
 70
     0
  0
ENDTAB
  0
TABLE
  2
APPID
  5
9
330
0
100
AcDbSymbolTable
 70
     3
  0
APPID
  5
56
330
9
100
AcDbSymbolTableRecord
100
AcDbRegAppTableRecord
  2
ACAD
 70
     0
  0
APPID
  5
5E
330
9
100
AcDbSymbolTableRecord
100
AcDbRegAppTableRecord
  2
AcadAnnotative
 70
     0
  0
APPID
  5
63D
330
9
100
AcDbSymbolTableRecord
100
AcDbRegAppTableRecord
  2
ACAD_DSTYLE_DIMRADIAL_EXTENSION
 70
     0
  0
ENDTAB
  0
TABLE
  2
DIMSTYLE
  5
A
330
0
100
AcDbSymbolTable
 70
    27
100
AcDbDimStyleTable
 71
     2
340
F6
340
58
  0
DIMSTYLE
105
58
330
A
100
AcDbSymbolTableRecord
100
AcDbDimStyleTableRecord
  2
STANDARD
 70
     0
 41
0.1800000071525573
 42
0.0625
140
0.1800000071525574
144
1.0
147
0.0900000035762787
176
   256
177
   256
178
   256
274
     3
340
55
371
    -1
372
    -1
  0
DIMSTYLE
105
59
330
A
100
AcDbSymbolTableRecord
100
AcDbDimStyleTableRecord
  2
Annotative
 70
     0
340
55
1001
AcadAnnotative
1000
AnnotativeData
1002
{
1070
     1
1070
     1
1002
}
  0
DIMSTYLE
105
E2
330
A
100
AcDbSymbolTableRecord
100
AcDbDimStyleTableRecord
  2
AM_ANSI
 70
     0
  4
 mm
 40
13.5
 41
0.119999997317791
 42
0.05
 43
0.5
 44
0.1
 45
0.00000001
 78
     4
 79
     2
140
0.1200000047683716
146
0.7099999189376831
147
0.0599999986588955
176
   256
177
   256
178
     2
284
     4
340
DA
371
    -1
372
    -1
  0
DIMSTYLE
105
E3
330
A
100
AcDbSymbolTableRecord
100
AcDbDimStyleTableRecord
  2
AM_ANSI$7
 70
     0
  4
 mm
 40
13.5
 41
0.119999997317791
 42
0.05
 43
0.5
 44
0.1
 45
0.00000001
 78
     4
 79
     2
140
0.1200000047683716
146
0.7099999189376831
147
0.0599999986588955
176
   256
177
   256
178
     2
284
     4
340
DA
371
    -1
372
    -1
  0
DIMSTYLE
105
E4
330
A
100
AcDbSymbolTableRecord
100
AcDbDimStyleTableRecord
  2
AM_ANSI$0
 70
     0
  4
 mm
 40
13.5
 41
0.119999997317791
 42
0.05
 43
0.5
 44
0.1
 45
0.00000001
 78
     4
 79
     2
140
0.1200000047683716
146
0.7099999189376831
147
0.0599999986588955
176
   256
177
   256
178
     2
284
     4
340
DB
371
    -1
372
    -1
  0
DIMSTYLE
105
E5
330
A
100
AcDbSymbolTableRecord
100
AcDbDimStyleTableRecord
  2
AM_ANSI$0$7
 70
     0
  4
 mm
 40
13.5
 41
0.119999997317791
 42
0.05
 43
0.5
 44
0.1
 45
0.00000001
 78
     4
 79
     2
140
0.1200000047683716
146
0.7099999189376831
147
0.0599999986588955
176
   256
177
   256
178
     2
284
     4
340
DB
371
    -1
372
    -1
  0
DIMSTYLE
105
E6
330
A
100
AcDbSymbolTableRecord
100
AcDbDimStyleTableRecord
  2
AM_ANSI$3
 70
     0
  4
 mm
 40
13.5
 41
0.119999997317791
 42
0.05
 43
0.5
 44
0.1
 45
0.00000001
 78
     4
 79
     2
140
0.1200000047683716
146
0.7099999189376831
147
0.0599999986588955
176
   256
177
   256
178
     2
284
     4
340
DC
371
    -1
372
    -1
  0
DIMSTYLE
105
E7
330
A
100
AcDbSymbolTableRecord
100
AcDbDimStyleTableRecord
  2
AM_ANSI$3$7
 70
     0
  4
 mm
 40
13.5
 41
0.119999997317791
 42
0.05
 43
0.5
 44
0.1
 45
0.00000001
 78
     4
 79
     2
140
0.1200000047683716
146
0.7099999189376831
147
0.0599999986588955
176
   256
177
   256
178
     2
284
     4
340
DC
371
    -1
372
    -1
  0
DIMSTYLE
105
E8
330
A
100
AcDbSymbolTableRecord
100
AcDbDimStyleTableRecord
  2
AM_ANSI$4
 70
     0
  4
 mm
 40
13.5
 41
0.119999997317791
 42
0.05
 43
0.5
 44
0.1
 45
0.00000001
 78
     4
 79
     2
140
0.1200000047683716
146
0.7099999189376831
147
0.0599999986588955
176
   256
177
   256
178
     2
284
     4
340
DD
371
    -1
372
    -1
  0
DIMSTYLE
105
E9
330
A
100
AcDbSymbolTableRecord
100
AcDbDimStyleTableRecord
  2
AM_ANSI$4$7
 70
     0
  4
 mm
 40
13.5
 41
0.119999997317791
 42
0.05
 43
0.5
 44
0.1
 45
0.00000001
 78
     4
 79
     2
140
0.1200000047683716
146
0.7099999189376831
147
0.0599999986588955
176
   256
177
   256
178
     2
284
     4
340
DD
371
    -1
372
    -1
  0
DIMSTYLE
105
EA
330
A
100
AcDbSymbolTableRecord
100
AcDbDimStyleTableRecord
  2
AM_ANSI$SF
 70
     0
  4
 mm
 40
13.5
 41
0.119999997317791
 42
0.05
 43
0.5
 44
0.1
 45
0.00000001
 75
     1
 76
     1
 78
     4
 79
     2
140
0.1200000047683716
146
0.7099999189376831
147
0.0599999986588955
176
   256
177
   256
178
     2
284
     4
340
DF
371
    -1
372
    -1
  0
DIMSTYLE
105
EB
330
A
100
AcDbSymbolTableRecord
100
AcDbDimStyleTableRecord
  2
AM_ANSI$SF$7
 70
     0
  4
 mm
 40
13.5
 41
0.119999997317791
 42
0.05
 43
0.5
 44
0.1
 45
0.00000001
 75
     1
 76
     1
 78
     4
 79
     2
140
0.1200000047683716
146
0.7099999189376831
147
0.0599999986588955
176
   256
177
   256
178
     2
284
     4
340
DF
371
    -1
372
    -1
  0
DIMSTYLE
105
EC
330
A
100
AcDbSymbolTableRecord
100
AcDbDimStyleTableRecord
  2
AM_ANSI$SH
 70
     0
  4
 mm
 40
13.5
 41
0.119999997317791
 42
0.05
 43
0.5
 44
0.1
 45
0.00000001
 75
     1
 76
     1
 78
     4
 79
     2
140
0.1200000047683716
146
0.7099999189376831
147
0.0599999986588955
176
   256
177
   256
178
     2
284
     4
340
E0
371
    -1
372
    -1
  0
DIMSTYLE
105
ED
330
A
100
AcDbSymbolTableRecord
100
AcDbDimStyleTableRecord
  2
AM_ANSI$SH$7
 70
     0
  4
 mm
 40
13.5
 41
0.119999997317791
 42
0.05
 43
0.5
 44
0.1
 45
0.00000001
 75
     1
 76
     1
 78
     4
 79
     2
140
0.1200000047683716
146
0.7099999189376831
147
0.0599999986588955
176
   256
177
   256
178
     2
284
     4
340
E0
371
    -1
372
    -1
  0
DIMSTYLE
105
EE
330
A
100
AcDbSymbolTableRecord
100
AcDbDimStyleTableRecord
  2
Architectural (ANSI)
 70
     0
 40
13.5
 41
0.0984251946210861
 43
0.2362204724409449
 44
0.125
 45
0.00000001
 46
0.3937007874015748
 78
     3
 79
     3
140
0.1200000047683716
147
0.031496062992126
171
     1
176
   256
177
   256
178
   256
272
     2
274
     1
276
     2
277
     4
284
    12
285
     4
286
    12
340
D6
371
    -1
372
    -1
  0
DIMSTYLE
105
EF
330
A
100
AcDbSymbolTableRecord
100
AcDbDimStyleTableRecord
  2
Architectural (ANSI)$7
 70
     0
 40
13.5
 41
0.0984251946210861
 43
0.2362204724409449
 44
0.125
 45
0.00000001
 46
0.3937007874015748
 78
     3
 79
     3
140
0.1200000047683716
147
0.031496062992126
171
     1
176
   256
177
   256
178
   256
272
     2
274
     1
276
     2
277
     4
284
    12
285
     4
286
    12
340
D6
371
    -1
372
    -1
  0
DIMSTYLE
105
F0
330
A
100
AcDbSymbolTableRecord
100
AcDbDimStyleTableRecord
  2
Default - Fraction (ANSI)
 70
     0
 40
13.5
 41
0.0984251946210861
 43
0.2362204724409449
 44
0.125
 45
0.00000001
 46
0.3937007874015748
 79
     3
140
0.1200000047683716
147
0.031496062992126
171
     1
176
   256
177
   256
178
   256
272
     2
274
     1
276
     2
277
     5
284
    12
285
     4
286
    12
340
D6
371
    -1
372
    -1
  0
DIMSTYLE
105
F1
330
A
100
AcDbSymbolTableRecord
100
AcDbDimStyleTableRecord
  2
Default - Fraction (ANSI)$7
 70
     0
 40
13.5
 41
0.0984251946210861
 43
0.2362204724409449
 44
0.125
 45
0.00000001
 46
0.3937007874015748
 79
     3
140
0.1200000047683716
147
0.031496062992126
171
     1
176
   256
177
   256
178
   256
272
     2
274
     1
276
     2
277
     5
284
    12
285
     4
286
    12
340
D6
371
    -1
372
    -1
  0
DIMSTYLE
105
F2
330
A
100
AcDbSymbolTableRecord
100
AcDbDimStyleTableRecord
  2
Default - mm (ANSI)
 70
     0
 40
13.5
 41
0.0984251946210861
 42
0.063
 43
0.2362204724409449
 44
0.125
 45
0.00000001
 46
0.3937007874015748
 73
     0
 78
     4
 79
     1
140
0.1200000047683716
143
1.0
144
25.4
147
0.031496062992126
171
     1
176
   256
177
   256
178
   256
179
     1
271
     2
272
     2
274
     1
284
     4
285
     4
340
D6
371
    -1
372
    -1
  0
DIMSTYLE
105
F3
330
A
100
AcDbSymbolTableRecord
100
AcDbDimStyleTableRecord
  2
Default - mm (ANSI)$7
 70
     0
 40
13.5
 41
0.0984251946210861
 42
0.063
 43
0.2362204724409449
 44
0.125
 45
0.00000001
 46
0.3937007874015748
 73
     0
 78
     4
 79
     1
140
0.1200000047683716
143
1.0
144
25.4
147
0.031496062992126
171
     1
176
   256
177
   256
178
   256
179
     1
271
     2
272
     2
274
     1
284
     4
285
     4
340
D6
371
    -1
372
    -1
  0
DIMSTYLE
105
F4
330
A
100
AcDbSymbolTableRecord
100
AcDbDimStyleTableRecord
  2
Default - mm [in] (ANSI)
 70
     0
  4
 in
 40
13.5
 41
0.0984251946210861
 42
0.063
 43
0.25
 44
0.125
 45
0.00000001
 46
0.3937007874015748
 73
     0
 78
     4
 79
     1
140
0.1200000047683716
143
0.03937
144
25.4
147
0.031496062992126
170
     1
171
     3
176
   256
177
   256
178
   256
179
     1
271
     2
272
     2
274
     3
284
     4
285
     4
286
     4
340
D6
371
    -1
372
    -1
  0
DIMSTYLE
105
F5
330
A
100
AcDbSymbolTableRecord
100
AcDbDimStyleTableRecord
  2
Default - mm [in] (ANSI)$7
 70
     0
  4
 in
 40
13.5
 41
0.0984251946210861
 42
0.063
 43
0.25
 44
0.125
 45
0.00000001
 46
0.3937007874015748
 73
     0
 78
     4
 79
     1
140
0.1200000047683716
143
0.03937
144
25.4
147
0.031496062992126
170
     1
171
     3
176
   256
177
   256
178
   256
179
     1
271
     2
272
     2
274
     3
284
     4
285
     4
286
     4
340
D6
371
    -1
372
    -1
  0
DIMSTYLE
105
F6
102
{ACAD_REACTORS
330
1E3
330
2CF
330
3B9
330
4B9
330
5A3
330
65E
330
748
330
832
330
91E
330
A0D
102
}
330
A
100
AcDbSymbolTableRecord
100
AcDbDimStyleTableRecord
  2
Default (ANSI)
 70
     0
 40
13.5
 41
0.0984251946210861
 43
0.2362204724409449
 44
0.125
 45
0.00000001
 46
0.3937007874015748
 79
     1
140
0.1200000047683716
147
0.031496062992126
171
     1
176
   256
177
   256
178
   256
271
     2
272
     2
274
     1
284
     4
285
     4
340
D6
371
    -1
372
    -1
  0
DIMSTYLE
105
F7
330
A
100
AcDbSymbolTableRecord
100
AcDbDimStyleTableRecord
  2
Default (ANSI)$7
 70
     0
 40
13.5
 41
0.0984251946210861
 43
0.2362204724409449
 44
0.125
 45
0.00000001
 46
0.3937007874015748
 79
     1
140
0.1200000047683716
147
0.031496062992126
171
     1
176
   256
177
   256
178
   256
271
     2
272
     2
274
     1
284
     4
285
     4
340
D6
371
    -1
372
    -1
  0
DIMSTYLE
105
F8
330
A
100
AcDbSymbolTableRecord
100
AcDbDimStyleTableRecord
  2
Alternate (ANSI)
 70
     0
 40
13.5
 41
0.0979999974370003
340
55
342
F9
  0
DIMSTYLE
105
10B
330
A
100
AcDbSymbolTableRecord
100
AcDbDimStyleTableRecord
  2
Datum (ANSI)
 70
     0
 40
13.5
 41
0.0979999974370003
340
55
342
F9
  0
DIMSTYLE
105
11A
330
A
100
AcDbSymbolTableRecord
100
AcDbDimStyleTableRecord
  2
Large (ANSI)
 70
     0
 40
13.5
 41
0.1959999948740005
340
55
342
F9
  0
ENDTAB
  0
TABLE
  2
BLOCK_RECORD
  5
1
330
0
100
AcDbSymbolTable
 70
    14
  0
BLOCK_RECORD
  5
6C
330
1
100
AcDbSymbolTableRecord
100
AcDbBlockTableRecord
  2
*Model_Space
340
6F
 70
     0
280
     1
281
     0
  0
BLOCK_RECORD
  5
68
330
1
100
AcDbSymbolTableRecord
100
AcDbBlockTableRecord
  2
*Paper_Space
340
6B
 70
     0
280
     1
281
     0
  0
BLOCK_RECORD
  5
70
330
1
100
AcDbSymbolTableRecord
100
AcDbBlockTableRecord
  2
*Paper_Space0
340
73
 70
     0
280
     1
281
     0
  0
BLOCK_RECORD
  5
F9
330
1
100
AcDbSymbolTableRecord
100
AcDbBlockTableRecord
  2
_Closed
340
0
 70
     0
280
     1
281
     0
  0
BLOCK_RECORD
  5
100
330
1
100
AcDbSymbolTableRecord
100
AcDbBlockTableRecord
  2
DatumFilled45
340
0
 70
     0
280
     1
281
     0
  0
BLOCK_RECORD
  5
10C
330
1
100
AcDbSymbolTableRecord
100
AcDbBlockTableRecord
  2
Filled-1
340
0
 70
     0
280
     1
281
     0
  0
BLOCK_RECORD
  5
1E6
330
1
100
AcDbSymbolTableRecord
100
AcDbBlockTableRecord
  2
*D4
340
0
 70
     0
280
     1
281
     0
  0
BLOCK_RECORD
  5
2D0
330
1
100
AcDbSymbolTableRecord
100
AcDbBlockTableRecord
  2
*D5
340
0
 70
     0
280
     1
281
     0
  0
BLOCK_RECORD
  5
3BA
330
1
100
AcDbSymbolTableRecord
100
AcDbBlockTableRecord
  2
*D6
340
0
 70
     0
280
     1
281
     0
  0
BLOCK_RECORD
  5
4BA
330
1
100
AcDbSymbolTableRecord
100
AcDbBlockTableRecord
  2
*D7
340
0
 70
     0
280
     1
281
     0
  0
BLOCK_RECORD
  5
5A4
330
1
100
AcDbSymbolTableRecord
100
AcDbBlockTableRecord
  2
*D8
340
0
 70
     0
280
     1
281
     0
  0
BLOCK_RECORD
  5
65F
330
1
100
AcDbSymbolTableRecord
100
AcDbBlockTableRecord
  2
*D9
340
0
 70
     0
280
     1
281
     0
  0
BLOCK_RECORD
  5
749
330
1
100
AcDbSymbolTableRecord
100
AcDbBlockTableRecord
  2
*D10
340
0
 70
     0
280
     1
281
     0
  0
BLOCK_RECORD
  5
833
330
1
100
AcDbSymbolTableRecord
100
AcDbBlockTableRecord
  2
*D11
340
0
 70
     0
280
     1
281
     0
  0
BLOCK_RECORD
  5
91F
330
1
100
AcDbSymbolTableRecord
100
AcDbBlockTableRecord
  2
*D12
340
0
 70
     0
280
     1
281
     0
  0
BLOCK_RECORD
  5
A0E
330
1
100
AcDbSymbolTableRecord
100
AcDbBlockTableRecord
  2
*D13
340
0
 70
     0
280
     1
281
     0
  0
ENDTAB
  0
ENDSEC
  0
SECTION
  2
BLOCKS
  0
BLOCK
  5
6D
330
6C
100
AcDbEntity
  8
0
100
AcDbBlockBegin
  2
*Model_Space
 70
     0
 10
0.0
 20
0.0
 30
0.0
  3
*Model_Space
  1

  0
ENDBLK
  5
6E
330
6C
100
AcDbEntity
  8
0
100
AcDbBlockEnd
  0
BLOCK
  5
69
330
68
100
AcDbEntity
 67
     1
  8
0
100
AcDbBlockBegin
  2
*Paper_Space
 70
     0
 10
0.0
 20
0.0
 30
0.0
  3
*Paper_Space
  1

  0
ENDBLK
  5
6A
330
68
100
AcDbEntity
 67
     1
  8
0
100
AcDbBlockEnd
  0
BLOCK
  5
71
330
70
100
AcDbEntity
 67
     1
  8
0
100
AcDbBlockBegin
  2
*Paper_Space0
 70
     0
 10
0.0
 20
0.0
 30
0.0
  3
*Paper_Space0
  1

  0
ENDBLK
  5
72
330
70
100
AcDbEntity
 67
     1
  8
0
100
AcDbBlockEnd
  0
BLOCK
  5
FE
330
F9
100
AcDbEntity
  8
0
100
AcDbBlockBegin
  2
_Closed
 70
     0
 10
0.0
 20
0.0
 30
0.0
  3
_Closed
  1

  0
LINE
  5
FA
330
F9
100
AcDbEntity
  8
0
  6
ByBlock
 62
     0
370
    -2
100
AcDbLine
 10
-1.0
 20
0.1666666666666666
 30
0.0
 11
0.0
 21
0.0
 31
0.0
  0
LINE
  5
FB
330
F9
100
AcDbEntity
  8
0
  6
ByBlock
 62
     0
370
    -2
100
AcDbLine
 10
0.0
 20
0.0
 30
0.0
 11
-1.0
 21
-0.1666666666666666
 31
0.0
  0
LINE
  5
FC
330
F9
100
AcDbEntity
  8
0
  6
ByBlock
 62
     0
370
    -2
100
AcDbLine
 10
-1.0
 20
0.1666666666666666
 30
0.0
 11
-1.0
 21
-0.1666666666666666
 31
0.0
  0
LINE
  5
FD
330
F9
100
AcDbEntity
  8
0
  6
ByBlock
 62
     0
370
    -2
100
AcDbLine
 10
0.0
 20
0.0
 30
0.0
 11
-1.0
 21
0.0
 31
0.0
  0
ENDBLK
  5
FF
330
F9
100
AcDbEntity
  8
0
100
AcDbBlockEnd
  0
BLOCK
  5
101
330
100
100
AcDbEntity
  8
0
100
AcDbBlockBegin
  2
DatumFilled45
 70
     0
 10
0.0
 20
0.0
 30
0.0
  3
DatumFilled45
  1

  0
POLYLINE
  5
103
330
100
100
AcDbEntity
  8
0
 62
     0
100
AcDb2dPolyline
 66
     1
 10
0.0
 20
0.0
 30
0.0
 70
   128
  0
VERTEX
  5
104
330
103
100
AcDbEntity
  8
0
 62
     0
100
AcDbVertex
100
AcDb2dVertex
 10
0.0
 20
0.9999999999999998
 30
0.0
  0
VERTEX
  5
105
330
103
100
AcDbEntity
  8
0
 62
     0
100
AcDbVertex
100
AcDb2dVertex
 10
0.0
 20
-0.9999999999999998
 30
0.0
  0
VERTEX
  5
107
330
103
100
AcDbEntity
  8
0
 62
     0
100
AcDbVertex
100
AcDb2dVertex
 10
-0.9999999999999998
 20
0.0
 30
0.0
  0
VERTEX
  5
108
330
103
100
AcDbEntity
  8
0
 62
     0
100
AcDbVertex
100
AcDb2dVertex
 10
0.0
 20
0.9999999999999998
 30
0.0
  0
SEQEND
  5
106
330
103
100
AcDbEntity
  8
0
 62
     0
  0
SOLID
  5
10A
330
100
100
AcDbEntity
  8
0
 62
     0
100
AcDbTrace
 10
0.0
 20
0.9999999999999998
 30
0.0
 11
0.0
 21
-0.9999999999999998
 31
0.0
 12
-0.9999999999999998
 22
0.0
 32
0.0
 13
0.0
 23
0.9999999999999998
 33
0.0
  0
ENDBLK
  5
102
330
100
100
AcDbEntity
  8
0
100
AcDbBlockEnd
  0
BLOCK
  5
10D
330
10C
100
AcDbEntity
  8
0
100
AcDbBlockBegin
  2
Filled-1
 70
     0
 10
0.0
 20
0.0
 30
0.0
  3
Filled-1
  1

  0
LINE
  5
10F
330
10C
100
AcDbEntity
  8
0
 62
     0
100
AcDbLine
 10
-0.9999999999999998
 20
0.0
 30
0.0
 11
0.0
 21
0.0
 31
0.0
  0
POLYLINE
  5
110
330
10C
100
AcDbEntity
  8
0
 62
     0
100
AcDb2dPolyline
 66
     1
 10
0.0
 20
0.0
 30
0.0
 70
   128
  0
VERTEX
  5
111
330
110
100
AcDbEntity
  8
0
 62
     0
100
AcDbVertex
100
AcDb2dVertex
 10
-0.9999999999999998
 20
-0.0994897959183674
 30
0.0
  0
VERTEX
  5
112
330
110
100
AcDbEntity
  8
0
 62
     0
100
AcDbVertex
100
AcDb2dVertex
 10
0.0
 20
0.0
 30
0.0
  0
VERTEX
  5
114
330
110
100
AcDbEntity
  8
0
 62
     0
100
AcDbVertex
100
AcDb2dVertex
 10
-0.9999999999999998
 20
0.0994897959183674
 30
0.0
  0
VERTEX
  5
115
330
110
100
AcDbEntity
  8
0
 62
     0
100
AcDbVertex
100
AcDb2dVertex
 10
-0.9999999999999998
 20
-0.0994897959183674
 30
0.0
  0
SEQEND
  5
113
330
110
100
AcDbEntity
  8
0
 62
     0
  0
SOLID
  5
116
330
10C
100
AcDbEntity
  8
0
 62
     0
100
AcDbTrace
 10
-0.9999999999999998
 20
-0.0994897959183674
 30
0.0
 11
0.0
 21
0.0
 31
0.0
 12
-0.9999999999999998
 22
0.0994897959183674
 32
0.0
 13
-0.9999999999999998
 23
-0.0994897959183674
 33
0.0
  0
LINE
  5
117
330
10C
100
AcDbEntity
  8
0
 62
     0
100
AcDbLine
 10
-0.9999999999999998
 20
-0.0994897959183674
 30
0.0
 11
0.0
 21
0.0
 31
0.0
  0
LINE
  5
118
330
10C
100
AcDbEntity
  8
0
 62
     0
100
AcDbLine
 10
0.0
 20
0.0
 30
0.0
 11
-0.9999999999999998
 21
0.0994897959183674
 31
0.0
  0
LINE
  5
119
330
10C
100
AcDbEntity
  8
0
 62
     0
100
AcDbLine
 10
-0.9999999999999998
 20
0.0994897959183674
 30
0.0
 11
-0.9999999999999998
 21
-0.0994897959183674
 31
0.0
  0
ENDBLK
  5
10E
330
10C
100
AcDbEntity
  8
0
100
AcDbBlockEnd
  0
BLOCK
  5
1E7
330
1E6
100
AcDbEntity
  8
0
100
AcDbBlockBegin
  2
*D4
 70
     1
 10
0.0
 20
0.0
 30
0.0
  3
*D4
  1

  0
LINE
  5
2C5
330
1E6
100
AcDbEntity
  8
Dimension (ANSI)
440
 16777216
100
AcDbLine
 10
47.23833000788695
 20
111.0960321914662
 30
0.0
 11
24.96838720860344
 21
111.0960321914662
 31
0.0
  0
LINE
  5
2C6
330
1E6
100
AcDbEntity
  8
Dimension (ANSI)
440
 16777216
100
AcDbLine
 10
47.23853000788698
 20
33.09603219146627
 30
0.0
 11
24.96838720860342
 21
33.09603219146627
 31
0.0
  0
LINE
  5
2C7
330
1E6
100
AcDbEntity
  8
Dimension (ANSI)
440
 16777216
100
AcDbLine
 10
26.65588720860344
 20
109.7672920640816
 30
0.0
 11
26.65588720860343
 21
73.36822033935217
 31
0.0
  0
LINE
  5
2C8
330
1E6
100
AcDbEntity
  8
Dimension (ANSI)
440
 16777216
100
AcDbLine
 10
26.65588720860343
 20
34.42477231885093
 30
0.0
 11
26.65588720860343
 21
70.82384404358034
 31
0.0
  0
SOLID
  5
2C9
330
1E6
100
AcDbEntity
  8
Dimension (ANSI)
440
 16777216
100
AcDbTrace
 10
26.434430520706
 20
109.7672920640816
 30
0.0
 11
26.87734389650089
 21
109.7672920640816
 31
0.0
 12
26.65588720860344
 22
111.0960321914662
 32
0.0
 13
26.65588720860344
 23
111.0960321914662
 33
0.0
  0
SOLID
  5
2CA
330
1E6
100
AcDbEntity
  8
Dimension (ANSI)
440
 16777216
100
AcDbTrace
 10
26.43443052070598
 20
34.42477231885093
 30
0.0
 11
26.87734389650087
 21
34.42477231885093
 31
0.0
 12
26.65588720860343
 22
33.09603219146627
 32
0.0
 13
26.65588720860343
 23
33.09603219146627
 33
0.0
  0
MTEXT
  5
2CB
330
1E6
100
AcDbEntity
  8
Dimension (ANSI)
440
 16777216
100
AcDbMText
 10
23.98489987996708
 20
72.94302348895846
 30
0.0
 40
1.620000064373016
 41
0.0
 46
0.0
 71
     1
 72
     1
  1
\A1;78.00
  7
Note Text (ANSI)
 73
     1
 44
1.0
  0
POINT
  5
2CC
330
1E6
100
AcDbEntity
  8
Defpoints
 62
     0
440
 16777216
100
AcDbPoint
 10
48.08208000788695
 20
111.0960321914662
 30
0.0
  0
POINT
  5
2CD
330
1E6
100
AcDbEntity
  8
Defpoints
 62
     0
440
 16777216
100
AcDbPoint
 10
48.08228000788698
 20
33.09603219146626
 30
0.0
  0
POINT
  5
2CE
330
1E6
100
AcDbEntity
  8
Defpoints
 62
     0
440
 16777216
100
AcDbPoint
 10
26.65588720860343
 20
33.09603219146627
 30
0.0
  0
ENDBLK
  5
1E8
330
1E6
100
AcDbEntity
  8
0
100
AcDbBlockEnd
  0
BLOCK
  5
2D1
330
2D0
100
AcDbEntity
  8
0
100
AcDbBlockBegin
  2
*D5
 70
     1
 10
0.0
 20
0.0
 30
0.0
  3
*D5
  1

  0
LINE
  5
3AF
330
2D0
100
AcDbEntity
  8
Dimension (ANSI)
440
 16777216
100
AcDbLine
 10
46.14458000788695
 20
33.97103219146625
 30
0.0
 11
41.12038136414514
 21
33.97103219146625
 31
0.0
  0
LINE
  5
3B0
330
2D0
100
AcDbEntity
  8
Dimension (ANSI)
440
 16777216
100
AcDbLine
 10
46.14458000788695
 20
72.09603219146625
 30
0.0
 11
41.12038136414514
 21
72.09603219146625
 31
0.0
  0
LINE
  5
3B1
330
2D0
100
AcDbEntity
  8
Dimension (ANSI)
440
 16777216
100
AcDbLine
 10
42.80788136414513
 20
35.29977231885091
 30
0.0
 11
42.80788136414514
 21
51.76134404358032
 31
0.0
  0
LINE
  5
3B2
330
2D0
100
AcDbEntity
  8
Dimension (ANSI)
440
 16777216
100
AcDbLine
 10
42.80788136414514
 20
70.76729206408159
 30
0.0
 11
42.80788136414514
 21
54.30572033935217
 31
0.0
  0
SOLID
  5
3B3
330
2D0
100
AcDbEntity
  8
Dimension (ANSI)
440
 16777216
100
AcDbTrace
 10
42.5864246762477
 20
35.29977231885091
 30
0.0
 11
43.02933805204258
 21
35.29977231885091
 31
0.0
 12
42.80788136414513
 22
33.97103219146625
 32
0.0
 13
42.80788136414513
 23
33.97103219146625
 33
0.0
  0
SOLID
  5
3B4
330
2D0
100
AcDbEntity
  8
Dimension (ANSI)
440
 16777216
100
AcDbTrace
 10
42.5864246762477
 20
70.76729206408159
 30
0.0
 11
43.02933805204259
 21
70.76729206408159
 31
0.0
 12
42.80788136414514
 22
72.09603219146625
 32
0.0
 13
42.80788136414514
 23
72.09603219146625
 33
0.0
  0
MTEXT
  5
3B5
330
2D0
100
AcDbEntity
  8
Dimension (ANSI)
440
 16777216
100
AcDbMText
 10
40.15375770296047
 20
53.88052348895847
 30
0.0
 40
1.620000064373016
 41
0.0
 46
0.0
 71
     1
 72
     1
  1
\A1;38.13
  7
Note Text (ANSI)
 73
     1
 44
1.0
  0
POINT
  5
3B6
330
2D0
100
AcDbEntity
  8
Defpoints
 62
     0
440
 16777216
100
AcDbPoint
 10
46.98833000788694
 20
33.97103219146625
 30
0.0
  0
POINT
  5
3B7
330
2D0
100
AcDbEntity
  8
Defpoints
 62
     0
440
 16777216
100
AcDbPoint
 10
46.98833000788694
 20
72.09603219146625
 30
0.0
  0
POINT
  5
3B8
330
2D0
100
AcDbEntity
  8
Defpoints
 62
     0
440
 16777216
100
AcDbPoint
 10
42.80788136414514
 20
72.09603219146625
 30
0.0
  0
ENDBLK
  5
2D2
330
2D0
100
AcDbEntity
  8
0
100
AcDbBlockEnd
  0
BLOCK
  5
3BB
330
3BA
100
AcDbEntity
  8
0
100
AcDbBlockBegin
  2
*D6
 70
     1
 10
0.0
 20
0.0
 30
0.0
  3
*D6
  1

  0
LINE
  5
4AE
330
3BA
100
AcDbEntity
  8
Dimension (ANSI)
440
 16777216
100
AcDbLine
 10
46.14458000788695
 20
33.97103219146625
 30
0.0
 11
44.95072539557012
 21
33.97103219146625
 31
0.0
  0
LINE
  5
4AF
330
3BA
100
AcDbEntity
  8
Dimension (ANSI)
440
 16777216
100
AcDbLine
 10
47.23853000788698
 20
33.09603219146627
 30
0.0
 11
44.95072539557012
 21
33.09603219146627
 31
0.0
  0
LINE
  5
4B0
330
3BA
100
AcDbEntity
  8
Dimension (ANSI)
440
 16777216
100
AcDbLine
 10
46.63822539557012
 20
35.29977231885091
 30
0.0
 11
46.63822539557012
 21
36.62851244623558
 31
0.0
  0
LINE
  5
4B1
330
3BA
100
AcDbEntity
  8
Dimension (ANSI)
440
 16777216
100
AcDbLine
 10
46.63822539557012
 20
31.7672920640816
 30
0.0
 11
46.63822539557012
 21
29.29419278457265
 31
0.0
  0
LINE
  5
4B2
330
3BA
100
AcDbEntity
  8
Dimension (ANSI)
440
 16777216
100
AcDbLine
 10
46.63822539557012
 20
29.29419278457265
 30
0.0
 11
45.30948526818546
 21
29.29419278457265
 31
0.0
  0
SOLID
  5
4B3
330
3BA
100
AcDbEntity
  8
Dimension (ANSI)
440
 16777216
100
AcDbTrace
 10
46.41676870767268
 20
35.29977231885091
 30
0.0
 11
46.85968208346756
 21
35.29977231885091
 31
0.0
 12
46.63822539557012
 22
33.97103219146625
 32
0.0
 13
46.63822539557012
 23
33.97103219146625
 33
0.0
  0
SOLID
  5
4B4
330
3BA
100
AcDbEntity
  8
Dimension (ANSI)
440
 16777216
100
AcDbTrace
 10
46.41676870767268
 20
31.7672920640816
 30
0.0
 11
46.85968208346756
 21
31.7672920640816
 31
0.0
 12
46.63822539557012
 22
33.09603219146627
 32
0.0
 13
46.63822539557012
 23
33.09603219146627
 33
0.0
  0
MTEXT
  5
4B5
330
3BA
100
AcDbEntity
  8
Dimension (ANSI)
440
 16777216
100
AcDbMText
 10
42.80788136414513
 20
29.29419278457266
 30
0.0
 40
1.620000064373016
 41
0.0
 46
0.0
 71
     5
 72
     1
  1
\A1;0.88
  7
Note Text (ANSI)
 73
     1
 44
1.0
  0
POINT
  5
4B6
330
3BA
100
AcDbEntity
  8
Defpoints
 62
     0
440
 16777216
100
AcDbPoint
 10
46.98833000788694
 20
33.97103219146625
 30
0.0
  0
POINT
  5
4B7
330
3BA
100
AcDbEntity
  8
Defpoints
 62
     0
440
 16777216
100
AcDbPoint
 10
48.08228000788698
 20
33.09603219146626
 30
0.0
  0
POINT
  5
4B8
330
3BA
100
AcDbEntity
  8
Defpoints
 62
     0
440
 16777216
100
AcDbPoint
 10
46.63822539557012
 20
33.09603219146627
 30
0.0
  0
ENDBLK
  5
3BC
330
3BA
100
AcDbEntity
  8
0
100
AcDbBlockEnd
  0
BLOCK
  5
4BB
330
4BA
100
AcDbEntity
  8
0
100
AcDbBlockBegin
  2
*D7
 70
     1
 10
0.0
 20
0.0
 30
0.0
  3
*D7
  1

  0
LINE
  5
599
330
4BA
100
AcDbEntity
  8
Dimension (ANSI)
440
 16777216
100
AcDbLine
 10
47.97333000788699
 20
110.0647821914662
 30
0.0
 11
47.97333000788699
 21
120.7150402589932
 31
0.0
  0
LINE
  5
59A
330
4BA
100
AcDbEntity
  8
Dimension (ANSI)
440
 16777216
100
AcDbLine
 10
67.97333000788697
 20
110.0647821914662
 30
0.0
 11
67.97333000788697
 21
120.7150402589932
 31
0.0
  0
LINE
  5
59B
330
4BA
100
AcDbEntity
  8
Dimension (ANSI)
440
 16777216
100
AcDbLine
 10
49.30207013527166
 20
119.0275402589932
 30
0.0
 11
54.88258572158328
 21
119.0275402589932
 31
0.0
  0
LINE
  5
59C
330
4BA
100
AcDbEntity
  8
Dimension (ANSI)
440
 16777216
100
AcDbLine
 10
66.64458988050231
 20
119.0275402589932
 30
0.0
 11
61.06407429419068
 21
119.0275402589932
 31
0.0
  0
SOLID
  5
59D
330
4BA
100
AcDbEntity
  8
Dimension (ANSI)
440
 16777216
100
AcDbTrace
 10
49.30207013527166
 20
119.2489969468906
 30
0.0
 11
49.30207013527166
 21
118.8060835710957
 31
0.0
 12
47.97333000788699
 22
119.0275402589932
 32
0.0
 13
47.97333000788699
 23
119.0275402589932
 33
0.0
  0
SOLID
  5
59E
330
4BA
100
AcDbEntity
  8
Dimension (ANSI)
440
 16777216
100
AcDbTrace
 10
66.64458988050231
 20
119.2489969468906
 30
0.0
 11
66.64458988050231
 21
118.8060835710957
 31
0.0
 12
67.97333000788697
 22
119.0275402589932
 32
0.0
 13
67.97333000788697
 23
119.0275402589932
 33
0.0
  0
MTEXT
  5
59F
330
4BA
100
AcDbEntity
  8
Dimension (ANSI)
440
 16777216
100
AcDbMText
 10
55.30778257197699
 20
119.8712676208496
 30
0.0
 40
1.620000064373016
 41
0.0
 46
0.0
 71
     1
 72
     1
  1
\A1;20.00
  7
Note Text (ANSI)
 73
     1
 44
1.0
  0
POINT
  5
5A0
330
4BA
100
AcDbEntity
  8
Defpoints
 62
     0
440
 16777216
100
AcDbPoint
 10
47.97333000788699
 20
109.2210321914662
 30
0.0
  0
POINT
  5
5A1
330
4BA
100
AcDbEntity
  8
Defpoints
 62
     0
440
 16777216
100
AcDbPoint
 10
67.97333000788697
 20
109.2210321914662
 30
0.0
  0
POINT
  5
5A2
330
4BA
100
AcDbEntity
  8
Defpoints
 62
     0
440
 16777216
100
AcDbPoint
 10
67.97333000788697
 20
119.0275402589932
 30
0.0
  0
ENDBLK
  5
4BC
330
4BA
100
AcDbEntity
  8
0
100
AcDbBlockEnd
  0
BLOCK
  5
5A5
330
5A4
100
AcDbEntity
  8
0
100
AcDbBlockBegin
  2
*D8
 70
     1
 10
0.0
 20
0.0
 30
0.0
  3
*D8
  1

  0
LINE
  5
656
330
5A4
100
AcDbEntity
  8
Dimension (ANSI)
440
 16777216
100
AcDbLine
 10
74.22656028635532
 20
39.47849091736481
 30
0.0
 11
72.49683873378718
 21
39.47849091736481
 31
0.0
  0
LINE
  5
657
330
5A4
100
AcDbEntity
  8
Dimension (ANSI)
440
 16777216
100
AcDbLine
 10
72.49683873378718
 20
39.47849091736481
 30
0.0
 11
68.12781494460421
 21
35.10946712818317
 31
0.0
  0
MTEXT
  5
658
330
5A4
100
AcDbEntity
  8
Dimension (ANSI)
440
 16777216
100
AcDbMText
 10
78.19295884586562
 20
39.47849091736481
 30
0.0
 40
1.620000064373016
 41
0.0
 46
0.0
 71
     5
 72
     1
  1
\A1;∅0.563{\P(6 PL.)}
  7
Note Text (ANSI)
 73
     1
 44
1.0
  0
SOLID
  5
659
330
5A4
100
AcDbEntity
  8
Dimension (ANSI)
440
 16777216
100
AcDbTrace
 10
67.97122141885285
 20
35.26606065393459
 30
0.0
 11
68.28440847035558
 21
34.95287360243175
 31
0.0
 12
67.1882537900957
 22
34.16990597367494
 32
0.0
 13
67.1882537900957
 23
34.16990597367494
 33
0.0
  0
LINE
  5
65A
330
5A4
100
AcDbEntity
  8
Dimension (ANSI)
440
 16777216
100
AcDbLine
 10
65.77438000788695
 20
33.97103219146627
 30
0.0
 11
68.20438000788694
 21
33.97103219146627
 31
0.0
  0
LINE
  5
65B
330
5A4
100
AcDbEntity
  8
Dimension (ANSI)
440
 16777216
100
AcDbLine
 10
66.98938000788695
 20
32.75603219146626
 30
0.0
 11
66.98938000788695
 21
35.18603219146626
 31
0.0
  0
POINT
  5
65C
330
5A4
100
AcDbEntity
  8
Defpoints
 62
     0
440
 16777216
100
AcDbPoint
 10
67.1882537900957
 20
34.16990597367494
 30
0.0
  0
POINT
  5
65D
330
5A4
100
AcDbEntity
  8
Defpoints
 62
     0
440
 16777216
100
AcDbPoint
 10
66.79050622567821
 20
33.77215840925757
 30
0.0
  0
ENDBLK
  5
5A6
330
5A4
100
AcDbEntity
  8
0
100
AcDbBlockEnd
  0
BLOCK
  5
660
330
65F
100
AcDbEntity
  8
0
100
AcDbBlockBegin
  2
*D9
 70
     1
 10
0.0
 20
0.0
 30
0.0
  3
*D9
  1

  0
LINE
  5
73E
330
65F
100
AcDbEntity
  8
Dimension (ANSI)
440
 16777216
100
AcDbLine
 10
48.95708000788695
 20
113.0335321914662
 30
0.0
 11
48.95708000788695
 21
116.5812341261563
 31
0.0
  0
LINE
  5
73F
330
65F
100
AcDbEntity
  8
Dimension (ANSI)
440
 16777216
100
AcDbLine
 10
66.98938000788695
 20
113.0335321914662
 30
0.0
 11
66.98938000788695
 21
116.5812341261563
 31
0.0
  0
LINE
  5
740
330
65F
100
AcDbEntity
  8
Dimension (ANSI)
440
 16777216
100
AcDbLine
 10
50.28582013527161
 20
114.8937341261563
 30
0.0
 11
54.66108907835192
 21
114.8937341261563
 31
0.0
  0
LINE
  5
741
330
65F
100
AcDbEntity
  8
Dimension (ANSI)
440
 16777216
100
AcDbLine
 10
65.66063988050228
 20
114.8937341261563
 30
0.0
 11
60.67938086916889
 21
114.8937341261563
 31
0.0
  0
SOLID
  5
742
330
65F
100
AcDbEntity
  8
Dimension (ANSI)
440
 16777216
100
AcDbTrace
 10
50.28582013527161
 20
115.1151908140538
 30
0.0
 11
50.28582013527161
 21
114.6722774382589
 31
0.0
 12
48.95708000788695
 22
114.8937341261563
 32
0.0
 13
48.95708000788695
 23
114.8937341261563
 33
0.0
  0
SOLID
  5
743
330
65F
100
AcDbEntity
  8
Dimension (ANSI)
440
 16777216
100
AcDbTrace
 10
65.66063988050228
 20
115.1151908140538
 30
0.0
 11
65.66063988050228
 21
114.6722774382589
 31
0.0
 12
66.98938000788695
 22
114.8937341261563
 32
0.0
 13
66.98938000788695
 23
114.8937341261563
 33
0.0
  0
MTEXT
  5
744
330
65F
100
AcDbEntity
  8
Dimension (ANSI)
440
 16777216
100
AcDbMText
 10
55.08628592874561
 20
115.7407254236486
 30
0.0
 40
1.620000064373016
 41
0.0
 46
0.0
 71
     1
 72
     1
  1
\A1;18.03
  7
Note Text (ANSI)
 73
     1
 44
1.0
  0
POINT
  5
745
330
65F
100
AcDbEntity
  8
Defpoints
 62
     0
440
 16777216
100
AcDbPoint
 10
48.95708000788695
 20
112.1897821914662
 30
0.0
  0
POINT
  5
746
330
65F
100
AcDbEntity
  8
Defpoints
 62
     0
440
 16777216
100
AcDbPoint
 10
66.98938000788695
 20
112.1897821914662
 30
0.0
  0
POINT
  5
747
330
65F
100
AcDbEntity
  8
Defpoints
 62
     0
440
 16777216
100
AcDbPoint
 10
66.98938000788695
 20
114.8937341261563
 30
0.0
  0
ENDBLK
  5
661
330
65F
100
AcDbEntity
  8
0
100
AcDbBlockEnd
  0
BLOCK
  5
74A
330
749
100
AcDbEntity
  8
0
100
AcDbBlockBegin
  2
*D10
 70
     1
 10
0.0
 20
0.0
 30
0.0
  3
*D10
  1

  0
LINE
  5
828
330
749
100
AcDbEntity
  8
Dimension (ANSI)
440
 16777216
100
AcDbLine
 10
47.97333000788699
 20
110.0647821914662
 30
0.0
 11
47.97333000788699
 21
116.5812341261563
 31
0.0
  0
LINE
  5
829
330
749
100
AcDbEntity
  8
Dimension (ANSI)
440
 16777216
100
AcDbLine
 10
48.95708000788695
 20
113.0335321914662
 30
0.0
 11
48.95708000788695
 21
116.5812341261563
 31
0.0
  0
LINE
  5
82A
330
749
100
AcDbEntity
  8
Dimension (ANSI)
440
 16777216
100
AcDbLine
 10
50.28582013527161
 20
114.8937341261563
 30
0.0
 11
51.61456026265628
 21
114.8937341261563
 31
0.0
  0
LINE
  5
82B
330
749
100
AcDbEntity
  8
Dimension (ANSI)
440
 16777216
100
AcDbLine
 10
46.64458988050233
 20
114.8937341261563
 30
0.0
 11
44.62929051758663
 21
114.8937341261563
 31
0.0
  0
SOLID
  5
82C
330
749
100
AcDbEntity
  8
Dimension (ANSI)
440
 16777216
100
AcDbTrace
 10
50.28582013527161
 20
115.1151908140538
 30
0.0
 11
50.28582013527161
 21
114.6722774382589
 31
0.0
 12
48.95708000788695
 22
114.8937341261563
 32
0.0
 13
48.95708000788695
 23
114.8937341261563
 33
0.0
  0
SOLID
  5
82D
330
749
100
AcDbEntity
  8
Dimension (ANSI)
440
 16777216
100
AcDbTrace
 10
46.64458988050233
 20
115.1151908140538
 30
0.0
 11
46.64458988050233
 21
114.6722774382589
 31
0.0
 12
47.97333000788699
 22
114.8937341261563
 32
0.0
 13
47.97333000788699
 23
114.8937341261563
 33
0.0
  0
MTEXT
  5
82E
330
749
100
AcDbEntity
  8
Dimension (ANSI)
440
 16777216
100
AcDbMText
 10
40.05127955989968
 20
115.7407254236486
 30
0.0
 40
1.620000064373016
 41
0.0
 46
0.0
 71
     1
 72
     1
  1
\A1;0.98
  7
Note Text (ANSI)
 73
     1
 44
1.0
  0
POINT
  5
82F
330
749
100
AcDbEntity
  8
Defpoints
 62
     0
440
 16777216
100
AcDbPoint
 10
47.97333000788699
 20
109.2210321914662
 30
0.0
  0
POINT
  5
830
330
749
100
AcDbEntity
  8
Defpoints
 62
     0
440
 16777216
100
AcDbPoint
 10
48.95708000788695
 20
112.1897821914662
 30
0.0
  0
POINT
  5
831
330
749
100
AcDbEntity
  8
Defpoints
 62
     0
440
 16777216
100
AcDbPoint
 10
48.95708000788695
 20
114.8937341261563
 30
0.0
  0
ENDBLK
  5
74B
330
749
100
AcDbEntity
  8
0
100
AcDbBlockEnd
  0
BLOCK
  5
834
330
833
100
AcDbEntity
  8
0
100
AcDbBlockBegin
  2
*D11
 70
     1
 10
0.0
 20
0.0
 30
0.0
  3
*D11
  1

  0
LINE
  5
912
330
833
100
AcDbEntity
  8
Dimension (ANSI)
440
 16777216
100
AcDbLine
 10
46.14458000788695
 20
110.2210321914662
 30
0.0
 11
34.03975289079261
 21
110.2210321914662
 31
0.0
  0
LINE
  5
913
330
833
100
AcDbEntity
  8
Dimension (ANSI)
440
 16777216
100
AcDbLine
 10
46.14458000788695
 20
33.97103219146625
 30
0.0
 11
34.0397528907926
 21
33.97103219146625
 31
0.0
  0
LINE
  5
914
330
833
100
AcDbEntity
  8
Dimension (ANSI)
440
 16777216
100
AcDbLine
 10
35.72725289079262
 20
108.8922920640815
 30
0.0
 11
35.72725289079261
 21
73.36495640371635
 31
0.0
  0
LINE
  5
915
330
833
100
AcDbEntity
  8
Dimension (ANSI)
440
 16777216
100
AcDbLine
 10
35.7272528907926
 20
35.29977231885091
 30
0.0
 11
35.72725289079261
 21
70.82710797921612
 31
0.0
  0
SOLID
  5
916
330
833
100
AcDbEntity
  8
Dimension (ANSI)
440
 16777216
100
AcDbTrace
 10
35.50579620289517
 20
108.8922920640815
 30
0.0
 11
35.94870957869006
 21
108.8922920640815
 31
0.0
 12
35.72725289079262
 22
110.2210321914662
 32
0.0
 13
35.72725289079262
 23
110.2210321914662
 33
0.0
  0
SOLID
  5
917
330
833
100
AcDbEntity
  8
Dimension (ANSI)
440
 16777216
100
AcDbTrace
 10
35.50579620289516
 20
35.29977231885091
 30
0.0
 11
35.94870957869004
 21
35.29977231885091
 31
0.0
 12
35.7272528907926
 22
33.97103219146625
 32
0.0
 13
35.7272528907926
 23
33.97103219146625
 33
0.0
  0
MTEXT
  5
918
330
833
100
AcDbEntity
  8
Dimension (ANSI)
440
 16777216
100
AcDbMText
 10
33.06932130469949
 20
72.93975955332266
 30
0.0
 40
1.620000064373016
 41
0.0
 46
0.0
 71
     1
 72
     1
  1
\A1;76.25
  7
Note Text (ANSI)
 73
     1
 44
1.0
  0
POINT
  5
919
330
833
100
AcDbEntity
  8
Defpoints
 62
     0
440
 16777216
100
AcDbPoint
 10
46.98833000788694
 20
110.2210321914662
 30
0.0
  0
POINT
  5
91A
330
833
100
AcDbEntity
  8
Defpoints
 62
     0
440
 16777216
100
AcDbPoint
 10
46.98833000788694
 20
33.97103219146625
 30
0.0
  0
POINT
  5
91B
330
833
100
AcDbEntity
  8
Defpoints
 62
     0
440
 16777216
100
AcDbPoint
 10
35.7272528907926
 20
33.97103219146625
 30
0.0
  0
ENDBLK
  5
835
330
833
100
AcDbEntity
  8
0
100
AcDbBlockEnd
  0
BLOCK
  5
920
330
91F
100
AcDbEntity
  8
0
100
AcDbBlockBegin
  2
*D12
 70
     1
 10
0.0
 20
0.0
 30
0.0
  3
*D12
  1

  0
LINE
  5
A05
330
91F
100
AcDbEntity
  8
Dimension (ANSI)
440
 16777216
100
AcDbLine
 10
115.8521682708365
 20
89.73100074641799
 30
0.0
 11
117.1809083982212
 21
89.73100074641799
 31
0.0
  0
LINE
  5
A06
330
91F
100
AcDbEntity
  8
Dimension (ANSI)
440
 16777216
100
AcDbLine
 10
112.3196880160672
 20
89.73100074641799
 30
0.0
 11
110.2429908137755
 21
89.73100074641799
 31
0.0
  0
SOLID
  5
A07
330
91F
100
AcDbEntity
  8
Dimension (ANSI)
440
 16777216
100
AcDbTrace
 10
115.8521682708365
 20
89.95245743431544
 30
0.0
 11
115.8521682708365
 21
89.50954405852055
 31
0.0
 12
114.5234281434518
 22
89.73100074641799
 32
0.0
 13
114.5234281434518
 23
89.73100074641799
 33
0.0
  0
SOLID
  5
A08
330
91F
100
AcDbEntity
  8
Dimension (ANSI)
440
 16777216
100
AcDbTrace
 10
112.3196880160672
 20
89.95245743431544
 30
0.0
 11
112.3196880160672
 21
89.50954405852055
 31
0.0
 12
113.6484281434519
 22
89.73100074641799
 32
0.0
 13
113.6484281434519
 23
89.73100074641799
 33
0.0
  0
MTEXT
  5
A09
330
91F
100
AcDbEntity
  8
Dimension (ANSI)
440
 16777216
100
AcDbMText
 10
107.6777401648369
 20
89.73100074641799
 30
0.0
 40
1.620000064373016
 41
0.0
 46
0.0
 71
     5
 72
     1
  1
\A1;0.88{\PTYP.}
  7
Note Text (ANSI)
 73
     1
 44
1.0
  0
POINT
  5
A0A
330
91F
100
AcDbEntity
  8
Defpoints
 62
     0
440
 16777216
100
AcDbPoint
 10
113.6484281434519
 20
89.73100074641799
 30
0.0
  0
POINT
  5
A0B
330
91F
100
AcDbEntity
  8
Defpoints
 62
     0
440
 16777216
100
AcDbPoint
 10
114.5234281434518
 20
89.73100074641799
 30
0.0
  0
POINT
  5
A0C
330
91F
100
AcDbEntity
  8
Defpoints
 62
     0
440
 16777216
100
AcDbPoint
 10
114.5234281434518
 20
89.73100074641799
 30
0.0
  0
ENDBLK
  5
921
330
91F
100
AcDbEntity
  8
0
100
AcDbBlockEnd
  0
BLOCK
  5
A0F
330
A0E
100
AcDbEntity
  8
0
100
AcDbBlockBegin
  2
*D13
 70
     1
 10
0.0
 20
0.0
 30
0.0
  3
*D13
  1

  0
LINE
  5
AFE
330
A0E
100
AcDbEntity
  8
Dimension (ANSI)
440
 16777216
100
AcDbLine
 10
112.3196880160672
 20
110.2200162710348
 30
0.0
 11
110.9909478886825
 21
110.2200162710348
 31
0.0
  0
LINE
  5
AFF
330
A0E
100
AcDbEntity
  8
Dimension (ANSI)
440
 16777216
100
AcDbLine
 10
115.0709182708365
 20
110.2200162710348
 30
0.0
 11
119.4620632697909
 21
110.2200162710348
 31
0.0
  0
SOLID
  5
B00
330
A0E
100
AcDbEntity
  8
Dimension (ANSI)
440
 16777216
100
AcDbTrace
 10
112.3196880160672
 20
110.4414729589322
 30
0.0
 11
112.3196880160672
 21
109.9985595831374
 31
0.0
 12
113.6484281434519
 22
110.2200162710348
 32
0.0
 13
113.6484281434519
 23
110.2200162710348
 33
0.0
  0
SOLID
  5
B01
330
A0E
100
AcDbEntity
  8
Dimension (ANSI)
440
 16777216
100
AcDbTrace
 10
115.0709182708365
 20
110.4414729589322
 30
0.0
 11
115.0709182708365
 21
109.9985595831374
 31
0.0
 12
113.7421781434519
 22
110.2200162710348
 32
0.0
 13
113.7421781434519
 23
110.2200162710348
 33
0.0
  0
MTEXT
  5
B02
330
A0E
100
AcDbEntity
  8
Dimension (ANSI)
440
 16777216
100
AcDbMText
 10
126.2900138590949
 20
110.2200162710348
 30
0.0
 40
1.620000064373016
 41
0.0
 46
0.0
 71
     5
 72
     1
  1
\A1;{12 GA. GALV.\P}(0.094)
  7
Note Text (ANSI)
 73
     1
 44
1.0
  0
POINT
  5
B03
330
A0E
100
AcDbEntity
  8
Defpoints
 62
     0
440
 16777216
100
AcDbPoint
 10
113.7421781434519
 20
110.2200162710348
 30
0.0
  0
POINT
  5
B04
330
A0E
100
AcDbEntity
  8
Defpoints
 62
     0
440
 16777216
100
AcDbPoint
 10
113.6484281434519
 20
110.2200162710348
 30
0.0
  0
POINT
  5
B05
330
A0E
100
AcDbEntity
  8
Defpoints
 62
     0
440
 16777216
100
AcDbPoint
 10
113.6484281434519
 20
110.2200162710348
 30
0.0
  0
ENDBLK
  5
A10
330
A0E
100
AcDbEntity
  8
0
100
AcDbBlockEnd
  0
ENDSEC
  0
SECTION
  2
ENTITIES
  0
CIRCLE
  5
11B
330
6C
100
AcDbEntity
  8
Visible (ANSI)
100
AcDbCircle
 10
66.98938000788695
 20
72.09603219146625
 30
0.0
 40
0.28125
  0
CIRCLE
  5
11C
330
6C
100
AcDbEntity
  8
Visible (ANSI)
100
AcDbCircle
 10
48.95708000788694
 20
72.09603219146625
 30
0.0
 40
0.28125
  0
CIRCLE
  5
11D
330
6C
100
AcDbEntity
  8
Visible (ANSI)
100
AcDbCircle
 10
66.98938000788695
 20
33.97103219146625
 30
0.0
 40
0.28125
  0
CIRCLE
  5
11E
330
6C
100
AcDbEntity
  8
Visible (ANSI)
100
AcDbCircle
 10
48.95708000788694
 20
33.97103219146625
 30
0.0
 40
0.28125
  0
CIRCLE
  5
11F
330
6C
100
AcDbEntity
  8
Visible (ANSI)
100
AcDbCircle
 10
66.98938000788695
 20
110.2210321914662
 30
0.0
 40
0.28125
  0
CIRCLE
  5
120
330
6C
100
AcDbEntity
  8
Visible (ANSI)
100
AcDbCircle
 10
48.95708000788694
 20
110.2210321914662
 30
0.0
 40
0.28125
  0
LINE
  5
121
330
6C
100
AcDbEntity
  8
Visible (ANSI)
100
AcDbLine
 10
48.08208000788694
 20
73.09603219146625
 30
0.0
 11
47.97333000788699
 21
73.09603219146625
 31
0.0
  0
LINE
  5
122
330
6C
100
AcDbEntity
  8
Visible (ANSI)
100
AcDbLine
 10
47.97333000788699
 20
71.09603219146624
 30
0.0
 11
48.08208000788694
 21
71.09603219146624
 31
0.0
  0
LINE
  5
123
330
6C
100
AcDbEntity
  8
Visible (ANSI)
100
AcDbLine
 10
48.08208000788694
 20
73.09603219146625
 30
0.0
 11
48.08208000788694
 21
71.09603219146624
 31
0.0
  0
LINE
  5
124
330
6C
100
AcDbEntity
  8
Hidden (ANSI)
 48
1.078828334808349
100
AcDbLine
 10
48.06708000788701
 20
34.97103219146625
 30
0.0
 11
48.06708000788687
 21
71.09603219146624
 31
0.0
  0
LINE
  5
125
330
6C
100
AcDbEntity
  8
Hidden (ANSI)
 48
1.078828334808349
100
AcDbLine
 10
48.06708000788686
 20
73.09603219146625
 30
0.0
 11
48.06708000788699
 21
109.2210321914662
 31
0.0
  0
LINE
  5
126
330
6C
100
AcDbEntity
  8
Visible (ANSI)
100
AcDbLine
 10
47.97333000788687
 20
71.09603219146624
 30
0.0
 11
47.97333000788701
 21
34.97103219146626
 31
0.0
  0
LINE
  5
127
330
6C
100
AcDbEntity
  8
Visible (ANSI)
100
AcDbLine
 10
47.97333000788702
 20
34.97103219146626
 30
0.0
 11
48.08208000788697
 21
34.97103219146626
 31
0.0
  0
LINE
  5
128
330
6C
100
AcDbEntity
  8
Visible (ANSI)
100
AcDbLine
 10
47.97333000788699
 20
109.2210321914662
 30
0.0
 11
47.97333000788699
 21
73.09603219146625
 31
0.0
  0
LINE
  5
129
330
6C
100
AcDbEntity
  8
Visible (ANSI)
100
AcDbLine
 10
47.97333000788699
 20
109.2210321914662
 30
0.0
 11
48.08208000788694
 21
109.2210321914662
 31
0.0
  0
LINE
  5
12A
330
6C
100
AcDbEntity
  8
Visible (ANSI)
100
AcDbLine
 10
48.08228000788697
 20
34.97103219146626
 30
0.0
 11
48.08228000788698
 21
33.09603219146626
 31
0.0
  0
LINE
  5
12B
330
6C
100
AcDbEntity
  8
Visible (ANSI)
100
AcDbLine
 10
48.08228000788695
 20
109.2212321914662
 30
0.0
 11
48.08228000788695
 21
109.2210321914662
 31
0.0
  0
LINE
  5
12C
330
6C
100
AcDbEntity
  8
Visible (ANSI)
100
AcDbLine
 10
48.08208000788694
 20
109.2212321914662
 30
0.0
 11
48.08228000788695
 21
109.2212321914662
 31
0.0
  0
LINE
  5
12D
330
6C
100
AcDbEntity
  8
Visible (ANSI)
100
AcDbLine
 10
67.86438000788699
 20
71.09603219146624
 30
0.0
 11
67.86438000788699
 21
73.09603219146625
 31
0.0
  0
LINE
  5
12E
330
6C
100
AcDbEntity
  8
Visible (ANSI)
100
AcDbLine
 10
67.86458000788697
 20
71.09603219146625
 30
0.0
 11
67.86438000788699
 21
71.09603219146624
 31
0.0
  0
LINE
  5
12F
330
6C
100
AcDbEntity
  8
Visible (ANSI)
100
AcDbLine
 10
67.86458000788697
 20
71.09603219146624
 30
0.0
 11
67.97333000788697
 21
71.09603219146624
 31
0.0
  0
LINE
  5
130
330
6C
100
AcDbEntity
  8
Visible (ANSI)
100
AcDbLine
 10
67.97333000788697
 20
73.09603219146625
 30
0.0
 11
67.86458000788697
 21
73.09603219146625
 31
0.0
  0
LINE
  5
131
330
6C
100
AcDbEntity
  8
Visible (ANSI)
100
AcDbLine
 10
67.86438000788699
 20
73.09603219146625
 30
0.0
 11
67.86458000788697
 21
73.09603219146625
 31
0.0
  0
LINE
  5
132
330
6C
100
AcDbEntity
  8
Hidden (ANSI)
 48
1.078828334808349
100
AcDbLine
 10
67.87958000788697
 20
71.09603219146624
 30
0.0
 11
67.87958000788697
 21
34.97103219146627
 31
0.0
  0
LINE
  5
133
330
6C
100
AcDbEntity
  8
Hidden (ANSI)
 48
1.078828334808349
100
AcDbLine
 10
67.87958000788697
 20
109.2210321914662
 30
0.0
 11
67.87958000788697
 21
73.09603219146625
 31
0.0
  0
LINE
  5
134
330
6C
100
AcDbEntity
  8
Visible (ANSI)
100
AcDbLine
 10
67.97333000788698
 20
34.97103219146627
 30
0.0
 11
67.864580007887
 21
34.97103219146627
 31
0.0
  0
LINE
  5
135
330
6C
100
AcDbEntity
  8
Visible (ANSI)
100
AcDbLine
 10
67.97333000788698
 20
34.97103219146627
 30
0.0
 11
67.97333000788697
 21
71.09603219146624
 31
0.0
  0
LINE
  5
136
330
6C
100
AcDbEntity
  8
Visible (ANSI)
100
AcDbLine
 10
67.97333000788698
 20
73.09603219146625
 30
0.0
 11
67.97333000788697
 21
109.2210321914662
 31
0.0
  0
LINE
  5
137
330
6C
100
AcDbEntity
  8
Visible (ANSI)
100
AcDbLine
 10
67.97333000788697
 20
109.2210321914662
 30
0.0
 11
67.86458000788698
 21
109.2210321914662
 31
0.0
  0
LINE
  5
138
330
6C
100
AcDbEntity
  8
Visible (ANSI)
100
AcDbLine
 10
67.864580007887
 20
34.97083219146627
 30
0.0
 11
67.86438000788701
 21
34.97083219146627
 31
0.0
  0
LINE
  5
139
330
6C
100
AcDbEntity
  8
Visible (ANSI)
100
AcDbLine
 10
67.86438000788698
 20
109.2210321914662
 30
0.0
 11
67.86438000788699
 21
111.0960321914662
 31
0.0
  0
LINE
  5
13A
330
6C
100
AcDbEntity
  8
Visible (ANSI)
100
AcDbLine
 10
67.86438000788701
 20
34.97083219146627
 30
0.0
 11
67.86438000788701
 21
34.97103219146627
 31
0.0
  0
LINE
  5
13B
330
6C
100
AcDbEntity
  8
Visible (ANSI)
100
AcDbLine
 10
67.864580007887
 20
33.09603219146626
 30
0.0
 11
67.864580007887
 21
34.97083219146627
 31
0.0
  0
LINE
  5
13C
330
6C
100
AcDbEntity
  8
Visible (ANSI)
100
AcDbLine
 10
48.08208000788694
 20
111.0960321914662
 30
0.0
 11
48.08208000788694
 21
109.2212321914662
 31
0.0
  0
LINE
  5
13D
330
6C
100
AcDbEntity
  8
Visible (ANSI)
100
AcDbLine
 10
48.08208000788694
 20
111.0960321914662
 30
0.0
 11
67.86438000788699
 21
111.0960321914662
 31
0.0
  0
LINE
  5
13E
330
6C
100
AcDbEntity
  8
Visible (ANSI)
100
AcDbLine
 10
67.864580007887
 20
33.09603219146626
 30
0.0
 11
48.08228000788698
 21
33.09603219146626
 31
0.0
  0
LINE
  5
13F
330
6C
100
AcDbEntity
  8
Visible (ANSI)
100
AcDbLine
 10
48.08228000788695
 20
109.2210321914662
 30
0.0
 11
48.08208000788694
 21
109.2210321914662
 31
0.0
  0
LINE
  5
140
330
6C
100
AcDbEntity
  8
Visible (ANSI)
100
AcDbLine
 10
48.08208000788697
 20
34.97103219146626
 30
0.0
 11
48.08228000788697
 21
34.97103219146626
 31
0.0
  0
LINE
  5
141
330
6C
100
AcDbEntity
  8
Visible (ANSI)
100
AcDbLine
 10
67.86438000788701
 20
34.97103219146627
 30
0.0
 11
67.864580007887
 21
34.97103219146627
 31
0.0
  0
LINE
  5
142
330
6C
100
AcDbEntity
  8
Visible (ANSI)
100
AcDbLine
 10
67.86458000788698
 20
109.2210321914662
 30
0.0
 11
67.86438000788698
 21
109.2210321914662
 31
0.0
  0
MTEXT
  5
144
330
6C
100
AcDbEntity
  8
Symbol (ANSI)
100
AcDbMText
 10
51.79783621802109
 20
25.62202500712627
 30
0.0
 40
1.620000020021528
 41
0.0
 46
0.0
 71
     7
 72
     1
  1
FRONT VIEW
  7
Text Style153
 73
     1
 44
1.0
  0
LINE
  5
146
330
6C
100
AcDbEntity
  8
Symbol (ANSI)
370
    30
100
AcDbLine
 10
51.63583580129787
 20
25.29165790256525
 30
0.0
 11
64.66016335915451
 21
25.29165790256525
 31
0.0
  0
LINE
  5
147
330
6C
100
AcDbEntity
  8
Visible (ANSI)
100
AcDbLine
 10
113.7421781434519
 20
73.09603219146625
 30
0.0
 11
113.7421781434519
 21
71.09603219146625
 31
0.0
  0
LINE
  5
148
330
6C
100
AcDbEntity
  8
Visible (ANSI)
100
AcDbLine
 10
113.6484281434519
 20
71.09603219146624
 30
0.0
 11
113.6484281434519
 21
73.09603219146625
 31
0.0
  0
LINE
  5
149
330
6C
100
AcDbEntity
  8
Visible (ANSI)
100
AcDbLine
 10
113.6484281434519
 20
71.09603219146624
 30
0.0
 11
113.7571781434519
 21
71.09603219146624
 31
0.0
  0
LINE
  5
14A
330
6C
100
AcDbEntity
  8
Visible (ANSI)
100
AcDbLine
 10
114.5234281434518
 20
71.09603219146624
 30
0.0
 11
113.7571781434519
 21
71.09603219146624
 31
0.0
  0
LINE
  5
14B
330
6C
100
AcDbEntity
  8
Visible (ANSI)
100
AcDbLine
 10
113.7571781434519
 20
73.09603219146625
 30
0.0
 11
114.5234281434518
 21
73.09603219146625
 31
0.0
  0
LINE
  5
14C
330
6C
100
AcDbEntity
  8
Visible (ANSI)
100
AcDbLine
 10
113.7571781434519
 20
73.09603219146625
 30
0.0
 11
113.6484281434519
 21
73.09603219146625
 31
0.0
  0
LINE
  5
14D
330
6C
100
AcDbEntity
  8
Hidden (ANSI)
 48
1.078828334808349
100
AcDbLine
 10
113.7421781434519
 20
71.09603219146624
 30
0.0
 11
113.7421781434519
 21
34.97103219146627
 31
0.0
  0
LINE
  5
14E
330
6C
100
AcDbEntity
  8
Hidden (ANSI)
 48
1.078828334808349
100
AcDbLine
 10
113.7421781434519
 20
109.2210321914662
 30
0.0
 11
113.7421781434519
 21
73.09603219146625
 31
0.0
  0
LINE
  5
14F
330
6C
100
AcDbEntity
  8
Visible (ANSI)
100
AcDbLine
 10
113.7421781434519
 20
34.97103219146627
 30
0.0
 11
113.7421781434519
 21
34.97083219146627
 31
0.0
  0
LINE
  5
150
330
6C
100
AcDbEntity
  8
Visible (ANSI)
100
AcDbLine
 10
113.7421781434519
 20
111.0960321914662
 30
0.0
 11
113.7421781434519
 21
109.2210321914662
 31
0.0
  0
LINE
  5
151
330
6C
100
AcDbEntity
  8
Visible (ANSI)
100
AcDbLine
 10
113.6484281434519
 20
34.97103219146627
 30
0.0
 11
113.6484281434519
 21
71.09603219146625
 31
0.0
  0
LINE
  5
152
330
6C
100
AcDbEntity
  8
Visible (ANSI)
100
AcDbLine
 10
113.7571781434519
 20
34.97103219146627
 30
0.0
 11
113.6484281434519
 21
34.97103219146627
 31
0.0
  0
LINE
  5
153
330
6C
100
AcDbEntity
  8
Visible (ANSI)
100
AcDbLine
 10
113.7571781434519
 20
109.2210321914662
 30
0.0
 11
113.6484281434519
 21
109.2210321914662
 31
0.0
  0
LINE
  5
154
330
6C
100
AcDbEntity
  8
Visible (ANSI)
100
AcDbLine
 10
113.6484281434519
 20
73.09603219146625
 30
0.0
 11
113.6484281434519
 21
109.2210321914662
 31
0.0
  0
LINE
  5
155
330
6C
100
AcDbEntity
  8
Visible (ANSI)
100
AcDbLine
 10
113.6484281434519
 20
111.0960321914662
 30
0.0
 11
113.7421781434519
 21
111.0960321914662
 31
0.0
  0
LINE
  5
156
330
6C
100
AcDbEntity
  8
Visible (ANSI)
100
AcDbLine
 10
113.6484281434519
 20
109.2210321914662
 30
0.0
 11
113.6484281434519
 21
111.0960321914662
 31
0.0
  0
LINE
  5
157
330
6C
100
AcDbEntity
  8
Visible (ANSI)
100
AcDbLine
 10
113.6484281434519
 20
34.97083219146627
 30
0.0
 11
113.6484281434519
 21
34.97103219146627
 31
0.0
  0
LINE
  5
158
330
6C
100
AcDbEntity
  8
Visible (ANSI)
100
AcDbLine
 10
113.7421781434519
 20
34.97083219146627
 30
0.0
 11
113.7421781434519
 21
33.09603219146626
 31
0.0
  0
LINE
  5
159
330
6C
100
AcDbEntity
  8
Visible (ANSI)
100
AcDbLine
 10
113.6484281434519
 20
34.97083219146627
 30
0.0
 11
113.7421781434519
 21
34.97083219146627
 31
0.0
  0
LINE
  5
15A
330
6C
100
AcDbEntity
  8
Visible (ANSI)
100
AcDbLine
 10
113.6484281434519
 20
33.09603219146626
 30
0.0
 11
113.6484281434519
 21
34.97083219146627
 31
0.0
  0
LINE
  5
15B
330
6C
100
AcDbEntity
  8
Visible (ANSI)
100
AcDbLine
 10
113.7421781434519
 20
33.09603219146626
 30
0.0
 11
113.6484281434519
 21
33.09603219146626
 31
0.0
  0
LINE
  5
15C
330
6C
100
AcDbEntity
  8
Visible (ANSI)
100
AcDbLine
 10
114.5234281434518
 20
71.09603219146624
 30
0.0
 11
114.5234281434519
 21
34.97103219146626
 31
0.0
  0
LINE
  5
15D
330
6C
100
AcDbEntity
  8
Visible (ANSI)
100
AcDbLine
 10
113.7571781434519
 20
34.97103219146627
 30
0.0
 11
114.5234281434519
 21
34.97103219146626
 31
0.0
  0
LINE
  5
15E
330
6C
100
AcDbEntity
  8
Visible (ANSI)
100
AcDbLine
 10
114.5234281434519
 20
109.2210321914662
 30
0.0
 11
114.5234281434518
 21
73.09603219146625
 31
0.0
  0
LINE
  5
15F
330
6C
100
AcDbEntity
  8
Visible (ANSI)
100
AcDbLine
 10
114.5234281434519
 20
109.2210321914662
 30
0.0
 11
113.7571781434519
 21
109.2210321914662
 31
0.0
  0
LINE
  5
160
330
6C
100
AcDbEntity
  8
Hidden (ANSI)
 48
0.0131270596757531
100
AcDbLine
 10
113.648428143446
 20
109.2212321914662
 30
0.0
 11
113.742178143446
 21
109.2212321914662
 31
0.0
  0
LINE
  5
161
330
6C
100
AcDbEntity
  8
Hidden (ANSI)
 48
0.0131270596757531
100
AcDbLine
 10
113.7421781434516
 20
71.81478219146625
 30
0.0
 11
113.6484281434516
 21
71.81478219146625
 31
0.0
  0
LINE
  5
162
330
6C
100
AcDbEntity
  8
Hidden (ANSI)
 48
0.0131270596757531
100
AcDbLine
 10
113.7421781434516
 20
72.37728219146625
 30
0.0
 11
113.6484281434516
 21
72.37728219146625
 31
0.0
  0
LINE
  5
163
330
6C
100
AcDbEntity
  8
Hidden (ANSI)
 48
0.0131270596757531
100
AcDbLine
 10
113.7421781434516
 20
33.68978219146625
 30
0.0
 11
113.6484281434516
 21
33.68978219146625
 31
0.0
  0
LINE
  5
164
330
6C
100
AcDbEntity
  8
Hidden (ANSI)
 48
0.0131270596757531
100
AcDbLine
 10
113.7421781434516
 20
34.25228219146626
 30
0.0
 11
113.6484281434516
 21
34.25228219146626
 31
0.0
  0
LINE
  5
165
330
6C
100
AcDbEntity
  8
Hidden (ANSI)
 48
0.0131270596757531
100
AcDbLine
 10
113.7421781434516
 20
109.9397821914662
 30
0.0
 11
113.6484281434516
 21
109.9397821914662
 31
0.0
  0
LINE
  5
166
330
6C
100
AcDbEntity
  8
Hidden (ANSI)
 48
0.0131270596757531
100
AcDbLine
 10
113.7421781434516
 20
110.5022821914662
 30
0.0
 11
113.6484281434516
 21
110.5022821914662
 31
0.0
  0
MTEXT
  5
167
330
6C
100
AcDbEntity
  8
Symbol (ANSI)
100
AcDbMText
 10
110.004661145924
 20
25.80711061973998
 30
0.0
 40
1.620000020021528
 41
0.0
 46
0.0
 71
     7
 72
     1
  1
SIDE VIEW
  7
Text Style153
 73
     1
 44
1.0
  0
LINE
  5
168
330
6C
100
AcDbEntity
  8
Symbol (ANSI)
370
    30
100
AcDbLine
 10
109.9217169325617
 20
25.47149230151644
 30
0.0
 11
120.8691885080359
 21
25.47149230151644
 31
0.0
  0
ELLIPSE
  5
169
330
6C
100
AcDbEntity
  8
Visible (ANSI)
100
AcDbEllipse
 10
181.444428692477
 20
67.76540652133004
 30
0.0
 11
-0.1578969106966282
 21
0.274192415342809
 31
0.0
210
0.0
220
0.0
230
1.0
 40
0.578093115915809
 41
0.0
 42
6.283185307179586
  0
ELLIPSE
  5
16A
330
6C
100
AcDbEntity
  8
Visible (ANSI)
100
AcDbEllipse
 10
181.5190063608052
 20
67.80835294426907
 30
0.0
 11
-0.1578969106966283
 21
0.2741924153428091
 31
0.0
210
0.0
220
0.0
230
1.0
 40
0.578093115915809
 41
0.2374735152854966
 42
2.904119138304421
  0
ELLIPSE
  5
16B
330
6C
100
AcDbEntity
  8
Visible (ANSI)
100
AcDbEllipse
 10
167.0998218807859
 20
76.02591619987359
 30
0.0
 11
-0.1578969106966282
 21
0.274192415342809
 31
0.0
210
0.0
220
0.0
230
1.0
 40
0.578093115915809
 41
0.0
 42
6.283185307179586
  0
ELLIPSE
  5
16C
330
6C
100
AcDbEntity
  8
Visible (ANSI)
100
AcDbEllipse
 10
167.1743995491141
 20
76.06886262281263
 30
0.0
 11
-0.1578969106966272
 21
0.2741924153428072
 31
0.0
210
0.0
220
0.0
230
0.9999999999999998
 40
0.578093115915809
 41
0.2374735152853855
 42
2.904119138304346
  0
ELLIPSE
  5
16D
330
6C
100
AcDbEntity
  8
Visible (ANSI)
100
AcDbEllipse
 10
181.4444286924768
 20
32.7002993698806
 30
0.0
 11
-0.1578969106966282
 21
0.274192415342809
 31
0.0
210
0.0
220
0.0
230
1.0
 40
0.578093115915809
 41
0.0
 42
6.283185307179586
  0
ELLIPSE
  5
16E
330
6C
100
AcDbEntity
  8
Visible (ANSI)
100
AcDbEllipse
 10
181.5190063608051
 20
32.74324579281965
 30
0.0
 11
-0.157896910696628
 21
0.2741924153428085
 31
0.0
210
0.0
220
0.0
230
1.0
 40
0.5780931159158089
 41
0.2374735152854966
 42
2.904119138304431
  0
ELLIPSE
  5
16F
330
6C
100
AcDbEntity
  8
Visible (ANSI)
100
AcDbEllipse
 10
167.0998218807858
 20
40.96080904842415
 30
0.0
 11
-0.1578969106966282
 21
0.274192415342809
 31
0.0
210
0.0
220
0.0
230
1.0
 40
0.578093115915809
 41
0.0
 42
6.283185307179586
  0
ELLIPSE
  5
170
330
6C
100
AcDbEntity
  8
Visible (ANSI)
100
AcDbEllipse
 10
167.1743995491141
 20
41.00375547136319
 30
0.0
 11
-0.1578969106966284
 21
0.2741924153428092
 31
0.0
210
0.0
220
0.0
230
1.0
 40
0.5780931159158092
 41
0.2374735152854166
 42
2.904119138304337
  0
ELLIPSE
  5
171
330
6C
100
AcDbEntity
  8
Visible (ANSI)
100
AcDbEllipse
 10
181.444428692477
 20
102.8305136727794
 30
0.0
 11
-0.1578969106966282
 21
0.274192415342809
 31
0.0
210
0.0
220
0.0
230
1.0
 40
0.578093115915809
 41
0.0
 42
6.283185307179586
  0
ELLIPSE
  5
172
330
6C
100
AcDbEntity
  8
Visible (ANSI)
100
AcDbEllipse
 10
181.5190063608053
 20
102.8734600957185
 30
0.0
 11
-0.1578969106966319
 21
0.2741924153428154
 31
0.0
210
0.0
220
0.0
230
1.0
 40
0.578093115915809
 41
0.2374735152854657
 42
2.904119138304421
  0
ELLIPSE
  5
173
330
6C
100
AcDbEntity
  8
Visible (ANSI)
100
AcDbEllipse
 10
167.0998218807859
 20
111.091023351323
 30
0.0
 11
-0.1578969106966282
 21
0.274192415342809
 31
0.0
210
0.0
220
0.0
230
1.0
 40
0.578093115915809
 41
0.0
 42
6.283185307179586
  0
ELLIPSE
  5
174
330
6C
100
AcDbEntity
  8
Visible (ANSI)
100
AcDbEllipse
 10
167.1743995491142
 20
111.133969774262
 30
0.0
 11
-0.1578969106966315
 21
0.2741924153428146
 31
0.0
210
0.0
220
0.0
230
1.0
 40
0.578093115915809
 41
0.2374735152853233
 42
2.904119138304233
  0
ELLIPSE
  5
175
330
6C
100
AcDbEntity
  8
Visible (ANSI)
100
AcDbEllipse
 10
166.4902737383161
 20
77.39630784669498
 30
0.0
 11
-0.1223437499999999
 21
0.0000000000000003
 31
0.0
210
0.0
220
0.0
230
1.0
 40
0.575861700985316
 41
0.0000000000000053
 42
0.785398163397125
  0
LINE
  5
176
330
6C
100
AcDbEntity
  8
Visible (ANSI)
100
AcDbLine
 10
167.0878894538532
 20
75.91471367362462
 30
0.0
 11
167.0676180305657
 21
75.90304013732887
 31
0.0
  0
LINE
  5
177
330
6C
100
AcDbEntity
  8
Visible (ANSI)
100
AcDbLine
 10
167.0367959414188
 20
75.94413647060436
 30
0.0
 11
167.0878894538532
 21
75.91471367362462
 31
0.0
  0
ELLIPSE
  5
178
330
6C
100
AcDbEntity
  8
Visible (ANSI)
100
AcDbEllipse
 10
166.4902737383161
 20
75.55682681579927
 30
0.0
 11
-0.1223437499999999
 21
0.0000000000000003
 31
0.0
210
0.0
220
0.0
230
1.0
 40
0.575861700985316
 41
5.497787143780334
 42
7.068583470576616
  0
LINE
  5
179
330
6C
100
AcDbEntity
  8
Visible (ANSI)
100
AcDbLine
 10
166.4037636430553
 20
77.34648999608572
 30
0.0
 11
166.4037636430553
 21
75.50700896519
 31
0.0
  0
LINE
  5
17A
330
6C
100
AcDbEntity
  8
Visible (ANSI)
100
AcDbLine
 10
167.0878894538532
 20
75.88012346980448
 30
0.0
 11
167.0878894538532
 21
75.91471367362462
 31
0.0
  0
LINE
  5
17B
330
6C
100
AcDbEntity
  8
Visible (ANSI)
100
AcDbLine
 10
167.0878894538533
 20
110.9452306212539
 30
0.0
 11
167.0878894538533
 21
110.979820825074
 31
0.0
  0
LINE
  5
17C
330
6C
100
AcDbEntity
  8
Visible (ANSI)
100
AcDbLine
 10
167.0878894538533
 20
110.979820825074
 30
0.0
 11
167.0676180305657
 21
110.9681472887783
 31
0.0
  0
LINE
  5
17D
330
6C
100
AcDbEntity
  8
Visible (ANSI)
100
AcDbLine
 10
167.0367959414189
 20
111.0092436220538
 30
0.0
 11
167.0878894538533
 21
110.979820825074
 31
0.0
  0
LINE
  5
17E
330
6C
100
AcDbEntity
  8
Visible (ANSI)
100
AcDbLine
 10
166.4039227420811
 20
110.5720244976038
 30
0.0
 11
166.4037636430554
 21
110.5721161166394
 31
0.0
  0
LINE
  5
17F
330
6C
100
AcDbEntity
  8
Visible (ANSI)
100
AcDbLine
 10
166.4037636430552
 20
42.28138284463627
 30
0.0
 11
166.403922742081
 21
42.28129122560067
 31
0.0
  0
ELLIPSE
  5
180
330
6C
100
AcDbEntity
  8
Visible (ANSI)
100
AcDbEllipse
 10
166.490273738316
 20
42.33120069524553
 30
0.0
 11
-0.12234375
 21
0.0000000000000003
 31
0.0
210
0.0
220
0.0
230
1.0
 40
0.5758617009853159
 41
0.0
 42
0.7853981633970771
  0
LINE
  5
181
330
6C
100
AcDbEntity
  8
Visible Narrow (ANSI)
100
AcDbLine
 10
166.4037636430553
 20
75.50700896519
 30
0.0
 11
166.4037636430552
 21
42.28138284463627
 31
0.0
  0
ELLIPSE
  5
182
330
6C
100
AcDbEntity
  8
Visible (ANSI)
100
AcDbEllipse
 10
166.4902737383162
 20
110.6219339672487
 30
0.0
 11
-0.12234375
 21
0.0000000000000003
 31
0.0
210
0.0
220
0.0
230
1.0
 40
0.575861700985316
 41
5.497787143778906
 42
7.06858347057671
  0
LINE
  5
183
330
6C
100
AcDbEntity
  8
Visible Narrow (ANSI)
100
AcDbLine
 10
166.4037636430554
 20
110.5721161166394
 30
0.0
 11
166.4037636430553
 21
77.34648999608572
 31
0.0
  0
LINE
  5
184
330
6C
100
AcDbEntity
  8
Visible (ANSI)
100
AcDbLine
 10
166.403922742081
 20
42.28129122560067
 30
0.0
 11
166.403922742081
 21
40.55677775913594
 31
0.0
  0
LINE
  5
185
330
6C
100
AcDbEntity
  8
Visible (ANSI)
100
AcDbLine
 10
166.4039227420811
 20
110.5722084457069
 30
0.0
 11
166.4039227420811
 21
110.5720244976038
 31
0.0
  0
LINE
  5
186
330
6C
100
AcDbEntity
  8
Visible (ANSI)
100
AcDbLine
 10
166.4037636430554
 20
110.5723000647425
 30
0.0
 11
166.4039227420811
 21
110.5722084457069
 31
0.0
  0
LINE
  5
187
330
6C
100
AcDbEntity
  8
Visible (ANSI)
100
AcDbLine
 10
166.3679299883161
 20
75.55682681579927
 30
0.0
 11
166.367929988316
 21
42.33120069524554
 31
0.0
  0
LINE
  5
188
330
6C
100
AcDbEntity
  8
Visible (ANSI)
100
AcDbLine
 10
166.3679299883162
 20
110.6219339672487
 30
0.0
 11
166.3679299883161
 21
77.39630784669498
 31
0.0
  0
LINE
  5
189
330
6C
100
AcDbEntity
  8
Visible (ANSI)
100
AcDbLine
 10
182.2150645985358
 20
68.26393183927891
 30
0.0
 11
182.2150645985358
 21
66.48777914805693
 31
0.0
  0
LINE
  5
18A
330
6C
100
AcDbEntity
  8
Visible (ANSI)
100
AcDbLine
 10
182.1404869302076
 20
66.44483272511786
 30
0.0
 11
182.1404869302076
 21
68.28431375601358
 31
0.0
  0
LINE
  5
18B
330
6C
100
AcDbEntity
  8
Visible (ANSI)
100
AcDbLine
 10
182.2150645985358
 20
66.48777914805693
 30
0.0
 11
182.1404869302076
 21
66.44483272511786
 31
0.0
  0
LINE
  5
18C
330
6C
100
AcDbEntity
  8
Visible (ANSI)
100
AcDbLine
 10
182.2150645985358
 20
66.48777914805693
 30
0.0
 11
182.2152236975616
 21
66.4876875290213
 31
0.0
  0
LINE
  5
18D
330
6C
100
AcDbEntity
  8
Visible (ANSI)
100
AcDbLine
 10
182.1406460292334
 20
66.44474110608228
 30
0.0
 11
182.1404869302076
 21
66.44483272511786
 31
0.0
  0
ELLIPSE
  5
18E
330
6C
100
AcDbEntity
  8
Visible (ANSI)
100
AcDbEllipse
 10
182.2271561244942
 20
66.49455895669156
 30
0.0
 11
-0.1223437499999922
 21
0.0000000000000076
 31
0.0
210
0.0
220
0.0
230
1.0
 40
0.5758617009853159
 41
0.7853981633978285
 42
2.35619449019294
  0
LINE
  5
18F
330
6C
100
AcDbEntity
  8
Visible (ANSI)
100
AcDbLine
 10
182.9232143622245
 20
66.79575653623733
 30
0.0
 11
182.3136662197549
 21
66.4447411060823
 31
0.0
  0
LINE
  5
190
330
6C
100
AcDbEntity
  8
Visible (ANSI)
100
AcDbLine
 10
182.8486366938963
 20
66.83870295917642
 30
0.0
 11
182.9232143622245
 21
66.79575653623733
 31
0.0
  0
LINE
  5
191
330
6C
100
AcDbEntity
  8
Visible (ANSI)
100
AcDbLine
 10
182.2390885514267
 20
66.48768752902134
 30
0.0
 11
182.8486366938963
 21
66.83870295917642
 31
0.0
  0
ELLIPSE
  5
192
330
6C
100
AcDbEntity
  8
Visible (ANSI)
100
AcDbEllipse
 10
182.2271561244942
 20
66.49455895669156
 30
0.0
 11
0.0168749999999978
 21
0.000000000000001
 31
0.0
210
0.0
220
0.0
230
1.0
 40
0.575861700985316
 41
3.926990816988883
 42
5.497787143783798
  0
LINE
  5
193
330
6C
100
AcDbEntity
  8
Visible (ANSI)
100
AcDbLine
 10
182.313666219755
 20
68.284222136978
 30
0.0
 11
182.9232143622245
 21
68.63523756713306
 31
0.0
  0
ELLIPSE
  5
194
330
6C
100
AcDbEntity
  8
Visible (ANSI)
100
AcDbEllipse
 10
182.2271561244942
 20
68.33403998758729
 30
0.0
 11
0.1223437499999953
 21
0.000000000000007
 31
0.0
210
0.0
220
0.0
230
1.0
 40
0.5758617009853159
 41
3.926990816987152
 42
5.497787143782075
  0
LINE
  5
195
330
6C
100
AcDbEntity
  8
Visible (ANSI)
100
AcDbLine
 10
182.1404869302076
 20
68.28431375601358
 30
0.0
 11
182.1406460292334
 21
68.284222136978
 31
0.0
  0
LINE
  5
196
330
6C
100
AcDbEntity
  8
Visible (ANSI)
100
AcDbLine
 10
182.2152236975615
 20
33.19881564879817
 30
0.0
 11
182.2152236975615
 21
31.53754794200287
 31
0.0
  0
LINE
  5
197
330
6C
100
AcDbEntity
  8
Visible (ANSI)
100
AcDbLine
 10
182.1406460292333
 20
33.21893103742548
 30
0.0
 11
182.1408058921882
 21
33.21902309637865
 31
0.0
  0
LINE
  5
198
330
6C
100
AcDbEntity
  8
Visible (ANSI)
100
AcDbLine
 10
182.1406460292333
 20
31.49460151906382
 30
0.0
 11
182.1406460292333
 21
33.21893103742548
 31
0.0
  0
LINE
  5
199
330
6C
100
AcDbEntity
  8
Visible (ANSI)
100
AcDbLine
 10
182.2152236975615
 20
31.53754794200287
 30
0.0
 11
182.1406460292333
 21
31.49460151906382
 31
0.0
  0
LINE
  5
19A
330
6C
100
AcDbEntity
  8
Visible (ANSI)
100
AcDbLine
 10
166.4037636430554
 20
112.2966295831041
 30
0.0
 11
166.4037636430554
 21
110.5723000647425
 31
0.0
  0
LINE
  5
19B
330
6C
100
AcDbEntity
  8
Visible (ANSI)
100
AcDbLine
 10
166.4783413113836
 20
112.3395760060432
 30
0.0
 11
166.4037636430554
 21
112.2966295831041
 31
0.0
  0
LINE
  5
19C
330
6C
100
AcDbEntity
  8
Visible (ANSI)
100
AcDbLine
 10
182.215064598536
 20
103.2773997659711
 30
0.0
 11
166.4783413113836
 21
112.3395760060432
 31
0.0
  0
LINE
  5
19D
330
6C
100
AcDbEntity
  8
Visible (ANSI)
100
AcDbLine
 10
166.4037636430554
 20
112.2966295831041
 30
0.0
 11
182.1404869302076
 21
103.234453343032
 31
0.0
  0
LINE
  5
19E
330
6C
100
AcDbEntity
  8
Visible (ANSI)
100
AcDbLine
 10
182.1406460292333
 20
31.49460151906382
 30
0.0
 11
166.403922742081
 21
40.55677775913594
 31
0.0
  0
LINE
  5
19F
330
6C
100
AcDbEntity
  8
Visible (ANSI)
100
AcDbLine
 10
182.215064598536
 20
103.2773997659711
 30
0.0
 11
182.2150645985359
 21
101.5528862995063
 31
0.0
  0
LINE
  5
1A0
330
6C
100
AcDbEntity
  8
Visible Narrow (ANSI)
100
AcDbLine
 10
182.1406460292333
 20
33.21911498552856
 30
0.0
 11
182.1406460292334
 21
66.44474110608228
 31
0.0
  0
ELLIPSE
  5
1A1
330
6C
100
AcDbEntity
  8
Visible (ANSI)
100
AcDbEllipse
 10
182.227156124494
 20
33.26893283613787
 30
0.0
 11
0.1223437499999954
 21
0.000000000000007
 31
0.0
210
0.0
220
0.0
230
1.0
 40
0.5758617009853161
 41
3.926990816987247
 42
5.497787143782389
  0
LINE
  5
1A2
330
6C
100
AcDbEntity
  8
Visible Narrow (ANSI)
100
AcDbLine
 10
182.3136662197549
 20
33.21911498552861
 30
0.0
 11
182.3136662197549
 21
66.4447411060823
 31
0.0
  0
LINE
  5
1A3
330
6C
100
AcDbEntity
  8
Visible Narrow (ANSI)
100
AcDbLine
 10
182.313666219755
 20
68.284222136978
 30
0.0
 11
182.313666219755
 21
101.5098482575317
 31
0.0
  0
ELLIPSE
  5
1A4
330
6C
100
AcDbEntity
  8
Visible (ANSI)
100
AcDbEllipse
 10
182.2271561244942
 20
101.559666108141
 30
0.0
 11
0.1223437499999953
 21
0.000000000000007
 31
0.0
210
0.0
220
0.0
230
1.0
 40
0.575861700985316
 41
3.926990816987151
 42
5.497787143782076
  0
LINE
  5
1A5
330
6C
100
AcDbEntity
  8
Visible Narrow (ANSI)
100
AcDbLine
 10
182.1406460292334
 20
68.284222136978
 30
0.0
 11
182.1406460292335
 21
101.5098482575317
 31
0.0
  0
LINE
  5
1A6
330
6C
100
AcDbEntity
  8
Visible (ANSI)
100
AcDbLine
 10
182.1404869302075
 20
33.21902265646108
 30
0.0
 11
182.1406466457306
 21
33.21911463051389
 31
0.0
  0
LINE
  5
1A7
330
6C
100
AcDbEntity
  8
Visible (ANSI)
100
AcDbLine
 10
182.1406460292333
 20
33.21893103742548
 30
0.0
 11
182.1404869302075
 21
33.21902265646108
 31
0.0
  0
LINE
  5
1A8
330
6C
100
AcDbEntity
  8
Visible (ANSI)
100
AcDbLine
 10
182.1404869302076
 20
103.234453343032
 30
0.0
 11
182.215064598536
 21
103.2773997659711
 31
0.0
  0
ELLIPSE
  5
1A9
330
6C
100
AcDbEntity
  8
Visible (ANSI)
100
AcDbEllipse
 10
182.2271561244942
 20
101.559666108141
 30
0.0
 11
0.0168749999999989
 21
0.000000000000001
 31
0.0
210
0.0
220
0.0
230
1.0
 40
0.575861700985316
 41
3.92699081698957
 42
5.497787143783798
  0
LINE
  5
1AA
330
6C
100
AcDbEntity
  8
Visible (ANSI)
100
AcDbLine
 10
182.1404869302076
 20
101.5099398765673
 30
0.0
 11
182.2150645985359
 21
101.5528862995063
 31
0.0
  0
LINE
  5
1AB
330
6C
100
AcDbEntity
  8
Visible (ANSI)
100
AcDbLine
 10
182.1404869302076
 20
101.5099398765673
 30
0.0
 11
182.1404869302076
 21
103.234453343032
 31
0.0
  0
LINE
  5
1AC
330
6C
100
AcDbEntity
  8
Visible (ANSI)
100
AcDbLine
 10
182.1404869302075
 20
33.21902265646108
 30
0.0
 11
182.1404869302075
 21
33.21920660456417
 31
0.0
  0
LINE
  5
1AD
330
6C
100
AcDbEntity
  8
Visible (ANSI)
100
AcDbLine
 10
182.2150645985359
 20
101.5528862995063
 30
0.0
 11
182.2152236975617
 21
101.5527946804707
 31
0.0
  0
LINE
  5
1AE
330
6C
100
AcDbEntity
  8
Visible (ANSI)
100
AcDbLine
 10
182.9232143622245
 20
66.79575653623733
 30
0.0
 11
182.9232143622245
 21
33.57013041568368
 31
0.0
  0
LINE
  5
1AF
330
6C
100
AcDbEntity
  8
Visible (ANSI)
100
AcDbLine
 10
182.3136662197549
 20
33.21911498552861
 30
0.0
 11
182.9232143622245
 21
33.57013041568368
 31
0.0
  0
LINE
  5
1B0
330
6C
100
AcDbEntity
  8
Visible (ANSI)
100
AcDbLine
 10
182.9232143622247
 20
101.8608636876868
 30
0.0
 11
182.9232143622245
 21
68.63523756713306
 31
0.0
  0
LINE
  5
1B1
330
6C
100
AcDbEntity
  8
Visible (ANSI)
100
AcDbLine
 10
182.9232143622247
 20
101.8608636876868
 30
0.0
 11
182.313666219755
 21
101.5098482575317
 31
0.0
  0
LINE
  5
1B2
330
6C
100
AcDbEntity
  8
Visible (ANSI)
100
AcDbLine
 10
182.1404869302075
 20
33.21920660456417
 30
0.0
 11
182.1406460292333
 21
33.21911498552856
 31
0.0
  0
LINE
  5
1B3
330
6C
100
AcDbEntity
  8
Visible (ANSI)
100
AcDbLine
 10
182.8486366938964
 20
101.9038101106259
 30
0.0
 11
182.9232143622247
 21
101.8608636876868
 31
0.0
  0
LINE
  5
1B4
330
6C
100
AcDbEntity
  8
Visible (ANSI)
100
AcDbLine
 10
182.2390885514267
 20
101.5527946804708
 30
0.0
 11
182.8486366938964
 21
101.9038101106259
 31
0.0
  0
LINE
  5
1B5
330
6C
100
AcDbEntity
  8
Visible (ANSI)
100
AcDbLine
 10
182.1406460292335
 20
101.5098482575317
 30
0.0
 11
182.1404869302076
 21
101.5099398765673
 31
0.0
  0
ARC
  5
1B6
330
6C
100
AcDbEntity
  8
Visible (ANSI)
100
AcDbCircle
 10
48.08208000790478
 20
131.7237448519349
 30
0.0
 40
0.015
100
AcDbArc
 50
180.0
 51
269.9999999998196
  0
ARC
  5
1B7
330
6C
100
AcDbEntity
  8
Visible (ANSI)
100
AcDbCircle
 10
48.08208000790478
 20
131.7237448519349
 30
0.0
 40
0.10875
100
AcDbArc
 50
180.0
 51
269.9999999999751
  0
LINE
  5
1B8
330
6C
100
AcDbEntity
  8
Hidden (ANSI)
 48
0.0131270596757531
100
AcDbLine
 10
48.08228000790474
 20
131.6149948519349
 30
0.0
 11
48.08228000790474
 21
131.708744851935
 31
0.0
  0
LINE
  5
1B9
330
6C
100
AcDbEntity
  8
Visible (ANSI)
100
AcDbLine
 10
48.06708000790475
 20
132.489994851935
 30
0.0
 11
48.06708000790479
 21
131.7237448519353
 31
0.0
  0
LINE
  5
1BA
330
6C
100
AcDbEntity
  8
Visible (ANSI)
100
AcDbLine
 10
47.97333000790476
 20
132.489994851935
 30
0.0
 11
48.06708000790475
 21
132.489994851935
 31
0.0
  0
LINE
  5
1BB
330
6C
100
AcDbEntity
  8
Visible (ANSI)
100
AcDbLine
 10
47.97333000790477
 20
131.7237448519353
 30
0.0
 11
47.97333000790476
 21
132.489994851935
 31
0.0
  0
LINE
  5
1BC
330
6C
100
AcDbEntity
  8
Visible (ANSI)
100
AcDbLine
 10
67.86438000790479
 20
131.7087448519355
 30
0.0
 11
48.08208000790473
 21
131.7087448519355
 31
0.0
  0
LINE
  5
1BD
330
6C
100
AcDbEntity
  8
Visible (ANSI)
100
AcDbLine
 10
48.08208000790473
 20
131.6149948519355
 30
0.0
 11
67.86438000790479
 21
131.6149948519355
 31
0.0
  0
LINE
  5
1BE
330
6C
100
AcDbEntity
  8
Visible (ANSI)
100
AcDbLine
 10
67.86438000790477
 20
131.708744851935
 30
0.0
 11
67.86458000790478
 21
131.708744851935
 31
0.0
  0
LINE
  5
1BF
330
6C
100
AcDbEntity
  8
Visible (ANSI)
100
AcDbLine
 10
67.97333000790477
 20
132.489994851935
 30
0.0
 11
67.97333000790477
 21
131.723744851935
 31
0.0
  0
LINE
  5
1C0
330
6C
100
AcDbEntity
  8
Visible (ANSI)
100
AcDbLine
 10
67.87958000790476
 20
132.489994851935
 30
0.0
 11
67.97333000790477
 21
132.489994851935
 31
0.0
  0
LINE
  5
1C1
330
6C
100
AcDbEntity
  8
Visible (ANSI)
100
AcDbLine
 10
67.87958000790474
 20
131.723744851935
 30
0.0
 11
67.87958000790476
 21
132.489994851935
 31
0.0
  0
LINE
  5
1C2
330
6C
100
AcDbEntity
  8
Visible (ANSI)
100
AcDbLine
 10
67.86458000790478
 20
131.6149948519349
 30
0.0
 11
67.86438000790477
 21
131.6149948519349
 31
0.0
  0
ARC
  5
1C3
330
6C
100
AcDbEntity
  8
Visible (ANSI)
100
AcDbCircle
 10
67.86458000790476
 20
131.7237448519349
 30
0.0
 40
0.1087499999999959
100
AcDbArc
 50
270.00000000001
 51
0.0
  0
LINE
  5
1C4
330
6C
100
AcDbEntity
  8
Visible (ANSI)
100
AcDbLine
 10
67.86438000790479
 20
131.6149948519355
 30
0.0
 11
67.86438000790479
 21
131.7087448519355
 31
0.0
  0
ARC
  5
1C5
330
6C
100
AcDbEntity
  8
Visible (ANSI)
100
AcDbCircle
 10
67.86458000790476
 20
131.7237448519349
 30
0.0
 40
0.014999999999999
100
AcDbArc
 50
270.0000000000721
 51
0.0
  0
LINE
  5
1C6
330
6C
100
AcDbEntity
  8
Hidden (ANSI)
 48
0.0131270596757531
100
AcDbLine
 10
67.86458000790479
 20
131.6149948519135
 30
0.0
 11
67.86458000790479
 21
131.7087448519135
 31
0.0
  0
LINE
  5
1C7
330
6C
100
AcDbEntity
  8
Visible (ANSI)
100
AcDbLine
 10
48.08208000790473
 20
131.7087448519355
 30
0.0
 11
48.08208000790473
 21
131.6149948519355
 31
0.0
  0
LINE
  5
1C8
330
6C
100
AcDbEntity
  8
Hidden (ANSI)
 48
0.0131270596757531
100
AcDbLine
 10
67.27063000790472
 20
131.7087448519352
 30
0.0
 11
67.27063000790472
 21
131.6149948519352
 31
0.0
  0
LINE
  5
1C9
330
6C
100
AcDbEntity
  8
Hidden (ANSI)
 48
0.0131270596757531
100
AcDbLine
 10
66.70813000790473
 20
131.7087448519352
 30
0.0
 11
66.70813000790473
 21
131.6149948519352
 31
0.0
  0
LINE
  5
1CA
330
6C
100
AcDbEntity
  8
Hidden (ANSI)
 48
0.0131270596757531
100
AcDbLine
 10
49.23833000790473
 20
131.7087448519352
 30
0.0
 11
49.23833000790473
 21
131.6149948519352
 31
0.0
  0
LINE
  5
1CB
330
6C
100
AcDbEntity
  8
Hidden (ANSI)
 48
0.0131270596757531
100
AcDbLine
 10
48.67583000790474
 20
131.7087448519352
 30
0.0
 11
48.67583000790474
 21
131.6149948519352
 31
0.0
  0
MTEXT
  5
1CC
330
6C
100
AcDbEntity
  8
Symbol (ANSI)
100
AcDbMText
 10
52.73875870323549
 20
125.6239918537819
 30
0.0
 40
1.620000020021528
 41
0.0
 46
0.0
 71
     7
 72
     1
  1
TOP VIEW
  7
Text Style153
 73
     1
 44
1.0
  0
LINE
  5
1CD
330
6C
100
AcDbEntity
  8
Symbol (ANSI)
370
    30
100
AcDbLine
 10
52.74005470656927
 20
125.2936247492209
 30
0.0
 11
62.96154565103365
 21
125.2936247492209
 31
0.0
  0
LINE
  5
1CE
330
6C
100
AcDbEntity
  8
Center Mark (ANSI)
  6
CHAIN
 48
0.1619282215833664
100
AcDbLine
 10
48.95708000788695
 20
112.1897821914662
 30
0.0
 11
48.95708000788695
 21
108.2522821914662
 31
0.0
  0
LINE
  5
1CF
330
6C
100
AcDbEntity
  8
Center Mark (ANSI)
  6
CHAIN
 48
0.1619282215833664
100
AcDbLine
 10
66.98938000788695
 20
112.1897821914662
 30
0.0
 11
66.98938000788695
 21
108.2522821914662
 31
0.0
  0
LINE
  5
1D0
330
6C
100
AcDbEntity
  8
Centerline (ANSI)
  6
CHAIN
 48
0.9524481296539306
100
AcDbLine
 10
46.98833000788694
 20
110.2210321914662
 30
0.0
 11
68.95813000788695
 21
110.2210321914662
 31
0.0
  0
LINE
  5
1D1
330
6C
100
AcDbEntity
  8
Center Mark (ANSI)
  6
CHAIN
 48
0.1619282215833664
100
AcDbLine
 10
50.92583000788696
 20
110.2210321914662
 30
0.0
 11
46.98833000788694
 21
110.2210321914662
 31
0.0
  0
LINE
  5
1D2
330
6C
100
AcDbEntity
  8
Center Mark (ANSI)
  6
CHAIN
 48
0.1619282215833664
100
AcDbLine
 10
50.92583000788696
 20
72.09603219146625
 30
0.0
 11
46.98833000788694
 21
72.09603219146625
 31
0.0
  0
LINE
  5
1D3
330
6C
100
AcDbEntity
  8
Centerline (ANSI)
  6
CHAIN
 48
0.9524481296539306
100
AcDbLine
 10
48.95708000788695
 20
112.1897821914662
 30
0.0
 11
48.95708000788695
 21
70.12728219146625
 31
0.0
  0
LINE
  5
1D4
330
6C
100
AcDbEntity
  8
Center Mark (ANSI)
  6
CHAIN
 48
0.1619282215833664
100
AcDbLine
 10
48.95708000788695
 20
74.06478219146625
 30
0.0
 11
48.95708000788695
 21
70.12728219146625
 31
0.0
  0
LINE
  5
1D5
330
6C
100
AcDbEntity
  8
Center Mark (ANSI)
  6
CHAIN
 48
0.1619282215833664
100
AcDbLine
 10
66.98938000788695
 20
74.06478219146625
 30
0.0
 11
66.98938000788695
 21
70.12728219146625
 31
0.0
  0
LINE
  5
1D6
330
6C
100
AcDbEntity
  8
Centerline (ANSI)
  6
CHAIN
 48
0.9524481296539306
100
AcDbLine
 10
46.98833000788694
 20
72.09603219146625
 30
0.0
 11
68.95813000788695
 21
72.09603219146625
 31
0.0
  0
LINE
  5
1D7
330
6C
100
AcDbEntity
  8
Center Mark (ANSI)
  6
CHAIN
 48
0.1619282215833664
100
AcDbLine
 10
48.95708000788695
 20
35.93978219146625
 30
0.0
 11
48.95708000788695
 21
32.00228219146625
 31
0.0
  0
LINE
  5
1D8
330
6C
100
AcDbEntity
  8
Center Mark (ANSI)
  6
CHAIN
 48
0.1619282215833664
100
AcDbLine
 10
66.98938000788695
 20
35.93978219146625
 30
0.0
 11
66.98938000788695
 21
32.00228219146625
 31
0.0
  0
LINE
  5
1D9
330
6C
100
AcDbEntity
  8
Centerline (ANSI)
  6
CHAIN
 48
0.9524481296539306
100
AcDbLine
 10
46.98833000788694
 20
33.97103219146625
 30
0.0
 11
68.95813000788695
 21
33.97103219146625
 31
0.0
  0
LINE
  5
1DA
330
6C
100
AcDbEntity
  8
Center Mark (ANSI)
  6
CHAIN
 48
0.1619282215833664
100
AcDbLine
 10
50.92583000788696
 20
72.09603219146625
 30
0.0
 11
46.98833000788694
 21
72.09603219146625
 31
0.0
  0
LINE
  5
1DB
330
6C
100
AcDbEntity
  8
Center Mark (ANSI)
  6
CHAIN
 48
0.1619282215833664
100
AcDbLine
 10
50.92583000788696
 20
33.97103219146625
 30
0.0
 11
46.98833000788694
 21
33.97103219146625
 31
0.0
  0
LINE
  5
1DC
330
6C
100
AcDbEntity
  8
Centerline (ANSI)
  6
CHAIN
 48
0.9524481296539306
100
AcDbLine
 10
48.95708000788695
 20
74.06478219146625
 30
0.0
 11
48.95708000788695
 21
32.00228219146625
 31
0.0
  0
LINE
  5
1DD
330
6C
100
AcDbEntity
  8
Center Mark (ANSI)
  6
CHAIN
 48
0.1619282215833664
100
AcDbLine
 10
68.95813000788695
 20
72.09603219146625
 30
0.0
 11
65.02063000788694
 21
72.09603219146625
 31
0.0
  0
LINE
  5
1DE
330
6C
100
AcDbEntity
  8
Center Mark (ANSI)
  6
CHAIN
 48
0.1619282215833664
100
AcDbLine
 10
68.95813000788695
 20
33.97103219146625
 30
0.0
 11
65.02063000788694
 21
33.97103219146625
 31
0.0
  0
LINE
  5
1DF
330
6C
100
AcDbEntity
  8
Centerline (ANSI)
  6
CHAIN
 48
0.9524481296539306
100
AcDbLine
 10
66.98938000788695
 20
74.06478219146625
 30
0.0
 11
66.98938000788695
 21
32.00228219146625
 31
0.0
  0
LINE
  5
1E0
330
6C
100
AcDbEntity
  8
Center Mark (ANSI)
  6
CHAIN
 48
0.1619282215833664
100
AcDbLine
 10
68.95813000788695
 20
110.2210321914662
 30
0.0
 11
65.02063000788694
 21
110.2210321914662
 31
0.0
  0
LINE
  5
1E1
330
6C
100
AcDbEntity
  8
Center Mark (ANSI)
  6
CHAIN
 48
0.1619282215833664
100
AcDbLine
 10
68.95813000788695
 20
72.09603219146625
 30
0.0
 11
65.02063000788694
 21
72.09603219146625
 31
0.0
  0
LINE
  5
1E2
330
6C
100
AcDbEntity
  8
Centerline (ANSI)
  6
CHAIN
 48
0.9524481296539306
100
AcDbLine
 10
66.98938000788695
 20
112.1897821914662
 30
0.0
 11
66.98938000788695
 21
70.12728219146625
 31
0.0
  0
DIMENSION
  5
1E3
330
6C
100
AcDbEntity
  8
Dimension (ANSI)
100
AcDbDimension
280
     0
  2
*D4
 10
26.65588720860343
 20
33.09603219146627
 30
0.0
 11
26.65588720860342
 21
72.09603219146625
 31
0.0
 70
   160
  1
<>
 42
77.99999999999997
 73
     0
 74
     0
 75
     0
  3
Default (ANSI)
100
AcDbAlignedDimension
 13
48.08208000788695
 23
111.0960321914662
 33
0.0
 14
48.08228000788698
 24
33.09603219146626
 34
0.0
 50
270.0
100
AcDbRotatedDimension
1001
ACAD
1000
DSTYLE
1002
{
1070
   289
1070
     1
1070
   271
1070
     2
1070
   272
1070
     2
1070
    48
1040
0.0
1070
    47
1040
0.0
1002
}
  0
DIMENSION
  5
2CF
330
6C
100
AcDbEntity
  8
Dimension (ANSI)
100
AcDbDimension
280
     0
  2
*D5
 10
42.80788136414514
 20
72.09603219146625
 30
0.0
 11
42.80788136414513
 21
53.03353219146625
 31
0.0
 70
   160
  1
<>
 42
38.12500000000001
 73
     0
 74
     0
 75
     0
  3
Default (ANSI)
100
AcDbAlignedDimension
 13
46.98833000788694
 23
33.97103219146625
 33
0.0
 14
46.98833000788694
 24
72.09603219146625
 34
0.0
 50
90.0
100
AcDbRotatedDimension
1001
ACAD
1000
DSTYLE
1002
{
1070
   289
1070
     1
1070
   271
1070
     2
1070
   272
1070
     2
1070
    48
1040
0.0
1070
    47
1040
0.0
1002
}
  0
DIMENSION
  5
3B9
330
6C
100
AcDbEntity
  8
Dimension (ANSI)
100
AcDbDimension
280
     0
  2
*D6
 10
46.63822539557012
 20
33.09603219146627
 30
0.0
 11
42.80788136414513
 21
29.29419278457266
 31
0.0
 70
   160
  1
<>
 71
     5
 42
0.8749999999999857
 73
     0
 74
     0
 75
     0
  3
Default (ANSI)
100
AcDbAlignedDimension
 13
46.98833000788694
 23
33.97103219146625
 33
0.0
 14
48.08228000788698
 24
33.09603219146626
 34
0.0
 50
90.0
100
AcDbRotatedDimension
1001
ACAD
1000
DSTYLE
1002
{
1070
   289
1070
     1
1070
   271
1070
     2
1070
   272
1070
     2
1070
    48
1040
0.0
1070
    47
1040
0.0
1002
}
  0
DIMENSION
  5
4B9
330
6C
100
AcDbEntity
  8
Dimension (ANSI)
100
AcDbDimension
280
     0
  2
*D7
 10
67.97333000788697
 20
119.0275402589932
 30
0.0
 11
57.97333000788698
 21
119.0275402589932
 31
0.0
 70
   160
  1
<>
 42
19.99999999999998
 73
     0
 74
     0
 75
     0
  3
Default (ANSI)
100
AcDbAlignedDimension
 13
47.97333000788699
 23
109.2210321914662
 33
0.0
 14
67.97333000788697
 24
109.2210321914662
 34
0.0
 50
180.0
100
AcDbRotatedDimension
1001
ACAD
1000
DSTYLE
1002
{
1070
   289
1070
     1
1070
    73
1070
     0
1070
    74
1070
     0
1070
   271
1070
     2
1070
   272
1070
     2
1070
    48
1040
0.0
1070
    47
1040
0.0
1002
}
  0
DIMENSION
  5
5A3
330
6C
100
AcDbEntity
  8
Dimension (ANSI)
100
AcDbDimension
280
     0
  2
*D8
 10
66.79050622567821
 20
33.77215840925757
 30
0.0
 11
78.19295884586562
 21
39.47849091736481
 31
0.0
 70
   163
  1
<>{\P(6 PL.)}
 71
     5
 42
0.5625000000000142
 73
     0
 74
     0
 75
     0
  3
Default (ANSI)
100
AcDbDiametricDimension
 15
67.1882537900957
 25
34.16990597367494
 35
0.0
 40
0.0
1001
ACAD
1000
DSTYLE
1002
{
1070
   144
1040
1.000000000000025
1070
   271
1070
     3
1070
   272
1070
     2
1070
    48
1040
0.0
1070
    47
1040
0.0
1002
}
1001
ACAD_DSTYLE_DIMRADIAL_EXTENSION
1070
   387
1070
     1
1070
   388
1040
0.0
1070
   390
1040
0.0
  0
DIMENSION
  5
65E
330
6C
100
AcDbEntity
  8
Dimension (ANSI)
100
AcDbDimension
280
     0
  2
*D9
 10
66.98938000788695
 20
114.8937341261563
 30
0.0
 11
57.6702349737604
 21
114.8937341261563
 31
0.0
 70
   160
  1
<>
 42
18.0323
 73
     0
 74
     0
 75
     0
  3
Default (ANSI)
100
AcDbAlignedDimension
 13
48.95708000788695
 23
112.1897821914662
 33
0.0
 14
66.98938000788695
 24
112.1897821914662
 34
0.0
 50
180.0
100
AcDbRotatedDimension
1001
ACAD
1000
DSTYLE
1002
{
1070
   289
1070
     1
1070
    73
1070
     0
1070
    74
1070
     0
1070
   271
1070
     2
1070
   272
1070
     2
1070
    48
1040
0.0
1070
    47
1040
0.0
1002
}
  0
DIMENSION
  5
748
330
6C
100
AcDbEntity
  8
Dimension (ANSI)
100
AcDbDimension
280
     0
  2
*D10
 10
48.95708000788695
 20
114.8937341261563
 30
0.0
 11
42.12768661354631
 21
114.8937341261563
 31
0.0
 70
   160
  1
<>
 42
0.9837499999999579
 73
     0
 74
     0
 75
     0
  3
Default (ANSI)
100
AcDbAlignedDimension
 13
47.97333000788699
 23
109.2210321914662
 33
0.0
 14
48.95708000788695
 24
112.1897821914662
 34
0.0
 50
180.0
100
AcDbRotatedDimension
1001
ACAD
1000
DSTYLE
1002
{
1070
   289
1070
     1
1070
    73
1070
     0
1070
    74
1070
     0
1070
   271
1070
     2
1070
   272
1070
     2
1070
    48
1040
0.0
1070
    47
1040
0.0
1002
}
  0
DIMENSION
  5
832
330
6C
100
AcDbEntity
  8
Dimension (ANSI)
100
AcDbDimension
280
     0
  2
*D11
 10
35.7272528907926
 20
33.97103219146625
 30
0.0
 11
35.7272528907926
 21
72.09603219146625
 31
0.0
 70
   160
  1
<>
 42
76.25
 73
     0
 74
     0
 75
     0
  3
Default (ANSI)
100
AcDbAlignedDimension
 13
46.98833000788694
 23
110.2210321914662
 33
0.0
 14
46.98833000788694
 24
33.97103219146625
 34
0.0
 50
90.0
100
AcDbRotatedDimension
1001
ACAD
1000
DSTYLE
1002
{
1070
   289
1070
     1
1070
   271
1070
     2
1070
   272
1070
     2
1070
    48
1040
0.0
1070
    47
1040
0.0
1002
}
  0
MTEXT
  5
91C
102
{ACAD_XDICTIONARY
360
B0B
102
}
330
6C
100
AcDbEntity
  8
Symbol (ANSI)
100
AcDbMText
 10
128.7102929427078
 20
14.06355362318414
 30
0.0
 40
1.350000043084302
 41
99.67572595190816
 46
0.0
 71
     4
 72
     1
  3
{\fRomanS|b0|i0|c0|p2;\H2x;PART#: WA90SMP20G\P(DATA SUBJECT TO CHANGE WITHOUT NOTICE)\H1.6157x; \H0.61894x;\P \H1.352x; \H0.73963x;\P\H0.6x;THIS DRAWING IS PROPERTY OF HUBBELL INC. WIEGMANN\H1.5633x; \H0.63966x;\PALL INFORMATION IS PROPRIETARY AND NO
  1
T TO BE DUPLICATED\H1.234x; \H0.81039x;\P\H1.2571x; }
  7
Note Text (ANSI)
 73
     1
 44
0.8026435375213623
  0
DIMENSION
  5
91E
330
6C
100
AcDbEntity
  8
Dimension (ANSI)
100
AcDbDimension
280
     0
  2
*D12
 10
114.5234281434518
 20
89.73100074641799
 30
0.0
 11
107.6777401648369
 21
89.73100074641799
 31
0.0
 70
   160
  1
<>{\PTYP.}
 71
     5
 42
0.8749999999999857
 73
     0
 74
     0
 75
     0
  3
Default (ANSI)
100
AcDbAlignedDimension
 13
113.6484281434519
 23
89.73100074641799
 33
0.0
 14
114.5234281434518
 24
89.73100074641799
 34
0.0
100
AcDbRotatedDimension
1001
ACAD
1000
DSTYLE
1002
{
1070
   289
1070
     1
1070
    73
1070
     0
1070
    74
1070
     0
1070
   271
1070
     2
1070
    76
1070
     1
1070
    75
1070
     1
1070
   272
1070
     2
1070
    48
1040
0.0
1070
    47
1040
0.0
1002
}
  0
DIMENSION
  5
A0D
330
6C
100
AcDbEntity
  8
Dimension (ANSI)
100
AcDbDimension
280
     0
  2
*D13
 10
113.6484281434519
 20
110.2200162710348
 30
0.0
 11
126.2900138590949
 21
110.2200162710348
 31
0.0
 70
   160
  1
{12 GA. GALV.\P}(<>)
 71
     5
 42
0.09375
 73
     0
 74
     0
 75
     0
  3
Default (ANSI)
100
AcDbAlignedDimension
 13
113.7421781434519
 23
110.2200162710348
 33
0.0
 14
113.6484281434519
 24
110.2200162710348
 34
0.0
 50
180.0
100
AcDbRotatedDimension
1001
ACAD
1000
DSTYLE
1002
{
1070
   289
1070
     1
1070
    73
1070
     0
1070
    74
1070
     0
1070
   271
1070
     3
1070
    76
1070
     1
1070
    75
1070
     1
1070
   147
1040
0.031496062992126
1070
    72
1070
     0
1070
    71
1070
     0
1070
   272
1070
     2
1070
    48
1040
0.0
1070
    47
1040
0.0
1002
}
  0
ENDSEC
  0
SECTION
  2
OBJECTS
  0
DICTIONARY
  5
C
330
0
100
AcDbDictionary
281
     1
  3
ACAD_CIP_PREVIOUS_PRODUCT_INFO
350
B06
  3
ACAD_COLOR
350
63
  3
ACAD_GROUP
350
D
  3
ACAD_LAYOUT
350
62
  3
ACAD_MATERIAL
350
10
  3
ACAD_MLEADERSTYLE
350
66
  3
ACAD_MLINESTYLE
350
5F
  3
ACAD_PLOTSETTINGS
350
61
  3
ACAD_PLOTSTYLENAME
350
E
  3
ACAD_SCALELIST
350
42
  3
ACAD_TABLESTYLE
350
64
  3
ACAD_VISUALSTYLE
350
29
  3
ACDB_RECOMPOSE_DATA
350
B0D
  3
AcDbVariableDictionary
350
76
  0
DICTIONARY
  5
B0B
330
91C
100
AcDbDictionary
280
     1
281
     1
  3
ACAD_MTEXT_2008_RT
360
B0C
  0
XRECORD
  5
B06
102
{ACAD_REACTORS
330
C
102
}
330
C
100
AcDbXrecord
280
     1
300
INVNTOR
300
2012
300
PDSP_F_S
  0
DICTIONARY
  5
63
102
{ACAD_REACTORS
330
C
102
}
330
C
100
AcDbDictionary
281
     1
  0
DICTIONARY
  5
D
102
{ACAD_REACTORS
330
C
102
}
330
C
100
AcDbDictionary
281
     1
  0
DICTIONARY
  5
62
102
{ACAD_REACTORS
330
C
102
}
330
C
100
AcDbDictionary
281
     1
  3
Layout1
350
6B
  3
Layout2
350
73
  3
Model
350
6F
  0
DICTIONARY
  5
10
102
{ACAD_REACTORS
330
C
102
}
330
C
100
AcDbDictionary
281
     1
  3
ByBlock
350
19
  3
ByLayer
350
11
  3
Global
350
21
  0
DICTIONARY
  5
66
102
{ACAD_REACTORS
330
C
102
}
330
C
100
AcDbDictionary
281
     1
  3
Standard
350
67
  0
DICTIONARY
  5
5F
102
{ACAD_REACTORS
330
C
102
}
330
C
100
AcDbDictionary
281
     1
  3
Standard
350
60
  0
DICTIONARY
  5
61
102
{ACAD_REACTORS
330
C
102
}
330
C
100
AcDbDictionary
281
     1
  0
ACDBDICTIONARYWDFLT
  5
E
102
{ACAD_REACTORS
330
C
102
}
330
C
100
AcDbDictionary
281
     1
  3
Normal
350
F
100
AcDbDictionaryWithDefault
340
F
  0
DICTIONARY
  5
42
102
{ACAD_REACTORS
330
C
102
}
330
C
100
AcDbDictionary
281
     1
  3
A0
350
43
  3
A1
350
44
  3
A2
350
45
  3
A3
350
46
  3
A4
350
47
  3
A5
350
48
  3
A6
350
49
  3
A7
350
4A
  3
A8
350
4B
  3
A9
350
4C
  3
B0
350
4D
  3
B1
350
4E
  3
B2
350
4F
  3
B3
350
50
  3
B4
350
51
  3
B5
350
52
  3
B6
350
53
  0
DICTIONARY
  5
64
102
{ACAD_REACTORS
330
C
102
}
330
C
100
AcDbDictionary
281
     1
  3
Standard
350
65
  0
DICTIONARY
  5
29
102
{ACAD_REACTORS
330
C
102
}
330
C
100
AcDbDictionary
281
     1
  3
2dWireframe
350
2F
  3
Basic
350
2E
  3
Brighten
350
35
  3
ColorChange
350
39
  3
Conceptual
350
32
  3
Dim
350
34
  3
EdgeColorOff
350
41
  3
Facepattern
350
38
  3
Flat
350
2A
  3
FlatWithEdges
350
2B
  3
Gouraud
350
2C
  3
GouraudWithEdges
350
2D
  3
Hidden
350
31
  3
JitterOff
350
3F
  3
Linepattern
350
37
  3
OverhangOff
350
40
  3
Realistic
350
33
  3
Shaded
350
3E
  3
Shaded with edges
350
3D
  3
Shades of Gray
350
3A
  3
Sketchy
350
3B
  3
Thicken
350
36
  3
Wireframe
350
30
  3
X-Ray
350
3C
  0
XRECORD
  5
B0D
102
{ACAD_REACTORS
330
C
102
}
330
C
100
AcDbXrecord
280
     1
 90
        1
330
65
330
91C
  0
DICTIONARY
  5
76
102
{ACAD_REACTORS
330
C
102
}
330
C
100
AcDbDictionary
281
     1
  3
CANNOSCALE
350
79
  3
CMLEADERSTYLE
350
78
  3
CTABLESTYLE
350
77
  0
XRECORD
  5
B0C
102
{ACAD_REACTORS
330
B0B
102
}
330
B0B
100
AcDbXrecord
280
     1
 40
3110532.0
  1
\pxsm0.94;{\fRomanS|b0|i0;\H2.7000;PART#: WA90SMP20G\P(DATA SUBJECT TO CHANGE WITHOUT NOTICE)\P \P\fRomanS|b0|i0;\H1.6200;THIS DRAWING IS PROPERTY OF HUBBELL INC. WIEGMANN\PALL INFORMATION IS PROPRIETARY AND NOT TO BE DUPLICATED\P}
  0
LAYOUT
  5
6B
102
{ACAD_REACTORS
330
62
102
}
330
62
100
AcDbPlotSettings
  1

  2

  4

  6

 40
0.0
 41
0.0
 42
0.0
 43
0.0
 44
0.0
 45
0.0
 46
0.0
 47
0.0
 48
0.0
 49
0.0
140
0.0
141
0.0
142
1.0
143
1.0
 70
   688
 72
     0
 73
     0
 74
     5
  7

 75
    16
147
1.0
 76
     0
 77
     2
 78
   300
148
0.0
149
0.0
100
AcDbLayout
  1
Layout1
 70
     1
 71
     1
 10
0.0
 20
0.0
 11
12.0
 21
9.0
 12
0.0
 22
0.0
 32
0.0
 14
0.0
 24
0.0
 34
0.0
 15
0.0
 25
0.0
 35
0.0
146
0.0
 13
0.0
 23
0.0
 33
0.0
 16
1.0
 26
0.0
 36
0.0
 17
0.0
 27
1.0
 37
0.0
 76
     0
330
68
  0
LAYOUT
  5
73
102
{ACAD_REACTORS
330
62
102
}
330
62
100
AcDbPlotSettings
  1

  2

  4

  6

 40
0.0
 41
0.0
 42
0.0
 43
0.0
 44
0.0
 45
0.0
 46
0.0
 47
0.0
 48
0.0
 49
0.0
140
0.0
141
0.0
142
1.0
143
1.0
 70
   688
 72
     0
 73
     0
 74
     5
  7

 75
    16
147
1.0
 76
     0
 77
     2
 78
   300
148
0.0
149
0.0
100
AcDbLayout
  1
Layout2
 70
     1
 71
     2
 10
0.0
 20
0.0
 11
12.0
 21
9.0
 12
0.0
 22
0.0
 32
0.0
 14
0.0
 24
0.0
 34
0.0
 15
0.0
 25
0.0
 35
0.0
146
0.0
 13
0.0
 23
0.0
 33
0.0
 16
1.0
 26
0.0
 36
0.0
 17
0.0
 27
1.0
 37
0.0
 76
     0
330
70
  0
LAYOUT
  5
6F
102
{ACAD_REACTORS
330
62
102
}
330
62
100
AcDbPlotSettings
  1

  2

  4

  6

 40
0.0
 41
0.0
 42
0.0
 43
0.0
 44
0.0
 45
0.0
 46
0.0
 47
0.0
 48
0.0
 49
0.0
140
0.0
141
0.0
142
1.0
143
1.0
 70
  1712
 72
     0
 73
     0
 74
     0
  7

 75
     0
147
1.0
 76
     0
 77
     2
 78
   300
148
0.0
149
0.0
100
AcDbLayout
  1
Model
 70
     1
 71
     0
 10
0.0
 20
0.0
 11
12.0
 21
9.0
 12
0.0
 22
0.0
 32
0.0
 14
0.0
 24
0.0
 34
0.0
 15
0.0
 25
0.0
 35
0.0
146
0.0
 13
0.0
 23
0.0
 33
0.0
 16
1.0
 26
0.0
 36
0.0
 17
0.0
 27
1.0
 37
0.0
 76
     0
330
6C
  0
MATERIAL
  5
19
102
{ACAD_XDICTIONARY
360
1A
102
}
102
{ACAD_REACTORS
330
10
102
}
330
10
100
AcDbMaterial
  1
ByBlock
 72
     0
 43
0.0208333333333333
 43
0.0
 43
0.0
 43
0.0
 43
0.0
 43
0.0208333333333333
 43
0.0
 43
0.0
 43
0.0
 43
0.0
 43
1.0
 43
0.0
 43
0.0
 43
0.0
 43
0.0
 43
1.0
 77
     0
 47
0.0208333333333333
 47
0.0
 47
0.0
 47
0.0
 47
0.0
 47
0.0208333333333333
 47
0.0
 47
0.0
 47
0.0
 47
0.0
 47
1.0
 47
0.0
 47
0.0
 47
0.0
 47
0.0
 47
1.0
171
     0
 49
0.0208333333333333
 49
0.0
 49
0.0
 49
0.0
 49
0.0
 49
0.0208333333333333
 49
0.0
 49
0.0
 49
0.0
 49
0.0
 49
1.0
 49
0.0
 49
0.0
 49
0.0
 49
0.0
 49
1.0
175
     0
142
0.0208333333333333
142
0.0
142
0.0
142
0.0
142
0.0
142
0.0208333333333333
142
0.0
142
0.0
142
0.0
142
0.0
142
1.0
142
0.0
142
0.0
142
0.0
142
0.0
142
1.0
179
     0
144
0.0208333333333333
144
0.0
144
0.0
144
0.0
144
0.0
144
0.0208333333333333
144
0.0
144
0.0
144
0.0
144
0.0
144
1.0
144
0.0
144
0.0
144
0.0
144
0.0
144
1.0
147
0.0208333333333333
147
0.0
147
0.0
147
0.0
147
0.0
147
0.0208333333333333
147
0.0
147
0.0
147
0.0
147
0.0
147
1.0
147
0.0
147
0.0
147
0.0
147
0.0
147
1.0
  0
MATERIAL
  5
11
102
{ACAD_XDICTIONARY
360
12
102
}
102
{ACAD_REACTORS
330
10
102
}
330
10
100
AcDbMaterial
  1
ByLayer
 72
     0
 43
0.0208333333333333
 43
0.0
 43
0.0
 43
0.0
 43
0.0
 43
0.0208333333333333
 43
0.0
 43
0.0
 43
0.0
 43
0.0
 43
1.0
 43
0.0
 43
0.0
 43
0.0
 43
0.0
 43
1.0
 77
     0
 47
0.0208333333333333
 47
0.0
 47
0.0
 47
0.0
 47
0.0
 47
0.0208333333333333
 47
0.0
 47
0.0
 47
0.0
 47
0.0
 47
1.0
 47
0.0
 47
0.0
 47
0.0
 47
0.0
 47
1.0
171
     0
 49
0.0208333333333333
 49
0.0
 49
0.0
 49
0.0
 49
0.0
 49
0.0208333333333333
 49
0.0
 49
0.0
 49
0.0
 49
0.0
 49
1.0
 49
0.0
 49
0.0
 49
0.0
 49
0.0
 49
1.0
175
     0
142
0.0208333333333333
142
0.0
142
0.0
142
0.0
142
0.0
142
0.0208333333333333
142
0.0
142
0.0
142
0.0
142
0.0
142
1.0
142
0.0
142
0.0
142
0.0
142
0.0
142
1.0
179
     0
144
0.0208333333333333
144
0.0
144
0.0
144
0.0
144
0.0
144
0.0208333333333333
144
0.0
144
0.0
144
0.0
144
0.0
144
1.0
144
0.0
144
0.0
144
0.0
144
0.0
144
1.0
147
0.0208333333333333
147
0.0
147
0.0
147
0.0
147
0.0
147
0.0208333333333333
147
0.0
147
0.0
147
0.0
147
0.0
147
1.0
147
0.0
147
0.0
147
0.0
147
0.0
147
1.0
  0
MATERIAL
  5
21
102
{ACAD_XDICTIONARY
360
22
102
}
102
{ACAD_REACTORS
330
10
102
}
330
10
100
AcDbMaterial
  1
Global
 72
     0
 43
0.0208333333333333
 43
0.0
 43
0.0
 43
0.0
 43
0.0
 43
0.0208333333333333
 43
0.0
 43
0.0
 43
0.0
 43
0.0
 43
1.0
 43
0.0
 43
0.0
 43
0.0
 43
0.0
 43
1.0
 77
     0
 47
0.0208333333333333
 47
0.0
 47
0.0
 47
0.0
 47
0.0
 47
0.0208333333333333
 47
0.0
 47
0.0
 47
0.0
 47
0.0
 47
1.0
 47
0.0
 47
0.0
 47
0.0
 47
0.0
 47
1.0
171
     0
 49
0.0208333333333333
 49
0.0
 49
0.0
 49
0.0
 49
0.0
 49
0.0208333333333333
 49
0.0
 49
0.0
 49
0.0
 49
0.0
 49
1.0
 49
0.0
 49
0.0
 49
0.0
 49
0.0
 49
1.0
175
     0
142
0.0208333333333333
142
0.0
142
0.0
142
0.0
142
0.0
142
0.0208333333333333
142
0.0
142
0.0
142
0.0
142
0.0
142
1.0
142
0.0
142
0.0
142
0.0
142
0.0
142
1.0
179
     0
144
0.0208333333333333
144
0.0
144
0.0
144
0.0
144
0.0
144
0.0208333333333333
144
0.0
144
0.0
144
0.0
144
0.0
144
1.0
144
0.0
144
0.0
144
0.0
144
0.0
144
1.0
147
0.0208333333333333
147
0.0
147
0.0
147
0.0
147
0.0
147
0.0208333333333333
147
0.0
147
0.0
147
0.0
147
0.0
147
1.0
147
0.0
147
0.0
147
0.0
147
0.0
147
1.0
  0
MLEADERSTYLE
  5
67
102
{ACAD_XDICTIONARY
360
B09
102
}
102
{ACAD_REACTORS
330
66
102
}
330
66
100
AcDbMLeaderStyle
179
     2
170
     2
171
     1
172
     0
 90
        2
 40
0.0
 41
0.0
173
     1
 91
-1056964608
340
5B
 92
       -2
290
     1
 42
0.09
291
     1
 43
0.36
  3
Standard
 44
0.18
300

342
55
174
     1
178
     6
175
     1
176
     0
 93
-1056964608
 45
0.18
292
     0
297
     0
 46
0.18
 94
-1056964608
 47
1.0
 49
1.0
140
1.0
293
     1
141
0.0
294
     1
177
     0
142
1.0
295
     0
296
     0
143
0.125
271
     0
272
     9
273
     9
  0
MLINESTYLE
  5
60
102
{ACAD_REACTORS
330
5F
102
}
330
5F
100
AcDbMlineStyle
  2
STANDARD
 70
     0
  3

 62
   256
 51
90.0
 52
90.0
 71
     2
 49
0.5
 62
   256
  6
BYLAYER
 49
-0.5
 62
   256
  6
BYLAYER
  0
ACDBPLACEHOLDER
  5
F
102
{ACAD_REACTORS
330
E
102
}
330
E
  0
SCALE
  5
43
102
{ACAD_REACTORS
330
42
102
}
330
42
100
AcDbScale
 70
     0
300
1:1
140
1.0
141
1.0
290
     1
  0
SCALE
  5
44
102
{ACAD_REACTORS
330
42
102
}
330
42
100
AcDbScale
 70
     0
300
1/128" = 1'-0"
140
0.0078125
141
12.0
290
     0
  0
SCALE
  5
45
102
{ACAD_REACTORS
330
42
102
}
330
42
100
AcDbScale
 70
     0
300
1/64" = 1'-0"
140
0.015625
141
12.0
290
     0
  0
SCALE
  5
46
102
{ACAD_REACTORS
330
42
102
}
330
42
100
AcDbScale
 70
     0
300
1/32" = 1'-0"
140
0.03125
141
12.0
290
     0
  0
SCALE
  5
47
102
{ACAD_REACTORS
330
42
102
}
330
42
100
AcDbScale
 70
     0
300
1/16" = 1'-0"
140
0.0625
141
12.0
290
     0
  0
SCALE
  5
48
102
{ACAD_REACTORS
330
42
102
}
330
42
100
AcDbScale
 70
     0
300
3/32" = 1'-0"
140
0.09375
141
12.0
290
     0
  0
SCALE
  5
49
102
{ACAD_REACTORS
330
42
102
}
330
42
100
AcDbScale
 70
     0
300
1/8" = 1'-0"
140
0.125
141
12.0
290
     0
  0
SCALE
  5
4A
102
{ACAD_REACTORS
330
42
102
}
330
42
100
AcDbScale
 70
     0
300
3/16" = 1'-0"
140
0.1875
141
12.0
290
     0
  0
SCALE
  5
4B
102
{ACAD_REACTORS
330
42
102
}
330
42
100
AcDbScale
 70
     0
300
1/4" = 1'-0"
140
0.25
141
12.0
290
     0
  0
SCALE
  5
4C
102
{ACAD_REACTORS
330
42
102
}
330
42
100
AcDbScale
 70
     0
300
3/8" = 1'-0"
140
0.375
141
12.0
290
     0
  0
SCALE
  5
4D
102
{ACAD_REACTORS
330
42
102
}
330
42
100
AcDbScale
 70
     0
300
1/2" = 1'-0"
140
0.5
141
12.0
290
     0
  0
SCALE
  5
4E
102
{ACAD_REACTORS
330
42
102
}
330
42
100
AcDbScale
 70
     0
300
3/4" = 1'-0"
140
0.75
141
12.0
290
     0
  0
SCALE
  5
4F
102
{ACAD_REACTORS
330
42
102
}
330
42
100
AcDbScale
 70
     0
300
1" = 1'-0"
140
1.0
141
12.0
290
     0
  0
SCALE
  5
50
102
{ACAD_REACTORS
330
42
102
}
330
42
100
AcDbScale
 70
     0
300
1-1/2" = 1'-0"
140
1.5
141
12.0
290
     0
  0
SCALE
  5
51
102
{ACAD_REACTORS
330
42
102
}
330
42
100
AcDbScale
 70
     0
300
3" = 1'-0"
140
3.0
141
12.0
290
     0
  0
SCALE
  5
52
102
{ACAD_REACTORS
330
42
102
}
330
42
100
AcDbScale
 70
     0
300
6" = 1'-0"
140
6.0
141
12.0
290
     0
  0
SCALE
  5
53
102
{ACAD_REACTORS
330
42
102
}
330
42
100
AcDbScale
 70
     0
300
1'-0" = 1'-0"
140
12.0
141
12.0
290
     0
  0
TABLESTYLE
  5
65
102
{ACAD_XDICTIONARY
360
B07
102
}
102
{ACAD_REACTORS
330
64
102
}
330
64
100
AcDbTableStyle
280
     0
  3
Standard
 70
     0
 71
     0
 40
0.06
 41
0.06
280
     0
281
     0
  7
Standard
140
0.18
170
     2
 62
     0
 63
     7
283
     0
 90
      512
 91
        0
  1

274
    -2
284
     1
 64
     0
275
    -2
285
     1
 65
     0
276
    -2
286
     1
 66
     0
277
    -2
287
     1
 67
     0
278
    -2
288
     1
 68
     0
279
    -2
289
     1
 69
     0
  7
Standard
140
0.25
170
     5
 62
     0
 63
     7
283
     0
 90
      512
 91
        0
  1

274
    -2
284
     1
 64
     0
275
    -2
285
     1
 65
     0
276
    -2
286
     1
 66
     0
277
    -2
287
     1
 67
     0
278
    -2
288
     1
 68
     0
279
    -2
289
     1
 69
     0
  7
Standard
140
0.18
170
     5
 62
     0
 63
     7
283
     0
 90
      512
 91
        0
  1

274
    -2
284
     1
 64
     0
275
    -2
285
     1
 65
     0
276
    -2
286
     1
 66
     0
277
    -2
287
     1
 67
     0
278
    -2
288
     1
 68
     0
279
    -2
289
     1
 69
     0
  0
VISUALSTYLE
  5
2F
102
{ACAD_REACTORS
330
29
102
}
330
29
100
AcDbVisualStyle
  2
2dWireframe
 70
     4
177
     2
291
     0
 71
     0
176
     1
 72
     2
176
     1
 73
     0
176
     1
 90
        0
176
     1
 40
0.6
176
     1
 41
30.0
176
     1
 63
     7
421
 16777215
176
     1
 74
     1
176
     1
 91
        4
176
     1
 64
     7
176
     1
 65
   257
176
     1
 75
     1
176
     1
175
     1
176
     1
 42
1.0
176
     1
 92
        0
176
     1
 66
   257
176
     1
 43
1.0
176
     1
 76
     1
176
     1
 77
     6
176
     1
 78
     2
176
     1
 67
     7
176
     1
 79
     5
176
     1
170
     0
176
     1
171
     0
176
     1
290
     0
176
     1
 93
        1
176
     1
 44
0.0
176
     1
173
     0
176
     1
  0
VISUALSTYLE
  5
2E
102
{ACAD_REACTORS
330
29
102
}
330
29
100
AcDbVisualStyle
  2
Basic
 70
     7
177
     2
291
     1
 71
     1
176
     1
 72
     0
176
     1
 73
     1
176
     1
 90
        0
176
     1
 40
0.6
176
     1
 41
30.0
176
     1
 63
     7
421
 16777215
176
     1
 74
     0
176
     1
 91
        4
176
     1
 64
     7
176
     1
 65
   257
176
     1
 75
     1
176
     1
175
     1
176
     1
 42
1.0
176
     1
 92
        8
176
     1
 66
     7
176
     1
 43
1.0
176
     1
 76
     1
176
     1
 77
     6
176
     1
 78
     2
176
     1
 67
     7
176
     1
 79
     5
176
     1
170
     0
176
     1
171
     0
176
     1
290
     0
176
     1
 93
        1
176
     1
 44
0.0
176
     1
173
     0
176
     1
  0
VISUALSTYLE
  5
35
102
{ACAD_REACTORS
330
29
102
}
330
29
100
AcDbVisualStyle
  2
Brighten
 70
    12
177
     2
291
     1
 71
     2
176
     1
 72
     2
176
     1
 73
     0
176
     1
 90
        0
176
     1
 40
0.6
176
     1
 41
30.0
176
     1
 63
     7
421
 16777215
176
     1
 74
     1
176
     1
 91
        4
176
     1
 64
     7
176
     1
 65
   257
176
     1
 75
     1
176
     1
175
     1
176
     1
 42
1.0
176
     1
 92
        8
176
     1
 66
     7
176
     1
 43
1.0
176
     1
 76
     1
176
     1
 77
     6
176
     1
 78
     2
176
     1
 67
     7
176
     1
 79
     5
176
     1
170
     0
176
     1
171
     0
176
     1
290
     0
176
     1
 93
        1
176
     1
 44
50.0
176
     1
173
     0
176
     1
  0
VISUALSTYLE
  5
39
102
{ACAD_REACTORS
330
29
102
}
330
29
100
AcDbVisualStyle
  2
ColorChange
 70
    16
177
     2
291
     1
 71
     2
176
     1
 72
     2
176
     1
 73
     3
176
     1
 90
        0
176
     1
 40
0.6
176
     1
 41
30.0
176
     1
 63
     8
421
  8421504
176
     1
 74
     1
176
     1
 91
        4
176
     1
 64
     7
176
     1
 65
   257
176
     1
 75
     1
176
     1
175
     1
176
     1
 42
1.0
176
     1
 92
        8
176
     1
 66
     8
424
  8421504
176
     1
 43
1.0
176
     1
 76
     1
176
     1
 77
     6
176
     1
 78
     2
176
     1
 67
     7
176
     1
 79
     5
176
     1
170
     0
176
     1
171
     0
176
     1
290
     0
176
     1
 93
        1
176
     1
 44
0.0
176
     1
173
     0
176
     1
  0
VISUALSTYLE
  5
32
102
{ACAD_REACTORS
330
29
102
}
330
29
100
AcDbVisualStyle
  2
Conceptual
 70
     9
177
     2
291
     0
 71
     3
176
     1
 72
     2
176
     1
 73
     0
176
     1
 90
        0
176
     1
 40
0.6
176
     1
 41
30.0
176
     1
 63
     7
421
 16777215
176
     1
 74
     2
176
     1
 91
        2
176
     1
 64
     7
176
     1
 65
   257
176
     1
 75
     1
176
     1
175
     1
176
     1
 42
179.0
176
     1
 92
        8
176
     1
 66
     7
176
     1
 43
1.0
176
     1
 76
     1
176
     1
 77
     6
176
     1
 78
     2
176
     1
 67
     7
176
     1
 79
     3
176
     1
170
     0
176
     1
171
     0
176
     1
290
     0
176
     1
 93
        1
176
     1
 44
0.0
176
     1
173
     0
176
     1
  0
VISUALSTYLE
  5
34
102
{ACAD_REACTORS
330
29
102
}
330
29
100
AcDbVisualStyle
  2
Dim
 70
    11
177
     2
291
     1
 71
     2
176
     1
 72
     2
176
     1
 73
     0
176
     1
 90
        0
176
     1
 40
0.6
176
     1
 41
30.0
176
     1
 63
     7
421
 16777215
176
     1
 74
     1
176
     1
 91
        4
176
     1
 64
     7
176
     1
 65
   257
176
     1
 75
     1
176
     1
175
     1
176
     1
 42
1.0
176
     1
 92
        8
176
     1
 66
     7
176
     1
 43
1.0
176
     1
 76
     1
176
     1
 77
     6
176
     1
 78
     2
176
     1
 67
     7
176
     1
 79
     5
176
     1
170
     0
176
     1
171
     0
176
     1
290
     0
176
     1
 93
        1
176
     1
 44
-50.0
176
     1
173
     0
176
     1
  0
VISUALSTYLE
  5
41
102
{ACAD_REACTORS
330
29
102
}
330
29
100
AcDbVisualStyle
  2
EdgeColorOff
 70
    22
177
     2
291
     1
 71
     2
176
     0
 72
     2
176
     0
 73
     0
176
     0
 90
        0
176
     0
 40
0.6
176
     0
 41
30.0
176
     0
 63
     7
421
 16777215
176
     0
 74
     1
176
     0
 91
        4
176
     0
 64
     7
176
     0
 65
   257
176
     0
 75
     1
176
     0
175
     1
176
     0
 42
1.0
176
     0
 92
        8
176
     2
 66
     7
176
     0
 43
1.0
176
     0
 76
     1
176
     0
 77
     6
176
     0
 78
     2
176
     0
 67
     7
176
     0
 79
     5
176
     0
170
     0
176
     0
171
     0
176
     0
290
     0
176
     0
 93
        1
176
     0
 44
0.0
176
     0
173
     0
176
     0
  0
VISUALSTYLE
  5
38
102
{ACAD_REACTORS
330
29
102
}
330
29
100
AcDbVisualStyle
  2
Facepattern
 70
    15
177
     2
291
     1
 71
     2
176
     1
 72
     2
176
     1
 73
     0
176
     1
 90
        0
176
     1
 40
0.6
176
     1
 41
30.0
176
     1
 63
     7
421
 16777215
176
     1
 74
     1
176
     1
 91
        4
176
     1
 64
     7
176
     1
 65
   257
176
     1
 75
     1
176
     1
175
     1
176
     1
 42
1.0
176
     1
 92
        8
176
     1
 66
     7
176
     1
 43
1.0
176
     1
 76
     1
176
     1
 77
     6
176
     1
 78
     2
176
     1
 67
     7
176
     1
 79
     5
176
     1
170
     0
176
     1
171
     0
176
     1
290
     0
176
     1
 93
        1
176
     1
 44
0.0
176
     1
173
     0
176
     1
  0
VISUALSTYLE
  5
2A
102
{ACAD_REACTORS
330
29
102
}
330
29
100
AcDbVisualStyle
  2
Flat
 70
     0
177
     2
291
     1
 71
     2
176
     1
 72
     1
176
     1
 73
     1
176
     1
 90
        2
176
     1
 40
0.6
176
     1
 41
30.0
176
     1
 63
     7
421
 16777215
176
     1
 74
     0
176
     1
 91
        0
176
     1
 64
     7
176
     1
 65
   257
176
     1
 75
     1
176
     1
175
     1
176
     1
 42
1.0
176
     1
 92
        8
176
     1
 66
     7
176
     1
 43
1.0
176
     1
 76
     1
176
     1
 77
     6
176
     1
 78
     2
176
     1
 67
     7
176
     1
 79
     5
176
     1
170
     0
176
     1
171
     0
176
     1
290
     0
176
     1
 93
       13
176
     1
 44
0.0
176
     1
173
     0
176
     1
  0
VISUALSTYLE
  5
2B
102
{ACAD_REACTORS
330
29
102
}
330
29
100
AcDbVisualStyle
  2
FlatWithEdges
 70
     1
177
     2
291
     1
 71
     2
176
     1
 72
     1
176
     1
 73
     1
176
     1
 90
        2
176
     1
 40
0.6
176
     1
 41
30.0
176
     1
 63
     7
421
 16777215
176
     1
 74
     1
176
     1
 91
        0
176
     1
 64
     7
176
     1
 65
   257
176
     1
 75
     1
176
     1
175
     1
176
     1
 42
1.0
176
     1
 92
        0
176
     1
 66
   257
176
     1
 43
1.0
176
     1
 76
     1
176
     1
 77
     6
176
     1
 78
     2
176
     1
 67
     7
176
     1
 79
     5
176
     1
170
     0
176
     1
171
     0
176
     1
290
     0
176
     1
 93
       13
176
     1
 44
0.0
176
     1
173
     0
176
     1
  0
VISUALSTYLE
  5
2C
102
{ACAD_REACTORS
330
29
102
}
330
29
100
AcDbVisualStyle
  2
Gouraud
 70
     2
177
     2
291
     1
 71
     2
176
     1
 72
     2
176
     1
 73
     1
176
     1
 90
        2
176
     1
 40
0.6
176
     1
 41
30.0
176
     1
 63
     7
421
 16777215
176
     1
 74
     0
176
     1
 91
        0
176
     1
 64
     7
176
     1
 65
   257
176
     1
 75
     1
176
     1
175
     1
176
     1
 42
1.0
176
     1
 92
        0
176
     1
 66
     7
176
     1
 43
1.0
176
     1
 76
     1
176
     1
 77
     6
176
     1
 78
     2
176
     1
 67
     7
176
     1
 79
     5
176
     1
170
     0
176
     1
171
     0
176
     1
290
     0
176
     1
 93
       13
176
     1
 44
0.0
176
     1
173
     0
176
     1
  0
VISUALSTYLE
  5
2D
102
{ACAD_REACTORS
330
29
102
}
330
29
100
AcDbVisualStyle
  2
GouraudWithEdges
 70
     3
177
     2
291
     1
 71
     2
176
     1
 72
     2
176
     1
 73
     1
176
     1
 90
        2
176
     1
 40
0.6
176
     1
 41
30.0
176
     1
 63
     7
421
 16777215
176
     1
 74
     1
176
     1
 91
        0
176
     1
 64
     7
176
     1
 65
   257
176
     1
 75
     1
176
     1
175
     1
176
     1
 42
1.0
176
     1
 92
        0
176
     1
 66
   257
176
     1
 43
1.0
176
     1
 76
     1
176
     1
 77
     6
176
     1
 78
     2
176
     1
 67
     7
176
     1
 79
     5
176
     1
170
     0
176
     1
171
     0
176
     1
290
     0
176
     1
 93
       13
176
     1
 44
0.0
176
     1
173
     0
176
     1
  0
VISUALSTYLE
  5
31
102
{ACAD_REACTORS
330
29
102
}
330
29
100
AcDbVisualStyle
  2
Hidden
 70
     6
177
     2
291
     0
 71
     1
176
     1
 72
     2
176
     1
 73
     2
176
     1
 90
        0
176
     1
 40
0.6
176
     1
 41
30.0
176
     1
 63
     7
421
 16777215
176
     1
 74
     2
176
     1
 91
        2
176
     1
 64
     7
176
     1
 65
   257
176
     1
 75
     2
176
     1
175
     1
176
     1
 42
40.0
176
     1
 92
        0
176
     1
 66
   257
176
     1
 43
1.0
176
     1
 76
     1
176
     1
 77
     6
176
     1
 78
     2
176
     1
 67
     7
176
     1
 79
     3
176
     1
170
     0
176
     1
171
     0
176
     1
290
     0
176
     1
 93
        1
176
     1
 44
0.0
176
     1
173
     0
176
     1
  0
VISUALSTYLE
  5
3F
102
{ACAD_REACTORS
330
29
102
}
330
29
100
AcDbVisualStyle
  2
JitterOff
 70
    20
177
     2
291
     1
 71
     2
176
     0
 72
     2
176
     0
 73
     0
176
     0
 90
        0
176
     0
 40
0.6
176
     0
 41
30.0
176
     0
 63
     7
421
 16777215
176
     0
 74
     1
176
     0
 91
        4
176
     0
 64
     7
176
     0
 65
   257
176
     0
 75
     1
176
     0
175
     1
176
     0
 42
1.0
176
     0
 92
       10
176
     2
 66
     7
176
     0
 43
1.0
176
     0
 76
     1
176
     0
 77
     6
176
     0
 78
     2
176
     0
 67
     7
176
     0
 79
     5
176
     0
170
     0
176
     0
171
     0
176
     0
290
     0
176
     0
 93
        1
176
     0
 44
0.0
176
     0
173
     0
176
     0
  0
VISUALSTYLE
  5
37
102
{ACAD_REACTORS
330
29
102
}
330
29
100
AcDbVisualStyle
  2
Linepattern
 70
    14
177
     2
291
     1
 71
     2
176
     1
 72
     2
176
     1
 73
     0
176
     1
 90
        0
176
     1
 40
0.6
176
     1
 41
30.0
176
     1
 63
     7
421
 16777215
176
     1
 74
     1
176
     1
 91
        4
176
     1
 64
     7
176
     1
 65
   257
176
     1
 75
     7
176
     1
175
     7
176
     1
 42
1.0
176
     1
 92
        8
176
     1
 66
     7
176
     1
 43
1.0
176
     1
 76
     1
176
     1
 77
     6
176
     1
 78
     2
176
     1
 67
     7
176
     1
 79
     5
176
     1
170
     0
176
     1
171
     0
176
     1
290
     0
176
     1
 93
        1
176
     1
 44
0.0
176
     1
173
     0
176
     1
  0
VISUALSTYLE
  5
40
102
{ACAD_REACTORS
330
29
102
}
330
29
100
AcDbVisualStyle
  2
OverhangOff
 70
    21
177
     2
291
     1
 71
     2
176
     0
 72
     2
176
     0
 73
     0
176
     0
 90
        0
176
     0
 40
0.6
176
     0
 41
30.0
176
     0
 63
     7
421
 16777215
176
     0
 74
     1
176
     0
 91
        4
176
     0
 64
     7
176
     0
 65
   257
176
     0
 75
     1
176
     0
175
     1
176
     0
 42
1.0
176
     0
 92
        9
176
     2
 66
     7
176
     0
 43
1.0
176
     0
 76
     1
176
     0
 77
     6
176
     0
 78
     2
176
     0
 67
     7
176
     0
 79
     5
176
     0
170
     0
176
     0
171
     0
176
     0
290
     0
176
     0
 93
        1
176
     0
 44
0.0
176
     0
173
     0
176
     0
  0
VISUALSTYLE
  5
33
102
{ACAD_REACTORS
330
29
102
}
330
29
100
AcDbVisualStyle
  2
Realistic
 70
     8
177
     2
291
     0
 71
     2
176
     1
 72
     3
176
     1
 73
     0
176
     1
 90
        2
176
     1
 40
0.6
176
     1
 41
30.0
176
     1
 63
     7
421
 16777215
176
     1
 74
     0
176
     1
 91
        0
176
     1
 64
     7
176
     1
 65
   257
176
     1
 75
     1
176
     1
175
     1
176
     1
 42
1.0
176
     1
 92
        8
176
     1
 66
   257
176
     1
 43
1.0
176
     1
 76
     1
176
     1
 77
     6
176
     1
 78
     2
176
     1
 67
     7
176
     1
 79
     3
176
     1
170
     0
176
     1
171
     0
176
     1
290
     0
176
     1
 93
       13
176
     1
 44
0.0
176
     1
173
     0
176
     1
  0
VISUALSTYLE
  5
3E
102
{ACAD_REACTORS
330
29
102
}
330
29
100
AcDbVisualStyle
  2
Shaded
 70
    27
177
     2
291
     0
 71
     2
176
     1
 72
     2
176
     1
 73
     1
176
     1
 90
        2
176
     1
 40
0.6
176
     1
 41
30.0
176
     1
 63
     7
421
 16777215
176
     1
 74
     0
176
     1
 91
        4
176
     1
 64
     7
176
     1
 65
   257
176
     1
 75
     1
176
     1
175
     1
176
     1
 42
1.0
176
     1
 92
        8
176
     1
 66
   257
176
     1
 43
1.0
176
     1
 76
     1
176
     1
 77
     6
176
     1
 78
     2
176
     1
 67
     8
425
  7895160
176
     1
 79
     3
176
     1
170
     0
176
     1
171
     0
176
     1
290
     0
176
     1
 93
        5
176
     1
 44
0.0
176
     1
173
     0
176
     1
  0
VISUALSTYLE
  5
3D
102
{ACAD_REACTORS
330
29
102
}
330
29
100
AcDbVisualStyle
  2
Shaded with edges
 70
    26
177
     2
291
     0
 71
     2
176
     1
 72
     2
176
     1
 73
     1
176
     1
 90
        2
176
     1
 40
0.6
176
     1
 41
30.0
176
     1
 63
     7
421
 16777215
176
     1
 74
     1
176
     1
 91
       10
176
     1
 64
     7
176
     1
 65
   257
176
     1
 75
     2
176
     1
175
     1
176
     1
 42
1.0
176
     1
 92
        8
176
     1
 66
   257
176
     1
 43
1.0
176
     1
 76
     1
176
     1
 77
     6
176
     1
 78
     2
176
     1
 67
     7
176
     1
 79
     3
176
     1
170
     0
176
     1
171
     0
176
     1
290
     0
176
     1
 93
        5
176
     1
 44
0.0
176
     1
173
     0
176
     1
  0
VISUALSTYLE
  5
3A
102
{ACAD_REACTORS
330
29
102
}
330
29
100
AcDbVisualStyle
  2
Shades of Gray
 70
    23
177
     2
291
     0
 71
     2
176
     1
 72
     2
176
     1
 73
     3
176
     1
 90
        0
176
     1
 40
0.6
176
     1
 41
30.0
176
     1
 63
     7
421
 16777215
176
     1
 74
     2
176
     1
 91
        2
176
     1
 64
     7
176
     1
 65
     7
176
     1
 75
     1
176
     1
175
     1
176
     1
 42
40.0
176
     1
 92
        8
176
     1
 66
     7
176
     1
 43
1.0
176
     1
 76
     1
176
     1
 77
     6
176
     1
 78
     2
176
     1
 67
     7
176
     1
 79
     3
176
     1
170
     0
176
     1
171
     0
176
     1
290
     0
176
     1
 93
        1
176
     1
 44
0.0
176
     1
173
     0
176
     1
  0
VISUALSTYLE
  5
3B
102
{ACAD_REACTORS
330
29
102
}
330
29
100
AcDbVisualStyle
  2
Sketchy
 70
    24
177
     2
291
     0
 71
     1
176
     1
 72
     2
176
     1
 73
     2
176
     1
 90
        0
176
     1
 40
0.6
176
     1
 41
30.0
176
     1
 63
     7
421
 16777215
176
     1
 74
     2
176
     1
 91
        2
176
     1
 64
     7
176
     1
 65
     7
176
     1
 75
     1
176
     1
175
     1
176
     1
 42
40.0
176
     1
 92
       11
176
     1
 66
     7
176
     1
 43
1.0
176
     1
 76
     1
176
     1
 77
     6
176
     1
 78
     2
176
     1
 67
     7
176
     1
 79
     6
176
     1
170
     0
176
     1
171
     0
176
     1
290
     0
176
     1
 93
        1
176
     1
 44
0.0
176
     1
173
     0
176
     1
  0
VISUALSTYLE
  5
36
102
{ACAD_REACTORS
330
29
102
}
330
29
100
AcDbVisualStyle
  2
Thicken
 70
    13
177
     2
291
     1
 71
     2
176
     1
 72
     2
176
     1
 73
     0
176
     1
 90
        0
176
     1
 40
0.6
176
     1
 41
30.0
176
     1
 63
     7
421
 16777215
176
     1
 74
     1
176
     1
 91
        4
176
     1
 64
     7
176
     1
 65
   257
176
     1
 75
     1
176
     1
175
     1
176
     1
 42
1.0
176
     1
 92
       12
176
     1
 66
     7
176
     1
 43
1.0
176
     1
 76
     1
176
     1
 77
     6
176
     1
 78
     2
176
     1
 67
     7
176
     1
 79
     5
176
     1
170
     0
176
     1
171
     0
176
     1
290
     0
176
     1
 93
        1
176
     1
 44
0.0
176
     1
173
     0
176
     1
  0
VISUALSTYLE
  5
30
102
{ACAD_REACTORS
330
29
102
}
330
29
100
AcDbVisualStyle
  2
Wireframe
 70
     5
177
     2
291
     0
 71
     0
176
     1
 72
     2
176
     1
 73
     0
176
     1
 90
        0
176
     1
 40
0.6
176
     1
 41
30.0
176
     1
 63
     7
421
 16777215
176
     1
 74
     1
176
     1
 91
        4
176
     1
 64
     7
176
     1
 65
   257
176
     1
 75
     1
176
     1
175
     1
176
     1
 42
1.0
176
     1
 92
        0
176
     1
 66
   257
176
     1
 43
1.0
176
     1
 76
     1
176
     1
 77
     6
176
     1
 78
     2
176
     1
 67
     7
176
     1
 79
     3
176
     1
170
     0
176
     1
171
     0
176
     1
290
     0
176
     1
 93
        1
176
     1
 44
0.0
176
     1
173
     0
176
     1
  0
VISUALSTYLE
  5
3C
102
{ACAD_REACTORS
330
29
102
}
330
29
100
AcDbVisualStyle
  2
X-Ray
 70
    25
177
     2
291
     0
 71
     2
176
     1
 72
     2
176
     1
 73
     1
176
     1
 90
        1
176
     1
 40
0.5
176
     1
 41
30.0
176
     1
 63
     7
421
 16777215
176
     1
 74
     1
176
     1
 91
        0
176
     1
 64
     7
176
     1
 65
   257
176
     1
 75
     1
176
     1
175
     1
176
     1
 42
1.0
176
     1
 92
        8
176
     1
 66
     7
176
     1
 43
1.0
176
     1
 76
     1
176
     1
 77
     6
176
     1
 78
     2
176
     1
 67
     7
176
     1
 79
     3
176
     1
170
     0
176
     1
171
     0
176
     1
290
     0
176
     1
 93
       13
176
     1
 44
0.0
176
     1
173
     0
176
     1
  0
DICTIONARYVAR
  5
79
102
{ACAD_REACTORS
330
76
102
}
330
76
100
DictionaryVariables
280
     0
  1
1:1
  0
DICTIONARYVAR
  5
78
102
{ACAD_REACTORS
330
76
102
}
330
76
100
DictionaryVariables
280
     0
  1
STANDARD
  0
DICTIONARYVAR
  5
77
102
{ACAD_REACTORS
330
76
102
}
330
76
100
DictionaryVariables
280
     0
  1
STANDARD
  0
DICTIONARY
  5
1A
330
19
100
AcDbDictionary
280
     1
281
     1
  3
BUMPTILE
360
1C
  3
DIFFUSETILE
360
1B
  3
OPACITYTILE
360
1F
  3
REFLECTIONTILE
360
1E
  3
REFRACTIONTILE
360
20
  3
SPECULARTILE
360
1D
  0
DICTIONARY
  5
12
330
11
100
AcDbDictionary
280
     1
281
     1
  3
BUMPTILE
360
14
  3
DIFFUSETILE
360
13
  3
FBXASSET
360
109
  3
OPACITYTILE
360
17
  3
REFLECTIONTILE
360
16
  3
REFRACTIONTILE
360
18
  3
SPECULARTILE
360
15
  0
DICTIONARY
  5
22
330
21
100
AcDbDictionary
280
     1
281
     1
  3
BUMPTILE
360
24
  3
DIFFUSETILE
360
23
  3
FBXASSET
360
BA
  3
OPACITYTILE
360
27
  3
REFLECTIONTILE
360
26
  3
REFRACTIONTILE
360
28
  3
SPECULARTILE
360
25
  0
DICTIONARY
  5
B09
330
67
100
AcDbDictionary
280
     1
281
     1
  3
ACAD_XREC_ROUNDTRIP
360
B0A
  0
DICTIONARY
  5
B07
330
65
100
AcDbDictionary
280
     1
281
     1
  3
ACAD_ROUNDTRIP_2008_TABLESTYLE_CELLSTYLEMAP
360
B08
  0
XRECORD
  5
1C
102
{ACAD_REACTORS
330
1A
102
}
330
1A
100
AcDbXrecord
280
     1
270
     1
271
     1
  0
XRECORD
  5
1B
102
{ACAD_REACTORS
330
1A
102
}
330
1A
100
AcDbXrecord
280
     1
270
     1
271
     1
  0
XRECORD
  5
1F
102
{ACAD_REACTORS
330
1A
102
}
330
1A
100
AcDbXrecord
280
     1
270
     1
271
     1
  0
XRECORD
  5
1E
102
{ACAD_REACTORS
330
1A
102
}
330
1A
100
AcDbXrecord
280
     1
270
     1
271
     1
  0
XRECORD
  5
20
102
{ACAD_REACTORS
330
1A
102
}
330
1A
100
AcDbXrecord
280
     1
270
     1
271
     1
  0
XRECORD
  5
1D
102
{ACAD_REACTORS
330
1A
102
}
330
1A
100
AcDbXrecord
280
     1
270
     1
271
     1
  0
XRECORD
  5
14
102
{ACAD_REACTORS
330
12
102
}
330
12
100
AcDbXrecord
280
     1
270
     1
271
     1
  0
XRECORD
  5
13
102
{ACAD_REACTORS
330
12
102
}
330
12
100
AcDbXrecord
280
     1
270
     1
271
     1
  0
XRECORD
  5
109
102
{ACAD_REACTORS
330
12
102
}
330
12
100
AcDbXrecord
280
     1
 70
     1
 90
1959938040
 71
     1
  1
744AE22A-4CE7-48CA-9863-6E15BD16391F
311
504B03040A00000800001A3BDB423DEE336E79000000790000001B0000006175746F6465736B2D64657369676E2D7061636B6167652E786D6C3C3F786D6C2076657273696F6E3D22312E302220656E636F64696E673D227574662D3822203F3E3C666F726D6174733E3C666F726D61743E687474703A2F2F736368656D612E
311
6175746F6465736B2E636F6D2F64657369676E2D7061636B6167652F323030393C2F666F726D61743E3C2F666F726D6174733E504B03041400060808001A3BDB42D486FD9CA0000000F4000000130000005B436F6E74656E745F54797065735D2E786D6C7D8EC10E82300C865F65E91D8A1E8C310C0EEA1BF002731658846E
311
D98AC1B77784ABF1D8FE5FBFBF75BBCE937A534CCEB38643598122B6FEE978D0B0485F9C41B54DDD7D022595594E1A469170414C76A4D9A4D207E29CF43ECE46F218070CC6BECC4078ACAA135ACF422C856C0E68EA1BF5669944DDD7BCDE7B1F8E415D77AECB980613C2E4AC91FC167A2B244592486606FC29C8FD7F045B9A
311
EF7053A7E60B504B03041400060808001A3BDB421A071CFAED0000007C01000008000000636F72652E786D6C8D90416EC3201045AF82665B6163B09DC6C244759C9CA01740983828315806AA1EBF3871A476D7D58CFEFC3733FAFCF03DDDD1975EBC71B685222380B4556E30766C21860B7E0774107C712EFCB201B272D22D
311
AC32083E2E2ECE9BA49C0DDA86A45A37E84D94DEEB0048DD53D38257573DC94CC6901CFE96CD52DDE4A8B3E2D525384633A0E71133A47DE662F40282953DEDCEA70F7CEAEA0E976555E37DD5959892E3F1BC67BB9AF43DCF5758F060A6D77DB56819F400829282615263BAFB24BB86964DC5DE48D530C2F3D5FE078AF3F04F
311
281A1B18DDDE7D621E44911E790C04CFD72C52790495EA9A9BF801504B03041400060808001A3BDB4255019EA25F0000007C00000007000000636E782E786D6C4DCB3B0E80201045D1AD90E915ED2CF8AC45050C11660C8261F98AB1B07AC9C97D42D718D865D3E909258CFD00CCE24AC6E326A164D74DC0B4128928FF3260
311
38472BA13128B1252AC747C6BAB984FC68F0B87FE8960A5C09FE86CFB69FBA01504B03041400060808001A3BDB42F7F400BE69010000020300000C0000006662782F636F72652E786D6C8D525B6E833010BC8AE5DF0A6C5E49131947258F13F4020E3814056C646C94E37779443455144548C69AD9D99D1D60BB5B53A35E9A
311
AED22AC5814F31922AD745A5CA143B7BF13E31DA7166B4B67FCA3052A291291E60CC5969B46B6728D7CA4A650155BA903328BA4E5A8CF21A2E29EEF21FD9085F380B15DDD56F457E15A5F4031F68A8E3ACB3060CA069C870627E39DF189970CE9CAB8A99AD0A98565D2A69308FE243989D8E5FDE315B655E1C272B6F9364B1
311
17D2FDFEB489D62B7A3830328839B3557377971B29AC2C300F69107974E585EB6FBADE86F136893E68B28D282343F983C8B5C59B2257291B85B3DD49D6611E809191F8B72D446451277AF04338234388F01A137E0C1A028190AD38D7F73DAE00F532B7DAC4C014DA2D542F6A27612A45E3C3C8C442E7B1016CF6B44FF8A2CF
311
EB1EF001852AC19AB0703D3B3B4C67D3D4398A561AAFB737A4B46944BD989B2C2EE732E8A93CD7B536EFA8C9BC2A99C324C3DFCB7F01504B03041400060808001A3BDB42E3A7BF5F7D0000009D0000000B0000006662782F636E782E786D6C4DCCD10A83201805E05791FFDE32D65C821AB6EA3D6259C84C87D3D8E3CF4617
311
BB3A878FC3E1ED67B368D7E16DBC1350150490760F3F1BB70A4871C10DA056F2E07DFC9B0172D3A6051C0C92AFC1A7D749B35EA66463566BDCF3C47A1CC8482A867BC23A5C5F7A8ABB9B1A72A3CDF5AE94A28A412979F97BCA791CCB2F504B03041400060808001A3BDB42321B9A2D2B01000014020000310000006662782F
311
34464530463031392D443039422D343344362D423741452D3433363835434141413641392F636F72652E786D6C8D515B6EC23010BC8AE52FAA2A89F306E418850227E805826DA805B1233F2A8EDF7513A4F68F1FAF353B333BDAA5BBC77847DFD23A657487F3946024353742E96B8783BF246B8C768C5A63FC1F1A467A1865
311
87238C19BD5A13A605E2467BA93DA0DA08B9808373D263C4EFF0E9B0E35F721CD2217860B85B3A0DFC365C659AA7D0061EA3CE5B0880E621F1C5AC3A1DC989E49BE44036FBA42A0F4DB26FFB23FC9A75FDD1F77DD36F68360B190D418945AE04C4511725EDAB2651CCA857E3333EB772F052605690BC4C489314ED2769B745
311
B5ADCB77526F4B42B348FF270A9378511494F665B1C49D650EB39C6673835161C2F9FE0C231F93B11EC5792B27F91B66248558655BB60DCD662A2C003C9B6AF174DE5858F0EA7606765ECFC64DC568166F04E5F78050E33DD90F504B03041400060808001A3BDB42975224714F01000033030000300000006662782F344645
311
30463031392D443039422D343344362D423741452D3433363835434141413641392F636E782E786D6CD593CD6E022114855F85B06DE6CF19B5310C265DF409BAE816E15AA90C4CF869EADBF7A268DDB8E8B21B3239F770CECD17866DBF2743BEC007EDEC48BBBAA504AC744ADB8F91A6B8AF9E29D972E69D8B77364AAC9860
311
A459A69C7D7897E62229D88B6422AA46DB63113D0497BC848072BE498C93C26000D82AA108D30E9402456E46FCDA83C75550DC9D483C00797D79276EF7093206D6E414CE9ADCC1593E4BD39D8912694408230DF20093A8458A4E4138D64A445177F5B5EBC14EBF49245FB85626AF492E1F693E292F1BD5C8913538E42C448F
311
F48A299E66A05CCCB3D1524484DC9C8D170F6749DBB81A8A5723788FEE6ED50F03869D679C453D4171480F2282A27CD1767DD5AEAAC5FAAD5D6F16C366D93FB5CB4DDFB226DB39DB3967CA258C01EF66229D8D6023E51D6BF2F811BEE2234A7B64EDFCE90F20114069BDD0B965FC673ECDF97D232E8F7F01FF01504B030414
311
00060808001A3BDB421406E19EA505000081100000340000006662782F34464530463031392D443039422D343344362D423741452D3433363835434141413641392F6F626A656374732E786D6CAD57D96EDB3814FD1541F332F3E045B69326034585632785D1A62D6AB49807030625510A27D402924A9DF9FA3914295972ED
311
D433E88B162E97F79E7BEE42FFED2EE3CE33159215F98DEB0DC7AE43F3A888599EDEB8954A0657AEF336F04551A8CE32D7C949466F5C3DEC067E2A8AAAB443314D48C5D5C1E8FDED5F8E8C684E5D27E244CA1B57468F34234352A922A6F2691813458669B21B7A43B3B02F3615A47C3C105A124173054D319E438A6394F2FA
311
BF637714F8233D1FF8FA69574D4FAF1AD5F6F4CF67B954248F7E38EC40CCD49B2DEF2617D7838BD96C3A985D4EBCC1EDFDED72E0BD998E17978BC5F5FCEE1A074B2520C96A2268E206EF808D60913F3253815FB15C4D27768975D048D067A63DE50613C7F347664D6B9D35F298FA5191E734AAB1021AB57D56744C4B9AC7F0
311
39A3129A75101AF77F3D8D63677AAAFFED91DDE1F310E8EEE8086A746FDE5D4D8BF06F9820CF6190905433D060690D355C1DEF110E8B82DB39269D8C282A18E10E67A120E2C50DB0542F09FC9E18CD64A1A3415BE006F08299EED30561F4739E1FD332A938D73476833A0AB68815AA64AD19FB878ABDF65D64A0137CA5D970
311
650D522F2575836B4391AB033619209D8493142E87997AE7747260E842C7E96AE906EFEFC3DD5AC7EEF1C34B519454284D1F50AB715CF3D628599DBCB33CA737B807AAEC41F902E43F22D4F7AAC06F82ED66BB993D450992CBA410197CE38C9DC1188FB1E3D54FFDDDF9F247EDE6BEF74EE109676BA87E019E7D1BBABEECC0
311
19F8CF207C21A6D6B4754438D2C603CB01902689C30B0C210F27E1CE0D56C872C8CAD84578E0C164A8FB8C4F7F64C52051D42775DE39B03C488B672468C05633126A18F25B05F77EFA219DD507DB65A7E0BDF825749D2FD7EFD7954848441F6C4C2F69C272A650E2F6BCE92AD4C3BC67D1137DF95E881886FE88F7BA8B7766
311
8F92405B63AE814F9B9CAE7FF627F70E88B02F2D74BAF17F72028CD085B523FF81C988724E725A54CDB9AFD60F940D03B10E76CDE4B6C0EC0B0B4863660E6210453A12ACD420B6D5AA4D9AC313D67D5D7D0423DDE0F6E50379E966AF709F7BA38217621BBE6C4D5A3A0AF5B73EB72D06232D0574AF83A4897F0BFA36664952
311
4924C123B87E5B2DBABED3690129A2916AA26506FB115C4458D2367251AD0541252DF22D43DD44DC1D3DA02B1F905A06D4024F692C294FB68CF32ADB268CA31A6D33529E80E3FFEB1F5659B9255951E5EA84EC9EEAA80E7DDD7BEC95DF898A1EDD605DBF07B7C8BD318D4F9041D7922358F55CFB66369BDF4D26F3C16C71F7
311
6630BB5ACC07D75797D3C1E59D7771BBF42EA7D7DE7DE327A349E037A5A61BD1F0124A9B5F0966DDF77585F8B149C00D1E88929B77263C9BF7D7D510BDB03FC21ED4CB76E33C7E46DF47E39F0BD8AF3C2A6895959C66345744C7D083FEE05F08FA8C9E32667C9591949E21E5D3BBF58131183963DF671DEFF4FBC15E3BBAD0
311
017954887AACB230278C1F6C4C0D92C3324F2D7E8D4FDAB72934CDAFFEB38E41672A0BCE62E4C1D849699151856C784611121995A05EB7A78FEDDDE38CDDCFA6435424E4B4D1E491A049E61261016A5591EA8F3BBFA1A9D37DD58D8B723B7CC2C3660AD701676E5C34E98A45540E431468DD0AD5C2C1A56E278FC69FE42947
311
AF6D36B5FFED2E8D4DAF24B74BCEE99FAC5D26855B0390464AF40D6888E09D5A99C0AF75B3F3D17F32BC51C7210A9F61A55A5BF603AD31F53108516394BD2DA08979B247EF10A8AF9BE50DEB353D44CEBA65BD4A022375A08848EB9B82D6CFAA345F7E1EA14371569F9C9257297C79BEA481A02073A5031C2C022BACCC9228
311
5075F1E7E6B3287093CD9C7B060A38BFEFAE2EFFD82C8A2C2B7233B499DBFBB0B37EC4ED36DE2039507D2D919BC9D89B6CEAEB80BDA16C4322E990C4F20903F0AC602DD03DF78397E6CE883A6426DA7523ED8A0386AE968E2D6C3308B574E9E6560D0E1A8F9C3A88217DA5D411D35D50BE7A2318D54BA182402F1FFC0B504B
311
03041400060800001A3BDB42000000000000000000000000350000006662782F34464530463031392D443039422D343344362D423741452D3433363835434141413641392F76657274696365732E62696E504B03041400060808001A3BDB42F270F1330600000004000000360000006662782F34464530463031392D443039
311
422D343344362D423741452D3433363835434141413641392F747269616E676C65732E62696E636660600000504B03041400060800001A3BDB42000000000000000000000000370000006662782F34464530463031392D443039422D343344362D423741452D3433363835434141413641392F617474726962757465732E62
311
696E504B03041400060808001A3BDB42D5987DFC8F00000041010000360000006662782F34464530463031392D443039422D343344362D423741452D3433363835434141413641392F6469726563746F72792E786D6C858F410EC2201045AF4266AF15DDB800BA74E7C21B903225242D6328188F2FA5C4183471359997F9FF
311
81E89FF3C41E1816475E02DF1F80A11FC8386F25A438EECEC07A250251FC3803E6F58C12560C4AD840E95E91C151A72936F496F35732D860FE635F62C8F2DA16B505C545B74125BAA2FA9E05D7CC053D063734D5C7665FD55B6B8D15D5E9BFEAFD8490FFA45E504B03041400060808001A3BDB42A7CE7F3BFE000000A00100
311
003B0000006662782F34464530463031392D443039422D343344362D423741452D3433363835434141413641392F7265736F75726365732F636F72652E786D6C8D50596AC33010BD8A99DF225B96B73AC80A38CB097A01214F1291580A5A4A8F5F3976A1FDEBCFCCF016E6F1F8FE6B7E649FE8BCB6668032A790A15176D2E6
311
3A400C17F20ED95E70676DF82583CCC81907586010FCEA6C7C6E90B226A009093576C20D94DE63804C3DD2318057379C652E63480A7FCF9F52DDE515F3324F74D209EE834B01B2F5C9324138F4363A859E172B2B788C7ADA347A4A3FF545A30351D547369E4F3D398DED48EABA6949DF8C3561F47038F755D7D2E391178B59
311
F0A0E79F8CCAA10C388160B4AC086D09EB3E68B763F5AEA9DE68B3AB282F16F91F537C4EFF34456D42C5B6B8ABCD83285390172178B1F495D6ABCCB4976EC537504B010214000A00000800001A3BDB423DEE336E79000000790000001B00000000000000000000000000000000006175746F6465736B2D64657369676E2D70
311
61636B6167652E786D6C504B010214001400060808001A3BDB42D486FD9CA0000000F40000001300000000000000000000000000B20000005B436F6E74656E745F54797065735D2E786D6C504B010214001400060808001A3BDB421A071CFAED0000007C010000080000000000000000000000000083010000636F72652E78
311
6D6C504B010214001400060808001A3BDB4255019EA25F0000007C000000070000000000000000000000000096020000636E782E786D6C504B010214001400060808001A3BDB42F7F400BE69010000020300000C000000000000000000000000001A0300006662782F636F72652E786D6C504B010214001400060808001A3B
311
DB42E3A7BF5F7D0000009D0000000B00000000000000000000000000AD0400006662782F636E782E786D6C504B010214001400060808001A3BDB42321B9A2D2B010000140200003100000000000000000000000000530500006662782F34464530463031392D443039422D343344362D423741452D34333638354341414136
311
41392F636F72652E786D6C504B010214001400060808001A3BDB42975224714F010000330300003000000000000000000000000000CD0600006662782F34464530463031392D443039422D343344362D423741452D3433363835434141413641392F636E782E786D6C504B010214001400060808001A3BDB421406E19EA505
311
00008110000034000000000000000000000000006A0800006662782F34464530463031392D443039422D343344362D423741452D3433363835434141413641392F6F626A656374732E786D6C504B010214001400060800001A3BDB420000000000000000000000003500000000000000000000000000610E00006662782F34
311
464530463031392D443039422D343344362D423741452D3433363835434141413641392F76657274696365732E62696E504B010214001400060808001A3BDB42F270F13306000000040000003600000000000000000000000000B40E00006662782F34464530463031392D443039422D343344362D423741452D3433363835
311
434141413641392F747269616E676C65732E62696E504B010214001400060800001A3BDB4200000000000000000000000037000000000000000000000000000E0F00006662782F34464530463031392D443039422D343344362D423741452D3433363835434141413641392F617474726962757465732E62696E504B010214
311
001400060808001A3BDB42D5987DFC8F000000410100003600000000000000000000000000630F00006662782F34464530463031392D443039422D343344362D423741452D3433363835434141413641392F6469726563746F72792E786D6C504B010214001400060808001A3BDB42A7CE7F3BFE000000A00100003B000000
311
00000000000000000000461000006662782F34464530463031392D443039422D343344362D423741452D3433363835434141413641392F7265736F75726365732F636F72652E786D6C504B0506000000000E000E00800400009D1100000000
310
504B03040A00000800001A3BDB423DEE336E79000000790000001B0000006175746F6465736B2D64657369676E2D7061636B6167652E786D6C3C3F786D6C2076657273696F6E3D22312E302220656E636F64696E673D227574662D3822203F3E3C666F726D6174733E3C666F726D61743E687474703A2F2F736368656D612E
310
6175746F6465736B2E636F6D2F64657369676E2D7061636B6167652F323030393C2F666F726D61743E3C2F666F726D6174733E504B03041400060808001A3BDB42D486FD9CA0000000F4000000130000005B436F6E74656E745F54797065735D2E786D6C7D8EC10E82300C865F65E91D8A1E8C310C0EEA1BF002731658846E
310
D98AC1B77784ABF1D8FE5FBFBF75BBCE937A534CCEB38643598122B6FEE978D0B0485F9C41B54DDD7D022595594E1A469170414C76A4D9A4D207E29CF43ECE46F218070CC6BECC4078ACAA135ACF422C856C0E68EA1BF5669944DDD7BCDE7B1F8E415D77AECB980613C2E4AC91FC167A2B244592486606FC29C8FD7F045B9A
310
EF7053A7E60B504B03041400060808001A3BDB42185DBFC1EA0000007C01000008000000636F72652E786D6C8D505B6EC32010BC0AE2B7C2E1613B8E858912293D412F8060E3A2C46019A87AFCE2C491DABF7EED6876667734F2F83DDDD1172CD1053F6056518CC09B609D1F079CD39574181D955C4248BF6418793DC18057
310
1A2B392E21CF1B65824FE053617DB0B0913A464818997B01038EE613265DE99C8A22DEAA599B9B1EA1622F54CC393B8B9E4F9C2DF7DCD5C18215E3AD3831D192F78E5D48DD7435397076205DDD9CDBF3A92DF82277AB59C9E4A6D77FB3804E60B1E29409425BC2F71F74DFF3BA6FC41B6D7A41E56E95FF31E5D9FED3949D4F
310
826F719FB658B296208F8592BBB58B321E4595B9F6A67E00504B03041400060808001A3BDB4255019EA25F0000007C00000007000000636E782E786D6C4DCB3B0E80201045D1AD90E915ED2CF8AC45050C11660C8261F98AB1B07AC9C97D42D718D865D3E909258CFD00CCE24AC6E326A164D74DC0B4128928FF326038472B
310
A13128B1252AC747C6BAB984FC68F0B87FE8960A5C09FE86CFB69FBA01504B03041400060808001A3BDB427EFB5CAF65010000020300000C0000006662782F636F72652E786D6C8D52D96E833010FC15CBAF15983B878CA3444ABFA03FE01887A2808D7CA07C7E9723A2A9A2A84232D6CCCEEEEC003DDCBB160DD2D846AB12
310
C76184915442578DAA4BECDD35D8627460D468ED7E9561A478274B3CC298D1DA68DF2F90D0CA49E50055BA920BC8AD950E23D1C2A5C4567CCB8E87DC3BA8B0B7B0E7E2C66B19C621D050C7A875060CA079C8786276BDDC29997146BD6FAA856D2A98D65C1B69308B93223DC669117C6EE37390E5DB2CD825F12ED866F9A938
310
1D0BB89F2919C58CBAA67BB8134672272BCC92284E83A80892CD57B4D927D93E4F3FA27C9F46948CE54F22DF57FF14F946B93459ECCE320B5EC1C844FCD9162272C8F201FC1046C91822BCA6849F8386402064C72FED638F1B4083144E9B0C984AFB951A78EB254C8DD0F45032B3D0796A009BBDEC93BCE9F3BE077C40AE6A
310
B0C61D5C2FDE8DD3E93C7589A2972618DC1D296D3ADEAEE6668BEBB90E7A2917BAD5E63F6AB2AC4A9630C9F8F7B21F504B03041400060808001A3BDB426C4A1CA57E0000009D0000000B0000006662782F636E782E786D6C4DCCD10A83201886E15B91FFDCA5E9C8811ACBD67DC4B290990EA76397BF1A1DECE883878F57B6
310
9FD5A3B74D2F1783027A22806CB8C7C9854541C93316805A2D538CF9EF06288CAB55B03368B9A4589E074D761E8BCF9B7A171E079A9A194E98C1A46F3ACC1B31E02BA5377C66FD8573D1D5820E506959FD4ADBEE61FD05504B03041400060808001A3BDB42331BDBCC2C01000014020000310000006662782F433233433430
310
33432D304437422D343738462D413131452D3533443934343842323831462F636F72652E786D6C8D515B6EC32010BC0AE22B55651B8C63BB11266A92E604BD8003244589C1E251E5F85DD78ED4FEE58745B333B303CBB7F7E186BEB50FC6D90ED39C60A4AD74CAD84B87533C672D465BC1BD73F10F0D23DB0FBAC3138C05BF
310
7897C60592CE466D23A0D629BD807D083A62246F70E970905F7AE8F33E4560846B3EF6F2DA5F744E7368034FF0103D0440F390E9C4625FB27D45D83E23876697554D7BCCDE29FDC8D6ECF05655EDAE6CE99117B350F0948C5AE446411C7336DA3F6B3289058F6678C4975EF7512B2C4A425946EAAC6C3E49B329ABCD9ABD92
310
F586115E4CF47FA234AA2745C9D8C8CA25EE2C0B58505ECC0DC1954BA7DB238CBE8FCE4734CD5B052D5FB02039A1F0FC9AD6BC98A9F001E059578B6788CEC307AFAE2760B3C5B8AE042FA61D41F95D20D4699FE207504B03041400060808001A3BDB42F1F5EB665601000033030000300000006662782F4332334334303343
310
2D304437422D343738462D413131452D3533443934343842323831462F636E782E786D6CBD93CD6EC32010845F0571ADFCEF38518489D4439FA0875E316C1A1A1B2CC055F3F65D1292E69243A5AA1764CD0E33AB4F98EDBEA6917C82F3DA9A9E5679490918699536EF3D5DC23EDB50B2E3CC591BEE6C941831414FA34C397B
310
77769993A4602F9631A03A6A734CA2036F1727C1A31C6F92D14A316200986C4111A6019402456E46FCDA83C355501C4E241C80BC3CBF113B7C800C9E153185B322767016CFD47467A2448EC2FB9E7A798049E4620956813FE64A049157F9B5EBC14E3F49245EB8562E4E9358DED378529E36CA91232B70C8990F0EE9255338
310
CD40B998E7514B11107271365E3C9C2DDA84AE4D5E8DE01DBA9BBADB6C30EC3CE32CE80992433A100114E575593559D965F5FAB55C6FEB76BB6A9ECAD5B6295911ED9C0DD68EE912C680B33391D6043081F28A1571FC085FF211A51DB2B6EEF40B900820B55EE8DC32FE924FD5356DFB8F7C8AF3FB465C0EFF02FE0D504B03
310
041400060808001A3BDB4247934A7C640700009A1B0000340000006662782F43323343343033432D304437422D343738462D413131452D3533443934343842323831462F6F626A656374732E786D6CED59DD73A33610FF5718FAD23E181BDBC9251DC24DE224379E36ED4DDDBBE98367181964A24608461249DCBFBEAB0F30
310
1093E05EFA760F3620A4D5EE6F3FB5041F9F33EA3C622E48CE2E5CDF9BB80E66719E10965EB8A5DC8ECE5CE76318F03C978D69AEC350862F5C35EC8641CAF3B2B04309DEA292CACEE8EDD55F8E8831C3AE135324C4852BE27B9C210F95324FB078F0122491976E9F3DDF3313DB64538E8AFB0ED10271CC24700AE30CA83886
310
29BFFD3871C7613056EFC340FDDB59B341B3E6FDB3C65AEA369784098958FC82A50E99D9209666FEFCFA667A723E3A99CF67A3F9E9D41F5DDD5E5D8FFC0FB3C9E274B138BFBC3907F636794EAD4C092E304B407F3B37F483B17A538B6E1138C4759C3386630D2440A5C5EA122458C0560DF826ED475F49D478AD256C3CCFD5
310
7BCB426378D6A6D2376B18102DBA2088DDAE92B8BA36E5CB377F83E0628851728125702B2407ED5A783878851B4E82B1190D83CD5E17443819929813441D4A361C71500A4C5553C2C02CB06494737020E52809B4E6CCEBB66D8167BEED3A87B8DC96942ACF7043ED5811B81F96427346FEC17CCF7D1319E009A42D09936796
310
4BB92BB01B9E07633D1806EA329BDA970648674B512A3422E66D47D08572FDE5B51BFE72BB795EA9707078F382E705E652199DD2A3E60B0CD95E154A765B7F90E6D40210C6806A57EE41F90390FF0DA2C79E15D01B27CFF3E7B99D2B3962629BF30C74E34C9CD104FE268EAFFFD57DE32E18D78BDBDAEBC313DC544175F6ED
310
78B665D05859FE1B7086C123187CCE67F6D52A4614ECF98E300048198943731882D0BEDD3CBBE1120227047A588568E883C8C0EE23DC06634B66AF95CABDACD73140D4EE311BA224804D5B24B0D1A3A74F903D3889F76A6A8AD807EFC9BB98EBE5F5EA9755C9B728C677D6A7AFF1963022216B1E66A885794BA207BC7BCA79
310
0282BEC47BD5C43BB35B09405B61AE804F2B10D4C37EE7D60631AC4B73156E823776002154AE6ED0BF2322C6942286F3B2DAB78E6ECA506B8FB735831B4E0DC4B369C784397E24AAAA00A7D9CF68310A793FE6A45020BAE12723591D34BD1EE9BE2C7F038BACE7F7CC5A3208BD0CD13F75D03A8043CBB22BA42D10B5C09B7D
310
388F739AF368B38B4CA473A1960036DADEF2B5451462BD5192A2021EA4FDAE0A29A991364AC8765B0A88AB0758FCBA5C34CD61E2CDFC13A7F9DF71C639445BF05DC4ADDF75F6884886521C6D51D2B75D73B79AB6D0247B4873BCA520177924721721194D129C1E03CD51C4CFDF957A4A732108C302F2D541F09B684C3C0824
310
469B15CB4AAB1DA08988322C113D060145A6075C9D76748D1B43E9F0368FB5F5BEA6B126D1FFC92238825A32671181521472C89B8CFBDE09C49036BA06E50EBE606D156D2D062DA1848877D11326E9BD3C067543BE07F7188E24A58CF202C560D603C8BEF015A5D40EEF1B143FA8FC11C5257D2F0311986E2342699945F023
310
0C4E1E435CBB0E4CAFA2D0206E629FC419146548967CC826A7279317FB989AA11B021B1B6D0985B01D65A8E841BD1510753DE2D4E05BEA3D4ADD945911A12C2FD92043F1665D6FB2E4BB6A556407F2AB4A45281B2BC29660181026EBAC5AC56C30751D58C18D74A0DA4502650535A7B037128F5F7B93A6DCBB01B77EFABE1B
310
6450F8F568AF1951E7150C96C75661209E908CEFDD70A5AFA32BA8BF139CEC537D556B362B40404C45F29213ABA22F4B286F6C8DE68677488AF5279375ABEB97A507DD8F600C6BA076A9172E15D0196612A9CAE44EDDD03F1084E0160D33BE5439F5182A9749A2AB46446F499F3A5B65446BD38C78C53D6679063FB6262CA6
310
6582D728110FD19DA4D18A28D6AD945E462A8C5F15F0F74FAB0E3C303240A4CFAAC0C34F9DB57674A1CAA58344E47D996D182210045BA2A546375EC152AB914ACBF5559D29A0EE0203B32A9E7F3F5934DB11DF4F16A9358C6F3A595CED7E45BB665FA491CE6365D7471D03EAFCA4A8BCC73140B71D6AAA751631C9DCCA6F9D
310
2982A05845F9C1D55815340CC13E8EFF73D6EECB8266BB0EFFC7656DFF45C5715456694D565DAA0395EBB299C33ECCE79737D3E9E568BEB8F9309A9F2D2E47E767A7B3D1E98D7F7275ED9FCECEFDDB1A4DEDA8615007339DBBE0D904B56A583D590CA02B2B724A1238CD274E8A21E64B38D30F689FF30C0B489ECD6677629B
310
F203563F9A3EA7441B8A2B4EEE113488A980B40E1895B16C8F3B3F406B52C241FBC285A691F7007FD62A5D0732CF850BAD0249622CBC0DB49954434F138794AB73BF2506F82096AA946816D5CFF52A854D2BFCD75386A4012B57AB8701855B01DDAF568742F366798A8F12BC62C741126E37A5846ACDC8B21FA885D1DBECD5
310
6F64A3843DD8AD9FC1755F17CBF7F49C1622833E19BC6A0486EA48229EEA7EB762CCB27479FD790C7D3667F9BB53D032055D0EA734E2188CB954051558115885A5592009A6BAF879FD99E7F08927737455E4FCF87C76FAD37A916759CECCD0FA124E65097C287256F7F0D9275943F18055735DACA7137FBAD64D6DDB678F36
310
48604F5545305015134A908EC9815DBE6850D9F6E558A9A2337D79EDD8200ACD0063472F7ABCE62397033EA43EA7288FD17E5E49FB6A5F7BACA7824D70E84887FF02504B03041400060800001A3BDB42000000000000000000000000350000006662782F43323343343033432D304437422D343738462D413131452D353344
310
3934343842323831462F76657274696365732E62696E504B03041400060808001A3BDB42F270F1330600000004000000360000006662782F43323343343033432D304437422D343738462D413131452D3533443934343842323831462F747269616E676C65732E62696E636660600000504B03041400060800001A3BDB4200
310
0000000000000000000000370000006662782F43323343343033432D304437422D343738462D413131452D3533443934343842323831462F617474726962757465732E62696E504B03041400060808001A3BDB42D5987DFC8F00000041010000360000006662782F43323343343033432D304437422D343738462D41313145
310
2D3533443934343842323831462F6469726563746F72792E786D6C858F410EC2201045AF4266AF15DDB800BA74E7C21B903225242D6328188F2FA5C4183471359997F9FF81E89FF3C41E1816475E02DF1F80A11FC8386F25A438EECEC07A250251FC3803E6F58C12560C4AD840E95E91C151A72936F496F35732D860FE635F
310
62C8F2DA16B505C545B74125BAA2FA9E05D7CC053D063734D5C7665FD55B6B8D15D5E9BFEAFD8490FFA45E504B03041400060808001A3BDB4270B7E2F0FD000000A00100003B0000006662782F43323343343033432D304437422D343738462D413131452D3533443934343842323831462F7265736F75726365732F636F72
310
652E786D6C8D504B6E833010BD0AF2B632601B0841C65122A527E8052C332156828DFCA97AFCDA814AEDAE9B99D1FB689E1E3F7D2DCFE2139CD7D68C8894352AC0283B69338F28861BEE517112DC591B7EC95061E40223CA30127C7636AE3BA4AC096042428D9D6007A5F71050A19EE91891577758642963480AFF2857A91E
310
72869294894E3AC17D702940B13DC9130907DE46A7C0F36A63058F514FBB464FE9A7BE69704810DAB133612D7EEFC915376DDFE0232547DC37EDA5BB9CBB745F7995CD8207BDFC64540E648009095A1386EB0ED3C3477D186833B4ECAD6E0756F32ACBFF98E23AFDD314B5098CEE71379B4F59539017217895FB4AEB5566DA
310
B95BF10D504B010214000A00000800001A3BDB423DEE336E79000000790000001B00000000000000000000000000000000006175746F6465736B2D64657369676E2D7061636B6167652E786D6C504B010214001400060808001A3BDB42D486FD9CA0000000F40000001300000000000000000000000000B20000005B436F6E
310
74656E745F54797065735D2E786D6C504B010214001400060808001A3BDB42185DBFC1EA0000007C010000080000000000000000000000000083010000636F72652E786D6C504B010214001400060808001A3BDB4255019EA25F0000007C000000070000000000000000000000000093020000636E782E786D6C504B010214
310
001400060808001A3BDB427EFB5CAF65010000020300000C00000000000000000000000000170300006662782F636F72652E786D6C504B010214001400060808001A3BDB426C4A1CA57E0000009D0000000B00000000000000000000000000A60400006662782F636E782E786D6C504B010214001400060808001A3BDB4233
310
1BDBCC2C0100001402000031000000000000000000000000004D0500006662782F43323343343033432D304437422D343738462D413131452D3533443934343842323831462F636F72652E786D6C504B010214001400060808001A3BDB42F1F5EB6656010000330300003000000000000000000000000000C8060000666278
310
2F43323343343033432D304437422D343738462D413131452D3533443934343842323831462F636E782E786D6C504B010214001400060808001A3BDB4247934A7C640700009A1B000034000000000000000000000000006C0800006662782F43323343343033432D304437422D343738462D413131452D3533443934343842
310
323831462F6F626A656374732E786D6C504B010214001400060800001A3BDB420000000000000000000000003500000000000000000000000000221000006662782F43323343343033432D304437422D343738462D413131452D3533443934343842323831462F76657274696365732E62696E504B01021400140006080800
310
1A3BDB42F270F13306000000040000003600000000000000000000000000751000006662782F43323343343033432D304437422D343738462D413131452D3533443934343842323831462F747269616E676C65732E62696E504B010214001400060800001A3BDB420000000000000000000000003700000000000000000000
310
000000CF1000006662782F43323343343033432D304437422D343738462D413131452D3533443934343842323831462F617474726962757465732E62696E504B010214001400060808001A3BDB42D5987DFC8F000000410100003600000000000000000000000000241100006662782F43323343343033432D304437422D34
310
3738462D413131452D3533443934343842323831462F6469726563746F72792E786D6C504B010214001400060808001A3BDB4270B7E2F0FD000000A00100003B00000000000000000000000000071200006662782F43323343343033432D304437422D343738462D413131452D3533443934343842323831462F7265736F75
310
726365732F636F72652E786D6C504B0506000000000E000E00800400005D1300000000
  0
XRECORD
  5
17
102
{ACAD_REACTORS
330
12
102
}
330
12
100
AcDbXrecord
280
     1
270
     1
271
     1
  0
XRECORD
  5
16
102
{ACAD_REACTORS
330
12
102
}
330
12
100
AcDbXrecord
280
     1
270
     1
271
     1
  0
XRECORD
  5
18
102
{ACAD_REACTORS
330
12
102
}
330
12
100
AcDbXrecord
280
     1
270
     1
271
     1
  0
XRECORD
  5
15
102
{ACAD_REACTORS
330
12
102
}
330
12
100
AcDbXrecord
280
     1
270
     1
271
     1
  0
XRECORD
  5
24
102
{ACAD_REACTORS
330
22
102
}
330
22
100
AcDbXrecord
280
     1
270
     1
271
     1
  0
XRECORD
  5
23
102
{ACAD_REACTORS
330
22
102
}
330
22
100
AcDbXrecord
280
     1
270
     1
271
     1
  0
XRECORD
  5
BA
102
{ACAD_REACTORS
330
22
102
}
330
22
100
AcDbXrecord
280
     1
 70
     1
 90
1959938040
 71
     1
  1
01ACFF29-D3C0-47AE-BAA4-66A0C751DF5F
311
504B03040A0000080000193BDB423DEE336E79000000790000001B0000006175746F6465736B2D64657369676E2D7061636B6167652E786D6C3C3F786D6C2076657273696F6E3D22312E302220656E636F64696E673D227574662D3822203F3E3C666F726D6174733E3C666F726D61743E687474703A2F2F736368656D612E
311
6175746F6465736B2E636F6D2F64657369676E2D7061636B6167652F323030393C2F666F726D61743E3C2F666F726D6174733E504B0304140006080800193BDB42D486FD9CA0000000F4000000130000005B436F6E74656E745F54797065735D2E786D6C7D8EC10E82300C865F65E91D8A1E8C310C0EEA1BF002731658846E
311
D98AC1B77784ABF1D8FE5FBFBF75BBCE937A534CCEB38643598122B6FEE978D0B0485F9C41B54DDD7D022595594E1A469170414C76A4D9A4D207E29CF43ECE46F218070CC6BECC4078ACAA135ACF422C856C0E68EA1BF5669944DDD7BCDE7B1F8E415D77AECB980613C2E4AC91FC167A2B244592486606FC29C8FD7F045B9A
311
EF7053A7E60B504B0304140006080800193BDB42F21C7F83EC0000007C01000008000000636F72652E786D6C8D90416E83301045AF62CDB632D8064240C61109EA097A01CB38D44AB011B6AB1EBF262152BBEB6A467FFE9B197D7EFA9EEFE84BAFDE38DB01CD08206D951B8D9D3A88E18A8F804E82AFCE855F364056CEBA83
311
4D06C1A7D5C5659794B341DB9054EB46BD8BD27B1D00A97B6A3AF0EA53CF3293312487BF658B543739E98CBEBA04C76846F43C62C6B4CF5C8D5E4190FEC8EA7756627AA8065C9E0B8A9B4B31E0E142FABA69C8B9EA8F3CDF60C183995FF7D5AA65D02308466881C901B3FA83D42D2BDB8ABC91AA2D08CF37FB1F282EE33FA1
311
686C28D8FEEE13F320687AE431103CDFB248E51154AA5B6EE207504B0304140006080800193BDB4255019EA25F0000007C00000007000000636E782E786D6C4DCB3B0E80201045D1AD90E915ED2CF8AC45050C11660C8261F98AB1B07AC9C97D42D718D865D3E909258CFD00CCE24AC6E326A164D74DC0B4128928FF326038
311
472BA13128B1252AC747C6BAB984FC68F0B87FE8960A5C09FE86CFB69FBA01504B0304140006080800193BDB4297DF5EF467010000020300000C0000006662782F636F72652E786D6C8D52D96E833010FC15CBAF95B1B972C938CAA17E417FC00187A2808D8C8DF2F95D8E88A68AA20AC958333BBBB3037C7F6F6AD42BDB55
311
4667380C18464AE7A6A8749961EFAE6483D15E706B8CFB558691968DCAF00063C14B6B7C3B43B9D14E6907A836859A41D975CA6194D770C970977FAB4606D23BA8E86E412BF39B2C55100640439DE09DB360004D4386138BEBE5CEE9840BEE7D55CC6C55C0B4EA5A298B053B6CA2F567949070959E49728C43B23DC567723E
311
B1C37ABB65C7F4B0E174100BEEAAE6E12EB74A3A556011B130266C45A2F5175BEFA26497B20F96EE62C6E950FE24F26DF14F91AFB48BA3D9EE24EBB008C1C848FCD9162272A8933DF8A182D32144788D093F070D8140C84E5EEAC71E37807A953B6313600AE317AA97B5573095A1F1E17462A1F3D800367BD9277AD3E77D0F
311
F8805297604D3AB85EBC1BA6F369EA1C45AB2CE9DD1D69631B592FE6268BCBB90C7A29CF4D6DEC7FD4745E95CE61D2E1EF153F504B0304140006080800193BDB425044D29F7C0000009D0000000B0000006662782F636E782E786D6C4DCCD10AC22014C6F15791736FF3C8B213A863600F329A1B92D330173D7E5BECA2AB0F
311
7E7CFC75F759227BFBF20A3919C09300E6D33D8F21CD06D63A7102D6595D72AE7F37606958BC819DC1EAB9E4F579D0E8A7618D75D318D2E340A1548B67415C5E9178ABF0C209C971297B47E8542FC40D1AAB9B5F69DB3D6CBF504B0304140006080800193BDB4249617E732901000014020000310000006662782F30363634
311
313530382D323931382D343631372D383138442D3232414438314436413030452F636F72652E786D6C8D515B6EC32010BC0AE22B55651B885F893051A4F406BD8003244589C1E251E5F85D6A476AFFF2C3A2D999D981E587C77447DFDA07E3EC80694930D2563A65EC75C0295E8A1EA383E0DEB9F88786911D273DE00C63C1
311
AFDEA57985A4B351DB08A8754AAFE018828E18C93B5C061CE4979EC6724C1118E156CEA3BC8D575DD212DAC0133C440F01D032249F5890B6AD6943FA82ED685FD42DED8A9EF6A782B1E3A9A7A7F648C807AF16A1E02919B5CA8D8238E662B47FD5248B058F667AC6975E8F512B2C18A1DB82B405EB3E49B767F5BE21EFA4D9
311
6F09AF32FD9F28CDEA455132366ED91A7791052C28AF9686E0CAA5F3FD19463F66E723CAF33641CB3778554928A33B4241B250E103C0B3AD57CF109D870FDEDCCEC0A6CD62DCD682577947507E170835EF53FC00504B0304140006080800193BDB42946DA8E34F01000033030000300000006662782F30363634313530382D
311
323931382D343631372D383138442D3232414438314436413030452F636E782E786D6CD593CD6E022114855F85B06DE64F476D0C8349177D822EBA65E05AA90C4CF869EADBF7A268DDB8E8B21B3239F770CECD1786EDBE2743BEC007EDEC40BBBAA504AC744ADB8F81A6B8AF9E29D971E69D8B77364AAC9860A059A69C7D78
311
97E62229D88B6422AA46DB63113D0497BC848072BE498C93C26000D82AA108D3084A812237237EEDC1E32A288E27120F405E5FDE891B3F41C6C09A9CC259933B38CB6769BA3351228D0861A0411E6012B548D12908C75A8928EAAEBE763DD8E93789E40BD7CAE435C9E503CD27E565A31A39B206879C85E8915E31C5D30C94
311
8B79365A8A88909BB3F1E2E12C691BD77DF16A04EFD1DDAD977D8F61E71967514F501CD28388A0285FB4DDB26AD7D562F3D66EB68B7EBB6A9FDAD576D9B226DB391B9D33E512C680773391CE46B091F28E3579FC085FF111A53DB276FEF4079008A0B45EE8DC32FE339FE6FCBE1197C7BF80FF00504B030414000608080019
311
3BDB4278226C33A405000080100000340000006662782F30363634313530382D323931382D343631372D383138442D3232414438314436413030452F6F626A656374732E786D6CAD57DB6EDB3810FD1541FBB2FBE08B6C274D168A0AC7AE0BA3485BD468B10F060C4AA2146EA80B482A75F6EBF750A464C9B553EFA22F9645
311
0D873367CE5CE8BFDD67DC79A642B222BF73BDE1D875681E1531CBD33BB752C9E0C675DE06BE280AD511739D9C64F4CED5CB6EE0A7A2A84ABB14D384545C1DADAEEEFF72644473EA3A112752DEB9327AA41919924A1531954FC39828324C93FDD01B1AC1BEDA5490F2F148694904CD152CC57A0E2D8E31CAEBBF8EDD51E08F
311
F4F7C0D7BF566A7A5E6A54FBD33F9FE552913CFAE1B02335536FB67C37B9BA1D5CCD66D3C1EC7AE20DEE57F7CB81F7663A5E5C2F16B7F377B738582A014DD612411337780F6C048BFC91F914F815CBD57462456C8046823E331D293798389E3F3232AD77D6C953E647459ED3A8C60A68D4FE59D5312D691E23E68C4A58D641
311
68DC7FF5348E9DCF53FD6E8FEC2E5F864077474751637BF3EC5A5A847FC30579098384A49A81064BEBA8E1EAF880705814DC7E63D2C988A28211EE70160A225EDC00A25A24F07B6A349385CE06ED811B200AE6739F2E48A39FF3FC949549C5B9A6B11BD459B043AE50256BCBD83F541CACEF22039B102BCD861BEB907A29A9
311
1BDC1A8ADC1CB1C900E9249CA40839DCD43BA7932347173A4FD74B37F8B00AF71B9DBBA70F2F455152A1347D40AD2670CD53A3646DF22E8A9CDEE01E997200E50B90FF88543F9882B809B69FED67F61425482E934264888D33760663FC8C1DAFFED5FF3BFFFC51BBB91FBD737822D81AAA5F8067DF876E2C3B7006FE33085F
311
88A9756D13118EB2F1C07200A449E2F0024BA8C349B8778335AA1CAA3276111E787019E63EE3AF3FB26A5028EA933ACF1C581E95C50B0A3460AB1909330CF9AD818738FD50CEEA83ADD83978AF7E095DE7CBCD874D251212D1079BD34B9AB09C29B4B8036FBA06F530EF79F4445FBE172286A33FE2BDE9E29DD9A324D0D698
311
6BE0D3A6A6EB97C3C9BD0322EC4B0B5D6EFC9F9C00277463EDE87F6032A29C939C165573EEABFD036DC340AC935D33B96D3087C602D2982F473988261D09566A10DB6ED516CDE119EFBEAE3F829190E74548F841283C94DEA8E085D8852F3B53954E22FDAD4F6D0BC1486B01DBEB1C69D2DF62BE8B5992541235F004ACDFD6
311
8B6EE87455408568B49A6499C17DE4161196B38D5E346B41D0488B7CC7D0369176270FE8EA07A29600B5C273164BCA931DE3BCCA7609E36846BB8C9467E0F8FFF6875556EE485654B93AA3BB673A9A43DFF61E79E577A2A24737D8D4CFC13D4A6F4CE343987BC2BA959CC0AA17DAB1375FAC5693DBC172BA180F666FE6EF06
311
F7F3F96C707D3D1F2FDE5C79CBD5D5AA8993511EF84DA7E92634A284CEE65782D9F07D5D237D6C0D708307A2E4F6BDC9CEE6F9753DC428EC8FB007EDB2DD388F9F31F6D1F8E70A0E922715ADB392D38CE68AE8147AD07FF8178231A3678C595F6724A51768F9F47E73E40C562ED8F759A73BFD7EB4D7AE2E74429E54A21EAB
311
2CCC09E3471B5383E4B0CC538B5F1393F669FA4CF3AADF6C603098CA82B318653076525A6454A1185ED083444625A8D71DE9637BF5B860F7B319101509396D2C79249891B9445A805A55A4FAEBCE6F98E9F45875E7A2DB0E9FF0632B85EB8033772E6674C5222A8721FAB39E846AE5E0527790C7DC4FF29463D4369BDAF776
311
97C6A6D7915B914BC627EB97A9E0D6019491126303E62144A73626F06BDBECF7E83F39DE98E31085BF61A55A5F0E0BAD33F5314851E394BD2C608679B247EF91A8AFBBE50D6B991E22175DB25E2581D13A5044A4F54541DB674D9A2F3F8F30A038EB4F4EC9AB14B1BC5CD3405090B9D2090E16811556674914A8BAF873FB59
311
14B8C866CE8A8102CEEFFB9BEB3FB68B22CB8ADC2C6DE7F63AEC6C1E71B98DB7280E54DF4AE47632F626DBFA36602F28BB90483A24B17CC202222B580B742FFCE0A5B932A20F990FADDC4887E288A1EBA5631BDB0C4A2D5DBAB5558383B923A70E7248DF2875C67405CA572F04A35A1426088CF2C1BF504B03041400060800
311
00193BDB42000000000000000000000000350000006662782F30363634313530382D323931382D343631372D383138442D3232414438314436413030452F76657274696365732E62696E504B0304140006080800193BDB42F270F1330600000004000000360000006662782F30363634313530382D323931382D343631372D
311
383138442D3232414438314436413030452F747269616E676C65732E62696E636660600000504B0304140006080000193BDB42000000000000000000000000370000006662782F30363634313530382D323931382D343631372D383138442D3232414438314436413030452F617474726962757465732E62696E504B030414
311
0006080800193BDB42D5987DFC8F00000041010000360000006662782F30363634313530382D323931382D343631372D383138442D3232414438314436413030452F6469726563746F72792E786D6C858F410EC2201045AF4266AF15DDB800BA74E7C21B903225242D6328188F2FA5C4183471359997F9FF81E89FF3C41E18
311
16475E02DF1F80A11FC8386F25A438EECEC07A250251FC3803E6F58C12560C4AD840E95E91C151A72936F496F35732D860FE635F62C8F2DA16B505C545B74125BAA2FA9E05D7CC053D063734D5C7665FD55B6B8D15D5E9BFEAFD8490FFA45E504B0304140006080800193BDB422D72B53BFE000000A00100003B0000006662
311
782F30363634313530382D323931382D343631372D383138442D3232414438314436413030452F7265736F75726365732F636F72652E786D6C8D504B6E833010BD0A9A6D6530104240C61109EA097A01CB4C889560237FAA1EBF2650A9DD7533337A1FCDD363E7AFF9997CA275CAE80EF29442825A9A51E9A983E06FE404C9
311
99336B8CFF2583448B193B5861E06CB2262C3B248DF6A87D44B51971078573E82191CF7874E0E41D67918AE0A3C23DD245C8879830CDD348471D67CEDB1820D99EAC13B845678295E858B6B19C85A0C65DA3C6F853DD145AE0B43F15F57B5192FC580DE4702973D25CCB810C57DAD74D432F557F62D96AE6CCABF927A3B428
311
3C8EC00B9A97841E49517FD0BA2D0E6D45DF68D5969465ABFC8F292CE33F4D41695F167BDCCDE680E731C88BE02C5BFB8AEB5566DC6BB7FC1B504B010214000A0000080000193BDB423DEE336E79000000790000001B00000000000000000000000000000000006175746F6465736B2D64657369676E2D7061636B6167652E
311
786D6C504B01021400140006080800193BDB42D486FD9CA0000000F40000001300000000000000000000000000B20000005B436F6E74656E745F54797065735D2E786D6C504B01021400140006080800193BDB42F21C7F83EC0000007C010000080000000000000000000000000083010000636F72652E786D6C504B010214
311
00140006080800193BDB4255019EA25F0000007C000000070000000000000000000000000095020000636E782E786D6C504B01021400140006080800193BDB4297DF5EF467010000020300000C00000000000000000000000000190300006662782F636F72652E786D6C504B01021400140006080800193BDB425044D29F7C
311
0000009D0000000B00000000000000000000000000AA0400006662782F636E782E786D6C504B01021400140006080800193BDB4249617E73290100001402000031000000000000000000000000004F0500006662782F30363634313530382D323931382D343631372D383138442D3232414438314436413030452F636F7265
311
2E786D6C504B01021400140006080800193BDB42946DA8E34F010000330300003000000000000000000000000000C70600006662782F30363634313530382D323931382D343631372D383138442D3232414438314436413030452F636E782E786D6C504B01021400140006080800193BDB4278226C33A40500008010000034
311
00000000000000000000000000640800006662782F30363634313530382D323931382D343631372D383138442D3232414438314436413030452F6F626A656374732E786D6C504B01021400140006080000193BDB4200000000000000000000000035000000000000000000000000005A0E00006662782F3036363431353038
311
2D323931382D343631372D383138442D3232414438314436413030452F76657274696365732E62696E504B01021400140006080800193BDB42F270F13306000000040000003600000000000000000000000000AD0E00006662782F30363634313530382D323931382D343631372D383138442D323241443831443641303045
311
2F747269616E676C65732E62696E504B01021400140006080000193BDB420000000000000000000000003700000000000000000000000000070F00006662782F30363634313530382D323931382D343631372D383138442D3232414438314436413030452F617474726962757465732E62696E504B01021400140006080800
311
193BDB42D5987DFC8F0000004101000036000000000000000000000000005C0F00006662782F30363634313530382D323931382D343631372D383138442D3232414438314436413030452F6469726563746F72792E786D6C504B01021400140006080800193BDB422D72B53BFE000000A00100003B00000000000000000000
311
0000003F1000006662782F30363634313530382D323931382D343631372D383138442D3232414438314436413030452F7265736F75726365732F636F72652E786D6C504B0506000000000E000E0080040000961100000000
310
504B03040A0000080000193BDB423DEE336E79000000790000001B0000006175746F6465736B2D64657369676E2D7061636B6167652E786D6C3C3F786D6C2076657273696F6E3D22312E302220656E636F64696E673D227574662D3822203F3E3C666F726D6174733E3C666F726D61743E687474703A2F2F736368656D612E
310
6175746F6465736B2E636F6D2F64657369676E2D7061636B6167652F323030393C2F666F726D61743E3C2F666F726D6174733E504B0304140006080800193BDB42D486FD9CA0000000F4000000130000005B436F6E74656E745F54797065735D2E786D6C7D8EC10E82300C865F65E91D8A1E8C310C0EEA1BF002731658846E
310
D98AC1B77784ABF1D8FE5FBFBF75BBCE937A534CCEB38643598122B6FEE978D0B0485F9C41B54DDD7D022595594E1A469170414C76A4D9A4D207E29CF43ECE46F218070CC6BECC4078ACAA135ACF422C856C0E68EA1BF5669944DDD7BCDE7B1F8E415D77AECB980613C2E4AC91FC167A2B244592486606FC29C8FD7F045B9A
310
EF7053A7E60B504B0304140006080800193BDB423BCCB1FEED0000007C01000008000000636F72652E786D6C8D904D6E83301085AF62CDB632989F4040C65181E404BD80653BD44AB011B6AB1EBF262152BBEB6A466FDE37337AF4F43DDFD1975A9DB6A6832C21809411566A337510FC151F019D185DADF5BF6C800C9F5507
310
9B0C8C4EAB0DCB2E096BBC323EAAC64AB58BDC39E501897B6C3A70E253CD3CE1C14787BB250B17373EA9247B75110E414BF43CA265DCA7AF5AADC0DE87BAA9FA86E0CB78B9E03227033E8E5585EBBE19C6A2399FB3BEA4E90633EAF5FCBA2F56C5BD92C0729215985438AF3F48DDE6657B206FE4D01684A69BFD0F1416F94F
310
2868E38B7C7FF7893960597CE4316034DDB288E51154AC5B6EEC07504B0304140006080800193BDB4255019EA25F0000007C00000007000000636E782E786D6C4DCB3B0E80201045D1AD90E915ED2CF8AC45050C11660C8261F98AB1B07AC9C97D42D718D865D3E909258CFD00CCE24AC6E326A164D74DC0B4128928FF3260
310
38472BA13128B1252AC747C6BAB984FC68F0B87FE8960A5C09FE86CFB69FBA01504B0304140006080800193BDB423451762E69010000020300000C0000006662782F636F72652E786D6C8D525B6E833010BC8AE5DF0A6C1E2121328E9AD7097A01071C8A02363236CAF1BB3C229A2A8A2A2463CDECECCE0EB0DDBDA9512F4D
310
576995E1C0A7184995EBA25265869DBD7A1B8C769C19ADEDAF328C94686486071873561AEDDA19CAB5B2525940952EE40C8AAE9316A3BC864B86BBFC5B36C217CE424577F35B91DF4429FDC0071AEA38EBAC0103681A329C985F2F7746269C33E7AA6266AB02A655D74A1ACC3F0FEB34D9A7D43B1FCF672F0EE9C1DB1C93C4
310
5BEFD3C3314A4FA7601F33328839B355F370971B29AC2C300F69107934F1C2F5175D6FC378BBA21F74B58D282343F993C8B5C53F45AE52360A67BB93ACC33C002323F1675B88C8A24EF4E08770468610E13526FC1C340402215B71A91F7BDC00EA656EB5898129B45BA85ED44EC2548AC687918985CE6303D8EC659FF04D9F
310
F73DE0030A55823561E17A717698CEA6A97314AD345E6FEF4869D3887A3137595CCE65D04B79AE6B6DFEA326F3AA640E930C7F2FFF01504B0304140006080800193BDB421807D3227D0000009D0000000B0000006662782F636E782E786D6C4DCCD10AC2201886E15B91FFDC36D366813A54D87D8CE686E4344CA3CB6F8B1D
310
74F4C1C3C72BFACF1AD0DBE5974F510239B5805CBCA7C9C745422D33BE02EA95C82995BF1BA038AE4EC2CEA0C492537D1E34B979ACA16C1A7C7C1C6838B556F30E1B635BCC0833F876361DD6C3451B3D504A18874689E657DA760FAB2F504B0304140006080800193BDB422BE3D6C52B01000014020000310000006662782F
310
42373343434137362D424243302D343134422D393242362D4146354142414633333134372F636F72652E786D6C8D515B6EC32010BC0AE22B55858D0DB1930813D99172825E801A92A2C460F1A872FC42ED48ED5F7E58343B333BDA65C7C77407DFCA796D4D07AB0243A0CC68A536D70EC670413B088E9C396BC31F1A04464C
310
AA8319869C5D9D8DF30A8DD6046542428D956A0585F72A4030DED3A7837EFC529328440C89E16FC52CC69BB8AAA22A523BF138F3C1A5006019925FC887969C4E7DDBA0613861442B3AA07D3D34A83F6FFBA13F1352D196958B90B318B55CE55AA638FAA2957BD5248B390B7A7AC61F9D124149C86B5C11841B54B71FB83DD4
310
F4B0C5EF787B20989599FE4F1467F9A2286A1348BDC65D641EF28A954B833369E3E7FD19463D66EB02C8F3365E8D6F90E322C5DA534A76AC5CA86901C9B3A1ABA70FD6A5056F6E9F894D56E3867256E61BA5F27BC054F33DF90F504B0304140006080800193BDB42F2CA67F45601000033030000300000006662782F423733
310
43434137362D424243302D343134422D393242362D4146354142414633333134372F636E782E786D6CBD93CD6EC32010845F0571ADFCEF38518489D4439FA0875E316C1A1A1B2CC055F3F65D1292E69243A5AA1764CD0E33AB4F98EDBEA6917C82F3DA9A9E5679490918699536EF3D5DC23EDB50B2E3CC591BEE6C94183141
310
4FA34C397B77769993A4602F9631A03A6A734CA2036F1727C1A31C6F92D14A316200986C4111A6019402456E46FCDA83C355501C4E241C80BC3CBF113B7C800C9E153185B322767016CFD47467A2448EC2FB9E7A798049E4620956813FE64A049157F9B5EBC14E3F49245EB8562E4E9358DED378529E36CA91232B70C8990F
310
0EE9255338CD40B998E7514B11107271365E3C9C2DDA84AE4D5E8DE01DBA9BBADB6C30EC3CE32CE80992433A100114E575593559D965F5FAB55C6FEB76BB2A9FCAD5B6295911ED9C0DD68EE912C680B33391D6043081F28A1571FC085FF211A51DB2B6EEF40B900820B55EE8DC32FE924FD5356DFB8F7C8AF3FB465C0EFF02
310
FE0D504B0304140006080800193BDB4205C44A1C62070000991B0000340000006662782F42373343434137362D424243302D343134422D393242362D4146354142414633333134372F6F626A656374732E786D6CED595B739B3814FE2B0CFBB2FB606C62274D76083B8EDD743C9DB49D7ADBD907CF3032C8441B211849E4B2
310
BF7E8F2E602026C1DBEC5B1F6C404847E77CE7AA43F0C763469D7BCC05C9D9A5EB7B13D7C12CCE13C2D24BB794BBD1B9EBFC11063CCF65639AEB3094E14B570DBB6190F2BC2CEC508277A8A4B2337A7DF5972362CCB0EBC4140971E98AF81667C843A5CC132CEEBC0449E4A5BB47CFF7CCC436D994A3E2B643B4401C33099C
310
C238032A8E61CA6F3F4EDC71188CD5FB3050FF76D674D0AC59FFACB196BACD25614222163F63A943663A88A5A93F5BBE3F39BD189DCE66D3D1ECECC41F5D5D5F2D47FEBBE96471B6585CCCDF5F007BDB3CA756A604179825A0BF2737F483B17A538B6E1138C4759C3386630D2440A5C5EA122458C0560DF826ED475F49D478
310
AD256C3CCFD47BCB426378DAA6D2376B18102DBA2088DDAE92B8BA36E5CBB77F83E0628851728125702B2407ED5A783878851B4E82B1190D83ED5E17443819929813441D4AB61C71500A4C5553C2C02CB06494737020E52809B4E6CCEBB66D8167BEEE3A87B8DC95942ACF7043ED5811B81F96427346FEC17CCF7D1319E009
310
A42D0993E7964BF9546037BC08C67A300CD4657A625F1A209D1D45A9D08898B71D4117CAF5574B37FC78BD7D5CAB707078F382E705E652199DD2A3E60B0CD95E154A765B7F90E6D40210C6806A57EE41F90AC87F82E8B16705F4C6C9E3EC7166E74A8E98D8E53C03DD3813673481BF89E3EB7F75DFB80BC6F5E2B6F6FAF004
310
3755509DFF389E6D19345696FF069C61700F069FF3A97DB58E11057BBE210C005246E2D01C8620B4EFB68F6EB882C009811E56211AFA2032B07B0FB7C1D892D96BA5722FEB750C10B57B4C87280960D316096CF4E8E903640F4EE2BD9A9A22F6C17BFA26E63A5FAE3FAE4BBE4331BEB13EBDC43BC28884AC7998A116E62D89
310
EEF0D343CE1310F439DEEB26DE99DD4A00DA0A73057C5A81A01EF63BB73688615D9AAB7013BCB20308A1727583FE0D1131A614319C97D5BE757453865A7BBCAD19DCF0C4403C3DE99830C7F7445515E034FB192D4621EFC79C140A4437FC6024AB83A6D723DDB7D527B0C87A7ECFAC1583D0CB10FD5307AD0338B42CBB42DA
310
02510BBCDD87F338A7398FB64F9189742ED412C046DB5BBEB78842AC374A5254C083B4DF55212535D24609D9ED4A0171F5008BDF578BA6394CBCA97FEA34FF3BCE3883680BBE8BB8F5BBCE1E11C9508AA31D4AFAB66BEE56D3169A640F698E7714E422F7443E4548469304A7C7407314F18B37A59ED25C08C2B0807C7510FC
310
261A130F0289D166C5B2D26A076822A20C4B448F414091E90157A71D5DE3C6503ABCCE636DBD2F69AC49F47FB2088EA096CC5944A014851CF22AE3BE770A31A48DAE41B9832F585B455B8B414B2821E2A7E80193F4561E83BA21DF837B0C4792524679816230EB01649FF98A526A87F72D8AEF54FE88E292BE9581084C7711
310
A1B4CC22F81106278F21AE5D07A61751681037B14FE20C8A32244B3E6493B3D3C9B37D4CCDD00D818D8D768442D88E3254F4A0DE0A88BA1E716AF02DF51EA56ECBAC885096976C90A178D3AE3759F25DB52AB203F955A522948D15614B300C08937556AD623698BA0EACE0463A503D4502650535A7B057128F5F7B93A6DCBB
310
01B77EFAB61B6450F8F568AF195167150C96C75661201E908C6FDD70ADAFA32BA8BF139CEC537D556B362B40404C45F29213ABA26F2B286F6C8DE68637488ACD079375ABEBB79507DD8F600C6BA076A917AE14D0196612A9CAE446DDD0AF0842708B86195FA99C7A0C957992E8AA11D16BD2A7CE5619D1DA34235E718B599E
310
C18F6D088B6999E00D4AC45D742369B4268A752BA597910AE31705FCFC61DD8107460688F4451578F8A1B3D68E2E54B9749088BC2DB32D430482604BB4D4E8C62B586A355269B9BEAA3305D45D606056C5B39F278B663BE2E7C922B586F163270B9A6F11DD479B46368F95591F750AA8D393A2F216A700DD75A8A9D649C4E4
310
722BBEF5A508626215E407176355CC3004FB38FECF49BB2F099AED3AFC1F97B4FD6705C75149A5355935A90E14AEAB660A9BF8F3C5F5F5C9C568395D4C46B377F3F7A3ABF97C363A3B9B4F16EF4EFDE5F5E9758DA6F6D330A863994E5DF06C625A35AC9E2C06D094153925091CE61327C510F2251CE90774CF798605E4CE66
310
AF3BB13DF901ABEF4D9B53A22DC51527B708FAC3544056078CCA58B6C79D5FA03329E19C7DE942CFC8BB833F6B95AE0389E7D2854E81243116DE16BA4CAA9FA78943C6D5A9DF12037C104B5546348BEAE77A95C2A615FDEB2943B28095ABD5C280BAAD80E657AB41A179B33CC547095EB1E32009B7DB5242B16664D90FD4C2
310
E86DF6EA37B251C2EEECD68FE0BA2F8BE57B7A4E0B91415F0C5E3402437524114F75BB5B3166599A2FBF8CA1CDE6AC3E3B052D53D0E5704A238EC1984B554F81158155589A059260AA8BDF375F780E5F7832471745CEAF8FE767BF6D167996E5CC0C6DE670284BE03B91B3BE85AF3EC9066A07AC7AEB627332F14F36BAA76D
310
DBECD11609ECA9A20806AA5A4209D23139B0CB67FD29DBBD1C2B5574A6AF968E0DA2D00B3076F4ACC56BBE7139E043EA6B8AF218EDE795B42FB6B5C77A2AD804878674F82F504B0304140006080000193BDB42000000000000000000000000350000006662782F42373343434137362D424243302D343134422D393242362D
310
4146354142414633333134372F76657274696365732E62696E504B0304140006080800193BDB42F270F1330600000004000000360000006662782F42373343434137362D424243302D343134422D393242362D4146354142414633333134372F747269616E676C65732E62696E636660600000504B0304140006080000193B
310
DB42000000000000000000000000370000006662782F42373343434137362D424243302D343134422D393242362D4146354142414633333134372F617474726962757465732E62696E504B0304140006080800193BDB42D5987DFC8F00000041010000360000006662782F42373343434137362D424243302D343134422D39
310
3242362D4146354142414633333134372F6469726563746F72792E786D6C858F410EC2201045AF4266AF15DDB800BA74E7C21B903225242D6328188F2FA5C4183471359997F9FF81E89FF3C41E1816475E02DF1F80A11FC8386F25A438EECEC07A250251FC3803E6F58C12560C4AD840E95E91C151A72936F496F35732D860
310
FE635F62C8F2DA16B505C545B74125BAA2FA9E05D7CC053D063734D5C7665FD55B6B8D15D5E9BFEAFD8490FFA45E504B0304140006080800193BDB42BF216F59FF000000A00100003B0000006662782F42373343434137362D424243302D343134422D393242362D4146354142414633333134372F7265736F75726365732F
310
636F72652E786D6C8D504B6E833010BD0A9A6D6530904040C65113C2097A01CB4C88956047FE543D7E4DA052BBEB6666F43E9AA7C78E5FF323F944EB94D11DE4298504B534A3D25307C15FC901922367D618FF4B0689163376B0C0C0D9644D786E9034DAA3F611D566C40D14CEA187443EE2D18193379C452A828F0A774F9F
310
42DEC584699E463AEA3873DEC600C9FA6499C02D3A13AC44C7B295E52C04356E1A35C69FEAAAD0027F3FD74D753A0C64E88781EC0A7A2687BEAA487D6ACE7DD95C2EF969C7B2C5CC9957F34F466951781C8117342F09AD48517FD0BA2D76ED9EBED17D5B52962DF23FA6F01CFF690A4AFBB2D8E2AE36073C8F415E0467D9D2
310
575CAF32E35EBAE5DF504B010214000A0000080000193BDB423DEE336E79000000790000001B00000000000000000000000000000000006175746F6465736B2D64657369676E2D7061636B6167652E786D6C504B01021400140006080800193BDB42D486FD9CA0000000F40000001300000000000000000000000000B20000
310
005B436F6E74656E745F54797065735D2E786D6C504B01021400140006080800193BDB423BCCB1FEED0000007C010000080000000000000000000000000083010000636F72652E786D6C504B01021400140006080800193BDB4255019EA25F0000007C000000070000000000000000000000000096020000636E782E786D6C
310
504B01021400140006080800193BDB423451762E69010000020300000C000000000000000000000000001A0300006662782F636F72652E786D6C504B01021400140006080800193BDB421807D3227D0000009D0000000B00000000000000000000000000AD0400006662782F636E782E786D6C504B01021400140006080800
310
193BDB422BE3D6C52B010000140200003100000000000000000000000000530500006662782F42373343434137362D424243302D343134422D393242362D4146354142414633333134372F636F72652E786D6C504B01021400140006080800193BDB42F2CA67F456010000330300003000000000000000000000000000CD06
310
00006662782F42373343434137362D424243302D343134422D393242362D4146354142414633333134372F636E782E786D6C504B01021400140006080800193BDB4205C44A1C62070000991B00003400000000000000000000000000710800006662782F42373343434137362D424243302D343134422D393242362D414635
310
4142414633333134372F6F626A656374732E786D6C504B01021400140006080000193BDB420000000000000000000000003500000000000000000000000000251000006662782F42373343434137362D424243302D343134422D393242362D4146354142414633333134372F76657274696365732E62696E504B0102140014
310
0006080800193BDB42F270F13306000000040000003600000000000000000000000000781000006662782F42373343434137362D424243302D343134422D393242362D4146354142414633333134372F747269616E676C65732E62696E504B01021400140006080000193BDB42000000000000000000000000370000000000
310
0000000000000000D21000006662782F42373343434137362D424243302D343134422D393242362D4146354142414633333134372F617474726962757465732E62696E504B01021400140006080800193BDB42D5987DFC8F000000410100003600000000000000000000000000271100006662782F42373343434137362D42
310
4243302D343134422D393242362D4146354142414633333134372F6469726563746F72792E786D6C504B01021400140006080800193BDB42BF216F59FF000000A00100003B000000000000000000000000000A1200006662782F42373343434137362D424243302D343134422D393242362D4146354142414633333134372F
310
7265736F75726365732F636F72652E786D6C504B0506000000000E000E0080040000621300000000
  0
XRECORD
  5
27
102
{ACAD_REACTORS
330
22
102
}
330
22
100
AcDbXrecord
280
     1
270
     1
271
     1
  0
XRECORD
  5
26
102
{ACAD_REACTORS
330
22
102
}
330
22
100
AcDbXrecord
280
     1
270
     1
271
     1
  0
XRECORD
  5
28
102
{ACAD_REACTORS
330
22
102
}
330
22
100
AcDbXrecord
280
     1
270
     1
271
     1
  0
XRECORD
  5
25
102
{ACAD_REACTORS
330
22
102
}
330
22
100
AcDbXrecord
280
     1
270
     1
271
     1
  0
XRECORD
  5
B0A
102
{ACAD_REACTORS
330
B09
102
}
330
B09
100
AcDbXrecord
280
     1
102
ACAD_ROUNDTRIP_2012_MLEADER_STYLE
298
     1
  0
CELLSTYLEMAP
  5
B08
102
{ACAD_REACTORS
330
B07
102
}
330
B07
100
AcDbCellStyleMap
 90
        3
300
CELLSTYLE
  1
TABLEFORMAT_BEGIN
 90
        5
170
     1
 91
        0
 92
    32768
 62
   257
 93
        1
300
CONTENTFORMAT
  1
CONTENTFORMAT_BEGIN
 90
        0
 91
        0
 92
      512
 93
        0
300

 40
0.0
140
1.0
 94
        5
 62
     0
340
55
144
0.25
309
CONTENTFORMAT_END
171
     0
 94
        0
309
TABLEFORMAT_END
  1
CELLSTYLE_BEGIN
 90
        1
 91
        1
300
_TITLE
309
CELLSTYLE_END
300
CELLSTYLE
  1
TABLEFORMAT_BEGIN
 90
        5
170
     1
 91
        0
 92
        0
 62
   257
 93
        1
300
CONTENTFORMAT
  1
CONTENTFORMAT_BEGIN
 90
        0
 91
        0
 92
      512
 93
        0
300

 40
0.0
140
1.0
 94
        5
 62
     0
340
55
144
0.18
309
CONTENTFORMAT_END
171
     0
 94
        0
309
TABLEFORMAT_END
  1
CELLSTYLE_BEGIN
 90
        2
 91
        1
300
_HEADER
309
CELLSTYLE_END
300
CELLSTYLE
  1
TABLEFORMAT_BEGIN
 90
        5
170
     1
 91
        0
 92
        0
 62
   257
 93
        1
300
CONTENTFORMAT
  1
CONTENTFORMAT_BEGIN
 90
        0
 91
        0
 92
      512
 93
        0
300

 40
0.0
140
1.0
 94
        2
 62
     0
340
55
144
0.18
309
CONTENTFORMAT_END
171
     0
 94
        0
309
TABLEFORMAT_END
  1
CELLSTYLE_BEGIN
 90
        3
 91
        2
300
_DATA
309
CELLSTYLE_END
  0
ENDSEC
  0
EOF
