  0
SECTION
  2
HEADER
  9
$ACADVER
  1
AC1024
  9
$ACADMAINTVER
 70
    63
  9
$DWGCODEPAGE
  3
ANSI_1252
  9
$AUTHOR
  1
PR
  9
$REVISIONNUMBER
  1
-
  9
$CUSTOMPROPERTYTAG
  1
Manager
  9
$CUSTOMPROPERTY
  1

  9
$CUSTOMPROPERTYTAG
  1
Company
  9
$CUSTOMPROPERTY
  1

  9
$CUSTOMPROPERTYTAG
  1
Category
  9
$CUSTOMPROPERTY
  1

  9
$CUSTOMPROPERTYTAG
  1
Part Number
  9
$CUSTOMPROPERTY
  1
HWDWA90SP36F3
  9
$CUSTOMPROPERTYTAG
  1
Description
  9
$CUSTOMPROPERTY
  1
N1P PANEL MASTER VIEW
  9
$CUSTOMPROPERTYTAG
  1
Project
  9
$CUSTOMPROPERTY
  1

  9
$CUSTOMPROPERTYTAG
  1
Designer
  9
$CUSTOMPROPERTY
  1
PR
  9
$CUSTOMPROPERTYTAG
  1
Engineer
  9
$CUSTOMPROPERTY
  1

  9
$CUSTOMPROPERTYTAG
  1
Authority
  9
$CUSTOMPROPERTY
  1

  9
$CUSTOMPROPERTYTAG
  1
Cost Center
  9
$CUSTOMPROPERTY
  1

  9
$CUSTOMPROPERTYTAG
  1
Vendor
  9
$CUSTOMPROPERTY
  1

  9
$CUSTOMPROPERTYTAG
  1
User Status
  9
$CUSTOMPROPERTY
  1

  9
$CUSTOMPROPERTYTAG
  1
Design Status
  9
$CUSTOMPROPERTY
  1
WorkInProgress
  9
$CUSTOMPROPERTYTAG
  1
Checked by
  9
$CUSTOMPROPERTY
  1
NJ
  9
$CUSTOMPROPERTYTAG
  1
Engr Approved by
  9
$CUSTOMPROPERTY
  1

  9
$CUSTOMPROPERTYTAG
  1
Date Eng Approved
  9
$CUSTOMPROPERTY
  1
06/27/2013
  9
$CUSTOMPROPERTYTAG
  1
Mfg Approved by
  9
$CUSTOMPROPERTY
  1

  9
$CUSTOMPROPERTYTAG
  1
DWG. NO
  9
$CUSTOMPROPERTY
  1

  9
$CUSTOMPROPERTYTAG
  1
NUMBER OF SHEETS
  9
$CUSTOMPROPERTY
  1
1
  9
$CUSTOMPROPERTYTAG
  1
DRAWING #
  9
$CUSTOMPROPERTY
  1
1
  9
$INSBASE
 10
0.0
 20
0.0
 30
0.0
  9
$EXTMIN
 10
0.0
 20
0.0
 30
0.0
  9
$EXTMAX
 10
221.0
 20
143.0
 30
0.0
  9
$LIMMIN
 10
0.0
 20
0.0
  9
$LIMMAX
 10
221.0
 20
143.0
  9
$ORTHOMODE
 70
     0
  9
$REGENMODE
 70
     1
  9
$FILLMODE
 70
     1
  9
$QTEXTMODE
 70
     0
  9
$MIRRTEXT
 70
     0
  9
$LTSCALE
 40
13.0
  9
$ATTMODE
 70
     1
  9
$TEXTSIZE
 40
0.2
  9
$TRACEWID
 40
0.05
  9
$TEXTSTYLE
  7
Standard
  9
$CLAYER
  8
0
  9
$CELTYPE
  6
ByLayer
  9
$CECOLOR
 62
   256
  9
$CELTSCALE
 40
1.0
  9
$DISPSILH
 70
     0
  9
$DIMSCALE
 40
1.0
  9
$DIMASZ
 40
0.0708661417322835
  9
$DIMEXO
 40
0.0625
  9
$DIMDLI
 40
0.38
  9
$DIMRND
 40
0.0
  9
$DIMDLE
 40
0.0
  9
$DIMEXE
 40
0.18
  9
$DIMTP
 40
0.0
  9
$DIMTM
 40
0.0
  9
$DIMTXT
 40
0.0708661417322835
  9
$DIMCEN
 40
0.09
  9
$DIMTSZ
 40
0.0
  9
$DIMTOL
 70
     0
  9
$DIMLIM
 70
     0
  9
$DIMTIH
 70
     1
  9
$DIMTOH
 70
     1
  9
$DIMSE1
 70
     0
  9
$DIMSE2
 70
     0
  9
$DIMTAD
 70
     0
  9
$DIMZIN
 70
     0
  9
$DIMBLK
  1

  9
$DIMASO
 70
     1
  9
$DIMSHO
 70
     1
  9
$DIMPOST
  1

  9
$DIMAPOST
  1

  9
$DIMALT
 70
     0
  9
$DIMALTD
 70
     2
  9
$DIMALTF
 40
25.4
  9
$DIMLFAC
 40
1.0
  9
$DIMTOFL
 70
     0
  9
$DIMTVP
 40
0.0
  9
$DIMTIX
 70
     0
  9
$DIMSOXD
 70
     0
  9
$DIMSAH
 70
     0
  9
$DIMBLK1
  1

  9
$DIMBLK2
  1

  9
$DIMSTYLE
  2
STANDARD
  9
$DIMCLRD
 70
     0
  9
$DIMCLRE
 70
     0
  9
$DIMCLRT
 70
     0
  9
$DIMTFAC
 40
1.0
  9
$DIMGAP
 40
0.09
  9
$DIMJUST
 70
     0
  9
$DIMSD1
 70
     0
  9
$DIMSD2
 70
     0
  9
$DIMTOLJ
 70
     1
  9
$DIMTZIN
 70
     0
  9
$DIMALTZ
 70
     0
  9
$DIMALTTZ
 70
     0
  9
$DIMUPT
 70
     0
  9
$DIMDEC
 70
     4
  9
$DIMTDEC
 70
     4
  9
$DIMALTU
 70
     2
  9
$DIMALTTD
 70
     2
  9
$DIMTXSTY
  7
Standard
  9
$DIMAUNIT
 70
     0
  9
$DIMADEC
 70
     0
  9
$DIMALTRND
 40
0.0
  9
$DIMAZIN
 70
     0
  9
$DIMDSEP
 70
    46
  9
$DIMATFIT
 70
     3
  9
$DIMFRAC
 70
     0
  9
$DIMLDRBLK
  1

  9
$DIMLUNIT
 70
     2
  9
$DIMLWD
 70
    -2
  9
$DIMLWE
 70
    -2
  9
$DIMTMOVE
 70
     0
  9
$DIMFXL
 40
1.0
  9
$DIMFXLON
 70
     0
  9
$DIMJOGANG
 40
0.7853981633974483
  9
$DIMTFILL
 70
     0
  9
$DIMTFILLCLR
 70
     0
  9
$DIMARCSYM
 70
     0
  9
$DIMLTYPE
  6

  9
$DIMLTEX1
  6

  9
$DIMLTEX2
  6

  9
$DIMTXTDIRECTION
 70
     0
  9
$LUNITS
 70
     2
  9
$LUPREC
 70
     4
  9
$SKETCHINC
 40
0.1
  9
$FILLETRAD
 40
0.0
  9
$AUNITS
 70
     0
  9
$AUPREC
 70
     0
  9
$MENU
  1
.
  9
$ELEVATION
 40
0.0
  9
$PELEVATION
 40
0.0
  9
$THICKNESS
 40
0.0
  9
$LIMCHECK
 70
     0
  9
$CHAMFERA
 40
0.0
  9
$CHAMFERB
 40
0.0
  9
$CHAMFERC
 40
0.0
  9
$CHAMFERD
 40
0.0
  9
$SKPOLY
 70
     0
  9
$TDCREATE
 40
2456478.840509225
  9
$TDUCREATE
 40
2456478.611342558
  9
$TDUPDATE
 40
2456478.840509237
  9
$TDUUPDATE
 40
2456478.611342570
  9
$TDINDWG
 40
0.0000434722
  9
$TDUSRTIMER
 40
0.0000434722
  9
$USRTIMER
 70
     1
  9
$ANGBASE
 50
0.0
  9
$ANGDIR
 70
     0
  9
$PDMODE
 70
     0
  9
$PDSIZE
 40
0.0
  9
$PLINEWID
 40
0.0
  9
$SPLFRAME
 70
     0
  9
$SPLINETYPE
 70
     6
  9
$SPLINESEGS
 70
     8
  9
$HANDSEED
  5
D81
  9
$SURFTAB1
 70
     6
  9
$SURFTAB2
 70
     6
  9
$SURFTYPE
 70
     6
  9
$SURFU
 70
     6
  9
$SURFV
 70
     6
  9
$UCSBASE
  2

  9
$UCSNAME
  2

  9
$UCSORG
 10
0.0
 20
0.0
 30
0.0
  9
$UCSXDIR
 10
1.0
 20
0.0
 30
0.0
  9
$UCSYDIR
 10
0.0
 20
1.0
 30
0.0
  9
$UCSORTHOREF
  2

  9
$UCSORTHOVIEW
 70
     0
  9
$UCSORGTOP
 10
0.0
 20
0.0
 30
0.0
  9
$UCSORGBOTTOM
 10
0.0
 20
0.0
 30
0.0
  9
$UCSORGLEFT
 10
0.0
 20
0.0
 30
0.0
  9
$UCSORGRIGHT
 10
0.0
 20
0.0
 30
0.0
  9
$UCSORGFRONT
 10
0.0
 20
0.0
 30
0.0
  9
$UCSORGBACK
 10
0.0
 20
0.0
 30
0.0
  9
$PUCSBASE
  2

  9
$PUCSNAME
  2

  9
$PUCSORG
 10
0.0
 20
0.0
 30
0.0
  9
$PUCSXDIR
 10
1.0
 20
0.0
 30
0.0
  9
$PUCSYDIR
 10
0.0
 20
1.0
 30
0.0
  9
$PUCSORTHOREF
  2

  9
$PUCSORTHOVIEW
 70
     0
  9
$PUCSORGTOP
 10
0.0
 20
0.0
 30
0.0
  9
$PUCSORGBOTTOM
 10
0.0
 20
0.0
 30
0.0
  9
$PUCSORGLEFT
 10
0.0
 20
0.0
 30
0.0
  9
$PUCSORGRIGHT
 10
0.0
 20
0.0
 30
0.0
  9
$PUCSORGFRONT
 10
0.0
 20
0.0
 30
0.0
  9
$PUCSORGBACK
 10
0.0
 20
0.0
 30
0.0
  9
$USERI1
 70
     0
  9
$USERI2
 70
     0
  9
$USERI3
 70
     0
  9
$USERI4
 70
     0
  9
$USERI5
 70
     0
  9
$USERR1
 40
0.0
  9
$USERR2
 40
0.0
  9
$USERR3
 40
0.0
  9
$USERR4
 40
0.0
  9
$USERR5
 40
0.0
  9
$WORLDVIEW
 70
     1
  9
$SHADEDGE
 70
     3
  9
$SHADEDIF
 70
    70
  9
$TILEMODE
 70
     1
  9
$MAXACTVP
 70
    64
  9
$PINSBASE
 10
0.0
 20
0.0
 30
0.0
  9
$PLIMCHECK
 70
     0
  9
$PEXTMIN
 10
0.0
 20
0.0
 30
0.0
  9
$PEXTMAX
 10
221.0
 20
143.0
 30
0.0
  9
$PLIMMIN
 10
0.0
 20
0.0
  9
$PLIMMAX
 10
221.0
 20
143.0
  9
$UNITMODE
 70
     0
  9
$VISRETAIN
 70
     1
  9
$PLINEGEN
 70
     0
  9
$PSLTSCALE
 70
     1
  9
$TREEDEPTH
 70
  3020
  9
$CMLSTYLE
  2
Standard
  9
$CMLJUST
 70
     0
  9
$CMLSCALE
 40
1.0
  9
$PROXYGRAPHICS
 70
     1
  9
$MEASUREMENT
 70
     0
  9
$CELWEIGHT
370
    -1
  9
$ENDCAPS
280
     0
  9
$JOINSTYLE
280
     0
  9
$LWDISPLAY
290
     0
  9
$INSUNITS
 70
     1
  9
$HYPERLINKBASE
  1

  9
$STYLESHEET
  1

  9
$XEDIT
290
     1
  9
$CEPSNTYPE
380
     0
  9
$PSTYLEMODE
290
     1
  9
$FINGERPRINTGUID
  2
{761DFA91-3FA5-4619-B756-4346CA9A8642}
  9
$VERSIONGUID
  2
{5DFA8645-9244-46FB-BBF1-46FE49DC3891}
  9
$EXTNAMES
290
     1
  9
$PSVPSCALE
 40
0.0
  9
$OLESTARTUP
290
     0
  9
$SORTENTS
280
   127
  9
$INDEXCTL
280
     0
  9
$HIDETEXT
280
     1
  9
$XCLIPFRAME
280
     2
  9
$HALOGAP
280
     0
  9
$OBSCOLOR
 70
   257
  9
$OBSLTYPE
280
     0
  9
$INTERSECTIONDISPLAY
280
     0
  9
$INTERSECTIONCOLOR
 70
   257
  9
$DIMASSOC
280
     1
  9
$PROJECTNAME
  1

  9
$CAMERADISPLAY
290
     0
  9
$LENSLENGTH
 40
50.0
  9
$CAMERAHEIGHT
 40
0.0
  9
$STEPSPERSEC
 40
2.0
  9
$STEPSIZE
 40
6.0
  9
$3DDWFPREC
 40
2.0
  9
$PSOLWIDTH
 40
0.25
  9
$PSOLHEIGHT
 40
4.0
  9
$LOFTANG1
 40
1.570796326794896
  9
$LOFTANG2
 40
1.570796326794896
  9
$LOFTMAG1
 40
0.0
  9
$LOFTMAG2
 40
0.0
  9
$LOFTPARAM
 70
     7
  9
$LOFTNORMALS
280
     1
  9
$LATITUDE
 40
37.795
  9
$LONGITUDE
 40
-122.394
  9
$NORTHDIRECTION
 40
0.0
  9
$TIMEZONE
 70
 -8000
  9
$LIGHTGLYPHDISPLAY
280
     1
  9
$TILEMODELIGHTSYNCH
280
     1
  9
$CMATERIAL
347
11
  9
$SOLIDHIST
280
     0
  9
$SHOWHIST
280
     1
  9
$DWFFRAME
280
     2
  9
$DGNFRAME
280
     0
  9
$REALWORLDSCALE
290
     1
  9
$INTERFERECOLOR
 62
     1
  9
$INTERFEREOBJVS
345
33
  9
$INTERFEREVPVS
346
30
  9
$CSHADOW
280
     0
  9
$SHADOWPLANELOCATION
 40
0.0
  0
ENDSEC
  0
SECTION
  2
CLASSES
  0
CLASS
  1
ACDBDICTIONARYWDFLT
  2
AcDbDictionaryWithDefault
  3
ObjectDBX Classes
 90
        0
 91
        1
280
     0
281
     0
  0
CLASS
  1
MATERIAL
  2
AcDbMaterial
  3
ObjectDBX Classes
 90
     1153
 91
        3
280
     0
281
     0
  0
CLASS
  1
VISUALSTYLE
  2
AcDbVisualStyle
  3
ObjectDBX Classes
 90
     4095
 91
       24
280
     0
281
     0
  0
CLASS
  1
SCALE
  2
AcDbScale
  3
ObjectDBX Classes
 90
     1153
 91
       17
280
     0
281
     0
  0
CLASS
  1
TABLESTYLE
  2
AcDbTableStyle
  3
ObjectDBX Classes
 90
     4095
 91
        1
280
     0
281
     0
  0
CLASS
  1
MLEADERSTYLE
  2
AcDbMLeaderStyle
  3
ACDB_MLEADERSTYLE_CLASS
 90
     4095
 91
        1
280
     0
281
     0
  0
CLASS
  1
DICTIONARYVAR
  2
AcDbDictionaryVar
  3
ObjectDBX Classes
 90
        0
 91
        3
280
     0
281
     0
  0
CLASS
  1
CELLSTYLEMAP
  2
AcDbCellStyleMap
  3
ObjectDBX Classes
 90
     1152
 91
        1
280
     0
281
     0
  0
ENDSEC
  0
SECTION
  2
TABLES
  0
TABLE
  2
VPORT
  5
8
330
0
100
AcDbSymbolTable
 70
     1
  0
VPORT
  5
57
330
8
100
AcDbSymbolTableRecord
100
AcDbViewportTableRecord
  2
*Active
 70
     0
 10
0.0
 20
0.0
 11
1.0
 21
1.0
 12
110.5
 22
71.5
 13
0.0
 23
0.0
 14
1.0
 24
1.0
 15
0.0
 25
0.0
 16
0.0
 26
0.0
 36
1.0
 17
0.0
 27
0.0
 37
0.0
 40
143.0
 41
1.545454545454545
 42
50.0
 43
0.0
 44
0.0
 50
0.0
 51
0.0
 71
     0
 72
   100
 73
     1
 74
     1
 75
     0
 76
     0
 77
     0
 78
     0
281
     0
 65
     1
110
0.0
120
0.0
130
0.0
111
1.0
121
0.0
131
0.0
112
0.0
122
1.0
132
0.0
 79
     0
146
0.0
 60
     3
 61
     5
292
     1
282
     1
141
0.0
142
0.0
 63
   250
421
  3355443
  0
ENDTAB
  0
TABLE
  2
LTYPE
  5
5
330
0
100
AcDbSymbolTable
 70
    59
  0
LTYPE
  5
5B
330
5
100
AcDbSymbolTableRecord
100
AcDbLinetypeTableRecord
  2
ByBlock
 70
     0
  3

 72
    65
 73
     0
 40
0.0
  0
LTYPE
  5
5C
330
5
100
AcDbSymbolTableRecord
100
AcDbLinetypeTableRecord
  2
ByLayer
 70
     0
  3

 72
    65
 73
     0
 40
0.0
  0
LTYPE
  5
5D
330
5
100
AcDbSymbolTableRecord
100
AcDbLinetypeTableRecord
  2
Continuous
 70
     0
  3
Solid line
 72
    65
 73
     0
 40
0.0
  0
LTYPE
  5
7C
330
5
100
AcDbSymbolTableRecord
100
AcDbLinetypeTableRecord
  2
BY_STANDARD
 70
     0
  3
By Standard ____________    ____    ____   _
 72
    65
 73
     6
 40
1.240299999999999
 49
0.6614
 74
     0
 49
-0.0827
 74
     0
 49
0.1654
 74
     0
 49
-0.0827
 74
     0
 49
0.1654
 74
     0
 49
-0.0827
 74
     0
  0
LTYPE
  5
7D
330
5
100
AcDbSymbolTableRecord
100
AcDbLinetypeTableRecord
  2
CHAIN
 70
     0
  3
Chain ____ _ ____ _ ____ _ ____ _ ____ _ ____
 72
    65
 73
     4
 40
0.7087
 49
0.4724000000000001
 74
     0
 49
-0.0591
 74
     0
 49
0.1181
 74
     0
 49
-0.0591
 74
     0
  0
LTYPE
  5
7E
330
5
100
AcDbSymbolTableRecord
100
AcDbLinetypeTableRecord
  2
DASH_DOT
 70
     0
  3
Dash dot __ . __ . __ . __ . __ . __ . __ . __
 72
    65
 73
     4
 40
0.37
 49
0.24
 74
     0
 49
-0.06
 74
     0
 49
0.01
 74
     0
 49
-0.06
 74
     0
  0
LTYPE
  5
7F
330
5
100
AcDbSymbolTableRecord
100
AcDbLinetypeTableRecord
  2
DOUBLE_DASH_DOT
 70
     0
  3
Double-Dash Dot __ __ . __ __ . __ __ . __ _
 72
    65
 73
     6
 40
0.4398
 49
0.24
 74
     0
 49
-0.06
 74
     0
 49
0.0098
 74
     0
 49
-0.06
 74
     0
 49
0.01
 74
     0
 49
-0.06
 74
     0
  0
LTYPE
  5
80
330
5
100
AcDbSymbolTableRecord
100
AcDbLinetypeTableRecord
  2
DASH_TRIPLE_DOT
 70
     0
  3
Dash Triple-Dot _ . . . _ . . . _ . . . _
 72
    65
 73
     8
 40
0.51
 49
0.24
 74
     0
 49
-0.06
 74
     0
 49
0.01
 74
     0
 49
-0.06
 74
     0
 49
0.01
 74
     0
 49
-0.06
 74
     0
 49
0.01
 74
     0
 49
-0.06
 74
     0
  0
LTYPE
  5
81
330
5
100
AcDbSymbolTableRecord
100
AcDbLinetypeTableRecord
  2
DASHED
 70
     0
  3
Dashed __ __ __ __ __ __ __ __ __ __ __ __ __ _
 72
    65
 73
     2
 40
0.2067
 49
0.1654
 74
     0
 49
-0.0413
 74
     0
  0
LTYPE
  5
82
330
5
100
AcDbSymbolTableRecord
100
AcDbLinetypeTableRecord
  2
DASH_DOUBLE_DOT
 70
     0
  3
Dash Double-Dot __ . . __ . . __ . . __ . .
 72
    65
 73
     6
 40
0.4398
 49
0.24
 74
     0
 49
-0.06
 74
     0
 49
0.0098
 74
     0
 49
-0.06
 74
     0
 49
0.01
 74
     0
 49
-0.06
 74
     0
  0
LTYPE
  5
83
330
5
100
AcDbSymbolTableRecord
100
AcDbLinetypeTableRecord
  2
DASHED_SPACE
 70
     0
  3
Dashed Space __ __ __ __ __ __ __ __ __ __ __ _
 72
    65
 73
     2
 40
0.2067
 49
0.1654
 74
     0
 49
-0.0413
 74
     0
  0
LTYPE
  5
84
330
5
100
AcDbSymbolTableRecord
100
AcDbLinetypeTableRecord
  2
DOTTED
 70
     0
  3
Dotted . . . . . . . . . . . . . . . . . . . . 
 72
    65
 73
     2
 40
0.0482
 49
0.0069
 74
     0
 49
-0.0413
 74
     0
  0
LTYPE
  5
85
330
5
100
AcDbSymbolTableRecord
100
AcDbLinetypeTableRecord
  2
DOUBLE_DASH_CHAIN
 70
     0
  3
Double-Dash Chain ______  __  __  ______  __  _
 72
    65
 73
     6
 40
1.240299999999999
 49
0.6614
 74
     0
 49
-0.0827
 74
     0
 49
0.1654
 74
     0
 49
-0.0827
 74
     0
 49
0.1654
 74
     0
 49
-0.0827
 74
     0
  0
LTYPE
  5
87
330
5
100
AcDbSymbolTableRecord
100
AcDbLinetypeTableRecord
  2
DOUBLE_DASH_DOUBLE_DOT
 70
     0
  3
Double-Dash Double-dot _ _ . . _ _ . . _
 72
    65
 73
     8
 40
0.7400000000000001
 49
0.24
 74
     0
 49
-0.06
 74
     0
 49
0.24
 74
     0
 49
-0.06
 74
     0
 49
0.01
 74
     0
 49
-0.06
 74
     0
 49
0.01
 74
     0
 49
-0.06
 74
     0
  0
LTYPE
  5
88
330
5
100
AcDbSymbolTableRecord
100
AcDbLinetypeTableRecord
  2
DOUBLE_DASH_TRIPLE_DOT
 70
     0
  3
Double Dash Triple Dot __ __ . . . __ __ . .
 72
    65
 73
    10
 40
0.8100000000000001
 49
0.24
 74
     0
 49
-0.06
 74
     0
 49
0.24
 74
     0
 49
-0.06
 74
     0
 49
0.01
 74
     0
 49
-0.06
 74
     0
 49
0.01
 74
     0
 49
-0.06
 74
     0
 49
0.01
 74
     0
 49
-0.06
 74
     0
  0
LTYPE
  5
89
330
5
100
AcDbSymbolTableRecord
100
AcDbLinetypeTableRecord
  2
LONG_DASH_DOTTED
 70
     0
  3
Long Dash Dotted ____ . ____ . ____ . ____ . _
 72
    65
 73
     4
 40
0.3543
 49
0.2362
 74
     0
 49
-0.0295
 74
     0
 49
0.0591
 74
     0
 49
-0.0295
 74
     0
  0
LTYPE
  5
8A
330
5
100
AcDbSymbolTableRecord
100
AcDbLinetypeTableRecord
  2
LONG_DASH_DOUBLE_DOT
 70
     0
  3
Long Dash Double Dot ________  .  .  ________  
 72
    65
 73
     6
 40
0.6799999999999999
 49
0.48
 74
     0
 49
-0.06
 74
     0
 49
0.01
 74
     0
 49
-0.06
 74
     0
 49
0.01
 74
     0
 49
-0.06
 74
     0
  0
LTYPE
  5
8B
330
5
100
AcDbSymbolTableRecord
100
AcDbLinetypeTableRecord
  2
LONG_DASH_TRIPLE_DOT
 70
     0
  3
Long Dash Triple Dot ____ ... ____ ... ____
 72
    65
 73
     8
 40
0.3689
 49
0.2362
 74
     0
 49
-0.0295
 74
     0
 49
0.0049
 74
     0
 49
-0.0295
 74
     0
 49
0.0049
 74
     0
 49
-0.0295
 74
     0
 49
0.0049
 74
     0
 49
-0.0295
 74
     0
  0
LTYPE
  5
8C
330
5
100
AcDbSymbolTableRecord
100
AcDbLinetypeTableRecord
  2
BORDER
 70
     0
  3
Border __ __ . __ __ . __ __ . __ __ . __ __ .
 72
    65
 73
     6
 40
1.75
 49
0.5
 74
     0
 49
-0.25
 74
     0
 49
0.5
 74
     0
 49
-0.25
 74
     0
 49
0.0
 74
     0
 49
-0.25
 74
     0
  0
LTYPE
  5
8D
330
5
100
AcDbSymbolTableRecord
100
AcDbLinetypeTableRecord
  2
BORDER2
 70
     0
  3
Border (.5x) __.__.__.__.__.__.__.__.__.__.__.
 72
    65
 73
     6
 40
0.875
 49
0.25
 74
     0
 49
-0.125
 74
     0
 49
0.25
 74
     0
 49
-0.125
 74
     0
 49
0.0
 74
     0
 49
-0.125
 74
     0
  0
LTYPE
  5
8E
330
5
100
AcDbSymbolTableRecord
100
AcDbLinetypeTableRecord
  2
BORDERX2
 70
     0
  3
Border (2x) ____  ____  .  ____  ____  .  ___
 72
    65
 73
     6
 40
3.5
 49
1.0
 74
     0
 49
-0.5
 74
     0
 49
1.0
 74
     0
 49
-0.5
 74
     0
 49
0.0
 74
     0
 49
-0.5
 74
     0
  0
LTYPE
  5
8F
330
5
100
AcDbSymbolTableRecord
100
AcDbLinetypeTableRecord
  2
CENTER
 70
     0
  3
Center ____ _ ____ _ ____ _ ____ _ ____ _ ____
 72
    65
 73
     4
 40
2.0
 49
1.25
 74
     0
 49
-0.25
 74
     0
 49
0.25
 74
     0
 49
-0.25
 74
     0
  0
LTYPE
  5
90
330
5
100
AcDbSymbolTableRecord
100
AcDbLinetypeTableRecord
  2
CENTER2
 70
     0
  3
Center (.5x) ___ _ ___ _ ___ _ ___ _ ___ _ ___
 72
    65
 73
     4
 40
1.125
 49
0.75
 74
     0
 49
-0.125
 74
     0
 49
0.125
 74
     0
 49
-0.125
 74
     0
  0
LTYPE
  5
91
330
5
100
AcDbSymbolTableRecord
100
AcDbLinetypeTableRecord
  2
CENTERX2
 70
     0
  3
Center (2x) ________  __  ________  __  _____
 72
    65
 73
     4
 40
4.0
 49
2.5
 74
     0
 49
-0.5
 74
     0
 49
0.5
 74
     0
 49
-0.5
 74
     0
  0
LTYPE
  5
92
330
5
100
AcDbSymbolTableRecord
100
AcDbLinetypeTableRecord
  2
DASHDOT2
 70
     0
  3
Dash dot (.5x) _._._._._._._._._._._._._._._.
 72
    65
 73
     4
 40
0.5
 49
0.25
 74
     0
 49
-0.125
 74
     0
 49
0.0
 74
     0
 49
-0.125
 74
     0
  0
LTYPE
  5
93
330
5
100
AcDbSymbolTableRecord
100
AcDbLinetypeTableRecord
  2
DASHDOTX2
 70
     0
  3
Dash dot (2x) ____  .  ____  .  ____  .  ___
 72
    65
 73
     4
 40
2.0
 49
1.0
 74
     0
 49
-0.5
 74
     0
 49
0.0
 74
     0
 49
-0.5
 74
     0
  0
LTYPE
  5
95
330
5
100
AcDbSymbolTableRecord
100
AcDbLinetypeTableRecord
  2
DASHED2
 70
     0
  3
Dashed (.5x) _ _ _ _ _ _ _ _ _ _ _ _ _ _ _ _ _
 72
    65
 73
     2
 40
0.375
 49
0.25
 74
     0
 49
-0.125
 74
     0
  0
LTYPE
  5
96
330
5
100
AcDbSymbolTableRecord
100
AcDbLinetypeTableRecord
  2
DASHEDX2
 70
     0
  3
Dashed (2x) ____  ____  ____  ____  ____  ___
 72
    65
 73
     2
 40
1.5
 49
1.0
 74
     0
 49
-0.5
 74
     0
  0
LTYPE
  5
97
330
5
100
AcDbSymbolTableRecord
100
AcDbLinetypeTableRecord
  2
DIVIDE
 70
     0
  3
Divide ____ . . ____ . . ____ . . ____ . . ____
 72
    65
 73
     6
 40
1.25
 49
0.5
 74
     0
 49
-0.25
 74
     0
 49
0.0
 74
     0
 49
-0.25
 74
     0
 49
0.0
 74
     0
 49
-0.25
 74
     0
  0
LTYPE
  5
98
330
5
100
AcDbSymbolTableRecord
100
AcDbLinetypeTableRecord
  2
DIVIDE2
 70
     0
  3
Divide (.5x) __..__..__..__..__..__..__..__.._
 72
    65
 73
     6
 40
0.625
 49
0.25
 74
     0
 49
-0.125
 74
     0
 49
0.0
 74
     0
 49
-0.125
 74
     0
 49
0.0
 74
     0
 49
-0.125
 74
     0
  0
LTYPE
  5
99
330
5
100
AcDbSymbolTableRecord
100
AcDbLinetypeTableRecord
  2
DIVIDEX2
 70
     0
  3
Divide (2x) ________  .  .  ________  .  .  _
 72
    65
 73
     6
 40
2.5
 49
1.0
 74
     0
 49
-0.5
 74
     0
 49
0.0
 74
     0
 49
-0.5
 74
     0
 49
0.0
 74
     0
 49
-0.5
 74
     0
  0
LTYPE
  5
9A
330
5
100
AcDbSymbolTableRecord
100
AcDbLinetypeTableRecord
  2
DOT
 70
     0
  3
Dot . . . . . . . . . . . . . . . . . . . . . .
 72
    65
 73
     2
 40
0.25
 49
0.0
 74
     0
 49
-0.25
 74
     0
  0
LTYPE
  5
9B
330
5
100
AcDbSymbolTableRecord
100
AcDbLinetypeTableRecord
  2
DOT2
 70
     0
  3
Dot (.5x) .....................................
 72
    65
 73
     2
 40
0.125
 49
0.0
 74
     0
 49
-0.125
 74
     0
  0
LTYPE
  5
9C
330
5
100
AcDbSymbolTableRecord
100
AcDbLinetypeTableRecord
  2
DOTX2
 70
     0
  3
Dot (2x) .  .  .  .  .  .  .  .  .  .  .  .  . 
 72
    65
 73
     2
 40
0.5
 49
0.0
 74
     0
 49
-0.5
 74
     0
  0
LTYPE
  5
9D
330
5
100
AcDbSymbolTableRecord
100
AcDbLinetypeTableRecord
  2
HIDDEN
 70
     0
  3
Hidden __ __ __ __ __ __ __ __ __ __ __ __ __ _
 72
    65
 73
     2
 40
0.375
 49
0.25
 74
     0
 49
-0.125
 74
     0
  0
LTYPE
  5
9E
330
5
100
AcDbSymbolTableRecord
100
AcDbLinetypeTableRecord
  2
HIDDEN2
 70
     0
  3
Hidden (.5x) _ _ _ _ _ _ _ _ _ _ _ _ _ _ _ _ _
 72
    65
 73
     2
 40
0.1875
 49
0.125
 74
     0
 49
-0.0625
 74
     0
  0
LTYPE
  5
9F
330
5
100
AcDbSymbolTableRecord
100
AcDbLinetypeTableRecord
  2
HIDDENX2
 70
     0
  3
Hidden (2x) ____ ____ ____ ____ ____ ____ ____
 72
    65
 73
     2
 40
0.75
 49
0.5
 74
     0
 49
-0.25
 74
     0
  0
LTYPE
  5
A0
330
5
100
AcDbSymbolTableRecord
100
AcDbLinetypeTableRecord
  2
PHANTOM
 70
     0
  3
Phantom ______  __  __  ______  __  __  ______
 72
    65
 73
     6
 40
2.5
 49
1.25
 74
     0
 49
-0.25
 74
     0
 49
0.25
 74
     0
 49
-0.25
 74
     0
 49
0.25
 74
     0
 49
-0.25
 74
     0
  0
LTYPE
  5
A1
330
5
100
AcDbSymbolTableRecord
100
AcDbLinetypeTableRecord
  2
PHANTOM2
 70
     0
  3
Phantom (.5x) ___ _ _ ___ _ _ ___ _ _ ___ _ _
 72
    65
 73
     6
 40
1.25
 49
0.625
 74
     0
 49
-0.125
 74
     0
 49
0.125
 74
     0
 49
-0.125
 74
     0
 49
0.125
 74
     0
 49
-0.125
 74
     0
  0
LTYPE
  5
A2
330
5
100
AcDbSymbolTableRecord
100
AcDbLinetypeTableRecord
  2
PHANTOMX2
 70
     0
  3
Phantom (2x) ____________    ____    ____   _
 72
    65
 73
     6
 40
5.0
 49
2.5
 74
     0
 49
-0.5
 74
     0
 49
0.5
 74
     0
 49
-0.5
 74
     0
 49
0.5
 74
     0
 49
-0.5
 74
     0
  0
LTYPE
  5
A3
330
5
100
AcDbSymbolTableRecord
100
AcDbLinetypeTableRecord
  2
ACAD_ISO02W100
 70
     0
  3
ISO dash __ __ __ __ __ __ __ __ __ __ __ __ __
 72
    65
 73
     2
 40
0.59
 49
0.47
 74
     0
 49
-0.12
 74
     0
  0
LTYPE
  5
A4
330
5
100
AcDbSymbolTableRecord
100
AcDbLinetypeTableRecord
  2
ACAD_ISO03W100
 70
     0
  3
ISO dash space __    __    __    __    __    __
 72
    65
 73
     2
 40
1.179999999999999
 49
0.47
 74
     0
 49
-0.71
 74
     0
  0
LTYPE
  5
A5
330
5
100
AcDbSymbolTableRecord
100
AcDbLinetypeTableRecord
  2
ACAD_ISO04W100
 70
     0
  3
ISO long-dash dot ____ . ____ . ____ . ____ . _
 72
    65
 73
     4
 40
1.179999999999999
 49
0.9399999999999998
 74
     0
 49
-0.12
 74
     0
 49
0.0
 74
     0
 49
-0.12
 74
     0
  0
LTYPE
  5
A6
330
5
100
AcDbSymbolTableRecord
100
AcDbLinetypeTableRecord
  2
ACAD_ISO05W100
 70
     0
  3
ISO long-dash double-dot ____ .. ____ .. ____ .
 72
    65
 73
     6
 40
1.299999999999999
 49
0.9399999999999998
 74
     0
 49
-0.12
 74
     0
 49
0.0
 74
     0
 49
-0.12
 74
     0
 49
0.0
 74
     0
 49
-0.12
 74
     0
  0
LTYPE
  5
A7
330
5
100
AcDbSymbolTableRecord
100
AcDbLinetypeTableRecord
  2
ACAD_ISO06W100
 70
     0
  3
ISO long-dash triple-dot ____ ... ____ ... ____
 72
    65
 73
     8
 40
1.419999999999999
 49
0.9399999999999998
 74
     0
 49
-0.12
 74
     0
 49
0.0
 74
     0
 49
-0.12
 74
     0
 49
0.0
 74
     0
 49
-0.12
 74
     0
 49
0.0
 74
     0
 49
-0.12
 74
     0
  0
LTYPE
  5
A8
330
5
100
AcDbSymbolTableRecord
100
AcDbLinetypeTableRecord
  2
ACAD_ISO07W100
 70
     0
  3
ISO dot . . . . . . . . . . . . . . . . . . . .
 72
    65
 73
     2
 40
0.12
 49
0.0
 74
     0
 49
-0.12
 74
     0
  0
LTYPE
  5
A9
330
5
100
AcDbSymbolTableRecord
100
AcDbLinetypeTableRecord
  2
ACAD_ISO08W100
 70
     0
  3
ISO long-dash short-dash ____ __ ____ __ ____ _
 72
    65
 73
     4
 40
0.95
 49
0.47
 74
     0
 49
-0.12
 74
     0
 49
0.24
 74
     0
 49
-0.12
 74
     0
  0
LTYPE
  5
AA
330
5
100
AcDbSymbolTableRecord
100
AcDbLinetypeTableRecord
  2
ACAD_ISO09W100
 70
     0
  3
ISO long-dash double-short-dash ____ __ __ ____
 72
    65
 73
     6
 40
1.31
 49
0.47
 74
     0
 49
-0.12
 74
     0
 49
0.24
 74
     0
 49
-0.12
 74
     0
 49
0.24
 74
     0
 49
-0.12
 74
     0
  0
LTYPE
  5
AB
330
5
100
AcDbSymbolTableRecord
100
AcDbLinetypeTableRecord
  2
ACAD_ISO10W100
 70
     0
  3
ISO dash dot __ . __ . __ . __ . __ . __ . __ .
 72
    65
 73
     4
 40
0.71
 49
0.47
 74
     0
 49
-0.12
 74
     0
 49
0.0
 74
     0
 49
-0.12
 74
     0
  0
LTYPE
  5
AC
330
5
100
AcDbSymbolTableRecord
100
AcDbLinetypeTableRecord
  2
ACAD_ISO11W100
 70
     0
  3
ISO double-dash dot __ __ . __ __ . __ __ . __ 
 72
    65
 73
     6
 40
1.299999999999999
 49
0.47
 74
     0
 49
-0.12
 74
     0
 49
0.47
 74
     0
 49
-0.12
 74
     0
 49
0.0
 74
     0
 49
-0.12
 74
     0
  0
LTYPE
  5
AD
330
5
100
AcDbSymbolTableRecord
100
AcDbLinetypeTableRecord
  2
ACAD_ISO12W100
 70
     0
  3
ISO dash double-dot __ . . __ . . __ . . __ . .
 72
    65
 73
     6
 40
0.8299999999999998
 49
0.47
 74
     0
 49
-0.12
 74
     0
 49
0.0
 74
     0
 49
-0.12
 74
     0
 49
0.0
 74
     0
 49
-0.12
 74
     0
  0
LTYPE
  5
AE
330
5
100
AcDbSymbolTableRecord
100
AcDbLinetypeTableRecord
  2
ACAD_ISO13W100
 70
     0
  3
ISO double-dash double-dot __ __ . . __ __ . . 
 72
    65
 73
     8
 40
1.419999999999999
 49
0.47
 74
     0
 49
-0.12
 74
     0
 49
0.47
 74
     0
 49
-0.12
 74
     0
 49
0.0
 74
     0
 49
-0.12
 74
     0
 49
0.0
 74
     0
 49
-0.12
 74
     0
  0
LTYPE
  5
AF
330
5
100
AcDbSymbolTableRecord
100
AcDbLinetypeTableRecord
  2
ACAD_ISO14W100
 70
     0
  3
ISO dash triple-dot __ . . . __ . . . __ . . . 
 72
    65
 73
     8
 40
0.95
 49
0.47
 74
     0
 49
-0.12
 74
     0
 49
0.0
 74
     0
 49
-0.12
 74
     0
 49
0.0
 74
     0
 49
-0.12
 74
     0
 49
0.0
 74
     0
 49
-0.12
 74
     0
  0
LTYPE
  5
B0
330
5
100
AcDbSymbolTableRecord
100
AcDbLinetypeTableRecord
  2
ACAD_ISO15W100
 70
     0
  3
ISO double-dash triple-dot __ __ . . . __ __ . 
 72
    65
 73
    10
 40
1.539999999999999
 49
0.47
 74
     0
 49
-0.12
 74
     0
 49
0.47
 74
     0
 49
-0.12
 74
     0
 49
0.0
 74
     0
 49
-0.12
 74
     0
 49
0.0
 74
     0
 49
-0.12
 74
     0
 49
0.0
 74
     0
 49
-0.12
 74
     0
  0
LTYPE
  5
B3
330
5
100
AcDbSymbolTableRecord
100
AcDbLinetypeTableRecord
  2
FENCELINE1
 70
     0
  3
Fenceline circle ----0-----0----0-----0----0---
 72
    65
 73
     4
 40
1.45
 49
0.25
 74
     0
 49
-0.1
 74
     4
 75
   133
340
B2
 46
0.1
 50
0.0
 44
-0.1
 45
0.0
 49
-0.1
 74
     0
 49
1.0
 74
     0
  0
LTYPE
  5
B4
330
5
100
AcDbSymbolTableRecord
100
AcDbLinetypeTableRecord
  2
FENCELINE2
 70
     0
  3
Fenceline square ----[]-----[]----[]-----[]----
 72
    65
 73
     4
 40
1.45
 49
0.25
 74
     0
 49
-0.1
 74
     4
 75
   132
340
B2
 46
0.1
 50
0.0
 44
-0.1
 45
0.0
 49
-0.1
 74
     0
 49
1.0
 74
     0
  0
LTYPE
  5
B5
330
5
100
AcDbSymbolTableRecord
100
AcDbLinetypeTableRecord
  2
TRACKS
 70
     0
  3
Tracks -|-|-|-|-|-|-|-|-|-|-|-|-|-|-|-|-|-|-|-|
 72
    65
 73
     2
 40
0.3
 49
0.15
 74
     4
 75
   130
340
B2
 46
0.25
 50
0.0
 44
0.0
 45
0.0
 49
0.15
 74
     0
  0
LTYPE
  5
B6
330
5
100
AcDbSymbolTableRecord
100
AcDbLinetypeTableRecord
  2
BATTING
 70
     0
  3
Batting SSSSSSSSSSSSSSSSSSSSSSSSSSSSSSSSSSSSSSS
 72
    65
 73
     4
 40
0.4001000000000001
 49
0.0001
 74
     0
 49
-0.1
 74
     4
 75
   134
340
B2
 46
0.1
 50
0.0
 44
-0.1
 45
0.0
 49
-0.2
 74
     4
 75
   134
340
B2
 46
0.1
 50
180.0
 44
0.1
 45
0.0
 49
-0.1
 74
     0
  0
LTYPE
  5
B7
330
5
100
AcDbSymbolTableRecord
100
AcDbLinetypeTableRecord
  2
HOT_WATER_SUPPLY
 70
     0
  3
Hot water supply ---- HW ---- HW ---- HW ----
 72
    65
 73
     3
 40
0.9
 49
0.5
 74
     0
 49
-0.2
 74
     2
 75
     0
340
55
 46
0.1
 50
0.0
 44
-0.1
 45
-0.05
  9
HW
 49
-0.2
 74
     0
  0
LTYPE
  5
B8
330
5
100
AcDbSymbolTableRecord
100
AcDbLinetypeTableRecord
  2
GAS_LINE
 70
     0
  3
Gas line ----GAS----GAS----GAS----GAS----GAS---
 72
    65
 73
     3
 40
0.95
 49
0.5
 74
     0
 49
-0.2
 74
     2
 75
     0
340
55
 46
0.1
 50
0.0
 44
-0.1
 45
-0.05
  9
GAS
 49
-0.25
 74
     0
  0
LTYPE
  5
B9
330
5
100
AcDbSymbolTableRecord
100
AcDbLinetypeTableRecord
  2
ZIGZAG
 70
     0
  3
Zig zag /\/\/\/\/\/\/\/\/\/\/\/\/\/\/\/\/\/\/\/
 72
    65
 73
     4
 40
0.8001000000000001
 49
0.0001
 74
     0
 49
-0.2
 74
     4
 75
   131
340
B2
 46
0.2
 50
0.0
 44
-0.2
 45
0.0
 49
-0.4
 74
     4
 75
   131
340
B2
 46
0.2
 50
180.0
 44
0.2
 45
0.0
 49
-0.2
 74
     0
  0
ENDTAB
  0
TABLE
  2
LAYER
  5
2
330
0
100
AcDbSymbolTable
 70
    27
  0
LAYER
  5
54
330
2
100
AcDbSymbolTableRecord
100
AcDbLayerTableRecord
  2
0
 70
     0
 62
     7
  6
Continuous
370
    18
390
F
347
21
  0
LAYER
  5
C0
330
2
100
AcDbSymbolTableRecord
100
AcDbLayerTableRecord
  2
Center Mark (ANSI)
 70
     0
 62
     7
  6
Continuous
370
    15
390
F
347
21
  0
LAYER
  5
C1
330
2
100
AcDbSymbolTableRecord
100
AcDbLayerTableRecord
  2
Centerline (ANSI)
 70
     0
 62
     7
  6
Continuous
370
    15
390
F
347
21
  0
LAYER
  5
C3
330
2
100
AcDbSymbolTableRecord
100
AcDbLayerTableRecord
  2
Dimension (ANSI)
 70
     0
 62
     7
  6
Continuous
370
    13
390
F
347
21
  0
LAYER
  5
C5
330
2
100
AcDbSymbolTableRecord
100
AcDbLayerTableRecord
  2
Hidden (ANSI)
 70
     0
 62
     7
  6
DASHED
370
    15
390
F
347
21
  0
LAYER
  5
CC
330
2
100
AcDbSymbolTableRecord
100
AcDbLayerTableRecord
  2
Symbol (ANSI)
 70
     0
 62
     7
  6
Continuous
370
    18
390
F
347
21
  0
LAYER
  5
CF
330
2
100
AcDbSymbolTableRecord
100
AcDbLayerTableRecord
  2
Visible (ANSI)
 70
     0
 62
     7
  6
Continuous
370
    13
390
F
347
21
  0
LAYER
  5
D0
330
2
100
AcDbSymbolTableRecord
100
AcDbLayerTableRecord
  2
Visible Narrow (ANSI)
 70
     0
 62
     7
  6
Continuous
370
    18
390
F
347
21
  0
LAYER
  5
526
330
2
100
AcDbSymbolTableRecord
100
AcDbLayerTableRecord
  2
Defpoints
 70
     0
 62
     7
  6
Continuous
290
     0
370
    -3
390
F
347
21
  0
ENDTAB
  0
TABLE
  2
STYLE
  5
3
330
0
100
AcDbSymbolTable
 70
    18
  0
STYLE
  5
55
330
3
100
AcDbSymbolTableRecord
100
AcDbTextStyleTableRecord
  2
Standard
 70
     0
 40
0.0
 41
1.0
 50
0.0
 71
     0
 42
0.2
  3
txt
  4

  0
STYLE
  5
5A
330
3
100
AcDbSymbolTableRecord
100
AcDbTextStyleTableRecord
  2
Annotative
 70
     0
 40
0.0
 41
1.0
 50
0.0
 71
     0
 42
0.2
  3
txt
  4

1001
AcadAnnotative
1000
AnnotativeData
1002
{
1070
     1
1070
     1
1002
}
  0
STYLE
  5
B2
330
3
100
AcDbSymbolTableRecord
100
AcDbTextStyleTableRecord
  2

 70
     1
 40
0.0
 41
1.0
 50
0.0
 71
     0
 42
0.2
  3
ltypeshp.shx
  4

  0
STYLE
  5
D4
330
3
100
AcDbSymbolTableRecord
100
AcDbTextStyleTableRecord
  2
ITALICC_120
 70
     0
 40
0.0
 41
1.0
 50
0.0
 71
     0
 42
0.2
  3
italicc.shx
  4

  0
STYLE
  5
D5
330
3
100
AcDbSymbolTableRecord
100
AcDbTextStyleTableRecord
  2
Label Text (ANSI)
 70
     0
 40
0.0
 41
1.0
 50
0.0
 71
     0
 42
0.2
  3
tahoma.ttf
  4

1001
ACAD
1000
Tahoma
1071
      256
  0
STYLE
  5
D6
330
3
100
AcDbSymbolTableRecord
100
AcDbTextStyleTableRecord
  2
Note Text (ANSI)
 70
     0
 40
0.0
 41
1.0
 50
0.0
 71
     0
 42
0.2
  3
tahoma.ttf
  4

1001
ACAD
1000
Tahoma
1071
      256
  0
STYLE
  5
D7
330
3
100
AcDbSymbolTableRecord
100
AcDbTextStyleTableRecord
  2
ROMANS
 70
     0
 40
0.0
 41
1.0
 50
0.0
 71
     0
 42
0.2
  3
romans.shx
  4

  0
STYLE
  5
D8
330
3
100
AcDbSymbolTableRecord
100
AcDbTextStyleTableRecord
  2
SANSSERIF_114
 70
     0
 40
0.0
 41
1.0
 50
0.0
 71
     0
 42
0.2
  3
tahoma.ttf
  4

1001
ACAD
1000
Tahoma
1071
      256
  0
STYLE
  5
D9
330
3
100
AcDbSymbolTableRecord
100
AcDbTextStyleTableRecord
  2
SANSSERIF_117
 70
     0
 40
0.0
 41
1.0
 50
0.0
 71
     0
 42
0.2
  3
tahoma.ttf
  4

1001
ACAD
1000
Tahoma
1071
      256
  0
STYLE
  5
DA
330
3
100
AcDbSymbolTableRecord
100
AcDbTextStyleTableRecord
  2
STANDARDAM_ANSI
 70
     0
 40
0.0
 41
1.0
 50
0.0
 71
     0
 42
0.2
  3
txt.shx
  4

  0
STYLE
  5
DB
330
3
100
AcDbSymbolTableRecord
100
AcDbTextStyleTableRecord
  2
StandardAM_ANSI$0
 70
     0
 40
0.0
 41
1.0
 50
0.0
 71
     0
 42
0.2
  3
txt.shx
  4

  0
STYLE
  5
DC
330
3
100
AcDbSymbolTableRecord
100
AcDbTextStyleTableRecord
  2
STANDARDAM_ANSI$3
 70
     0
 40
0.0
 41
1.0
 50
0.0
 71
     0
 42
0.2
  3
txt.shx
  4

  0
STYLE
  5
DD
330
3
100
AcDbSymbolTableRecord
100
AcDbTextStyleTableRecord
  2
STANDARDAM_ANSI$4
 70
     0
 40
0.0
 41
1.0
 50
0.0
 71
     0
 42
0.2
  3
txt.shx
  4

  0
STYLE
  5
DE
330
3
100
AcDbSymbolTableRecord
100
AcDbTextStyleTableRecord
  2
STANDARDAM_ANSI$7
 70
     0
 40
0.0
 41
1.0
 50
0.0
 71
     0
 42
0.2
  3
txt.shx
  4

  0
STYLE
  5
DF
330
3
100
AcDbSymbolTableRecord
100
AcDbTextStyleTableRecord
  2
STANDARDAM_ANSI$SF
 70
     0
 40
0.0
 41
1.0
 50
0.0
 71
     0
 42
0.2
  3
txt.shx
  4

  0
STYLE
  5
E0
330
3
100
AcDbSymbolTableRecord
100
AcDbTextStyleTableRecord
  2
STANDARDAM_ANSI$SH
 70
     0
 40
0.0
 41
1.0
 50
0.0
 71
     0
 42
0.2
  3
txt.shx
  4

  0
STYLE
  5
E1
330
3
100
AcDbSymbolTableRecord
100
AcDbTextStyleTableRecord
  2
STANDARDSTANDARD
 70
     0
 40
0.0
 41
1.0
 50
0.0
 71
     0
 42
0.2
  3
txt.shx
  4

  0
STYLE
  5
2DF
330
3
100
AcDbSymbolTableRecord
100
AcDbTextStyleTableRecord
  2
Text Style153
 70
     0
 40
0.0
 41
1.0
 50
0.0
 71
     0
 42
0.2
  3
tahoma.ttf
  4

1001
ACAD
1000
Tahoma
1071
      256
  0
ENDTAB
  0
TABLE
  2
VIEW
  5
6
330
0
100
AcDbSymbolTable
 70
     0
  0
ENDTAB
  0
TABLE
  2
UCS
  5
7
330
0
100
AcDbSymbolTable
 70
     0
  0
ENDTAB
  0
TABLE
  2
APPID
  5
9
330
0
100
AcDbSymbolTable
 70
     3
  0
APPID
  5
56
330
9
100
AcDbSymbolTableRecord
100
AcDbRegAppTableRecord
  2
ACAD
 70
     0
  0
APPID
  5
5E
330
9
100
AcDbSymbolTableRecord
100
AcDbRegAppTableRecord
  2
AcadAnnotative
 70
     0
  0
APPID
  5
883
330
9
100
AcDbSymbolTableRecord
100
AcDbRegAppTableRecord
  2
ACAD_DSTYLE_DIMRADIAL_EXTENSION
 70
     0
  0
ENDTAB
  0
TABLE
  2
DIMSTYLE
  5
A
330
0
100
AcDbSymbolTable
 70
    27
100
AcDbDimStyleTable
 71
     2
340
F6
340
58
  0
DIMSTYLE
105
58
330
A
100
AcDbSymbolTableRecord
100
AcDbDimStyleTableRecord
  2
STANDARD
 70
     0
 41
0.1800000071525573
 42
0.0625
140
0.1800000071525574
144
1.0
147
0.0900000035762787
176
   256
177
   256
178
   256
274
     3
340
55
371
    -1
372
    -1
  0
DIMSTYLE
105
59
330
A
100
AcDbSymbolTableRecord
100
AcDbDimStyleTableRecord
  2
Annotative
 70
     0
340
55
1001
AcadAnnotative
1000
AnnotativeData
1002
{
1070
     1
1070
     1
1002
}
  0
DIMSTYLE
105
E2
330
A
100
AcDbSymbolTableRecord
100
AcDbDimStyleTableRecord
  2
AM_ANSI
 70
     0
  4
 mm
 40
13.0
 41
0.119999997317791
 42
0.05
 43
0.5
 44
0.1
 45
0.00000001
 78
     4
 79
     2
140
0.1200000047683716
146
0.7099999189376831
147
0.0599999986588955
176
   256
177
   256
178
     2
284
     4
340
DA
371
    -1
372
    -1
  0
DIMSTYLE
105
E3
330
A
100
AcDbSymbolTableRecord
100
AcDbDimStyleTableRecord
  2
AM_ANSI$7
 70
     0
  4
 mm
 40
13.0
 41
0.119999997317791
 42
0.05
 43
0.5
 44
0.1
 45
0.00000001
 78
     4
 79
     2
140
0.1200000047683716
146
0.7099999189376831
147
0.0599999986588955
176
   256
177
   256
178
     2
284
     4
340
DA
371
    -1
372
    -1
  0
DIMSTYLE
105
E4
330
A
100
AcDbSymbolTableRecord
100
AcDbDimStyleTableRecord
  2
AM_ANSI$0
 70
     0
  4
 mm
 40
13.0
 41
0.119999997317791
 42
0.05
 43
0.5
 44
0.1
 45
0.00000001
 78
     4
 79
     2
140
0.1200000047683716
146
0.7099999189376831
147
0.0599999986588955
176
   256
177
   256
178
     2
284
     4
340
DB
371
    -1
372
    -1
  0
DIMSTYLE
105
E5
330
A
100
AcDbSymbolTableRecord
100
AcDbDimStyleTableRecord
  2
AM_ANSI$0$7
 70
     0
  4
 mm
 40
13.0
 41
0.119999997317791
 42
0.05
 43
0.5
 44
0.1
 45
0.00000001
 78
     4
 79
     2
140
0.1200000047683716
146
0.7099999189376831
147
0.0599999986588955
176
   256
177
   256
178
     2
284
     4
340
DB
371
    -1
372
    -1
  0
DIMSTYLE
105
E6
330
A
100
AcDbSymbolTableRecord
100
AcDbDimStyleTableRecord
  2
AM_ANSI$3
 70
     0
  4
 mm
 40
13.0
 41
0.119999997317791
 42
0.05
 43
0.5
 44
0.1
 45
0.00000001
 78
     4
 79
     2
140
0.1200000047683716
146
0.7099999189376831
147
0.0599999986588955
176
   256
177
   256
178
     2
284
     4
340
DC
371
    -1
372
    -1
  0
DIMSTYLE
105
E7
330
A
100
AcDbSymbolTableRecord
100
AcDbDimStyleTableRecord
  2
AM_ANSI$3$7
 70
     0
  4
 mm
 40
13.0
 41
0.119999997317791
 42
0.05
 43
0.5
 44
0.1
 45
0.00000001
 78
     4
 79
     2
140
0.1200000047683716
146
0.7099999189376831
147
0.0599999986588955
176
   256
177
   256
178
     2
284
     4
340
DC
371
    -1
372
    -1
  0
DIMSTYLE
105
E8
330
A
100
AcDbSymbolTableRecord
100
AcDbDimStyleTableRecord
  2
AM_ANSI$4
 70
     0
  4
 mm
 40
13.0
 41
0.119999997317791
 42
0.05
 43
0.5
 44
0.1
 45
0.00000001
 78
     4
 79
     2
140
0.1200000047683716
146
0.7099999189376831
147
0.0599999986588955
176
   256
177
   256
178
     2
284
     4
340
DD
371
    -1
372
    -1
  0
DIMSTYLE
105
E9
330
A
100
AcDbSymbolTableRecord
100
AcDbDimStyleTableRecord
  2
AM_ANSI$4$7
 70
     0
  4
 mm
 40
13.0
 41
0.119999997317791
 42
0.05
 43
0.5
 44
0.1
 45
0.00000001
 78
     4
 79
     2
140
0.1200000047683716
146
0.7099999189376831
147
0.0599999986588955
176
   256
177
   256
178
     2
284
     4
340
DD
371
    -1
372
    -1
  0
DIMSTYLE
105
EA
330
A
100
AcDbSymbolTableRecord
100
AcDbDimStyleTableRecord
  2
AM_ANSI$SF
 70
     0
  4
 mm
 40
13.0
 41
0.119999997317791
 42
0.05
 43
0.5
 44
0.1
 45
0.00000001
 75
     1
 76
     1
 78
     4
 79
     2
140
0.1200000047683716
146
0.7099999189376831
147
0.0599999986588955
176
   256
177
   256
178
     2
284
     4
340
DF
371
    -1
372
    -1
  0
DIMSTYLE
105
EB
330
A
100
AcDbSymbolTableRecord
100
AcDbDimStyleTableRecord
  2
AM_ANSI$SF$7
 70
     0
  4
 mm
 40
13.0
 41
0.119999997317791
 42
0.05
 43
0.5
 44
0.1
 45
0.00000001
 75
     1
 76
     1
 78
     4
 79
     2
140
0.1200000047683716
146
0.7099999189376831
147
0.0599999986588955
176
   256
177
   256
178
     2
284
     4
340
DF
371
    -1
372
    -1
  0
DIMSTYLE
105
EC
330
A
100
AcDbSymbolTableRecord
100
AcDbDimStyleTableRecord
  2
AM_ANSI$SH
 70
     0
  4
 mm
 40
13.0
 41
0.119999997317791
 42
0.05
 43
0.5
 44
0.1
 45
0.00000001
 75
     1
 76
     1
 78
     4
 79
     2
140
0.1200000047683716
146
0.7099999189376831
147
0.0599999986588955
176
   256
177
   256
178
     2
284
     4
340
E0
371
    -1
372
    -1
  0
DIMSTYLE
105
ED
330
A
100
AcDbSymbolTableRecord
100
AcDbDimStyleTableRecord
  2
AM_ANSI$SH$7
 70
     0
  4
 mm
 40
13.0
 41
0.119999997317791
 42
0.05
 43
0.5
 44
0.1
 45
0.00000001
 75
     1
 76
     1
 78
     4
 79
     2
140
0.1200000047683716
146
0.7099999189376831
147
0.0599999986588955
176
   256
177
   256
178
     2
284
     4
340
E0
371
    -1
372
    -1
  0
DIMSTYLE
105
EE
330
A
100
AcDbSymbolTableRecord
100
AcDbDimStyleTableRecord
  2
Architectural (ANSI)
 70
     0
 40
13.0
 41
0.0984251946210861
 43
0.2362204724409449
 44
0.125
 45
0.00000001
 46
0.3937007874015748
 78
     3
 79
     3
140
0.1200000047683716
147
0.031496062992126
171
     1
176
   256
177
   256
178
   256
272
     2
274
     1
276
     2
277
     4
284
    12
285
     4
286
    12
340
D6
371
    -1
372
    -1
  0
DIMSTYLE
105
EF
330
A
100
AcDbSymbolTableRecord
100
AcDbDimStyleTableRecord
  2
Architectural (ANSI)$7
 70
     0
 40
13.0
 41
0.0984251946210861
 43
0.2362204724409449
 44
0.125
 45
0.00000001
 46
0.3937007874015748
 78
     3
 79
     3
140
0.1200000047683716
147
0.031496062992126
171
     1
176
   256
177
   256
178
   256
272
     2
274
     1
276
     2
277
     4
284
    12
285
     4
286
    12
340
D6
371
    -1
372
    -1
  0
DIMSTYLE
105
F0
330
A
100
AcDbSymbolTableRecord
100
AcDbDimStyleTableRecord
  2
Default - Fraction (ANSI)
 70
     0
 40
13.0
 41
0.0984251946210861
 43
0.2362204724409449
 44
0.125
 45
0.00000001
 46
0.3937007874015748
 79
     3
140
0.1200000047683716
147
0.031496062992126
171
     1
176
   256
177
   256
178
   256
272
     2
274
     1
276
     2
277
     5
284
    12
285
     4
286
    12
340
D6
371
    -1
372
    -1
  0
DIMSTYLE
105
F1
330
A
100
AcDbSymbolTableRecord
100
AcDbDimStyleTableRecord
  2
Default - Fraction (ANSI)$7
 70
     0
 40
13.0
 41
0.0984251946210861
 43
0.2362204724409449
 44
0.125
 45
0.00000001
 46
0.3937007874015748
 79
     3
140
0.1200000047683716
147
0.031496062992126
171
     1
176
   256
177
   256
178
   256
272
     2
274
     1
276
     2
277
     5
284
    12
285
     4
286
    12
340
D6
371
    -1
372
    -1
  0
DIMSTYLE
105
F2
330
A
100
AcDbSymbolTableRecord
100
AcDbDimStyleTableRecord
  2
Default - mm (ANSI)
 70
     0
 40
13.0
 41
0.0984251946210861
 42
0.063
 43
0.2362204724409449
 44
0.125
 45
0.00000001
 46
0.3937007874015748
 73
     0
 78
     4
 79
     1
140
0.1200000047683716
143
1.0
144
25.4
147
0.031496062992126
171
     1
176
   256
177
   256
178
   256
179
     1
271
     2
272
     2
274
     1
284
     4
285
     4
340
D6
371
    -1
372
    -1
  0
DIMSTYLE
105
F3
330
A
100
AcDbSymbolTableRecord
100
AcDbDimStyleTableRecord
  2
Default - mm (ANSI)$7
 70
     0
 40
13.0
 41
0.0984251946210861
 42
0.063
 43
0.2362204724409449
 44
0.125
 45
0.00000001
 46
0.3937007874015748
 73
     0
 78
     4
 79
     1
140
0.1200000047683716
143
1.0
144
25.4
147
0.031496062992126
171
     1
176
   256
177
   256
178
   256
179
     1
271
     2
272
     2
274
     1
284
     4
285
     4
340
D6
371
    -1
372
    -1
  0
DIMSTYLE
105
F4
330
A
100
AcDbSymbolTableRecord
100
AcDbDimStyleTableRecord
  2
Default - mm [in] (ANSI)
 70
     0
  4
 in
 40
13.0
 41
0.0984251946210861
 42
0.063
 43
0.25
 44
0.125
 45
0.00000001
 46
0.3937007874015748
 73
     0
 78
     4
 79
     1
140
0.1200000047683716
143
0.03937
144
25.4
147
0.031496062992126
170
     1
171
     3
176
   256
177
   256
178
   256
179
     1
271
     2
272
     2
274
     3
284
     4
285
     4
286
     4
340
D6
371
    -1
372
    -1
  0
DIMSTYLE
105
F5
330
A
100
AcDbSymbolTableRecord
100
AcDbDimStyleTableRecord
  2
Default - mm [in] (ANSI)$7
 70
     0
  4
 in
 40
13.0
 41
0.0984251946210861
 42
0.063
 43
0.25
 44
0.125
 45
0.00000001
 46
0.3937007874015748
 73
     0
 78
     4
 79
     1
140
0.1200000047683716
143
0.03937
144
25.4
147
0.031496062992126
170
     1
171
     3
176
   256
177
   256
178
   256
179
     1
271
     2
272
     2
274
     3
284
     4
285
     4
286
     4
340
D6
371
    -1
372
    -1
  0
DIMSTYLE
105
F6
102
{ACAD_REACTORS
330
524
330
615
330
6FF
330
7E9
330
8B0
330
99A
330
A9A
330
B84
330
C6E
102
}
330
A
100
AcDbSymbolTableRecord
100
AcDbDimStyleTableRecord
  2
Default (ANSI)
 70
     0
 40
13.0
 41
0.0984251946210861
 43
0.2362204724409449
 44
0.125
 45
0.00000001
 46
0.3937007874015748
 79
     1
140
0.1200000047683716
147
0.031496062992126
171
     1
176
   256
177
   256
178
   256
271
     2
272
     2
274
     1
284
     4
285
     4
340
D6
371
    -1
372
    -1
  0
DIMSTYLE
105
F7
330
A
100
AcDbSymbolTableRecord
100
AcDbDimStyleTableRecord
  2
Default (ANSI)$7
 70
     0
 40
13.0
 41
0.0984251946210861
 43
0.2362204724409449
 44
0.125
 45
0.00000001
 46
0.3937007874015748
 79
     1
140
0.1200000047683716
147
0.031496062992126
171
     1
176
   256
177
   256
178
   256
271
     2
272
     2
274
     1
284
     4
285
     4
340
D6
371
    -1
372
    -1
  0
DIMSTYLE
105
F8
330
A
100
AcDbSymbolTableRecord
100
AcDbDimStyleTableRecord
  2
Alternate (ANSI)
 70
     0
 40
13.0
 41
0.0979999974370003
340
55
342
F9
  0
DIMSTYLE
105
10B
330
A
100
AcDbSymbolTableRecord
100
AcDbDimStyleTableRecord
  2
Datum (ANSI)
 70
     0
 40
13.0
 41
0.0979999974370003
340
55
342
F9
  0
DIMSTYLE
105
11A
330
A
100
AcDbSymbolTableRecord
100
AcDbDimStyleTableRecord
  2
Large (ANSI)
 70
     0
 40
13.0
 41
0.1959999948740005
340
55
342
F9
  0
ENDTAB
  0
TABLE
  2
BLOCK_RECORD
  5
1
330
0
100
AcDbSymbolTable
 70
    13
  0
BLOCK_RECORD
  5
6C
330
1
100
AcDbSymbolTableRecord
100
AcDbBlockTableRecord
  2
*Model_Space
340
6F
 70
     0
280
     1
281
     0
  0
BLOCK_RECORD
  5
68
330
1
100
AcDbSymbolTableRecord
100
AcDbBlockTableRecord
  2
*Paper_Space
340
6B
 70
     0
280
     1
281
     0
  0
BLOCK_RECORD
  5
70
330
1
100
AcDbSymbolTableRecord
100
AcDbBlockTableRecord
  2
*Paper_Space0
340
73
 70
     0
280
     1
281
     0
  0
BLOCK_RECORD
  5
F9
330
1
100
AcDbSymbolTableRecord
100
AcDbBlockTableRecord
  2
_Closed
340
0
 70
     0
280
     1
281
     0
  0
BLOCK_RECORD
  5
100
330
1
100
AcDbSymbolTableRecord
100
AcDbBlockTableRecord
  2
DatumFilled45
340
0
 70
     0
280
     1
281
     0
  0
BLOCK_RECORD
  5
10C
330
1
100
AcDbSymbolTableRecord
100
AcDbBlockTableRecord
  2
Filled-1
340
0
 70
     0
280
     1
281
     0
  0
BLOCK_RECORD
  5
527
330
1
100
AcDbSymbolTableRecord
100
AcDbBlockTableRecord
  2
*D4
340
0
 70
     0
280
     1
281
     0
  0
BLOCK_RECORD
  5
616
330
1
100
AcDbSymbolTableRecord
100
AcDbBlockTableRecord
  2
*D5
340
0
 70
     0
280
     1
281
     0
  0
BLOCK_RECORD
  5
700
330
1
100
AcDbSymbolTableRecord
100
AcDbBlockTableRecord
  2
*D6
340
0
 70
     0
280
     1
281
     0
  0
BLOCK_RECORD
  5
7EA
330
1
100
AcDbSymbolTableRecord
100
AcDbBlockTableRecord
  2
*D7
340
0
 70
     0
280
     1
281
     0
  0
BLOCK_RECORD
  5
8B1
330
1
100
AcDbSymbolTableRecord
100
AcDbBlockTableRecord
  2
*D8
340
0
 70
     0
280
     1
281
     0
  0
BLOCK_RECORD
  5
99B
330
1
100
AcDbSymbolTableRecord
100
AcDbBlockTableRecord
  2
*D9
340
0
 70
     0
280
     1
281
     0
  0
BLOCK_RECORD
  5
A9B
330
1
100
AcDbSymbolTableRecord
100
AcDbBlockTableRecord
  2
*D10
340
0
 70
     0
280
     1
281
     0
  0
BLOCK_RECORD
  5
B85
330
1
100
AcDbSymbolTableRecord
100
AcDbBlockTableRecord
  2
*D11
340
0
 70
     0
280
     1
281
     0
  0
BLOCK_RECORD
  5
C6F
330
1
100
AcDbSymbolTableRecord
100
AcDbBlockTableRecord
  2
*D12
340
0
 70
     0
280
     1
281
     0
  0
ENDTAB
  0
ENDSEC
  0
SECTION
  2
BLOCKS
  0
BLOCK
  5
6D
330
6C
100
AcDbEntity
  8
0
100
AcDbBlockBegin
  2
*Model_Space
 70
     0
 10
0.0
 20
0.0
 30
0.0
  3
*Model_Space
  1

  0
ENDBLK
  5
6E
330
6C
100
AcDbEntity
  8
0
100
AcDbBlockEnd
  0
BLOCK
  5
69
330
68
100
AcDbEntity
 67
     1
  8
0
100
AcDbBlockBegin
  2
*Paper_Space
 70
     0
 10
0.0
 20
0.0
 30
0.0
  3
*Paper_Space
  1

  0
ENDBLK
  5
6A
330
68
100
AcDbEntity
 67
     1
  8
0
100
AcDbBlockEnd
  0
BLOCK
  5
71
330
70
100
AcDbEntity
 67
     1
  8
0
100
AcDbBlockBegin
  2
*Paper_Space0
 70
     0
 10
0.0
 20
0.0
 30
0.0
  3
*Paper_Space0
  1

  0
ENDBLK
  5
72
330
70
100
AcDbEntity
 67
     1
  8
0
100
AcDbBlockEnd
  0
BLOCK
  5
FE
330
F9
100
AcDbEntity
  8
0
100
AcDbBlockBegin
  2
_Closed
 70
     0
 10
0.0
 20
0.0
 30
0.0
  3
_Closed
  1

  0
LINE
  5
FA
330
F9
100
AcDbEntity
  8
0
  6
ByBlock
 62
     0
370
    -2
100
AcDbLine
 10
-1.0
 20
0.1666666666666666
 30
0.0
 11
0.0
 21
0.0
 31
0.0
  0
LINE
  5
FB
330
F9
100
AcDbEntity
  8
0
  6
ByBlock
 62
     0
370
    -2
100
AcDbLine
 10
0.0
 20
0.0
 30
0.0
 11
-1.0
 21
-0.1666666666666666
 31
0.0
  0
LINE
  5
FC
330
F9
100
AcDbEntity
  8
0
  6
ByBlock
 62
     0
370
    -2
100
AcDbLine
 10
-1.0
 20
0.1666666666666666
 30
0.0
 11
-1.0
 21
-0.1666666666666666
 31
0.0
  0
LINE
  5
FD
330
F9
100
AcDbEntity
  8
0
  6
ByBlock
 62
     0
370
    -2
100
AcDbLine
 10
0.0
 20
0.0
 30
0.0
 11
-1.0
 21
0.0
 31
0.0
  0
ENDBLK
  5
FF
330
F9
100
AcDbEntity
  8
0
100
AcDbBlockEnd
  0
BLOCK
  5
101
330
100
100
AcDbEntity
  8
0
100
AcDbBlockBegin
  2
DatumFilled45
 70
     0
 10
0.0
 20
0.0
 30
0.0
  3
DatumFilled45
  1

  0
POLYLINE
  5
103
330
100
100
AcDbEntity
  8
0
 62
     0
100
AcDb2dPolyline
 66
     1
 10
0.0
 20
0.0
 30
0.0
 70
   128
  0
VERTEX
  5
104
330
103
100
AcDbEntity
  8
0
 62
     0
100
AcDbVertex
100
AcDb2dVertex
 10
0.0
 20
0.9999999999999998
 30
0.0
  0
VERTEX
  5
105
330
103
100
AcDbEntity
  8
0
 62
     0
100
AcDbVertex
100
AcDb2dVertex
 10
0.0
 20
-0.9999999999999998
 30
0.0
  0
VERTEX
  5
107
330
103
100
AcDbEntity
  8
0
 62
     0
100
AcDbVertex
100
AcDb2dVertex
 10
-0.9999999999999998
 20
0.0
 30
0.0
  0
VERTEX
  5
108
330
103
100
AcDbEntity
  8
0
 62
     0
100
AcDbVertex
100
AcDb2dVertex
 10
0.0
 20
0.9999999999999998
 30
0.0
  0
SEQEND
  5
106
330
103
100
AcDbEntity
  8
0
 62
     0
  0
SOLID
  5
10A
330
100
100
AcDbEntity
  8
0
 62
     0
100
AcDbTrace
 10
0.0
 20
0.9999999999999998
 30
0.0
 11
0.0
 21
-0.9999999999999998
 31
0.0
 12
-0.9999999999999998
 22
0.0
 32
0.0
 13
0.0
 23
0.9999999999999998
 33
0.0
  0
ENDBLK
  5
102
330
100
100
AcDbEntity
  8
0
100
AcDbBlockEnd
  0
BLOCK
  5
10D
330
10C
100
AcDbEntity
  8
0
100
AcDbBlockBegin
  2
Filled-1
 70
     0
 10
0.0
 20
0.0
 30
0.0
  3
Filled-1
  1

  0
LINE
  5
10F
330
10C
100
AcDbEntity
  8
0
 62
     0
100
AcDbLine
 10
-0.9999999999999998
 20
0.0
 30
0.0
 11
0.0
 21
0.0
 31
0.0
  0
POLYLINE
  5
110
330
10C
100
AcDbEntity
  8
0
 62
     0
100
AcDb2dPolyline
 66
     1
 10
0.0
 20
0.0
 30
0.0
 70
   128
  0
VERTEX
  5
111
330
110
100
AcDbEntity
  8
0
 62
     0
100
AcDbVertex
100
AcDb2dVertex
 10
-0.9999999999999998
 20
-0.0994897959183674
 30
0.0
  0
VERTEX
  5
112
330
110
100
AcDbEntity
  8
0
 62
     0
100
AcDbVertex
100
AcDb2dVertex
 10
0.0
 20
0.0
 30
0.0
  0
VERTEX
  5
114
330
110
100
AcDbEntity
  8
0
 62
     0
100
AcDbVertex
100
AcDb2dVertex
 10
-0.9999999999999998
 20
0.0994897959183674
 30
0.0
  0
VERTEX
  5
115
330
110
100
AcDbEntity
  8
0
 62
     0
100
AcDbVertex
100
AcDb2dVertex
 10
-0.9999999999999998
 20
-0.0994897959183674
 30
0.0
  0
SEQEND
  5
113
330
110
100
AcDbEntity
  8
0
 62
     0
  0
SOLID
  5
116
330
10C
100
AcDbEntity
  8
0
 62
     0
100
AcDbTrace
 10
-0.9999999999999998
 20
-0.0994897959183674
 30
0.0
 11
0.0
 21
0.0
 31
0.0
 12
-0.9999999999999998
 22
0.0994897959183674
 32
0.0
 13
-0.9999999999999998
 23
-0.0994897959183674
 33
0.0
  0
LINE
  5
117
330
10C
100
AcDbEntity
  8
0
 62
     0
100
AcDbLine
 10
-0.9999999999999998
 20
-0.0994897959183674
 30
0.0
 11
0.0
 21
0.0
 31
0.0
  0
LINE
  5
118
330
10C
100
AcDbEntity
  8
0
 62
     0
100
AcDbLine
 10
0.0
 20
0.0
 30
0.0
 11
-0.9999999999999998
 21
0.0994897959183674
 31
0.0
  0
LINE
  5
119
330
10C
100
AcDbEntity
  8
0
 62
     0
100
AcDbLine
 10
-0.9999999999999998
 20
0.0994897959183674
 30
0.0
 11
-0.9999999999999998
 21
-0.0994897959183674
 31
0.0
  0
ENDBLK
  5
10E
330
10C
100
AcDbEntity
  8
0
100
AcDbBlockEnd
  0
BLOCK
  5
528
330
527
100
AcDbEntity
  8
0
100
AcDbBlockBegin
  2
*D4
 70
     1
 10
0.0
 20
0.0
 30
0.0
  3
*D4
  1

  0
LINE
  5
60D
330
527
100
AcDbEntity
  8
Dimension (ANSI)
440
 16777216
100
AcDbLine
 10
107.9842117337469
 20
96.66776012486289
 30
0.0
 11
106.7046842036728
 21
96.66776012486289
 31
0.0
  0
LINE
  5
60E
330
527
100
AcDbEntity
  8
Dimension (ANSI)
440
 16777216
100
AcDbLine
 10
111.4182667938952
 20
96.66776012486289
 30
0.0
 11
113.4180492849909
 21
96.66776012486289
 31
0.0
  0
SOLID
  5
60F
330
527
100
AcDbEntity
  8
Dimension (ANSI)
440
 16777216
100
AcDbTrace
 10
107.9842117337469
 20
96.88101471320859
 30
0.0
 11
107.9842117337469
 21
96.4545055365172
 31
0.0
 12
109.263739263821
 22
96.66776012486289
 32
0.0
 13
109.263739263821
 23
96.66776012486289
 33
0.0
  0
SOLID
  5
610
330
527
100
AcDbEntity
  8
Dimension (ANSI)
440
 16777216
100
AcDbTrace
 10
111.4182667938952
 20
96.88101471320859
 30
0.0
 11
111.4182667938952
 21
96.4545055365172
 31
0.0
 12
110.138739263821
 22
96.66776012486289
 32
0.0
 13
110.138739263821
 23
96.66776012486289
 33
0.0
  0
MTEXT
  5
611
330
527
100
AcDbEntity
  8
Dimension (ANSI)
440
 16777216
100
AcDbMText
 10
113.8274981038885
 20
96.66776012486289
 30
0.0
 40
1.56000006198883
 41
0.0
 46
0.0
 71
     4
 72
     1
  1
\A1;0.88{\PTYP.}
  7
Note Text (ANSI)
 73
     1
 44
1.0
  0
POINT
  5
612
330
527
100
AcDbEntity
  8
Defpoints
 62
     0
440
 16777216
100
AcDbPoint
 10
110.138739263821
 20
107.948539448917
 30
0.0
  0
POINT
  5
613
330
527
100
AcDbEntity
  8
Defpoints
 62
     0
440
 16777216
100
AcDbPoint
 10
109.263739263821
 20
111.6471265615048
 30
0.0
  0
POINT
  5
614
330
527
100
AcDbEntity
  8
Defpoints
 62
     0
440
 16777216
100
AcDbPoint
 10
109.263739263821
 20
96.66776012486289
 30
0.0
  0
ENDBLK
  5
529
330
527
100
AcDbEntity
  8
0
100
AcDbBlockEnd
  0
BLOCK
  5
617
330
616
100
AcDbEntity
  8
0
100
AcDbBlockBegin
  2
*D5
 70
     1
 10
0.0
 20
0.0
 30
0.0
  3
*D5
  1

  0
LINE
  5
6F5
330
616
100
AcDbEntity
  8
Dimension (ANSI)
440
 16777216
100
AcDbLine
 10
39.99240778254466
 20
111.7721265615048
 30
0.0
 11
26.5560055347509
 21
111.7721265615048
 31
0.0
  0
LINE
  5
6F6
330
616
100
AcDbEntity
  8
Dimension (ANSI)
440
 16777216
100
AcDbLine
 10
39.99240778254468
 20
33.77212656150483
 30
0.0
 11
26.55600553475088
 21
33.77212656150483
 31
0.0
  0
LINE
  5
6F7
330
616
100
AcDbEntity
  8
Dimension (ANSI)
440
 16777216
100
AcDbLine
 10
28.1810055347509
 20
110.4925990314307
 30
0.0
 11
28.18100553475089
 21
73.9971966298394
 31
0.0
  0
LINE
  5
6F8
330
616
100
AcDbEntity
  8
Dimension (ANSI)
440
 16777216
100
AcDbLine
 10
28.18100553475088
 20
35.05165409157895
 30
0.0
 11
28.18100553475089
 21
71.54705649317023
 31
0.0
  0
SOLID
  5
6F9
330
616
100
AcDbEntity
  8
Dimension (ANSI)
440
 16777216
100
AcDbTrace
 10
27.96775094640521
 20
110.4925990314307
 30
0.0
 11
28.39426012309658
 21
110.4925990314307
 31
0.0
 12
28.1810055347509
 22
111.7721265615048
 32
0.0
 13
28.1810055347509
 23
111.7721265615048
 33
0.0
  0
SOLID
  5
6FA
330
616
100
AcDbEntity
  8
Dimension (ANSI)
440
 16777216
100
AcDbTrace
 10
27.9677509464052
 20
35.05165409157895
 30
0.0
 11
28.39426012309657
 21
35.05165409157895
 31
0.0
 12
28.18100553475088
 22
33.77212656150483
 32
0.0
 13
28.18100553475088
 23
33.77212656150483
 33
0.0
  0
MTEXT
  5
6FB
330
616
100
AcDbEntity
  8
Dimension (ANSI)
440
 16777216
100
AcDbMText
 10
25.6089436627307
 20
73.58774781094176
 30
0.0
 40
1.56000006198883
 41
0.0
 46
0.0
 71
     1
 72
     1
  1
\A1;78.00
  7
Note Text (ANSI)
 73
     1
 44
1.0
  0
POINT
  5
6FC
330
616
100
AcDbEntity
  8
Defpoints
 62
     0
440
 16777216
100
AcDbPoint
 10
40.80490778254466
 20
111.7721265615048
 30
0.0
  0
POINT
  5
6FD
330
616
100
AcDbEntity
  8
Defpoints
 62
     0
440
 16777216
100
AcDbPoint
 10
40.80490778254468
 20
33.77212656150483
 30
0.0
  0
POINT
  5
6FE
330
616
100
AcDbEntity
  8
Defpoints
 62
     0
440
 16777216
100
AcDbPoint
 10
28.18100553475088
 20
33.77212656150483
 30
0.0
  0
ENDBLK
  5
618
330
616
100
AcDbEntity
  8
0
100
AcDbBlockEnd
  0
BLOCK
  5
701
330
700
100
AcDbEntity
  8
0
100
AcDbBlockBegin
  2
*D6
 70
     1
 10
0.0
 20
0.0
 30
0.0
  3
*D6
  1

  0
LINE
  5
7DF
330
700
100
AcDbEntity
  8
Dimension (ANSI)
440
 16777216
100
AcDbLine
 10
41.51986652180841
 20
111.7096265615048
 30
0.0
 11
41.51986652180841
 21
116.8243591259256
 31
0.0
  0
LINE
  5
7E0
330
700
100
AcDbEntity
  8
Dimension (ANSI)
440
 16777216
100
AcDbLine
 10
70.76986652180841
 20
111.7096265615048
 30
0.0
 11
70.76986652180841
 21
116.8243591259256
 31
0.0
  0
LINE
  5
7E1
330
700
100
AcDbEntity
  8
Dimension (ANSI)
440
 16777216
100
AcDbLine
 10
42.79939405188254
 20
115.1993591259256
 30
0.0
 11
53.18116644263167
 21
115.1993591259256
 31
0.0
  0
LINE
  5
7E2
330
700
100
AcDbEntity
  8
Dimension (ANSI)
440
 16777216
100
AcDbLine
 10
69.49033899173429
 20
115.1993591259256
 30
0.0
 11
59.10856660098516
 21
115.1993591259256
 31
0.0
  0
SOLID
  5
7E3
330
700
100
AcDbEntity
  8
Dimension (ANSI)
440
 16777216
100
AcDbTrace
 10
42.79939405188254
 20
115.4126137142713
 30
0.0
 11
42.79939405188254
 21
114.9861045375799
 31
0.0
 12
41.51986652180841
 22
115.1993591259256
 32
0.0
 13
41.51986652180841
 23
115.1993591259256
 33
0.0
  0
SOLID
  5
7E4
330
700
100
AcDbEntity
  8
Dimension (ANSI)
440
 16777216
100
AcDbTrace
 10
69.49033899173429
 20
115.4126137142713
 30
0.0
 11
69.49033899173429
 21
114.9861045375799
 31
0.0
 12
70.76986652180841
 22
115.1993591259256
 32
0.0
 13
70.76986652180841
 23
115.1993591259256
 33
0.0
  0
MTEXT
  5
7E5
330
700
100
AcDbEntity
  8
Dimension (ANSI)
440
 16777216
100
AcDbMText
 10
53.59061526152931
 20
116.0118373262318
 30
0.0
 40
1.56000006198883
 41
0.0
 46
0.0
 71
     1
 72
     1
  1
\A1;29.25
  7
Note Text (ANSI)
 73
     1
 44
1.0
  0
POINT
  5
7E6
330
700
100
AcDbEntity
  8
Defpoints
 62
     0
440
 16777216
100
AcDbPoint
 10
41.51986652180841
 20
110.8971265615048
 30
0.0
  0
POINT
  5
7E7
330
700
100
AcDbEntity
  8
Defpoints
 62
     0
440
 16777216
100
AcDbPoint
 10
70.76986652180841
 20
110.8971265615048
 30
0.0
  0
POINT
  5
7E8
330
700
100
AcDbEntity
  8
Defpoints
 62
     0
440
 16777216
100
AcDbPoint
 10
70.76986652180841
 20
115.1993591259256
 30
0.0
  0
ENDBLK
  5
702
330
700
100
AcDbEntity
  8
0
100
AcDbBlockEnd
  0
BLOCK
  5
7EB
330
7EA
100
AcDbEntity
  8
0
100
AcDbBlockBegin
  2
*D7
 70
     1
 10
0.0
 20
0.0
 30
0.0
  3
*D7
  1

  0
LINE
  5
89C
330
7EA
100
AcDbEntity
  8
Dimension (ANSI)
440
 16777216
100
AcDbLine
 10
77.94298303907052
 20
40.15458528740343
 30
0.0
 11
76.27732524770896
 21
40.15458528740343
 31
0.0
  0
LINE
  5
89D
330
7EA
100
AcDbEntity
  8
Dimension (ANSI)
440
 16777216
100
AcDbLine
 10
76.27732524770896
 20
40.15458528740343
 30
0.0
 11
71.87367967394286
 21
35.75093971363891
 31
0.0
  0
MTEXT
  5
89E
330
7EA
100
AcDbEntity
  8
Dimension (ANSI)
440
 16777216
100
AcDbMText
 10
81.76247794822858
 20
40.15458528740343
 30
0.0
 40
1.56000006198883
 41
0.0
 46
0.0
 71
     5
 72
     1
  1
\A1;∅0.563{\P(4 PL.)}
  7
Note Text (ANSI)
 73
     1
 44
1.0
  0
SOLID
  5
89F
330
7EA
100
AcDbEntity
  8
Dimension (ANSI)
440
 16777216
100
AcDbTrace
 10
71.72288590840451
 20
35.90173347917732
 30
0.0
 11
72.02447343948121
 21
35.60014594810051
 31
0.0
 12
70.96891708071241
 22
34.8461771204088
 32
0.0
 13
70.96891708071241
 23
34.8461771204088
 33
0.0
  0
LINE
  5
8A0
330
7EA
100
AcDbEntity
  8
Dimension (ANSI)
440
 16777216
100
AcDbLine
 10
69.59986652180838
 20
34.64712656150482
 30
0.0
 11
71.93986652180838
 21
34.64712656150484
 31
0.0
  0
LINE
  5
8A1
330
7EA
100
AcDbEntity
  8
Dimension (ANSI)
440
 16777216
100
AcDbLine
 10
70.76986652180838
 20
33.47712656150483
 30
0.0
 11
70.76986652180838
 21
35.81712656150483
 31
0.0
  0
POINT
  5
8A2
330
7EA
100
AcDbEntity
  8
Defpoints
 62
     0
440
 16777216
100
AcDbPoint
 10
70.96891708071241
 20
34.8461771204088
 30
0.0
  0
POINT
  5
8A3
330
7EA
100
AcDbEntity
  8
Defpoints
 62
     0
440
 16777216
100
AcDbPoint
 10
70.57081596290432
 20
34.44807600260084
 30
0.0
  0
ENDBLK
  5
7EC
330
7EA
100
AcDbEntity
  8
0
100
AcDbBlockEnd
  0
BLOCK
  5
8B2
330
8B1
100
AcDbEntity
  8
0
100
AcDbBlockBegin
  2
*D8
 70
     1
 10
0.0
 20
0.0
 30
0.0
  3
*D8
  1

  0
LINE
  5
990
330
8B1
100
AcDbEntity
  8
Dimension (ANSI)
440
 16777216
100
AcDbLine
 10
38.80086652180842
 20
110.8971265615048
 30
0.0
 11
33.65765786039111
 21
110.8971265615048
 31
0.0
  0
LINE
  5
991
330
8B1
100
AcDbEntity
  8
Dimension (ANSI)
440
 16777216
100
AcDbLine
 10
38.80086652180843
 20
34.64712656150484
 30
0.0
 11
33.6576578603911
 21
34.64712656150484
 31
0.0
  0
LINE
  5
992
330
8B1
100
AcDbEntity
  8
Dimension (ANSI)
440
 16777216
100
AcDbLine
 10
35.28265786039111
 20
109.6175990314307
 30
0.0
 11
35.2826578603911
 21
73.99405358070865
 31
0.0
  0
LINE
  5
993
330
8B1
100
AcDbEntity
  8
Dimension (ANSI)
440
 16777216
100
AcDbLine
 10
35.2826578603911
 20
35.92665409157895
 30
0.0
 11
35.2826578603911
 21
71.55019954230104
 31
0.0
  0
SOLID
  5
994
330
8B1
100
AcDbEntity
  8
Dimension (ANSI)
440
 16777216
100
AcDbTrace
 10
35.06940327204543
 20
109.6175990314307
 30
0.0
 11
35.4959124487368
 21
109.6175990314307
 31
0.0
 12
35.28265786039111
 22
110.8971265615048
 32
0.0
 13
35.28265786039111
 23
110.8971265615048
 33
0.0
  0
SOLID
  5
995
330
8B1
100
AcDbEntity
  8
Dimension (ANSI)
440
 16777216
100
AcDbTrace
 10
35.06940327204541
 20
35.92665409157895
 30
0.0
 11
35.49591244873678
 21
35.92665409157895
 31
0.0
 12
35.2826578603911
 22
34.64712656150484
 32
0.0
 13
35.2826578603911
 23
34.64712656150484
 33
0.0
  0
MTEXT
  5
996
330
8B1
100
AcDbEntity
  8
Dimension (ANSI)
440
 16777216
100
AcDbMText
 10
32.72316818489403
 20
73.58460476181104
 30
0.0
 40
1.56000006198883
 41
0.0
 46
0.0
 71
     1
 72
     1
  1
\A1;76.25
  7
Note Text (ANSI)
 73
     1
 44
1.0
  0
POINT
  5
997
330
8B1
100
AcDbEntity
  8
Defpoints
 62
     0
440
 16777216
100
AcDbPoint
 10
39.61336652180842
 20
110.8971265615048
 30
0.0
  0
POINT
  5
998
330
8B1
100
AcDbEntity
  8
Defpoints
 62
     0
440
 16777216
100
AcDbPoint
 10
39.61336652180842
 20
34.64712656150484
 30
0.0
  0
POINT
  5
999
330
8B1
100
AcDbEntity
  8
Defpoints
 62
     0
440
 16777216
100
AcDbPoint
 10
35.2826578603911
 20
34.64712656150484
 30
0.0
  0
ENDBLK
  5
8B3
330
8B1
100
AcDbEntity
  8
0
100
AcDbBlockEnd
  0
BLOCK
  5
99C
330
99B
100
AcDbEntity
  8
0
100
AcDbBlockBegin
  2
*D9
 70
     1
 10
0.0
 20
0.0
 30
0.0
  3
*D9
  1

  0
LINE
  5
A8F
330
99B
100
AcDbEntity
  8
Dimension (ANSI)
440
 16777216
100
AcDbLine
 10
39.99240778254468
 20
33.77212656150483
 30
0.0
 11
37.34613729805961
 21
33.77212656150483
 31
0.0
  0
LINE
  5
A90
330
99B
100
AcDbEntity
  8
Dimension (ANSI)
440
 16777216
100
AcDbLine
 10
38.80086652180843
 20
34.64712656150484
 30
0.0
 11
37.34613729805961
 21
34.64712656150484
 31
0.0
  0
LINE
  5
A91
330
99B
100
AcDbEntity
  8
Dimension (ANSI)
440
 16777216
100
AcDbLine
 10
38.97113729805961
 20
35.92665409157895
 30
0.0
 11
38.97113729805961
 21
37.20618162165307
 31
0.0
  0
LINE
  5
A92
330
99B
100
AcDbEntity
  8
Dimension (ANSI)
440
 16777216
100
AcDbLine
 10
38.97113729805961
 20
32.49259903143072
 30
0.0
 11
38.97113729805961
 21
30.04115690503701
 31
0.0
  0
LINE
  5
A93
330
99B
100
AcDbEntity
  8
Dimension (ANSI)
440
 16777216
100
AcDbLine
 10
38.97113729805961
 20
30.04115690503701
 30
0.0
 11
37.69160976798549
 21
30.04115690503701
 31
0.0
  0
SOLID
  5
A94
330
99B
100
AcDbEntity
  8
Dimension (ANSI)
440
 16777216
100
AcDbTrace
 10
38.75788270971393
 20
35.92665409157895
 30
0.0
 11
39.1843918864053
 21
35.92665409157895
 31
0.0
 12
38.97113729805961
 22
34.64712656150484
 32
0.0
 13
38.97113729805961
 23
34.64712656150484
 33
0.0
  0
SOLID
  5
A95
330
99B
100
AcDbEntity
  8
Dimension (ANSI)
440
 16777216
100
AcDbTrace
 10
38.75788270971393
 20
32.49259903143072
 30
0.0
 11
39.1843918864053
 21
32.49259903143072
 31
0.0
 12
38.97113729805961
 22
33.77212656150483
 32
0.0
 13
38.97113729805961
 23
33.77212656150483
 33
0.0
  0
MTEXT
  5
A96
330
99B
100
AcDbEntity
  8
Dimension (ANSI)
440
 16777216
100
AcDbMText
 10
33.28315477169435
 20
30.85677815447397
 30
0.0
 40
1.56000006198883
 41
0.0
 46
0.0
 71
     1
 72
     1
  1
\A1;0.88
  7
Note Text (ANSI)
 73
     1
 44
1.0
  0
POINT
  5
A97
330
99B
100
AcDbEntity
  8
Defpoints
 62
     0
440
 16777216
100
AcDbPoint
 10
40.80490778254468
 20
33.77212656150483
 30
0.0
  0
POINT
  5
A98
330
99B
100
AcDbEntity
  8
Defpoints
 62
     0
440
 16777216
100
AcDbPoint
 10
39.61336652180842
 20
34.64712656150484
 30
0.0
  0
POINT
  5
A99
330
99B
100
AcDbEntity
  8
Defpoints
 62
     0
440
 16777216
100
AcDbPoint
 10
38.97113729805961
 20
34.64712656150484
 30
0.0
  0
ENDBLK
  5
99D
330
99B
100
AcDbEntity
  8
0
100
AcDbBlockEnd
  0
BLOCK
  5
A9C
330
A9B
100
AcDbEntity
  8
0
100
AcDbBlockBegin
  2
*D10
 70
     1
 10
0.0
 20
0.0
 30
0.0
  3
*D10
  1

  0
LINE
  5
B7A
330
A9B
100
AcDbEntity
  8
Dimension (ANSI)
440
 16777216
100
AcDbLine
 10
40.64486652180842
 20
112.4245853007686
 30
0.0
 11
40.64486652180842
 21
120.8121133411289
 31
0.0
  0
LINE
  5
B7B
330
A9B
100
AcDbEntity
  8
Dimension (ANSI)
440
 16777216
100
AcDbLine
 10
71.64486652180841
 20
112.4245853007686
 30
0.0
 11
71.64486652180841
 21
120.8121133411289
 31
0.0
  0
LINE
  5
B7C
330
A9B
100
AcDbEntity
  8
Dimension (ANSI)
440
 16777216
100
AcDbLine
 10
41.92439405188253
 20
119.1871133411289
 30
0.0
 11
53.16230814784701
 21
119.1871133411289
 31
0.0
  0
LINE
  5
B7D
330
A9B
100
AcDbEntity
  8
Dimension (ANSI)
440
 16777216
100
AcDbLine
 10
70.36533899173429
 20
119.1871133411289
 30
0.0
 11
59.12742489576983
 21
119.1871133411289
 31
0.0
  0
SOLID
  5
B7E
330
A9B
100
AcDbEntity
  8
Dimension (ANSI)
440
 16777216
100
AcDbTrace
 10
41.92439405188253
 20
119.4003679294746
 30
0.0
 11
41.92439405188253
 21
118.9738587527832
 31
0.0
 12
40.64486652180842
 22
119.1871133411289
 32
0.0
 13
40.64486652180842
 23
119.1871133411289
 33
0.0
  0
SOLID
  5
B7F
330
A9B
100
AcDbEntity
  8
Dimension (ANSI)
440
 16777216
100
AcDbTrace
 10
70.36533899173429
 20
119.4003679294746
 30
0.0
 11
70.36533899173429
 21
118.9738587527832
 31
0.0
 12
71.64486652180841
 22
119.1871133411289
 32
0.0
 13
71.64486652180841
 23
119.1871133411289
 33
0.0
  0
MTEXT
  5
B80
330
A9B
100
AcDbEntity
  8
Dimension (ANSI)
440
 16777216
100
AcDbMText
 10
53.57175696674464
 20
119.9995915414351
 30
0.0
 40
1.56000006198883
 41
0.0
 46
0.0
 71
     1
 72
     1
  1
\A1;31.00
  7
Note Text (ANSI)
 73
     1
 44
1.0
  0
POINT
  5
B81
330
A9B
100
AcDbEntity
  8
Defpoints
 62
     0
440
 16777216
100
AcDbPoint
 10
40.64486652180842
 20
111.6120853007686
 30
0.0
  0
POINT
  5
B82
330
A9B
100
AcDbEntity
  8
Defpoints
 62
     0
440
 16777216
100
AcDbPoint
 10
71.64486652180841
 20
111.6120853007686
 30
0.0
  0
POINT
  5
B83
330
A9B
100
AcDbEntity
  8
Defpoints
 62
     0
440
 16777216
100
AcDbPoint
 10
71.64486652180841
 20
119.1871133411289
 30
0.0
  0
ENDBLK
  5
A9D
330
A9B
100
AcDbEntity
  8
0
100
AcDbBlockEnd
  0
BLOCK
  5
B86
330
B85
100
AcDbEntity
  8
0
100
AcDbBlockBegin
  2
*D11
 70
     1
 10
0.0
 20
0.0
 30
0.0
  3
*D11
  1

  0
LINE
  5
C64
330
B85
100
AcDbEntity
  8
Dimension (ANSI)
440
 16777216
100
AcDbLine
 10
41.51986652180841
 20
113.6161265615048
 30
0.0
 11
41.51986652180841
 21
116.8243591259256
 31
0.0
  0
LINE
  5
C65
330
B85
100
AcDbEntity
  8
Dimension (ANSI)
440
 16777216
100
AcDbLine
 10
40.64486652180842
 20
112.4245853007686
 30
0.0
 11
40.64486652180842
 21
116.8243591259256
 31
0.0
  0
LINE
  5
C66
330
B85
100
AcDbEntity
  8
Dimension (ANSI)
440
 16777216
100
AcDbLine
 10
42.79939405188254
 20
115.1993591259256
 30
0.0
 11
44.07892158195665
 21
115.1993591259256
 31
0.0
  0
LINE
  5
C67
330
B85
100
AcDbEntity
  8
Dimension (ANSI)
440
 16777216
100
AcDbLine
 10
39.3653389917343
 20
115.1993591259256
 30
0.0
 11
36.89374864869846
 21
115.1993591259256
 31
0.0
  0
SOLID
  5
C68
330
B85
100
AcDbEntity
  8
Dimension (ANSI)
440
 16777216
100
AcDbTrace
 10
42.79939405188254
 20
115.4126137142713
 30
0.0
 11
42.79939405188254
 21
114.9861045375799
 31
0.0
 12
41.51986652180841
 22
115.1993591259256
 32
0.0
 13
41.51986652180841
 23
115.1993591259256
 33
0.0
  0
SOLID
  5
C69
330
B85
100
AcDbEntity
  8
Dimension (ANSI)
440
 16777216
100
AcDbTrace
 10
39.3653389917343
 20
115.4126137142713
 30
0.0
 11
39.3653389917343
 21
114.9861045375799
 31
0.0
 12
40.64486652180842
 22
115.1993591259256
 32
0.0
 13
40.64486652180842
 23
115.1993591259256
 33
0.0
  0
MTEXT
  5
C6A
330
B85
100
AcDbEntity
  8
Dimension (ANSI)
440
 16777216
100
AcDbMText
 10
32.48529365240732
 20
116.0149803753625
 30
0.0
 40
1.56000006198883
 41
0.0
 46
0.0
 71
     1
 72
     1
  1
\A1;0.88
  7
Note Text (ANSI)
 73
     1
 44
1.0
  0
POINT
  5
C6B
330
B85
100
AcDbEntity
  8
Defpoints
 62
     0
440
 16777216
100
AcDbPoint
 10
41.51986652180841
 20
112.8036265615048
 30
0.0
  0
POINT
  5
C6C
330
B85
100
AcDbEntity
  8
Defpoints
 62
     0
440
 16777216
100
AcDbPoint
 10
40.64486652180842
 20
111.6120853007686
 30
0.0
  0
POINT
  5
C6D
330
B85
100
AcDbEntity
  8
Defpoints
 62
     0
440
 16777216
100
AcDbPoint
 10
40.64486652180842
 20
115.1993591259256
 30
0.0
  0
ENDBLK
  5
B87
330
B85
100
AcDbEntity
  8
0
100
AcDbBlockEnd
  0
BLOCK
  5
C70
330
C6F
100
AcDbEntity
  8
0
100
AcDbBlockBegin
  2
*D12
 70
     1
 10
0.0
 20
0.0
 30
0.0
  3
*D12
  1

  0
LINE
  5
D6E
330
C6F
100
AcDbEntity
  8
Dimension (ANSI)
440
 16777216
100
AcDbLine
 10
64.6822372894857
 20
129.5877584896372
 30
0.0
 11
64.6822372894857
 21
128.3082309595631
 31
0.0
  0
LINE
  5
D6F
330
C6F
100
AcDbEntity
  8
Dimension (ANSI)
440
 16777216
100
AcDbLine
 10
64.6822372894857
 20
133.0218135497855
 30
0.0
 11
64.6822372894857
 21
138.4263548839595
 31
0.0
  0
LINE
  5
D70
330
C6F
100
AcDbEntity
  8
Dimension (ANSI)
440
 16777216
100
AcDbLine
 10
64.6822372894857
 20
138.4263548839595
 30
0.0
 11
65.96176481955982
 21
138.4263548839595
 31
0.0
  0
SOLID
  5
D71
330
C6F
100
AcDbEntity
  8
Dimension (ANSI)
440
 16777216
100
AcDbTrace
 10
64.46898270114001
 20
129.5877584896372
 30
0.0
 11
64.89549187783139
 21
129.5877584896372
 31
0.0
 12
64.6822372894857
 22
130.8672860197113
 32
0.0
 13
64.6822372894857
 23
130.8672860197113
 33
0.0
  0
SOLID
  5
D72
330
C6F
100
AcDbEntity
  8
Dimension (ANSI)
440
 16777216
100
AcDbTrace
 10
64.46898270114001
 20
133.0218135497855
 30
0.0
 11
64.89549187783139
 21
133.0218135497855
 31
0.0
 12
64.6822372894857
 22
131.7422860197114
 32
0.0
 13
64.6822372894857
 23
131.7422860197114
 33
0.0
  0
MTEXT
  5
D73
330
C6F
100
AcDbEntity
  8
Dimension (ANSI)
440
 16777216
100
AcDbMText
 10
66.37121363845743
 20
139.4752602286362
 30
0.0
 40
1.56000006198883
 41
0.0
 46
0.0
 71
     1
 72
     1
  1
\A1;0.88{\PTYP.}
  7
Note Text (ANSI)
 73
     1
 44
1.0
  0
POINT
  5
D74
330
C6F
100
AcDbEntity
  8
Defpoints
 62
     0
440
 16777216
100
AcDbPoint
 10
68.43200618520436
 20
131.7422860197114
 30
0.0
  0
POINT
  5
D75
330
C6F
100
AcDbEntity
  8
Defpoints
 62
     0
440
 16777216
100
AcDbPoint
 10
68.43200618520436
 20
130.8672860197113
 30
0.0
  0
POINT
  5
D76
330
C6F
100
AcDbEntity
  8
Defpoints
 62
     0
440
 16777216
100
AcDbPoint
 10
64.6822372894857
 20
130.8672860197113
 30
0.0
  0
ENDBLK
  5
C71
330
C6F
100
AcDbEntity
  8
0
100
AcDbBlockEnd
  0
ENDSEC
  0
SECTION
  2
ENTITIES
  0
CIRCLE
  5
11B
330
6C
100
AcDbEntity
  8
Visible (ANSI)
100
AcDbCircle
 10
70.76986652180841
 20
34.64712656150484
 30
0.0
 40
0.2814999999999999
  0
CIRCLE
  5
11C
330
6C
100
AcDbEntity
  8
Visible (ANSI)
100
AcDbCircle
 10
70.76986652180841
 20
110.8971265615048
 30
0.0
 40
0.2814999999999999
  0
CIRCLE
  5
11D
330
6C
100
AcDbEntity
  8
Visible (ANSI)
100
AcDbCircle
 10
41.51986652180842
 20
34.64712656150484
 30
0.0
 40
0.2814999999999999
  0
CIRCLE
  5
11E
330
6C
100
AcDbEntity
  8
Visible (ANSI)
100
AcDbCircle
 10
41.51986652180841
 20
110.8971265615048
 30
0.0
 40
0.2814999999999999
  0
LINE
  5
11F
330
6C
100
AcDbEntity
  8
Visible (ANSI)
100
AcDbLine
 10
71.64486652180841
 20
111.6120853007686
 30
0.0
 11
71.64486652180844
 21
33.93216782224107
 31
0.0
  0
LINE
  5
120
330
6C
100
AcDbEntity
  8
Visible (ANSI)
100
AcDbLine
 10
40.80490778254465
 20
111.7721265615048
 30
0.0
 11
71.48482526107217
 21
111.7721265615048
 31
0.0
  0
LINE
  5
121
330
6C
100
AcDbEntity
  8
Visible (ANSI)
100
AcDbLine
 10
40.64486652180844
 20
33.93216782224107
 30
0.0
 11
40.64486652180842
 21
111.6120853007686
 31
0.0
  0
LINE
  5
122
330
6C
100
AcDbEntity
  8
Visible (ANSI)
100
AcDbLine
 10
71.48482526107219
 20
33.77212656150483
 30
0.0
 11
40.80490778254468
 21
33.77212656150483
 31
0.0
  0
LINE
  5
123
330
6C
100
AcDbEntity
  8
Hidden (ANSI)
100
AcDbLine
 10
71.55111652180844
 20
33.93216782224107
 30
0.0
 11
71.55111652180841
 21
111.6120853007686
 31
0.0
  0
LINE
  5
124
330
6C
100
AcDbEntity
  8
Hidden (ANSI)
100
AcDbLine
 10
71.48482526107217
 20
111.6783765615048
 30
0.0
 11
40.80490778254465
 21
111.6783765615048
 31
0.0
  0
LINE
  5
125
330
6C
100
AcDbEntity
  8
Hidden (ANSI)
100
AcDbLine
 10
40.73861652180841
 20
111.6120853007686
 30
0.0
 11
40.73861652180844
 21
33.93216782224107
 31
0.0
  0
LINE
  5
126
330
6C
100
AcDbEntity
  8
Hidden (ANSI)
100
AcDbLine
 10
40.80490778254468
 20
33.86587656150484
 30
0.0
 11
71.48482526107219
 21
33.86587656150484
 31
0.0
  0
POLYLINE
  5
127
330
6C
100
AcDbEntity
  8
Visible (ANSI)
100
AcDb2dPolyline
 66
     1
 10
0.0
 20
0.0
 30
0.0
 70
   128
  0
VERTEX
  5
128
330
127
100
AcDbEntity
  8
Visible (ANSI)
100
AcDbVertex
100
AcDb2dVertex
 10
71.51986676210433
 20
111.6471287241678
 30
0.0
  0
VERTEX
  5
129
330
127
100
AcDbEntity
  8
Visible (ANSI)
100
AcDbVertex
100
AcDb2dVertex
 10
71.52804282978704
 20
111.6456689266315
 30
0.0
  0
VERTEX
  5
12B
330
127
100
AcDbEntity
  8
Visible (ANSI)
100
AcDbVertex
100
AcDb2dVertex
 10
71.53618285308612
 20
111.6442091290952
 30
0.0
  0
VERTEX
  5
12C
330
127
100
AcDbEntity
  8
Visible (ANSI)
100
AcDbVertex
100
AcDb2dVertex
 10
71.54425379131662
 20
111.6427493315589
 30
0.0
  0
VERTEX
  5
12D
330
127
100
AcDbEntity
  8
Visible (ANSI)
100
AcDbVertex
100
AcDb2dVertex
 10
71.55221960009491
 20
111.6412835266254
 30
0.0
  0
VERTEX
  5
12E
330
127
100
AcDbEntity
  8
Visible (ANSI)
100
AcDbVertex
100
AcDb2dVertex
 10
71.56004723873603
 20
111.6398237290891
 30
0.0
  0
VERTEX
  5
12F
330
127
100
AcDbEntity
  8
Visible (ANSI)
100
AcDbVertex
100
AcDb2dVertex
 10
71.56770066285635
 20
111.6383639315528
 30
0.0
  0
VERTEX
  5
130
330
127
100
AcDbEntity
  8
Visible (ANSI)
100
AcDbVertex
100
AcDb2dVertex
 10
71.57515283916819
 20
111.6369041340165
 30
0.0
  0
VERTEX
  5
131
330
127
100
AcDbEntity
  8
Visible (ANSI)
100
AcDbVertex
100
AcDb2dVertex
 10
71.58236772328788
 20
111.6354443364802
 30
0.0
  0
VERTEX
  5
132
330
127
100
AcDbEntity
  8
Visible (ANSI)
100
AcDbVertex
100
AcDb2dVertex
 10
71.5893122745305
 20
111.6339845389439
 30
0.0
  0
VERTEX
  5
133
330
127
100
AcDbEntity
  8
Visible (ANSI)
100
AcDbVertex
100
AcDb2dVertex
 10
71.59596246330696
 20
111.6325247414076
 30
0.0
  0
VERTEX
  5
134
330
127
100
AcDbEntity
  8
Visible (ANSI)
100
AcDbVertex
100
AcDb2dVertex
 10
71.60228524893227
 20
111.6310649438713
 30
0.0
  0
VERTEX
  5
135
330
127
100
AcDbEntity
  8
Visible (ANSI)
100
AcDbVertex
100
AcDb2dVertex
 10
71.60825359811872
 20
111.629605146335
 30
0.0
  0
VERTEX
  5
136
330
127
100
AcDbEntity
  8
Visible (ANSI)
100
AcDbVertex
100
AcDb2dVertex
 10
71.61384648497588
 20
111.6281453487987
 30
0.0
  0
VERTEX
  5
137
330
127
100
AcDbEntity
  8
Visible (ANSI)
100
AcDbVertex
100
AcDb2dVertex
 10
71.61903687621604
 20
111.6266855512624
 30
0.0
  0
VERTEX
  5
138
330
127
100
AcDbEntity
  8
Visible (ANSI)
100
AcDbVertex
100
AcDb2dVertex
 10
71.62380074225012
 20
111.6252257537261
 30
0.0
  0
VERTEX
  5
139
330
127
100
AcDbEntity
  8
Visible (ANSI)
100
AcDbVertex
100
AcDb2dVertex
 10
71.62812006088632
 20
111.6237659561899
 30
0.0
  0
VERTEX
  5
13A
330
127
100
AcDbEntity
  8
Visible (ANSI)
100
AcDbVertex
100
AcDb2dVertex
 10
71.63197680993282
 20
111.6223061586536
 30
0.0
  0
VERTEX
  5
13B
330
127
100
AcDbEntity
  8
Visible (ANSI)
100
AcDbVertex
100
AcDb2dVertex
 10
71.6353499634992
 20
111.6208463611173
 30
0.0
  0
VERTEX
  5
13C
330
127
100
AcDbEntity
  8
Visible (ANSI)
100
AcDbVertex
100
AcDb2dVertex
 10
71.63823351418817
 20
111.619386563581
 30
0.0
  0
VERTEX
  5
13D
330
127
100
AcDbEntity
  8
Visible (ANSI)
100
AcDbVertex
100
AcDb2dVertex
 10
71.6406064361093
 20
111.6179267660447
 30
0.0
  0
VERTEX
  5
13E
330
127
100
AcDbEntity
  8
Visible (ANSI)
100
AcDbVertex
100
AcDb2dVertex
 10
71.64246572556398
 20
111.6164669685084
 30
0.0
  0
VERTEX
  5
13F
330
127
100
AcDbEntity
  8
Visible (ANSI)
100
AcDbVertex
100
AcDb2dVertex
 10
71.64379636405898
 20
111.6150071709721
 30
0.0
  0
VERTEX
  5
140
330
127
100
AcDbEntity
  8
Visible (ANSI)
100
AcDbVertex
100
AcDb2dVertex
 10
71.64459835159437
 20
111.6135473734358
 30
0.0
  0
VERTEX
  5
141
330
127
100
AcDbEntity
  8
Visible (ANSI)
100
AcDbVertex
100
AcDb2dVertex
 10
71.64486568077283
 20
111.6120875758995
 30
0.0
  0
SEQEND
  5
12A
330
127
100
AcDbEntity
  8
Visible (ANSI)
  0
POLYLINE
  5
142
330
6C
100
AcDbEntity
  8
Visible (ANSI)
100
AcDb2dPolyline
 66
     1
 10
0.0
 20
0.0
 30
0.0
 70
   128
  0
VERTEX
  5
143
330
142
100
AcDbEntity
  8
Visible (ANSI)
100
AcDbVertex
100
AcDb2dVertex
 10
71.64486568077283
 20
33.93216782522784
 30
0.0
  0
VERTEX
  5
144
330
142
100
AcDbEntity
  8
Visible (ANSI)
100
AcDbVertex
100
AcDb2dVertex
 10
71.64459835159437
 20
33.93070776956119
 30
0.0
  0
VERTEX
  5
146
330
142
100
AcDbEntity
  8
Visible (ANSI)
100
AcDbVertex
100
AcDb2dVertex
 10
71.64379636405898
 20
33.92924771389455
 30
0.0
  0
VERTEX
  5
147
330
142
100
AcDbEntity
  8
Visible (ANSI)
100
AcDbVertex
100
AcDb2dVertex
 10
71.64246572556398
 20
33.9277876699611
 30
0.0
  0
VERTEX
  5
148
330
142
100
AcDbEntity
  8
Visible (ANSI)
100
AcDbVertex
100
AcDb2dVertex
 10
71.6406064361093
 20
33.92632761429445
 30
0.0
  0
VERTEX
  5
149
330
142
100
AcDbEntity
  8
Visible (ANSI)
100
AcDbVertex
100
AcDb2dVertex
 10
71.63823351418817
 20
33.9248675586278
 30
0.0
  0
VERTEX
  5
14A
330
142
100
AcDbEntity
  8
Visible (ANSI)
100
AcDbVertex
100
AcDb2dVertex
 10
71.6353499634992
 20
33.92340750296116
 30
0.0
  0
VERTEX
  5
14B
330
142
100
AcDbEntity
  8
Visible (ANSI)
100
AcDbVertex
100
AcDb2dVertex
 10
71.63197680993282
 20
33.92194745902771
 30
0.0
  0
VERTEX
  5
14C
330
142
100
AcDbEntity
  8
Visible (ANSI)
100
AcDbVertex
100
AcDb2dVertex
 10
71.62812006088632
 20
33.92048740336107
 30
0.0
  0
VERTEX
  5
14D
330
142
100
AcDbEntity
  8
Visible (ANSI)
100
AcDbVertex
100
AcDb2dVertex
 10
71.62380074225012
 20
33.91902734769442
 30
0.0
  0
VERTEX
  5
14E
330
142
100
AcDbEntity
  8
Visible (ANSI)
100
AcDbVertex
100
AcDb2dVertex
 10
71.61903687621604
 20
33.91756729202778
 30
0.0
  0
VERTEX
  5
14F
330
142
100
AcDbEntity
  8
Visible (ANSI)
100
AcDbVertex
100
AcDb2dVertex
 10
71.61384648497588
 20
33.91610724809432
 30
0.0
  0
VERTEX
  5
150
330
142
100
AcDbEntity
  8
Visible (ANSI)
100
AcDbVertex
100
AcDb2dVertex
 10
71.60825359811872
 20
33.91464719242768
 30
0.0
  0
VERTEX
  5
151
330
142
100
AcDbEntity
  8
Visible (ANSI)
100
AcDbVertex
100
AcDb2dVertex
 10
71.60228524893227
 20
33.91318713676103
 30
0.0
  0
VERTEX
  5
152
330
142
100
AcDbEntity
  8
Visible (ANSI)
100
AcDbVertex
100
AcDb2dVertex
 10
71.59596246330696
 20
33.91172708109439
 30
0.0
  0
VERTEX
  5
153
330
142
100
AcDbEntity
  8
Visible (ANSI)
100
AcDbVertex
100
AcDb2dVertex
 10
71.5893122745305
 20
33.91026703716094
 30
0.0
  0
VERTEX
  5
154
330
142
100
AcDbEntity
  8
Visible (ANSI)
100
AcDbVertex
100
AcDb2dVertex
 10
71.58236772328788
 20
33.90880698149429
 30
0.0
  0
VERTEX
  5
155
330
142
100
AcDbEntity
  8
Visible (ANSI)
100
AcDbVertex
100
AcDb2dVertex
 10
71.57515283916819
 20
33.90734692582765
 30
0.0
  0
VERTEX
  5
156
330
142
100
AcDbEntity
  8
Visible (ANSI)
100
AcDbVertex
100
AcDb2dVertex
 10
71.56770066285635
 20
33.90588688189421
 30
0.0
  0
VERTEX
  5
157
330
142
100
AcDbEntity
  8
Visible (ANSI)
100
AcDbVertex
100
AcDb2dVertex
 10
71.56004723873603
 20
33.90442682622756
 30
0.0
  0
VERTEX
  5
158
330
142
100
AcDbEntity
  8
Visible (ANSI)
100
AcDbVertex
100
AcDb2dVertex
 10
71.55221960009491
 20
33.90296677056091
 30
0.0
  0
VERTEX
  5
159
330
142
100
AcDbEntity
  8
Visible (ANSI)
100
AcDbVertex
100
AcDb2dVertex
 10
71.54425379131662
 20
33.90150671489427
 30
0.0
  0
VERTEX
  5
15A
330
142
100
AcDbEntity
  8
Visible (ANSI)
100
AcDbVertex
100
AcDb2dVertex
 10
71.53618285308612
 20
33.90004667096082
 30
0.0
  0
VERTEX
  5
15B
330
142
100
AcDbEntity
  8
Visible (ANSI)
100
AcDbVertex
100
AcDb2dVertex
 10
71.52804282978704
 20
33.89858661529417
 30
0.0
  0
VERTEX
  5
15C
330
142
100
AcDbEntity
  8
Visible (ANSI)
100
AcDbVertex
100
AcDb2dVertex
 10
71.51986676210433
 20
33.89712655962752
 30
0.0
  0
SEQEND
  5
145
330
142
100
AcDbEntity
  8
Visible (ANSI)
  0
POLYLINE
  5
15D
330
6C
100
AcDbEntity
  8
Visible (ANSI)
100
AcDb2dPolyline
 66
     1
 10
0.0
 20
0.0
 30
0.0
 70
   128
  0
VERTEX
  5
15E
330
15D
100
AcDbEntity
  8
Visible (ANSI)
100
AcDbVertex
100
AcDb2dVertex
 10
40.76986651993112
 20
111.6471287241678
 30
0.0
  0
VERTEX
  5
15F
330
15D
100
AcDbEntity
  8
Visible (ANSI)
100
AcDbVertex
100
AcDb2dVertex
 10
40.77132657559777
 20
111.6553047918505
 30
0.0
  0
VERTEX
  5
161
330
15D
100
AcDbEntity
  8
Visible (ANSI)
100
AcDbVertex
100
AcDb2dVertex
 10
40.77278663126441
 20
111.6634448151496
 30
0.0
  0
VERTEX
  5
162
330
15D
100
AcDbEntity
  8
Visible (ANSI)
100
AcDbVertex
100
AcDb2dVertex
 10
40.77424667519786
 20
111.6715127496815
 30
0.0
  0
VERTEX
  5
163
330
15D
100
AcDbEntity
  8
Visible (ANSI)
100
AcDbVertex
100
AcDb2dVertex
 10
40.77570673086451
 20
111.6794785584598
 30
0.0
  0
VERTEX
  5
164
330
15D
100
AcDbEntity
  8
Visible (ANSI)
100
AcDbVertex
100
AcDb2dVertex
 10
40.77716678653115
 20
111.6873061971009
 30
0.0
  0
VERTEX
  5
165
330
15D
100
AcDbEntity
  8
Visible (ANSI)
100
AcDbVertex
100
AcDb2dVertex
 10
40.7786268421978
 20
111.6949596212212
 30
0.0
  0
VERTEX
  5
166
330
15D
100
AcDbEntity
  8
Visible (ANSI)
100
AcDbVertex
100
AcDb2dVertex
 10
40.78008688613125
 20
111.7024148012317
 30
0.0
  0
VERTEX
  5
167
330
15D
100
AcDbEntity
  8
Visible (ANSI)
100
AcDbVertex
100
AcDb2dVertex
 10
40.78154694179789
 20
111.7096236779541
 30
0.0
  0
VERTEX
  5
168
330
15D
100
AcDbEntity
  8
Visible (ANSI)
100
AcDbVertex
100
AcDb2dVertex
 10
40.78300699746454
 20
111.716574236594
 30
0.0
  0
VERTEX
  5
169
330
15D
100
AcDbEntity
  8
Visible (ANSI)
100
AcDbVertex
100
AcDb2dVertex
 10
40.78446704139799
 20
111.7232244253705
 30
0.0
  0
VERTEX
  5
16A
330
15D
100
AcDbEntity
  8
Visible (ANSI)
100
AcDbVertex
100
AcDb2dVertex
 10
40.78592709706463
 20
111.7295442072971
 30
0.0
  0
VERTEX
  5
16B
330
15D
100
AcDbEntity
  8
Visible (ANSI)
100
AcDbVertex
100
AcDb2dVertex
 10
40.78738715273128
 20
111.7355155601822
 30
0.0
  0
VERTEX
  5
16C
330
15D
100
AcDbEntity
  8
Visible (ANSI)
100
AcDbVertex
100
AcDb2dVertex
 10
40.78884720839792
 20
111.7411084470394
 30
0.0
  0
VERTEX
  5
16D
330
15D
100
AcDbEntity
  8
Visible (ANSI)
100
AcDbVertex
100
AcDb2dVertex
 10
40.79030725233137
 20
111.7462928308823
 30
0.0
  0
VERTEX
  5
16E
330
15D
100
AcDbEntity
  8
Visible (ANSI)
100
AcDbVertex
100
AcDb2dVertex
 10
40.79176730799802
 20
111.7510627043136
 30
0.0
  0
VERTEX
  5
16F
330
15D
100
AcDbEntity
  8
Visible (ANSI)
100
AcDbVertex
100
AcDb2dVertex
 10
40.79322736366466
 20
111.7553820229498
 30
0.0
  0
VERTEX
  5
170
330
15D
100
AcDbEntity
  8
Visible (ANSI)
100
AcDbVertex
100
AcDb2dVertex
 10
40.79468741933131
 20
111.759232764599
 30
0.0
  0
VERTEX
  5
171
330
15D
100
AcDbEntity
  8
Visible (ANSI)
100
AcDbVertex
100
AcDb2dVertex
 10
40.79614746326476
 20
111.7626089218641
 30
0.0
  0
VERTEX
  5
172
330
15D
100
AcDbEntity
  8
Visible (ANSI)
100
AcDbVertex
100
AcDb2dVertex
 10
40.7976075189314
 20
111.765492472553
 30
0.0
  0
VERTEX
  5
173
330
15D
100
AcDbEntity
  8
Visible (ANSI)
100
AcDbVertex
100
AcDb2dVertex
 10
40.79906757459805
 20
111.7678653944742
 30
0.0
  0
VERTEX
  5
174
330
15D
100
AcDbEntity
  8
Visible (ANSI)
100
AcDbVertex
100
AcDb2dVertex
 10
40.80052763026469
 20
111.7697276876275
 30
0.0
  0
VERTEX
  5
175
330
15D
100
AcDbEntity
  8
Visible (ANSI)
100
AcDbVertex
100
AcDb2dVertex
 10
40.80198767419815
 20
111.7710553224239
 30
0.0
  0
VERTEX
  5
176
330
15D
100
AcDbEntity
  8
Visible (ANSI)
100
AcDbVertex
100
AcDb2dVertex
 10
40.80344772986479
 20
111.7718603136579
 30
0.0
  0
VERTEX
  5
177
330
15D
100
AcDbEntity
  8
Visible (ANSI)
100
AcDbVertex
100
AcDb2dVertex
 10
40.80490778553143
 20
111.7721246391377
 30
0.0
  0
SEQEND
  5
160
330
15D
100
AcDbEntity
  8
Visible (ANSI)
  0
POLYLINE
  5
178
330
6C
100
AcDbEntity
  8
Visible (ANSI)
100
AcDb2dPolyline
 66
     1
 10
0.0
 20
0.0
 30
0.0
 70
   128
  0
VERTEX
  5
179
330
178
100
AcDbEntity
  8
Visible (ANSI)
100
AcDbVertex
100
AcDb2dVertex
 10
71.48482561383599
 20
111.7721246391377
 30
0.0
  0
VERTEX
  5
17A
330
178
100
AcDbEntity
  8
Visible (ANSI)
100
AcDbVertex
100
AcDb2dVertex
 10
71.48628541137229
 20
111.7718603136579
 30
0.0
  0
VERTEX
  5
17C
330
178
100
AcDbEntity
  8
Visible (ANSI)
100
AcDbVertex
100
AcDb2dVertex
 10
71.48774520890859
 20
111.7710553224239
 30
0.0
  0
VERTEX
  5
17D
330
178
100
AcDbEntity
  8
Visible (ANSI)
100
AcDbVertex
100
AcDb2dVertex
 10
71.48920500644488
 20
111.7697276876275
 30
0.0
  0
VERTEX
  5
17E
330
178
100
AcDbEntity
  8
Visible (ANSI)
100
AcDbVertex
100
AcDb2dVertex
 10
71.49066480398118
 20
111.7678653944742
 30
0.0
  0
VERTEX
  5
17F
330
178
100
AcDbEntity
  8
Visible (ANSI)
100
AcDbVertex
100
AcDb2dVertex
 10
71.49212460151748
 20
111.765492472553
 30
0.0
  0
VERTEX
  5
180
330
178
100
AcDbEntity
  8
Visible (ANSI)
100
AcDbVertex
100
AcDb2dVertex
 10
71.49358439905376
 20
111.7626089218641
 30
0.0
  0
VERTEX
  5
181
330
178
100
AcDbEntity
  8
Visible (ANSI)
100
AcDbVertex
100
AcDb2dVertex
 10
71.49504419659006
 20
111.759232764599
 30
0.0
  0
VERTEX
  5
182
330
178
100
AcDbEntity
  8
Visible (ANSI)
100
AcDbVertex
100
AcDb2dVertex
 10
71.49650699782498
 20
111.7553820229498
 30
0.0
  0
VERTEX
  5
183
330
178
100
AcDbEntity
  8
Visible (ANSI)
100
AcDbVertex
100
AcDb2dVertex
 10
71.49796679536128
 20
111.7510627043136
 30
0.0
  0
VERTEX
  5
184
330
178
100
AcDbEntity
  8
Visible (ANSI)
100
AcDbVertex
100
AcDb2dVertex
 10
71.49942659289758
 20
111.7462928308823
 30
0.0
  0
VERTEX
  5
185
330
178
100
AcDbEntity
  8
Visible (ANSI)
100
AcDbVertex
100
AcDb2dVertex
 10
71.50088639043386
 20
111.7411084470394
 30
0.0
  0
VERTEX
  5
186
330
178
100
AcDbEntity
  8
Visible (ANSI)
100
AcDbVertex
100
AcDb2dVertex
 10
71.50234618797016
 20
111.7355155601822
 30
0.0
  0
VERTEX
  5
187
330
178
100
AcDbEntity
  8
Visible (ANSI)
100
AcDbVertex
100
AcDb2dVertex
 10
71.50380598550646
 20
111.7295442072971
 30
0.0
  0
VERTEX
  5
188
330
178
100
AcDbEntity
  8
Visible (ANSI)
100
AcDbVertex
100
AcDb2dVertex
 10
71.50526578304274
 20
111.7232244253705
 30
0.0
  0
VERTEX
  5
189
330
178
100
AcDbEntity
  8
Visible (ANSI)
100
AcDbVertex
100
AcDb2dVertex
 10
71.50672558057904
 20
111.716574236594
 30
0.0
  0
VERTEX
  5
18A
330
178
100
AcDbEntity
  8
Visible (ANSI)
100
AcDbVertex
100
AcDb2dVertex
 10
71.50818537811534
 20
111.7096236779541
 30
0.0
  0
VERTEX
  5
18B
330
178
100
AcDbEntity
  8
Visible (ANSI)
100
AcDbVertex
100
AcDb2dVertex
 10
71.50964517565164
 20
111.7024148012317
 30
0.0
  0
VERTEX
  5
18C
330
178
100
AcDbEntity
  8
Visible (ANSI)
100
AcDbVertex
100
AcDb2dVertex
 10
71.51110497318793
 20
111.6949596212212
 30
0.0
  0
VERTEX
  5
18D
330
178
100
AcDbEntity
  8
Visible (ANSI)
100
AcDbVertex
100
AcDb2dVertex
 10
71.51256477072422
 20
111.6873061971009
 30
0.0
  0
VERTEX
  5
18E
330
178
100
AcDbEntity
  8
Visible (ANSI)
100
AcDbVertex
100
AcDb2dVertex
 10
71.51402757195914
 20
111.6794785584598
 30
0.0
  0
VERTEX
  5
18F
330
178
100
AcDbEntity
  8
Visible (ANSI)
100
AcDbVertex
100
AcDb2dVertex
 10
71.51548736949544
 20
111.6715127496815
 30
0.0
  0
VERTEX
  5
190
330
178
100
AcDbEntity
  8
Visible (ANSI)
100
AcDbVertex
100
AcDb2dVertex
 10
71.51694716703175
 20
111.6634448151496
 30
0.0
  0
VERTEX
  5
191
330
178
100
AcDbEntity
  8
Visible (ANSI)
100
AcDbVertex
100
AcDb2dVertex
 10
71.51840696456803
 20
111.6553047918505
 30
0.0
  0
VERTEX
  5
192
330
178
100
AcDbEntity
  8
Visible (ANSI)
100
AcDbVertex
100
AcDb2dVertex
 10
71.51986676210433
 20
111.6471287241678
 30
0.0
  0
SEQEND
  5
17B
330
178
100
AcDbEntity
  8
Visible (ANSI)
  0
POLYLINE
  5
193
330
6C
100
AcDbEntity
  8
Visible (ANSI)
100
AcDb2dPolyline
 66
     1
 10
0.0
 20
0.0
 30
0.0
 70
   128
  0
VERTEX
  5
194
330
193
100
AcDbEntity
  8
Visible (ANSI)
100
AcDbVertex
100
AcDb2dVertex
 10
40.76986651993112
 20
33.89712655962752
 30
0.0
  0
VERTEX
  5
195
330
193
100
AcDbEntity
  8
Visible (ANSI)
100
AcDbVertex
100
AcDb2dVertex
 10
40.7616911327739
 20
33.89858661529417
 30
0.0
  0
VERTEX
  5
197
330
193
100
AcDbEntity
  8
Visible (ANSI)
100
AcDbVertex
100
AcDb2dVertex
 10
40.75355074574567
 20
33.90004667096082
 30
0.0
  0
VERTEX
  5
198
330
193
100
AcDbEntity
  8
Visible (ANSI)
100
AcDbVertex
100
AcDb2dVertex
 10
40.7454802299103
 20
33.90150671489427
 30
0.0
  0
VERTEX
  5
199
330
193
100
AcDbEntity
  8
Visible (ANSI)
100
AcDbVertex
100
AcDb2dVertex
 10
40.73751413953525
 20
33.90296677056091
 30
0.0
  0
VERTEX
  5
19A
330
193
100
AcDbEntity
  8
Visible (ANSI)
100
AcDbVertex
100
AcDb2dVertex
 10
40.72968658889311
 20
33.90442682622756
 30
0.0
  0
VERTEX
  5
19B
330
193
100
AcDbEntity
  8
Visible (ANSI)
100
AcDbVertex
100
AcDb2dVertex
 10
40.72203109386339
 20
33.90588688189421
 30
0.0
  0
VERTEX
  5
19C
330
193
100
AcDbEntity
  8
Visible (ANSI)
100
AcDbVertex
100
AcDb2dVertex
 10
40.71458043700068
 20
33.90734692582765
 30
0.0
  0
VERTEX
  5
19D
330
193
100
AcDbEntity
  8
Visible (ANSI)
100
AcDbVertex
100
AcDb2dVertex
 10
40.70736652086978
 20
33.90880698149429
 30
0.0
  0
VERTEX
  5
19E
330
193
100
AcDbEntity
  8
Visible (ANSI)
100
AcDbVertex
100
AcDb2dVertex
 10
40.70042024484709
 20
33.91026703716094
 30
0.0
  0
VERTEX
  5
19F
330
193
100
AcDbEntity
  8
Visible (ANSI)
100
AcDbVertex
100
AcDb2dVertex
 10
40.6937713437891
 20
33.91172708109439
 30
0.0
  0
VERTEX
  5
1A0
330
193
100
AcDbEntity
  8
Visible (ANSI)
100
AcDbVertex
100
AcDb2dVertex
 10
40.68744829416683
 20
33.91318713676103
 30
0.0
  0
VERTEX
  5
1A1
330
193
100
AcDbEntity
  8
Visible (ANSI)
100
AcDbVertex
100
AcDb2dVertex
 10
40.68147817326751
 20
33.91464719242768
 30
0.0
  0
VERTEX
  5
1A2
330
193
100
AcDbEntity
  8
Visible (ANSI)
100
AcDbVertex
100
AcDb2dVertex
 10
40.67588654479582
 20
33.91610724809432
 30
0.0
  0
VERTEX
  5
1A3
330
193
100
AcDbEntity
  8
Visible (ANSI)
100
AcDbVertex
100
AcDb2dVertex
 10
40.67069735327513
 20
33.91756729202778
 30
0.0
  0
VERTEX
  5
1A4
330
193
100
AcDbEntity
  8
Visible (ANSI)
100
AcDbVertex
100
AcDb2dVertex
 10
40.66593281991543
 20
33.91902734769442
 30
0.0
  0
VERTEX
  5
1A5
330
193
100
AcDbEntity
  8
Visible (ANSI)
100
AcDbVertex
100
AcDb2dVertex
 10
40.66161334581436
 20
33.92048740336107
 30
0.0
  0
VERTEX
  5
1A6
330
193
100
AcDbEntity
  8
Visible (ANSI)
100
AcDbVertex
100
AcDb2dVertex
 10
40.65775742982491
 20
33.92194745902771
 30
0.0
  0
VERTEX
  5
1A7
330
193
100
AcDbEntity
  8
Visible (ANSI)
100
AcDbVertex
100
AcDb2dVertex
 10
40.65438158055633
 20
33.92340750296116
 30
0.0
  0
VERTEX
  5
1A8
330
193
100
AcDbEntity
  8
Visible (ANSI)
100
AcDbVertex
100
AcDb2dVertex
 10
40.6515002555083
 20
33.9248675586278
 30
0.0
  0
VERTEX
  5
1A9
330
193
100
AcDbEntity
  8
Visible (ANSI)
100
AcDbVertex
100
AcDb2dVertex
 10
40.64912579360496
 20
33.92632761429445
 30
0.0
  0
VERTEX
  5
1AA
330
193
100
AcDbEntity
  8
Visible (ANSI)
100
AcDbVertex
100
AcDb2dVertex
 10
40.64726836184551
 20
33.9277876699611
 30
0.0
  0
VERTEX
  5
1AB
330
193
100
AcDbEntity
  8
Visible (ANSI)
100
AcDbVertex
100
AcDb2dVertex
 10
40.64593591414639
 20
33.92924771389455
 30
0.0
  0
VERTEX
  5
1AC
330
193
100
AcDbEntity
  8
Visible (ANSI)
100
AcDbVertex
100
AcDb2dVertex
 10
40.64513415639378
 20
33.93070776956119
 30
0.0
  0
VERTEX
  5
1AD
330
193
100
AcDbEntity
  8
Visible (ANSI)
100
AcDbVertex
100
AcDb2dVertex
 10
40.64486652180844
 20
33.93216782522784
 30
0.0
  0
SEQEND
  5
196
330
193
100
AcDbEntity
  8
Visible (ANSI)
  0
POLYLINE
  5
1AE
330
6C
100
AcDbEntity
  8
Visible (ANSI)
100
AcDb2dPolyline
 66
     1
 10
0.0
 20
0.0
 30
0.0
 70
   128
  0
VERTEX
  5
1AF
330
1AE
100
AcDbEntity
  8
Visible (ANSI)
100
AcDbVertex
100
AcDb2dVertex
 10
40.64486652180842
 20
111.6120875758995
 30
0.0
  0
VERTEX
  5
1B0
330
1AE
100
AcDbEntity
  8
Visible (ANSI)
100
AcDbVertex
100
AcDb2dVertex
 10
40.64513415639378
 20
111.6135473734358
 30
0.0
  0
VERTEX
  5
1B2
330
1AE
100
AcDbEntity
  8
Visible (ANSI)
100
AcDbVertex
100
AcDb2dVertex
 10
40.64593591414639
 20
111.6150071709721
 30
0.0
  0
VERTEX
  5
1B3
330
1AE
100
AcDbEntity
  8
Visible (ANSI)
100
AcDbVertex
100
AcDb2dVertex
 10
40.64726836184551
 20
111.6164669685084
 30
0.0
  0
VERTEX
  5
1B4
330
1AE
100
AcDbEntity
  8
Visible (ANSI)
100
AcDbVertex
100
AcDb2dVertex
 10
40.64912579360496
 20
111.6179267660447
 30
0.0
  0
VERTEX
  5
1B5
330
1AE
100
AcDbEntity
  8
Visible (ANSI)
100
AcDbVertex
100
AcDb2dVertex
 10
40.6515002555083
 20
111.619386563581
 30
0.0
  0
VERTEX
  5
1B6
330
1AE
100
AcDbEntity
  8
Visible (ANSI)
100
AcDbVertex
100
AcDb2dVertex
 10
40.65438158055633
 20
111.6208463611173
 30
0.0
  0
VERTEX
  5
1B7
330
1AE
100
AcDbEntity
  8
Visible (ANSI)
100
AcDbVertex
100
AcDb2dVertex
 10
40.65775742982491
 20
111.6223061586536
 30
0.0
  0
VERTEX
  5
1B8
330
1AE
100
AcDbEntity
  8
Visible (ANSI)
100
AcDbVertex
100
AcDb2dVertex
 10
40.66161334581436
 20
111.6237659561899
 30
0.0
  0
VERTEX
  5
1B9
330
1AE
100
AcDbEntity
  8
Visible (ANSI)
100
AcDbVertex
100
AcDb2dVertex
 10
40.66593281991543
 20
111.6252257537261
 30
0.0
  0
VERTEX
  5
1BA
330
1AE
100
AcDbEntity
  8
Visible (ANSI)
100
AcDbVertex
100
AcDb2dVertex
 10
40.67069735327513
 20
111.6266855512624
 30
0.0
  0
VERTEX
  5
1BB
330
1AE
100
AcDbEntity
  8
Visible (ANSI)
100
AcDbVertex
100
AcDb2dVertex
 10
40.67588654479582
 20
111.6281453487987
 30
0.0
  0
VERTEX
  5
1BC
330
1AE
100
AcDbEntity
  8
Visible (ANSI)
100
AcDbVertex
100
AcDb2dVertex
 10
40.68147817326751
 20
111.629605146335
 30
0.0
  0
VERTEX
  5
1BD
330
1AE
100
AcDbEntity
  8
Visible (ANSI)
100
AcDbVertex
100
AcDb2dVertex
 10
40.68744829416683
 20
111.6310649438713
 30
0.0
  0
VERTEX
  5
1BE
330
1AE
100
AcDbEntity
  8
Visible (ANSI)
100
AcDbVertex
100
AcDb2dVertex
 10
40.6937713437891
 20
111.6325247414076
 30
0.0
  0
VERTEX
  5
1BF
330
1AE
100
AcDbEntity
  8
Visible (ANSI)
100
AcDbVertex
100
AcDb2dVertex
 10
40.70042024484709
 20
111.6339845389439
 30
0.0
  0
VERTEX
  5
1C0
330
1AE
100
AcDbEntity
  8
Visible (ANSI)
100
AcDbVertex
100
AcDb2dVertex
 10
40.70736652086978
 20
111.6354443364802
 30
0.0
  0
VERTEX
  5
1C1
330
1AE
100
AcDbEntity
  8
Visible (ANSI)
100
AcDbVertex
100
AcDb2dVertex
 10
40.71458043700068
 20
111.6369041340165
 30
0.0
  0
VERTEX
  5
1C2
330
1AE
100
AcDbEntity
  8
Visible (ANSI)
100
AcDbVertex
100
AcDb2dVertex
 10
40.72203109386339
 20
111.6383639315528
 30
0.0
  0
VERTEX
  5
1C3
330
1AE
100
AcDbEntity
  8
Visible (ANSI)
100
AcDbVertex
100
AcDb2dVertex
 10
40.72968658889311
 20
111.6398237290891
 30
0.0
  0
VERTEX
  5
1C4
330
1AE
100
AcDbEntity
  8
Visible (ANSI)
100
AcDbVertex
100
AcDb2dVertex
 10
40.73751413953525
 20
111.6412835266254
 30
0.0
  0
VERTEX
  5
1C5
330
1AE
100
AcDbEntity
  8
Visible (ANSI)
100
AcDbVertex
100
AcDb2dVertex
 10
40.7454802299103
 20
111.6427493315589
 30
0.0
  0
VERTEX
  5
1C6
330
1AE
100
AcDbEntity
  8
Visible (ANSI)
100
AcDbVertex
100
AcDb2dVertex
 10
40.75355074574567
 20
111.6442091290952
 30
0.0
  0
VERTEX
  5
1C7
330
1AE
100
AcDbEntity
  8
Visible (ANSI)
100
AcDbVertex
100
AcDb2dVertex
 10
40.7616911327739
 20
111.6456689266315
 30
0.0
  0
VERTEX
  5
1C8
330
1AE
100
AcDbEntity
  8
Visible (ANSI)
100
AcDbVertex
100
AcDb2dVertex
 10
40.76986651993112
 20
111.6471287241678
 30
0.0
  0
SEQEND
  5
1B1
330
1AE
100
AcDbEntity
  8
Visible (ANSI)
  0
POLYLINE
  5
1C9
330
6C
100
AcDbEntity
  8
Visible (ANSI)
100
AcDb2dPolyline
 66
     1
 10
0.0
 20
0.0
 30
0.0
 70
   128
  0
VERTEX
  5
1CA
330
1C9
100
AcDbEntity
  8
Visible (ANSI)
100
AcDbVertex
100
AcDb2dVertex
 10
71.51986676210433
 20
33.89712655962752
 30
0.0
  0
VERTEX
  5
1CB
330
1C9
100
AcDbEntity
  8
Visible (ANSI)
100
AcDbVertex
100
AcDb2dVertex
 10
71.51840696456803
 20
33.8889511724703
 30
0.0
  0
VERTEX
  5
1CD
330
1C9
100
AcDbEntity
  8
Visible (ANSI)
100
AcDbVertex
100
AcDb2dVertex
 10
71.51694716703175
 20
33.88081078544207
 30
0.0
  0
VERTEX
  5
1CE
330
1C9
100
AcDbEntity
  8
Visible (ANSI)
100
AcDbVertex
100
AcDb2dVertex
 10
71.51548736949544
 20
33.8727402696067
 30
0.0
  0
VERTEX
  5
1CF
330
1C9
100
AcDbEntity
  8
Visible (ANSI)
100
AcDbVertex
100
AcDb2dVertex
 10
71.51402757195914
 20
33.86477417923166
 30
0.0
  0
VERTEX
  5
1D0
330
1C9
100
AcDbEntity
  8
Visible (ANSI)
100
AcDbVertex
100
AcDb2dVertex
 10
71.51256477072422
 20
33.85694662858952
 30
0.0
  0
VERTEX
  5
1D1
330
1C9
100
AcDbEntity
  8
Visible (ANSI)
100
AcDbVertex
100
AcDb2dVertex
 10
71.51110497318793
 20
33.84929113355978
 30
0.0
  0
VERTEX
  5
1D2
330
1C9
100
AcDbEntity
  8
Visible (ANSI)
100
AcDbVertex
100
AcDb2dVertex
 10
71.50964517565164
 20
33.84184047669708
 30
0.0
  0
VERTEX
  5
1D3
330
1C9
100
AcDbEntity
  8
Visible (ANSI)
100
AcDbVertex
100
AcDb2dVertex
 10
71.50818537811534
 20
33.83462656056618
 30
0.0
  0
VERTEX
  5
1D4
330
1C9
100
AcDbEntity
  8
Visible (ANSI)
100
AcDbVertex
100
AcDb2dVertex
 10
71.50672558057904
 20
33.82768028454349
 30
0.0
  0
VERTEX
  5
1D5
330
1C9
100
AcDbEntity
  8
Visible (ANSI)
100
AcDbVertex
100
AcDb2dVertex
 10
71.50526578304274
 20
33.82103138348549
 30
0.0
  0
VERTEX
  5
1D6
330
1C9
100
AcDbEntity
  8
Visible (ANSI)
100
AcDbVertex
100
AcDb2dVertex
 10
71.50380598550646
 20
33.81470833386324
 30
0.0
  0
VERTEX
  5
1D7
330
1C9
100
AcDbEntity
  8
Visible (ANSI)
100
AcDbVertex
100
AcDb2dVertex
 10
71.50234618797016
 20
33.80873821296392
 30
0.0
  0
VERTEX
  5
1D8
330
1C9
100
AcDbEntity
  8
Visible (ANSI)
100
AcDbVertex
100
AcDb2dVertex
 10
71.50088639043386
 20
33.80314658449222
 30
0.0
  0
VERTEX
  5
1D9
330
1C9
100
AcDbEntity
  8
Visible (ANSI)
100
AcDbVertex
100
AcDb2dVertex
 10
71.49942659289758
 20
33.79795739297153
 30
0.0
  0
VERTEX
  5
1DA
330
1C9
100
AcDbEntity
  8
Visible (ANSI)
100
AcDbVertex
100
AcDb2dVertex
 10
71.49796679536128
 20
33.79319285961183
 30
0.0
  0
VERTEX
  5
1DB
330
1C9
100
AcDbEntity
  8
Visible (ANSI)
100
AcDbVertex
100
AcDb2dVertex
 10
71.49650699782498
 20
33.78887338551076
 30
0.0
  0
VERTEX
  5
1DC
330
1C9
100
AcDbEntity
  8
Visible (ANSI)
100
AcDbVertex
100
AcDb2dVertex
 10
71.49504419659006
 20
33.7850174695213
 30
0.0
  0
VERTEX
  5
1DD
330
1C9
100
AcDbEntity
  8
Visible (ANSI)
100
AcDbVertex
100
AcDb2dVertex
 10
71.49358439905376
 20
33.78164162025274
 30
0.0
  0
VERTEX
  5
1DE
330
1C9
100
AcDbEntity
  8
Visible (ANSI)
100
AcDbVertex
100
AcDb2dVertex
 10
71.49212460151748
 20
33.77876029520471
 30
0.0
  0
VERTEX
  5
1DF
330
1C9
100
AcDbEntity
  8
Visible (ANSI)
100
AcDbVertex
100
AcDb2dVertex
 10
71.49066480398118
 20
33.77638583330137
 30
0.0
  0
VERTEX
  5
1E0
330
1C9
100
AcDbEntity
  8
Visible (ANSI)
100
AcDbVertex
100
AcDb2dVertex
 10
71.48920500644488
 20
33.77452840154191
 30
0.0
  0
VERTEX
  5
1E1
330
1C9
100
AcDbEntity
  8
Visible (ANSI)
100
AcDbVertex
100
AcDb2dVertex
 10
71.48774520890859
 20
33.77319595384279
 30
0.0
  0
VERTEX
  5
1E2
330
1C9
100
AcDbEntity
  8
Visible (ANSI)
100
AcDbVertex
100
AcDb2dVertex
 10
71.48628541137229
 20
33.77239419609018
 30
0.0
  0
VERTEX
  5
1E3
330
1C9
100
AcDbEntity
  8
Visible (ANSI)
100
AcDbVertex
100
AcDb2dVertex
 10
71.48482561383599
 20
33.77212656150483
 30
0.0
  0
SEQEND
  5
1CC
330
1C9
100
AcDbEntity
  8
Visible (ANSI)
  0
POLYLINE
  5
1E4
330
6C
100
AcDbEntity
  8
Visible (ANSI)
100
AcDb2dPolyline
 66
     1
 10
0.0
 20
0.0
 30
0.0
 70
   128
  0
VERTEX
  5
1E5
330
1E4
100
AcDbEntity
  8
Visible (ANSI)
100
AcDbVertex
100
AcDb2dVertex
 10
40.80490778553143
 20
33.77212656150483
 30
0.0
  0
VERTEX
  5
1E6
330
1E4
100
AcDbEntity
  8
Visible (ANSI)
100
AcDbVertex
100
AcDb2dVertex
 10
40.80344772986479
 20
33.77239419609018
 30
0.0
  0
VERTEX
  5
1E8
330
1E4
100
AcDbEntity
  8
Visible (ANSI)
100
AcDbVertex
100
AcDb2dVertex
 10
40.80198767419815
 20
33.77319595384279
 30
0.0
  0
VERTEX
  5
1E9
330
1E4
100
AcDbEntity
  8
Visible (ANSI)
100
AcDbVertex
100
AcDb2dVertex
 10
40.80052763026469
 20
33.77452840154191
 30
0.0
  0
VERTEX
  5
1EA
330
1E4
100
AcDbEntity
  8
Visible (ANSI)
100
AcDbVertex
100
AcDb2dVertex
 10
40.79906757459805
 20
33.77638583330137
 30
0.0
  0
VERTEX
  5
1EB
330
1E4
100
AcDbEntity
  8
Visible (ANSI)
100
AcDbVertex
100
AcDb2dVertex
 10
40.7976075189314
 20
33.77876029520471
 30
0.0
  0
VERTEX
  5
1EC
330
1E4
100
AcDbEntity
  8
Visible (ANSI)
100
AcDbVertex
100
AcDb2dVertex
 10
40.79614746326476
 20
33.78164162025274
 30
0.0
  0
VERTEX
  5
1ED
330
1E4
100
AcDbEntity
  8
Visible (ANSI)
100
AcDbVertex
100
AcDb2dVertex
 10
40.79468741933131
 20
33.7850174695213
 30
0.0
  0
VERTEX
  5
1EE
330
1E4
100
AcDbEntity
  8
Visible (ANSI)
100
AcDbVertex
100
AcDb2dVertex
 10
40.79322736366466
 20
33.78887338551076
 30
0.0
  0
VERTEX
  5
1EF
330
1E4
100
AcDbEntity
  8
Visible (ANSI)
100
AcDbVertex
100
AcDb2dVertex
 10
40.79176730799802
 20
33.79319285961183
 30
0.0
  0
VERTEX
  5
1F0
330
1E4
100
AcDbEntity
  8
Visible (ANSI)
100
AcDbVertex
100
AcDb2dVertex
 10
40.79030725233137
 20
33.79795739297153
 30
0.0
  0
VERTEX
  5
1F1
330
1E4
100
AcDbEntity
  8
Visible (ANSI)
100
AcDbVertex
100
AcDb2dVertex
 10
40.78884720839792
 20
33.80314658449222
 30
0.0
  0
VERTEX
  5
1F2
330
1E4
100
AcDbEntity
  8
Visible (ANSI)
100
AcDbVertex
100
AcDb2dVertex
 10
40.78738715273128
 20
33.80873821296392
 30
0.0
  0
VERTEX
  5
1F3
330
1E4
100
AcDbEntity
  8
Visible (ANSI)
100
AcDbVertex
100
AcDb2dVertex
 10
40.78592709706463
 20
33.81470833386324
 30
0.0
  0
VERTEX
  5
1F4
330
1E4
100
AcDbEntity
  8
Visible (ANSI)
100
AcDbVertex
100
AcDb2dVertex
 10
40.78446704139799
 20
33.82103138348549
 30
0.0
  0
VERTEX
  5
1F5
330
1E4
100
AcDbEntity
  8
Visible (ANSI)
100
AcDbVertex
100
AcDb2dVertex
 10
40.78300699746454
 20
33.82768028454349
 30
0.0
  0
VERTEX
  5
1F6
330
1E4
100
AcDbEntity
  8
Visible (ANSI)
100
AcDbVertex
100
AcDb2dVertex
 10
40.78154694179789
 20
33.83462656056618
 30
0.0
  0
VERTEX
  5
1F7
330
1E4
100
AcDbEntity
  8
Visible (ANSI)
100
AcDbVertex
100
AcDb2dVertex
 10
40.78008688613125
 20
33.84184047669708
 30
0.0
  0
VERTEX
  5
1F8
330
1E4
100
AcDbEntity
  8
Visible (ANSI)
100
AcDbVertex
100
AcDb2dVertex
 10
40.7786268421978
 20
33.84929113355978
 30
0.0
  0
VERTEX
  5
1F9
330
1E4
100
AcDbEntity
  8
Visible (ANSI)
100
AcDbVertex
100
AcDb2dVertex
 10
40.77716678653115
 20
33.85694662858952
 30
0.0
  0
VERTEX
  5
1FA
330
1E4
100
AcDbEntity
  8
Visible (ANSI)
100
AcDbVertex
100
AcDb2dVertex
 10
40.77570673086451
 20
33.86477417923166
 30
0.0
  0
VERTEX
  5
1FB
330
1E4
100
AcDbEntity
  8
Visible (ANSI)
100
AcDbVertex
100
AcDb2dVertex
 10
40.77424667519786
 20
33.8727402696067
 30
0.0
  0
VERTEX
  5
1FC
330
1E4
100
AcDbEntity
  8
Visible (ANSI)
100
AcDbVertex
100
AcDb2dVertex
 10
40.77278663126441
 20
33.88081078544207
 30
0.0
  0
VERTEX
  5
1FD
330
1E4
100
AcDbEntity
  8
Visible (ANSI)
100
AcDbVertex
100
AcDb2dVertex
 10
40.77132657559777
 20
33.8889511724703
 30
0.0
  0
VERTEX
  5
1FE
330
1E4
100
AcDbEntity
  8
Visible (ANSI)
100
AcDbVertex
100
AcDb2dVertex
 10
40.76986651993112
 20
33.89712655962752
 30
0.0
  0
SEQEND
  5
1E7
330
1E4
100
AcDbEntity
  8
Visible (ANSI)
  0
LINE
  5
1FF
330
6C
100
AcDbEntity
  8
Hidden (ANSI)
100
AcDbLine
 10
71.55111652180844
 20
33.93216782224107
 30
0.0
 11
71.64486652180844
 21
33.93216782224107
 31
0.0
  0
POLYLINE
  5
200
330
6C
100
AcDbEntity
  8
Hidden (ANSI)
100
AcDb2dPolyline
 66
     1
 10
0.0
 20
0.0
 30
0.0
 70
   128
  0
VERTEX
  5
201
330
200
100
AcDbEntity
  8
Hidden (ANSI)
100
AcDbVertex
100
AcDb2dVertex
 10
71.51986676210433
 20
33.89712655962752
 30
0.0
  0
VERTEX
  5
202
330
200
100
AcDbEntity
  8
Hidden (ANSI)
100
AcDbVertex
100
AcDb2dVertex
 10
71.52190927717568
 20
33.89858661529417
 30
0.0
  0
VERTEX
  5
204
330
200
100
AcDbEntity
  8
Hidden (ANSI)
100
AcDbVertex
100
AcDb2dVertex
 10
71.52394578484977
 20
33.90004667096082
 30
0.0
  0
VERTEX
  5
205
330
200
100
AcDbEntity
  8
Hidden (ANSI)
100
AcDbVertex
100
AcDb2dVertex
 10
71.52596427033206
 20
33.90150671489427
 30
0.0
  0
VERTEX
  5
206
330
200
100
AcDbEntity
  8
Hidden (ANSI)
100
AcDbVertex
100
AcDb2dVertex
 10
71.52795572252664
 20
33.90296677056091
 30
0.0
  0
VERTEX
  5
207
330
200
100
AcDbEntity
  8
Hidden (ANSI)
100
AcDbVertex
100
AcDb2dVertex
 10
71.52991113033761
 20
33.90442682622756
 30
0.0
  0
VERTEX
  5
208
330
200
100
AcDbEntity
  8
Hidden (ANSI)
100
AcDbVertex
100
AcDb2dVertex
 10
71.53182448636768
 20
33.90588688189421
 30
0.0
  0
VERTEX
  5
209
330
200
100
AcDbEntity
  8
Hidden (ANSI)
100
AcDbVertex
100
AcDb2dVertex
 10
71.53368677952096
 20
33.90734692582765
 30
0.0
  0
VERTEX
  5
20A
330
200
100
AcDbEntity
  8
Hidden (ANSI)
100
AcDbVertex
100
AcDb2dVertex
 10
71.53549200240021
 20
33.90880698149429
 30
0.0
  0
VERTEX
  5
20B
330
200
100
AcDbEntity
  8
Hidden (ANSI)
100
AcDbVertex
100
AcDb2dVertex
 10
71.53722814021087
 20
33.91026703716094
 30
0.0
  0
VERTEX
  5
20C
330
200
100
AcDbEntity
  8
Hidden (ANSI)
100
AcDbVertex
100
AcDb2dVertex
 10
71.53888918555567
 20
33.91172708109439
 30
0.0
  0
VERTEX
  5
20D
330
200
100
AcDbEntity
  8
Hidden (ANSI)
100
AcDbVertex
100
AcDb2dVertex
 10
71.54047213473598
 20
33.91318713676103
 30
0.0
  0
VERTEX
  5
20E
330
200
100
AcDbEntity
  8
Hidden (ANSI)
100
AcDbVertex
100
AcDb2dVertex
 10
71.54196497295725
 20
33.91464719242768
 30
0.0
  0
VERTEX
  5
20F
330
200
100
AcDbEntity
  8
Hidden (ANSI)
100
AcDbVertex
100
AcDb2dVertex
 10
71.54336169282221
 20
33.91610724809432
 30
0.0
  0
VERTEX
  5
210
330
200
100
AcDbEntity
  8
Hidden (ANSI)
100
AcDbVertex
100
AcDb2dVertex
 10
71.54465929063225
 20
33.91756729202778
 30
0.0
  0
VERTEX
  5
211
330
200
100
AcDbEntity
  8
Hidden (ANSI)
100
AcDbVertex
100
AcDb2dVertex
 10
71.54584875529145
 20
33.91902734769442
 30
0.0
  0
VERTEX
  5
212
330
200
100
AcDbEntity
  8
Hidden (ANSI)
100
AcDbVertex
100
AcDb2dVertex
 10
71.54693008679983
 20
33.92048740336107
 30
0.0
  0
VERTEX
  5
213
330
200
100
AcDbEntity
  8
Hidden (ANSI)
100
AcDbVertex
100
AcDb2dVertex
 10
71.54789427406145
 20
33.92194745902771
 30
0.0
  0
VERTEX
  5
214
330
200
100
AcDbEntity
  8
Hidden (ANSI)
100
AcDbVertex
100
AcDb2dVertex
 10
71.54873831337771
 20
33.92340750296116
 30
0.0
  0
VERTEX
  5
215
330
200
100
AcDbEntity
  8
Hidden (ANSI)
100
AcDbVertex
100
AcDb2dVertex
 10
71.54945920104996
 20
33.9248675586278
 30
0.0
  0
VERTEX
  5
216
330
200
100
AcDbEntity
  8
Hidden (ANSI)
100
AcDbVertex
100
AcDb2dVertex
 10
71.55005092968091
 20
33.92632761429445
 30
0.0
  0
VERTEX
  5
217
330
200
100
AcDbEntity
  8
Hidden (ANSI)
100
AcDbVertex
100
AcDb2dVertex
 10
71.55051650296923
 20
33.9277876699611
 30
0.0
  0
VERTEX
  5
218
330
200
100
AcDbEntity
  8
Hidden (ANSI)
100
AcDbVertex
100
AcDb2dVertex
 10
71.55084991351765
 20
33.92924771389455
 30
0.0
  0
VERTEX
  5
219
330
200
100
AcDbEntity
  8
Hidden (ANSI)
100
AcDbVertex
100
AcDb2dVertex
 10
71.55104815762752
 20
33.93070776956119
 30
0.0
  0
VERTEX
  5
21A
330
200
100
AcDbEntity
  8
Hidden (ANSI)
100
AcDbVertex
100
AcDb2dVertex
 10
71.55111724269611
 20
33.93216782522784
 30
0.0
  0
SEQEND
  5
203
330
200
100
AcDbEntity
  8
Hidden (ANSI)
  0
LINE
  5
21B
330
6C
100
AcDbEntity
  8
Hidden (ANSI)
100
AcDbLine
 10
71.55111652180841
 20
111.6120853007686
 30
0.0
 11
71.64486652180841
 21
111.6120853007686
 31
0.0
  0
POLYLINE
  5
21C
330
6C
100
AcDbEntity
  8
Hidden (ANSI)
100
AcDb2dPolyline
 66
     1
 10
0.0
 20
0.0
 30
0.0
 70
   128
  0
VERTEX
  5
21D
330
21C
100
AcDbEntity
  8
Hidden (ANSI)
100
AcDbVertex
100
AcDb2dVertex
 10
71.51986676210433
 20
111.6471287241678
 30
0.0
  0
VERTEX
  5
21E
330
21C
100
AcDbEntity
  8
Hidden (ANSI)
100
AcDbVertex
100
AcDb2dVertex
 10
71.52190927717568
 20
111.6456689266315
 30
0.0
  0
VERTEX
  5
220
330
21C
100
AcDbEntity
  8
Hidden (ANSI)
100
AcDbVertex
100
AcDb2dVertex
 10
71.52394578484977
 20
111.6442091290952
 30
0.0
  0
VERTEX
  5
221
330
21C
100
AcDbEntity
  8
Hidden (ANSI)
100
AcDbVertex
100
AcDb2dVertex
 10
71.52596427033206
 20
111.6427493315589
 30
0.0
  0
VERTEX
  5
222
330
21C
100
AcDbEntity
  8
Hidden (ANSI)
100
AcDbVertex
100
AcDb2dVertex
 10
71.52795572252664
 20
111.6412835266254
 30
0.0
  0
VERTEX
  5
223
330
21C
100
AcDbEntity
  8
Hidden (ANSI)
100
AcDbVertex
100
AcDb2dVertex
 10
71.52991113033761
 20
111.6398237290891
 30
0.0
  0
VERTEX
  5
224
330
21C
100
AcDbEntity
  8
Hidden (ANSI)
100
AcDbVertex
100
AcDb2dVertex
 10
71.53182448636768
 20
111.6383639315528
 30
0.0
  0
VERTEX
  5
225
330
21C
100
AcDbEntity
  8
Hidden (ANSI)
100
AcDbVertex
100
AcDb2dVertex
 10
71.53368677952096
 20
111.6369041340165
 30
0.0
  0
VERTEX
  5
226
330
21C
100
AcDbEntity
  8
Hidden (ANSI)
100
AcDbVertex
100
AcDb2dVertex
 10
71.53549200240021
 20
111.6354443364802
 30
0.0
  0
VERTEX
  5
227
330
21C
100
AcDbEntity
  8
Hidden (ANSI)
100
AcDbVertex
100
AcDb2dVertex
 10
71.53722814021087
 20
111.6339845389439
 30
0.0
  0
VERTEX
  5
228
330
21C
100
AcDbEntity
  8
Hidden (ANSI)
100
AcDbVertex
100
AcDb2dVertex
 10
71.53888918555567
 20
111.6325247414076
 30
0.0
  0
VERTEX
  5
229
330
21C
100
AcDbEntity
  8
Hidden (ANSI)
100
AcDbVertex
100
AcDb2dVertex
 10
71.54047213473598
 20
111.6310649438713
 30
0.0
  0
VERTEX
  5
22A
330
21C
100
AcDbEntity
  8
Hidden (ANSI)
100
AcDbVertex
100
AcDb2dVertex
 10
71.54196497295725
 20
111.629605146335
 30
0.0
  0
VERTEX
  5
22B
330
21C
100
AcDbEntity
  8
Hidden (ANSI)
100
AcDbVertex
100
AcDb2dVertex
 10
71.54336169282221
 20
111.6281453487987
 30
0.0
  0
VERTEX
  5
22C
330
21C
100
AcDbEntity
  8
Hidden (ANSI)
100
AcDbVertex
100
AcDb2dVertex
 10
71.54465929063225
 20
111.6266855512624
 30
0.0
  0
VERTEX
  5
22D
330
21C
100
AcDbEntity
  8
Hidden (ANSI)
100
AcDbVertex
100
AcDb2dVertex
 10
71.54584875529145
 20
111.6252257537261
 30
0.0
  0
VERTEX
  5
22E
330
21C
100
AcDbEntity
  8
Hidden (ANSI)
100
AcDbVertex
100
AcDb2dVertex
 10
71.54693008679983
 20
111.6237659561899
 30
0.0
  0
VERTEX
  5
22F
330
21C
100
AcDbEntity
  8
Hidden (ANSI)
100
AcDbVertex
100
AcDb2dVertex
 10
71.54789427406145
 20
111.6223061586536
 30
0.0
  0
VERTEX
  5
230
330
21C
100
AcDbEntity
  8
Hidden (ANSI)
100
AcDbVertex
100
AcDb2dVertex
 10
71.54873831337771
 20
111.6208463611173
 30
0.0
  0
VERTEX
  5
231
330
21C
100
AcDbEntity
  8
Hidden (ANSI)
100
AcDbVertex
100
AcDb2dVertex
 10
71.54945920104996
 20
111.619386563581
 30
0.0
  0
VERTEX
  5
232
330
21C
100
AcDbEntity
  8
Hidden (ANSI)
100
AcDbVertex
100
AcDb2dVertex
 10
71.55005092968091
 20
111.6179267660447
 30
0.0
  0
VERTEX
  5
233
330
21C
100
AcDbEntity
  8
Hidden (ANSI)
100
AcDbVertex
100
AcDb2dVertex
 10
71.55051650296923
 20
111.6164669685084
 30
0.0
  0
VERTEX
  5
234
330
21C
100
AcDbEntity
  8
Hidden (ANSI)
100
AcDbVertex
100
AcDb2dVertex
 10
71.55084991351765
 20
111.6150071709721
 30
0.0
  0
VERTEX
  5
235
330
21C
100
AcDbEntity
  8
Hidden (ANSI)
100
AcDbVertex
100
AcDb2dVertex
 10
71.55104815762752
 20
111.6135473734358
 30
0.0
  0
VERTEX
  5
236
330
21C
100
AcDbEntity
  8
Hidden (ANSI)
100
AcDbVertex
100
AcDb2dVertex
 10
71.55111724269611
 20
111.6120875758995
 30
0.0
  0
SEQEND
  5
21F
330
21C
100
AcDbEntity
  8
Hidden (ANSI)
  0
LINE
  5
237
330
6C
100
AcDbEntity
  8
Hidden (ANSI)
100
AcDbLine
 10
71.48482526107217
 20
111.6783765615048
 30
0.0
 11
71.48482526107217
 21
111.7721265615048
 31
0.0
  0
POLYLINE
  5
238
330
6C
100
AcDbEntity
  8
Hidden (ANSI)
100
AcDb2dPolyline
 66
     1
 10
0.0
 20
0.0
 30
0.0
 70
   128
  0
VERTEX
  5
239
330
238
100
AcDbEntity
  8
Hidden (ANSI)
100
AcDbVertex
100
AcDb2dVertex
 10
71.51986676210433
 20
111.6471287241678
 30
0.0
  0
VERTEX
  5
23A
330
238
100
AcDbEntity
  8
Hidden (ANSI)
100
AcDbVertex
100
AcDb2dVertex
 10
71.51840696456803
 20
111.6491712392392
 30
0.0
  0
VERTEX
  5
23C
330
238
100
AcDbEntity
  8
Hidden (ANSI)
100
AcDbVertex
100
AcDb2dVertex
 10
71.51694716703175
 20
111.6512077469133
 30
0.0
  0
VERTEX
  5
23D
330
238
100
AcDbEntity
  8
Hidden (ANSI)
100
AcDbVertex
100
AcDb2dVertex
 10
71.51548736949544
 20
111.6532202249983
 30
0.0
  0
VERTEX
  5
23E
330
238
100
AcDbEntity
  8
Hidden (ANSI)
100
AcDbVertex
100
AcDb2dVertex
 10
71.51402757195914
 20
111.6552146808915
 30
0.0
  0
VERTEX
  5
23F
330
238
100
AcDbEntity
  8
Hidden (ANSI)
100
AcDbVertex
100
AcDb2dVertex
 10
71.51256477072422
 20
111.6571730924011
 30
0.0
  0
VERTEX
  5
240
330
238
100
AcDbEntity
  8
Hidden (ANSI)
100
AcDbVertex
100
AcDb2dVertex
 10
71.51110497318793
 20
111.6590834447325
 30
0.0
  0
VERTEX
  5
241
330
238
100
AcDbEntity
  8
Hidden (ANSI)
100
AcDbVertex
100
AcDb2dVertex
 10
71.50964517565164
 20
111.6609457378858
 30
0.0
  0
VERTEX
  5
242
330
238
100
AcDbEntity
  8
Hidden (ANSI)
100
AcDbVertex
100
AcDb2dVertex
 10
71.50818537811534
 20
111.6627539644637
 30
0.0
  0
VERTEX
  5
243
330
238
100
AcDbEntity
  8
Hidden (ANSI)
100
AcDbVertex
100
AcDb2dVertex
 10
71.50672558057904
 20
111.6644901022744
 30
0.0
  0
VERTEX
  5
244
330
238
100
AcDbEntity
  8
Hidden (ANSI)
100
AcDbVertex
100
AcDb2dVertex
 10
71.50526578304274
 20
111.6661481439205
 30
0.0
  0
VERTEX
  5
245
330
238
100
AcDbEntity
  8
Hidden (ANSI)
100
AcDbVertex
100
AcDb2dVertex
 10
71.50380598550646
 20
111.6677340967995
 30
0.0
  0
VERTEX
  5
246
330
238
100
AcDbEntity
  8
Hidden (ANSI)
100
AcDbVertex
100
AcDb2dVertex
 10
71.50234618797016
 20
111.6692239313221
 30
0.0
  0
VERTEX
  5
247
330
238
100
AcDbEntity
  8
Hidden (ANSI)
100
AcDbVertex
100
AcDb2dVertex
 10
71.50088639043386
 20
111.6706236548857
 30
0.0
  0
VERTEX
  5
248
330
238
100
AcDbEntity
  8
Hidden (ANSI)
100
AcDbVertex
100
AcDb2dVertex
 10
71.49942659289758
 20
111.6719212526958
 30
0.0
  0
VERTEX
  5
249
330
238
100
AcDbEntity
  8
Hidden (ANSI)
100
AcDbVertex
100
AcDb2dVertex
 10
71.49796679536128
 20
111.673110717355
 30
0.0
  0
VERTEX
  5
24A
330
238
100
AcDbEntity
  8
Hidden (ANSI)
100
AcDbVertex
100
AcDb2dVertex
 10
71.49650699782498
 20
111.6741920488633
 30
0.0
  0
VERTEX
  5
24B
330
238
100
AcDbEntity
  8
Hidden (ANSI)
100
AcDbVertex
100
AcDb2dVertex
 10
71.49504419659006
 20
111.6751532324263
 30
0.0
  0
VERTEX
  5
24C
330
238
100
AcDbEntity
  8
Hidden (ANSI)
100
AcDbVertex
100
AcDb2dVertex
 10
71.49358439905376
 20
111.6760002754412
 30
0.0
  0
VERTEX
  5
24D
330
238
100
AcDbEntity
  8
Hidden (ANSI)
100
AcDbVertex
100
AcDb2dVertex
 10
71.49212460151748
 20
111.6767151557162
 30
0.0
  0
VERTEX
  5
24E
330
238
100
AcDbEntity
  8
Hidden (ANSI)
100
AcDbVertex
100
AcDb2dVertex
 10
71.49066480398118
 20
111.6773098880458
 30
0.0
  0
VERTEX
  5
24F
330
238
100
AcDbEntity
  8
Hidden (ANSI)
100
AcDbVertex
100
AcDb2dVertex
 10
71.48920500644488
 20
111.6777784650327
 30
0.0
  0
VERTEX
  5
250
330
238
100
AcDbEntity
  8
Hidden (ANSI)
100
AcDbVertex
100
AcDb2dVertex
 10
71.48774520890859
 20
111.6781088718825
 30
0.0
  0
VERTEX
  5
251
330
238
100
AcDbEntity
  8
Hidden (ANSI)
100
AcDbVertex
100
AcDb2dVertex
 10
71.48628541137229
 20
111.6783071159924
 30
0.0
  0
VERTEX
  5
252
330
238
100
AcDbEntity
  8
Hidden (ANSI)
100
AcDbVertex
100
AcDb2dVertex
 10
71.48482561383599
 20
111.6783792047596
 30
0.0
  0
SEQEND
  5
23B
330
238
100
AcDbEntity
  8
Hidden (ANSI)
  0
LINE
  5
253
330
6C
100
AcDbEntity
  8
Hidden (ANSI)
100
AcDbLine
 10
40.80490778254465
 20
111.6783765615048
 30
0.0
 11
40.80490778254465
 21
111.7721265615048
 31
0.0
  0
POLYLINE
  5
254
330
6C
100
AcDbEntity
  8
Hidden (ANSI)
100
AcDb2dPolyline
 66
     1
 10
0.0
 20
0.0
 30
0.0
 70
   128
  0
VERTEX
  5
255
330
254
100
AcDbEntity
  8
Hidden (ANSI)
100
AcDbVertex
100
AcDb2dVertex
 10
40.76986651993112
 20
111.6471287241678
 30
0.0
  0
VERTEX
  5
256
330
254
100
AcDbEntity
  8
Hidden (ANSI)
100
AcDbVertex
100
AcDb2dVertex
 10
40.77132657559777
 20
111.6491712392392
 30
0.0
  0
VERTEX
  5
258
330
254
100
AcDbEntity
  8
Hidden (ANSI)
100
AcDbVertex
100
AcDb2dVertex
 10
40.77278663126441
 20
111.6512077469133
 30
0.0
  0
VERTEX
  5
259
330
254
100
AcDbEntity
  8
Hidden (ANSI)
100
AcDbVertex
100
AcDb2dVertex
 10
40.77424667519786
 20
111.6532202249983
 30
0.0
  0
VERTEX
  5
25A
330
254
100
AcDbEntity
  8
Hidden (ANSI)
100
AcDbVertex
100
AcDb2dVertex
 10
40.77570673086451
 20
111.6552146808915
 30
0.0
  0
VERTEX
  5
25B
330
254
100
AcDbEntity
  8
Hidden (ANSI)
100
AcDbVertex
100
AcDb2dVertex
 10
40.77716678653115
 20
111.6571730924011
 30
0.0
  0
VERTEX
  5
25C
330
254
100
AcDbEntity
  8
Hidden (ANSI)
100
AcDbVertex
100
AcDb2dVertex
 10
40.7786268421978
 20
111.6590834447325
 30
0.0
  0
VERTEX
  5
25D
330
254
100
AcDbEntity
  8
Hidden (ANSI)
100
AcDbVertex
100
AcDb2dVertex
 10
40.78008688613125
 20
111.6609457378858
 30
0.0
  0
VERTEX
  5
25E
330
254
100
AcDbEntity
  8
Hidden (ANSI)
100
AcDbVertex
100
AcDb2dVertex
 10
40.78154694179789
 20
111.6627539644637
 30
0.0
  0
VERTEX
  5
25F
330
254
100
AcDbEntity
  8
Hidden (ANSI)
100
AcDbVertex
100
AcDb2dVertex
 10
40.78300699746454
 20
111.6644901022744
 30
0.0
  0
VERTEX
  5
260
330
254
100
AcDbEntity
  8
Hidden (ANSI)
100
AcDbVertex
100
AcDb2dVertex
 10
40.78446704139799
 20
111.6661481439205
 30
0.0
  0
VERTEX
  5
261
330
254
100
AcDbEntity
  8
Hidden (ANSI)
100
AcDbVertex
100
AcDb2dVertex
 10
40.78592709706463
 20
111.6677340967995
 30
0.0
  0
VERTEX
  5
262
330
254
100
AcDbEntity
  8
Hidden (ANSI)
100
AcDbVertex
100
AcDb2dVertex
 10
40.78738715273128
 20
111.6692239313221
 30
0.0
  0
VERTEX
  5
263
330
254
100
AcDbEntity
  8
Hidden (ANSI)
100
AcDbVertex
100
AcDb2dVertex
 10
40.78884720839792
 20
111.6706236548857
 30
0.0
  0
VERTEX
  5
264
330
254
100
AcDbEntity
  8
Hidden (ANSI)
100
AcDbVertex
100
AcDb2dVertex
 10
40.79030725233137
 20
111.6719212526958
 30
0.0
  0
VERTEX
  5
265
330
254
100
AcDbEntity
  8
Hidden (ANSI)
100
AcDbVertex
100
AcDb2dVertex
 10
40.79176730799802
 20
111.673110717355
 30
0.0
  0
VERTEX
  5
266
330
254
100
AcDbEntity
  8
Hidden (ANSI)
100
AcDbVertex
100
AcDb2dVertex
 10
40.79322736366466
 20
111.6741920488633
 30
0.0
  0
VERTEX
  5
267
330
254
100
AcDbEntity
  8
Hidden (ANSI)
100
AcDbVertex
100
AcDb2dVertex
 10
40.79468741933131
 20
111.6751532324263
 30
0.0
  0
VERTEX
  5
268
330
254
100
AcDbEntity
  8
Hidden (ANSI)
100
AcDbVertex
100
AcDb2dVertex
 10
40.79614746326476
 20
111.6760002754412
 30
0.0
  0
VERTEX
  5
269
330
254
100
AcDbEntity
  8
Hidden (ANSI)
100
AcDbVertex
100
AcDb2dVertex
 10
40.7976075189314
 20
111.6767151557162
 30
0.0
  0
VERTEX
  5
26A
330
254
100
AcDbEntity
  8
Hidden (ANSI)
100
AcDbVertex
100
AcDb2dVertex
 10
40.79906757459805
 20
111.6773098880458
 30
0.0
  0
VERTEX
  5
26B
330
254
100
AcDbEntity
  8
Hidden (ANSI)
100
AcDbVertex
100
AcDb2dVertex
 10
40.80052763026469
 20
111.6777784650327
 30
0.0
  0
VERTEX
  5
26C
330
254
100
AcDbEntity
  8
Hidden (ANSI)
100
AcDbVertex
100
AcDb2dVertex
 10
40.80198767419815
 20
111.6781088718825
 30
0.0
  0
VERTEX
  5
26D
330
254
100
AcDbEntity
  8
Hidden (ANSI)
100
AcDbVertex
100
AcDb2dVertex
 10
40.80344772986479
 20
111.6783071159924
 30
0.0
  0
VERTEX
  5
26E
330
254
100
AcDbEntity
  8
Hidden (ANSI)
100
AcDbVertex
100
AcDb2dVertex
 10
40.80490778553143
 20
111.6783792047596
 30
0.0
  0
SEQEND
  5
257
330
254
100
AcDbEntity
  8
Hidden (ANSI)
  0
LINE
  5
26F
330
6C
100
AcDbEntity
  8
Hidden (ANSI)
100
AcDbLine
 10
40.73861652180841
 20
111.6120853007686
 30
0.0
 11
40.64486652180842
 21
111.6120853007686
 31
0.0
  0
POLYLINE
  5
270
330
6C
100
AcDbEntity
  8
Hidden (ANSI)
100
AcDb2dPolyline
 66
     1
 10
0.0
 20
0.0
 30
0.0
 70
   128
  0
VERTEX
  5
271
330
270
100
AcDbEntity
  8
Hidden (ANSI)
100
AcDbVertex
100
AcDb2dVertex
 10
40.76986651993112
 20
111.6471287241678
 30
0.0
  0
VERTEX
  5
272
330
270
100
AcDbEntity
  8
Hidden (ANSI)
100
AcDbVertex
100
AcDb2dVertex
 10
40.76782267900841
 20
111.6456689266315
 30
0.0
  0
VERTEX
  5
274
330
270
100
AcDbEntity
  8
Hidden (ANSI)
100
AcDbVertex
100
AcDb2dVertex
 10
40.76578757931806
 20
111.6442091290952
 30
0.0
  0
VERTEX
  5
275
330
270
100
AcDbEntity
  8
Hidden (ANSI)
100
AcDbVertex
100
AcDb2dVertex
 10
40.76376995035921
 20
111.6427493315589
 30
0.0
  0
VERTEX
  5
276
330
270
100
AcDbEntity
  8
Hidden (ANSI)
100
AcDbVertex
100
AcDb2dVertex
 10
40.76177842776545
 20
111.6412835266254
 30
0.0
  0
VERTEX
  5
277
330
270
100
AcDbEntity
  8
Hidden (ANSI)
100
AcDbVertex
100
AcDb2dVertex
 10
40.75982154157157
 20
111.6398237290891
 30
0.0
  0
VERTEX
  5
278
330
270
100
AcDbEntity
  8
Hidden (ANSI)
100
AcDbVertex
100
AcDb2dVertex
 10
40.75790766928078
 20
111.6383639315528
 30
0.0
  0
VERTEX
  5
279
330
270
100
AcDbEntity
  8
Hidden (ANSI)
100
AcDbVertex
100
AcDb2dVertex
 10
40.75604500066517
 20
111.6369041340165
 30
0.0
  0
VERTEX
  5
27A
330
270
100
AcDbEntity
  8
Hidden (ANSI)
100
AcDbVertex
100
AcDb2dVertex
 10
40.75424152603239
 20
111.6354443364802
 30
0.0
  0
VERTEX
  5
27B
330
270
100
AcDbEntity
  8
Hidden (ANSI)
100
AcDbVertex
100
AcDb2dVertex
 10
40.75250495409341
 20
111.6339845389439
 30
0.0
  0
VERTEX
  5
27C
330
270
100
AcDbEntity
  8
Hidden (ANSI)
100
AcDbVertex
100
AcDb2dVertex
 10
40.75084272369564
 20
111.6325247414076
 30
0.0
  0
VERTEX
  5
27D
330
270
100
AcDbEntity
  8
Hidden (ANSI)
100
AcDbVertex
100
AcDb2dVertex
 10
40.74926196862333
 20
111.6310649438713
 30
0.0
  0
VERTEX
  5
27E
330
270
100
AcDbEntity
  8
Hidden (ANSI)
100
AcDbVertex
100
AcDb2dVertex
 10
40.74776943546519
 20
111.629605146335
 30
0.0
  0
VERTEX
  5
27F
330
270
100
AcDbEntity
  8
Hidden (ANSI)
100
AcDbVertex
100
AcDb2dVertex
 10
40.74637153054725
 20
111.6281453487987
 30
0.0
  0
VERTEX
  5
280
330
270
100
AcDbEntity
  8
Hidden (ANSI)
100
AcDbVertex
100
AcDb2dVertex
 10
40.74507422606715
 20
111.6266855512624
 30
0.0
  0
VERTEX
  5
281
330
270
100
AcDbEntity
  8
Hidden (ANSI)
100
AcDbVertex
100
AcDb2dVertex
 10
40.74388309529386
 20
111.6252257537261
 30
0.0
  0
VERTEX
  5
282
330
270
100
AcDbEntity
  8
Hidden (ANSI)
100
AcDbVertex
100
AcDb2dVertex
 10
40.74280323043522
 20
111.6237659561899
 30
0.0
  0
VERTEX
  5
283
330
270
100
AcDbEntity
  8
Hidden (ANSI)
100
AcDbVertex
100
AcDb2dVertex
 10
40.74183924850455
 20
111.6223061586536
 30
0.0
  0
VERTEX
  5
284
330
270
100
AcDbEntity
  8
Hidden (ANSI)
100
AcDbVertex
100
AcDb2dVertex
 10
40.74099528545409
 20
111.6208463611173
 30
0.0
  0
VERTEX
  5
285
330
270
100
AcDbEntity
  8
Hidden (ANSI)
100
AcDbVertex
100
AcDb2dVertex
 10
40.74027495510874
 20
111.619386563581
 30
0.0
  0
VERTEX
  5
286
330
270
100
AcDbEntity
  8
Hidden (ANSI)
100
AcDbVertex
100
AcDb2dVertex
 10
40.73968133743293
 20
111.6179267660447
 30
0.0
  0
VERTEX
  5
287
330
270
100
AcDbEntity
  8
Hidden (ANSI)
100
AcDbVertex
100
AcDb2dVertex
 10
40.73921698439717
 20
111.6164669685084
 30
0.0
  0
VERTEX
  5
288
330
270
100
AcDbEntity
  8
Hidden (ANSI)
100
AcDbVertex
100
AcDb2dVertex
 10
40.73888386717871
 20
111.6150071709721
 30
0.0
  0
VERTEX
  5
289
330
270
100
AcDbEntity
  8
Hidden (ANSI)
100
AcDbVertex
100
AcDb2dVertex
 10
40.73868342896085
 20
111.6135473734358
 30
0.0
  0
VERTEX
  5
28A
330
270
100
AcDbEntity
  8
Hidden (ANSI)
100
AcDbVertex
100
AcDb2dVertex
 10
40.73861652040045
 20
111.6120875758995
 30
0.0
  0
SEQEND
  5
273
330
270
100
AcDbEntity
  8
Hidden (ANSI)
  0
LINE
  5
28B
330
6C
100
AcDbEntity
  8
Hidden (ANSI)
100
AcDbLine
 10
40.73861652180844
 20
33.93216782224107
 30
0.0
 11
40.64486652180844
 21
33.93216782224107
 31
0.0
  0
POLYLINE
  5
28C
330
6C
100
AcDbEntity
  8
Hidden (ANSI)
100
AcDb2dPolyline
 66
     1
 10
0.0
 20
0.0
 30
0.0
 70
   128
  0
VERTEX
  5
28D
330
28C
100
AcDbEntity
  8
Hidden (ANSI)
100
AcDbVertex
100
AcDb2dVertex
 10
40.76986651993112
 20
33.89712655962752
 30
0.0
  0
VERTEX
  5
28E
330
28C
100
AcDbEntity
  8
Hidden (ANSI)
100
AcDbVertex
100
AcDb2dVertex
 10
40.76782267900841
 20
33.89858661529417
 30
0.0
  0
VERTEX
  5
290
330
28C
100
AcDbEntity
  8
Hidden (ANSI)
100
AcDbVertex
100
AcDb2dVertex
 10
40.76578757931806
 20
33.90004667096082
 30
0.0
  0
VERTEX
  5
291
330
28C
100
AcDbEntity
  8
Hidden (ANSI)
100
AcDbVertex
100
AcDb2dVertex
 10
40.76376995035921
 20
33.90150671489427
 30
0.0
  0
VERTEX
  5
292
330
28C
100
AcDbEntity
  8
Hidden (ANSI)
100
AcDbVertex
100
AcDb2dVertex
 10
40.76177842776545
 20
33.90296677056091
 30
0.0
  0
VERTEX
  5
293
330
28C
100
AcDbEntity
  8
Hidden (ANSI)
100
AcDbVertex
100
AcDb2dVertex
 10
40.75982154157157
 20
33.90442682622756
 30
0.0
  0
VERTEX
  5
294
330
28C
100
AcDbEntity
  8
Hidden (ANSI)
100
AcDbVertex
100
AcDb2dVertex
 10
40.75790766928078
 20
33.90588688189421
 30
0.0
  0
VERTEX
  5
295
330
28C
100
AcDbEntity
  8
Hidden (ANSI)
100
AcDbVertex
100
AcDb2dVertex
 10
40.75604500066517
 20
33.90734692582765
 30
0.0
  0
VERTEX
  5
296
330
28C
100
AcDbEntity
  8
Hidden (ANSI)
100
AcDbVertex
100
AcDb2dVertex
 10
40.75424152603239
 20
33.90880698149429
 30
0.0
  0
VERTEX
  5
297
330
28C
100
AcDbEntity
  8
Hidden (ANSI)
100
AcDbVertex
100
AcDb2dVertex
 10
40.75250495409341
 20
33.91026703716094
 30
0.0
  0
VERTEX
  5
298
330
28C
100
AcDbEntity
  8
Hidden (ANSI)
100
AcDbVertex
100
AcDb2dVertex
 10
40.75084272369564
 20
33.91172708109439
 30
0.0
  0
VERTEX
  5
299
330
28C
100
AcDbEntity
  8
Hidden (ANSI)
100
AcDbVertex
100
AcDb2dVertex
 10
40.74926196862333
 20
33.91318713676103
 30
0.0
  0
VERTEX
  5
29A
330
28C
100
AcDbEntity
  8
Hidden (ANSI)
100
AcDbVertex
100
AcDb2dVertex
 10
40.74776943546519
 20
33.91464719242768
 30
0.0
  0
VERTEX
  5
29B
330
28C
100
AcDbEntity
  8
Hidden (ANSI)
100
AcDbVertex
100
AcDb2dVertex
 10
40.74637153054725
 20
33.91610724809432
 30
0.0
  0
VERTEX
  5
29C
330
28C
100
AcDbEntity
  8
Hidden (ANSI)
100
AcDbVertex
100
AcDb2dVertex
 10
40.74507422606715
 20
33.91756729202778
 30
0.0
  0
VERTEX
  5
29D
330
28C
100
AcDbEntity
  8
Hidden (ANSI)
100
AcDbVertex
100
AcDb2dVertex
 10
40.74388309529386
 20
33.91902734769442
 30
0.0
  0
VERTEX
  5
29E
330
28C
100
AcDbEntity
  8
Hidden (ANSI)
100
AcDbVertex
100
AcDb2dVertex
 10
40.74280323043522
 20
33.92048740336107
 30
0.0
  0
VERTEX
  5
29F
330
28C
100
AcDbEntity
  8
Hidden (ANSI)
100
AcDbVertex
100
AcDb2dVertex
 10
40.74183924850455
 20
33.92194745902771
 30
0.0
  0
VERTEX
  5
2A0
330
28C
100
AcDbEntity
  8
Hidden (ANSI)
100
AcDbVertex
100
AcDb2dVertex
 10
40.74099528545409
 20
33.92340750296116
 30
0.0
  0
VERTEX
  5
2A1
330
28C
100
AcDbEntity
  8
Hidden (ANSI)
100
AcDbVertex
100
AcDb2dVertex
 10
40.74027495510874
 20
33.9248675586278
 30
0.0
  0
VERTEX
  5
2A2
330
28C
100
AcDbEntity
  8
Hidden (ANSI)
100
AcDbVertex
100
AcDb2dVertex
 10
40.73968133743293
 20
33.92632761429445
 30
0.0
  0
VERTEX
  5
2A3
330
28C
100
AcDbEntity
  8
Hidden (ANSI)
100
AcDbVertex
100
AcDb2dVertex
 10
40.73921698439717
 20
33.9277876699611
 30
0.0
  0
VERTEX
  5
2A4
330
28C
100
AcDbEntity
  8
Hidden (ANSI)
100
AcDbVertex
100
AcDb2dVertex
 10
40.73888386717871
 20
33.92924771389455
 30
0.0
  0
VERTEX
  5
2A5
330
28C
100
AcDbEntity
  8
Hidden (ANSI)
100
AcDbVertex
100
AcDb2dVertex
 10
40.73868342896085
 20
33.93070776956119
 30
0.0
  0
VERTEX
  5
2A6
330
28C
100
AcDbEntity
  8
Hidden (ANSI)
100
AcDbVertex
100
AcDb2dVertex
 10
40.73861652040045
 20
33.93216782522784
 30
0.0
  0
SEQEND
  5
28F
330
28C
100
AcDbEntity
  8
Hidden (ANSI)
  0
LINE
  5
2A7
330
6C
100
AcDbEntity
  8
Hidden (ANSI)
100
AcDbLine
 10
40.80490778254468
 20
33.86587656150484
 30
0.0
 11
40.80490778254468
 21
33.77212656150483
 31
0.0
  0
POLYLINE
  5
2A8
330
6C
100
AcDbEntity
  8
Hidden (ANSI)
100
AcDb2dPolyline
 66
     1
 10
0.0
 20
0.0
 30
0.0
 70
   128
  0
VERTEX
  5
2A9
330
2A8
100
AcDbEntity
  8
Hidden (ANSI)
100
AcDbVertex
100
AcDb2dVertex
 10
40.76986651993112
 20
33.89712655962752
 30
0.0
  0
VERTEX
  5
2AA
330
2A8
100
AcDbEntity
  8
Hidden (ANSI)
100
AcDbVertex
100
AcDb2dVertex
 10
40.77132657559777
 20
33.89508271870481
 30
0.0
  0
VERTEX
  5
2AC
330
2A8
100
AcDbEntity
  8
Hidden (ANSI)
100
AcDbVertex
100
AcDb2dVertex
 10
40.77278663126441
 20
33.89304761901446
 30
0.0
  0
VERTEX
  5
2AD
330
2A8
100
AcDbEntity
  8
Hidden (ANSI)
100
AcDbVertex
100
AcDb2dVertex
 10
40.77424667519786
 20
33.89102999005562
 30
0.0
  0
VERTEX
  5
2AE
330
2A8
100
AcDbEntity
  8
Hidden (ANSI)
100
AcDbVertex
100
AcDb2dVertex
 10
40.77570673086451
 20
33.88903846746186
 30
0.0
  0
VERTEX
  5
2AF
330
2A8
100
AcDbEntity
  8
Hidden (ANSI)
100
AcDbVertex
100
AcDb2dVertex
 10
40.77716678653115
 20
33.88708158126797
 30
0.0
  0
VERTEX
  5
2B0
330
2A8
100
AcDbEntity
  8
Hidden (ANSI)
100
AcDbVertex
100
AcDb2dVertex
 10
40.7786268421978
 20
33.88516770897719
 30
0.0
  0
VERTEX
  5
2B1
330
2A8
100
AcDbEntity
  8
Hidden (ANSI)
100
AcDbVertex
100
AcDb2dVertex
 10
40.78008688613125
 20
33.88330504036157
 30
0.0
  0
VERTEX
  5
2B2
330
2A8
100
AcDbEntity
  8
Hidden (ANSI)
100
AcDbVertex
100
AcDb2dVertex
 10
40.78154694179789
 20
33.88150156572879
 30
0.0
  0
VERTEX
  5
2B3
330
2A8
100
AcDbEntity
  8
Hidden (ANSI)
100
AcDbVertex
100
AcDb2dVertex
 10
40.78300699746454
 20
33.87976499378981
 30
0.0
  0
VERTEX
  5
2B4
330
2A8
100
AcDbEntity
  8
Hidden (ANSI)
100
AcDbVertex
100
AcDb2dVertex
 10
40.78446704139799
 20
33.87810276339204
 30
0.0
  0
VERTEX
  5
2B5
330
2A8
100
AcDbEntity
  8
Hidden (ANSI)
100
AcDbVertex
100
AcDb2dVertex
 10
40.78592709706463
 20
33.87652200831972
 30
0.0
  0
VERTEX
  5
2B6
330
2A8
100
AcDbEntity
  8
Hidden (ANSI)
100
AcDbVertex
100
AcDb2dVertex
 10
40.78738715273128
 20
33.8750294751616
 30
0.0
  0
VERTEX
  5
2B7
330
2A8
100
AcDbEntity
  8
Hidden (ANSI)
100
AcDbVertex
100
AcDb2dVertex
 10
40.78884720839792
 20
33.87363157024365
 30
0.0
  0
VERTEX
  5
2B8
330
2A8
100
AcDbEntity
  8
Hidden (ANSI)
100
AcDbVertex
100
AcDb2dVertex
 10
40.79030725233137
 20
33.87233426576355
 30
0.0
  0
VERTEX
  5
2B9
330
2A8
100
AcDbEntity
  8
Hidden (ANSI)
100
AcDbVertex
100
AcDb2dVertex
 10
40.79176730799802
 20
33.87114313499026
 30
0.0
  0
VERTEX
  5
2BA
330
2A8
100
AcDbEntity
  8
Hidden (ANSI)
100
AcDbVertex
100
AcDb2dVertex
 10
40.79322736366466
 20
33.87006327013163
 30
0.0
  0
VERTEX
  5
2BB
330
2A8
100
AcDbEntity
  8
Hidden (ANSI)
100
AcDbVertex
100
AcDb2dVertex
 10
40.79468741933131
 20
33.86909928820096
 30
0.0
  0
VERTEX
  5
2BC
330
2A8
100
AcDbEntity
  8
Hidden (ANSI)
100
AcDbVertex
100
AcDb2dVertex
 10
40.79614746326476
 20
33.86825532515049
 30
0.0
  0
VERTEX
  5
2BD
330
2A8
100
AcDbEntity
  8
Hidden (ANSI)
100
AcDbVertex
100
AcDb2dVertex
 10
40.7976075189314
 20
33.86753499480514
 30
0.0
  0
VERTEX
  5
2BE
330
2A8
100
AcDbEntity
  8
Hidden (ANSI)
100
AcDbVertex
100
AcDb2dVertex
 10
40.79906757459805
 20
33.86694137712933
 30
0.0
  0
VERTEX
  5
2BF
330
2A8
100
AcDbEntity
  8
Hidden (ANSI)
100
AcDbVertex
100
AcDb2dVertex
 10
40.80052763026469
 20
33.86647702409358
 30
0.0
  0
VERTEX
  5
2C0
330
2A8
100
AcDbEntity
  8
Hidden (ANSI)
100
AcDbVertex
100
AcDb2dVertex
 10
40.80198767419815
 20
33.86614390687511
 30
0.0
  0
VERTEX
  5
2C1
330
2A8
100
AcDbEntity
  8
Hidden (ANSI)
100
AcDbVertex
100
AcDb2dVertex
 10
40.80344772986479
 20
33.86594346865725
 30
0.0
  0
VERTEX
  5
2C2
330
2A8
100
AcDbEntity
  8
Hidden (ANSI)
100
AcDbVertex
100
AcDb2dVertex
 10
40.80490778553143
 20
33.86587656009685
 30
0.0
  0
SEQEND
  5
2AB
330
2A8
100
AcDbEntity
  8
Hidden (ANSI)
  0
LINE
  5
2C3
330
6C
100
AcDbEntity
  8
Hidden (ANSI)
100
AcDbLine
 10
71.48482526107219
 20
33.86587656150484
 30
0.0
 11
71.48482526107219
 21
33.77212656150483
 31
0.0
  0
POLYLINE
  5
2C4
330
6C
100
AcDbEntity
  8
Hidden (ANSI)
100
AcDb2dPolyline
 66
     1
 10
0.0
 20
0.0
 30
0.0
 70
   128
  0
VERTEX
  5
2C5
330
2C4
100
AcDbEntity
  8
Hidden (ANSI)
100
AcDbVertex
100
AcDb2dVertex
 10
71.51986676210433
 20
33.89712655962752
 30
0.0
  0
VERTEX
  5
2C6
330
2C4
100
AcDbEntity
  8
Hidden (ANSI)
100
AcDbVertex
100
AcDb2dVertex
 10
71.51840696456803
 20
33.89508271870481
 30
0.0
  0
VERTEX
  5
2C8
330
2C4
100
AcDbEntity
  8
Hidden (ANSI)
100
AcDbVertex
100
AcDb2dVertex
 10
71.51694716703175
 20
33.89304761901446
 30
0.0
  0
VERTEX
  5
2C9
330
2C4
100
AcDbEntity
  8
Hidden (ANSI)
100
AcDbVertex
100
AcDb2dVertex
 10
71.51548736949544
 20
33.89102999005562
 30
0.0
  0
VERTEX
  5
2CA
330
2C4
100
AcDbEntity
  8
Hidden (ANSI)
100
AcDbVertex
100
AcDb2dVertex
 10
71.51402757195914
 20
33.88903846746186
 30
0.0
  0
VERTEX
  5
2CB
330
2C4
100
AcDbEntity
  8
Hidden (ANSI)
100
AcDbVertex
100
AcDb2dVertex
 10
71.51256477072422
 20
33.88708158126797
 30
0.0
  0
VERTEX
  5
2CC
330
2C4
100
AcDbEntity
  8
Hidden (ANSI)
100
AcDbVertex
100
AcDb2dVertex
 10
71.51110497318793
 20
33.88516770897719
 30
0.0
  0
VERTEX
  5
2CD
330
2C4
100
AcDbEntity
  8
Hidden (ANSI)
100
AcDbVertex
100
AcDb2dVertex
 10
71.50964517565164
 20
33.88330504036157
 30
0.0
  0
VERTEX
  5
2CE
330
2C4
100
AcDbEntity
  8
Hidden (ANSI)
100
AcDbVertex
100
AcDb2dVertex
 10
71.50818537811534
 20
33.88150156572879
 30
0.0
  0
VERTEX
  5
2CF
330
2C4
100
AcDbEntity
  8
Hidden (ANSI)
100
AcDbVertex
100
AcDb2dVertex
 10
71.50672558057904
 20
33.87976499378981
 30
0.0
  0
VERTEX
  5
2D0
330
2C4
100
AcDbEntity
  8
Hidden (ANSI)
100
AcDbVertex
100
AcDb2dVertex
 10
71.50526578304274
 20
33.87810276339204
 30
0.0
  0
VERTEX
  5
2D1
330
2C4
100
AcDbEntity
  8
Hidden (ANSI)
100
AcDbVertex
100
AcDb2dVertex
 10
71.50380598550646
 20
33.87652200831972
 30
0.0
  0
VERTEX
  5
2D2
330
2C4
100
AcDbEntity
  8
Hidden (ANSI)
100
AcDbVertex
100
AcDb2dVertex
 10
71.50234618797016
 20
33.8750294751616
 30
0.0
  0
VERTEX
  5
2D3
330
2C4
100
AcDbEntity
  8
Hidden (ANSI)
100
AcDbVertex
100
AcDb2dVertex
 10
71.50088639043386
 20
33.87363157024365
 30
0.0
  0
VERTEX
  5
2D4
330
2C4
100
AcDbEntity
  8
Hidden (ANSI)
100
AcDbVertex
100
AcDb2dVertex
 10
71.49942659289758
 20
33.87233426576355
 30
0.0
  0
VERTEX
  5
2D5
330
2C4
100
AcDbEntity
  8
Hidden (ANSI)
100
AcDbVertex
100
AcDb2dVertex
 10
71.49796679536128
 20
33.87114313499026
 30
0.0
  0
VERTEX
  5
2D6
330
2C4
100
AcDbEntity
  8
Hidden (ANSI)
100
AcDbVertex
100
AcDb2dVertex
 10
71.49650699782498
 20
33.87006327013163
 30
0.0
  0
VERTEX
  5
2D7
330
2C4
100
AcDbEntity
  8
Hidden (ANSI)
100
AcDbVertex
100
AcDb2dVertex
 10
71.49504419659006
 20
33.86909928820096
 30
0.0
  0
VERTEX
  5
2D8
330
2C4
100
AcDbEntity
  8
Hidden (ANSI)
100
AcDbVertex
100
AcDb2dVertex
 10
71.49358439905376
 20
33.86825532515049
 30
0.0
  0
VERTEX
  5
2D9
330
2C4
100
AcDbEntity
  8
Hidden (ANSI)
100
AcDbVertex
100
AcDb2dVertex
 10
71.49212460151748
 20
33.86753499480514
 30
0.0
  0
VERTEX
  5
2DA
330
2C4
100
AcDbEntity
  8
Hidden (ANSI)
100
AcDbVertex
100
AcDb2dVertex
 10
71.49066480398118
 20
33.86694137712933
 30
0.0
  0
VERTEX
  5
2DB
330
2C4
100
AcDbEntity
  8
Hidden (ANSI)
100
AcDbVertex
100
AcDb2dVertex
 10
71.48920500644488
 20
33.86647702409358
 30
0.0
  0
VERTEX
  5
2DC
330
2C4
100
AcDbEntity
  8
Hidden (ANSI)
100
AcDbVertex
100
AcDb2dVertex
 10
71.48774520890859
 20
33.86614390687511
 30
0.0
  0
VERTEX
  5
2DD
330
2C4
100
AcDbEntity
  8
Hidden (ANSI)
100
AcDbVertex
100
AcDb2dVertex
 10
71.48628541137229
 20
33.86594346865725
 30
0.0
  0
VERTEX
  5
2DE
330
2C4
100
AcDbEntity
  8
Hidden (ANSI)
100
AcDbVertex
100
AcDb2dVertex
 10
71.48482561383599
 20
33.86587656009685
 30
0.0
  0
SEQEND
  5
2C7
330
2C4
100
AcDbEntity
  8
Hidden (ANSI)
  0
MTEXT
  5
2E0
330
6C
100
AcDbEntity
  8
Symbol (ANSI)
100
AcDbMText
 10
51.72546816526407
 20
27.52196551796504
 30
0.0
 40
1.56000001927999
 41
0.0
 46
0.0
 71
     7
 72
     1
  1
FRONT VIEW
  7
Text Style153
 73
     1
 44
1.0
  0
LINE
  5
2E2
330
6C
100
AcDbEntity
  8
Symbol (ANSI)
370
    30
100
AcDbLine
 10
51.56946776397504
 20
27.20383423209147
 30
0.0
 11
64.11141281968885
 21
27.20383423209147
 31
0.0
  0
POLYLINE
  5
2E3
330
6C
100
AcDbEntity
  8
Visible (ANSI)
100
AcDb2dPolyline
 66
     1
 10
0.0
 20
0.0
 30
0.0
 70
   128
  0
VERTEX
  5
2E4
330
2E3
100
AcDbEntity
  8
Visible (ANSI)
100
AcDbVertex
100
AcDb2dVertex
 10
109.263739265229
 20
111.6471287241678
 30
0.0
  0
VERTEX
  5
2E5
330
2E3
100
AcDbEntity
  8
Visible (ANSI)
100
AcDbVertex
100
AcDb2dVertex
 10
109.2640068994706
 20
111.6456689266315
 30
0.0
  0
VERTEX
  5
2E7
330
2E3
100
AcDbEntity
  8
Visible (ANSI)
100
AcDbVertex
100
AcDb2dVertex
 10
109.2648086582086
 20
111.6442091290952
 30
0.0
  0
VERTEX
  5
2E8
330
2E3
100
AcDbEntity
  8
Visible (ANSI)
100
AcDbVertex
100
AcDb2dVertex
 10
109.2661411036161
 20
111.6427493315589
 30
0.0
  0
VERTEX
  5
2E9
330
2E3
100
AcDbEntity
  8
Visible (ANSI)
100
AcDbVertex
100
AcDb2dVertex
 10
109.2679985333589
 20
111.6412835266254
 30
0.0
  0
VERTEX
  5
2EA
330
2E3
100
AcDbEntity
  8
Visible (ANSI)
100
AcDbVertex
100
AcDb2dVertex
 10
109.2703729981956
 20
111.6398237290891
 30
0.0
  0
VERTEX
  5
2EB
330
2E3
100
AcDbEntity
  8
Visible (ANSI)
100
AcDbVertex
100
AcDb2dVertex
 10
109.273254319577
 20
111.6383639315528
 30
0.0
  0
VERTEX
  5
2EC
330
2E3
100
AcDbEntity
  8
Visible (ANSI)
100
AcDbVertex
100
AcDb2dVertex
 10
109.2766301717789
 20
111.6369041340165
 30
0.0
  0
VERTEX
  5
2ED
330
2E3
100
AcDbEntity
  8
Visible (ANSI)
100
AcDbVertex
100
AcDb2dVertex
 10
109.2804860877683
 20
111.6354443364802
 30
0.0
  0
VERTEX
  5
2EE
330
2E3
100
AcDbEntity
  8
Visible (ANSI)
100
AcDbVertex
100
AcDb2dVertex
 10
109.2848055648027
 20
111.6339845389439
 30
0.0
  0
VERTEX
  5
2EF
330
2E3
100
AcDbEntity
  8
Visible (ANSI)
100
AcDbVertex
100
AcDb2dVertex
 10
109.2895700937624
 20
111.6325247414076
 30
0.0
  0
VERTEX
  5
2F0
330
2E3
100
AcDbEntity
  8
Visible (ANSI)
100
AcDbVertex
100
AcDb2dVertex
 10
109.2947592882164
 20
111.6310649438713
 30
0.0
  0
VERTEX
  5
2F1
330
2E3
100
AcDbEntity
  8
Visible (ANSI)
100
AcDbVertex
100
AcDb2dVertex
 10
109.3003509137548
 20
111.629605146335
 30
0.0
  0
VERTEX
  5
2F2
330
2E3
100
AcDbEntity
  8
Visible (ANSI)
100
AcDbVertex
100
AcDb2dVertex
 10
109.3063210346542
 20
111.6281453487987
 30
0.0
  0
VERTEX
  5
2F3
330
2E3
100
AcDbEntity
  8
Visible (ANSI)
100
AcDbVertex
100
AcDb2dVertex
 10
109.3126440842764
 20
111.6266855512624
 30
0.0
  0
VERTEX
  5
2F4
330
2E3
100
AcDbEntity
  8
Visible (ANSI)
100
AcDbVertex
100
AcDb2dVertex
 10
109.3192929853344
 20
111.6252257537261
 30
0.0
  0
VERTEX
  5
2F5
330
2E3
100
AcDbEntity
  8
Visible (ANSI)
100
AcDbVertex
100
AcDb2dVertex
 10
109.3262392642904
 20
111.6237659561899
 30
0.0
  0
VERTEX
  5
2F6
330
2E3
100
AcDbEntity
  8
Visible (ANSI)
100
AcDbVertex
100
AcDb2dVertex
 10
109.333453177488
 20
111.6223061586536
 30
0.0
  0
VERTEX
  5
2F7
330
2E3
100
AcDbEntity
  8
Visible (ANSI)
100
AcDbVertex
100
AcDb2dVertex
 10
109.3409038343507
 20
111.6208463611173
 30
0.0
  0
VERTEX
  5
2F8
330
2E3
100
AcDbEntity
  8
Visible (ANSI)
100
AcDbVertex
100
AcDb2dVertex
 10
109.3485593308471
 20
111.619386563581
 30
0.0
  0
VERTEX
  5
2F9
330
2E3
100
AcDbEntity
  8
Visible (ANSI)
100
AcDbVertex
100
AcDb2dVertex
 10
109.3563868831392
 20
111.6179267660447
 30
0.0
  0
VERTEX
  5
2FA
330
2E3
100
AcDbEntity
  8
Visible (ANSI)
100
AcDbVertex
100
AcDb2dVertex
 10
109.3643529733309
 20
111.6164669685084
 30
0.0
  0
VERTEX
  5
2FB
330
2E3
100
AcDbEntity
  8
Visible (ANSI)
100
AcDbVertex
100
AcDb2dVertex
 10
109.3724234891663
 20
111.6150071709721
 30
0.0
  0
VERTEX
  5
2FC
330
2E3
100
AcDbEntity
  8
Visible (ANSI)
100
AcDbVertex
100
AcDb2dVertex
 10
109.3805638732612
 20
111.6135473734358
 30
0.0
  0
VERTEX
  5
2FD
330
2E3
100
AcDbEntity
  8
Visible (ANSI)
100
AcDbVertex
100
AcDb2dVertex
 10
109.3887392633517
 20
111.6120875758995
 30
0.0
  0
SEQEND
  5
2E6
330
2E3
100
AcDbEntity
  8
Visible (ANSI)
  0
POLYLINE
  5
2FE
330
6C
100
AcDbEntity
  8
Visible (ANSI)
100
AcDb2dPolyline
 66
     1
 10
0.0
 20
0.0
 30
0.0
 70
   128
  0
VERTEX
  5
2FF
330
2FE
100
AcDbEntity
  8
Visible (ANSI)
100
AcDbVertex
100
AcDb2dVertex
 10
109.3887392633517
 20
33.93216782522784
 30
0.0
  0
VERTEX
  5
300
330
2FE
100
AcDbEntity
  8
Visible (ANSI)
100
AcDbVertex
100
AcDb2dVertex
 10
109.3805638732612
 20
33.93070776956119
 30
0.0
  0
VERTEX
  5
302
330
2FE
100
AcDbEntity
  8
Visible (ANSI)
100
AcDbVertex
100
AcDb2dVertex
 10
109.3724234891663
 20
33.92924771389455
 30
0.0
  0
VERTEX
  5
303
330
2FE
100
AcDbEntity
  8
Visible (ANSI)
100
AcDbVertex
100
AcDb2dVertex
 10
109.3643529733309
 20
33.9277876699611
 30
0.0
  0
VERTEX
  5
304
330
2FE
100
AcDbEntity
  8
Visible (ANSI)
100
AcDbVertex
100
AcDb2dVertex
 10
109.3563868831392
 20
33.92632761429445
 30
0.0
  0
VERTEX
  5
305
330
2FE
100
AcDbEntity
  8
Visible (ANSI)
100
AcDbVertex
100
AcDb2dVertex
 10
109.3485593308471
 20
33.9248675586278
 30
0.0
  0
VERTEX
  5
306
330
2FE
100
AcDbEntity
  8
Visible (ANSI)
100
AcDbVertex
100
AcDb2dVertex
 10
109.3409038343507
 20
33.92340750296116
 30
0.0
  0
VERTEX
  5
307
330
2FE
100
AcDbEntity
  8
Visible (ANSI)
100
AcDbVertex
100
AcDb2dVertex
 10
109.333453177488
 20
33.92194745902771
 30
0.0
  0
VERTEX
  5
308
330
2FE
100
AcDbEntity
  8
Visible (ANSI)
100
AcDbVertex
100
AcDb2dVertex
 10
109.3262392642904
 20
33.92048740336107
 30
0.0
  0
VERTEX
  5
309
330
2FE
100
AcDbEntity
  8
Visible (ANSI)
100
AcDbVertex
100
AcDb2dVertex
 10
109.3192929853344
 20
33.91902734769442
 30
0.0
  0
VERTEX
  5
30A
330
2FE
100
AcDbEntity
  8
Visible (ANSI)
100
AcDbVertex
100
AcDb2dVertex
 10
109.3126440842764
 20
33.91756729202778
 30
0.0
  0
VERTEX
  5
30B
330
2FE
100
AcDbEntity
  8
Visible (ANSI)
100
AcDbVertex
100
AcDb2dVertex
 10
109.3063210346542
 20
33.91610724809432
 30
0.0
  0
VERTEX
  5
30C
330
2FE
100
AcDbEntity
  8
Visible (ANSI)
100
AcDbVertex
100
AcDb2dVertex
 10
109.3003509137548
 20
33.91464719242768
 30
0.0
  0
VERTEX
  5
30D
330
2FE
100
AcDbEntity
  8
Visible (ANSI)
100
AcDbVertex
100
AcDb2dVertex
 10
109.2947592882164
 20
33.91318713676103
 30
0.0
  0
VERTEX
  5
30E
330
2FE
100
AcDbEntity
  8
Visible (ANSI)
100
AcDbVertex
100
AcDb2dVertex
 10
109.2895700937624
 20
33.91172708109439
 30
0.0
  0
VERTEX
  5
30F
330
2FE
100
AcDbEntity
  8
Visible (ANSI)
100
AcDbVertex
100
AcDb2dVertex
 10
109.2848055648027
 20
33.91026703716094
 30
0.0
  0
VERTEX
  5
310
330
2FE
100
AcDbEntity
  8
Visible (ANSI)
100
AcDbVertex
100
AcDb2dVertex
 10
109.2804860877683
 20
33.90880698149429
 30
0.0
  0
VERTEX
  5
311
330
2FE
100
AcDbEntity
  8
Visible (ANSI)
100
AcDbVertex
100
AcDb2dVertex
 10
109.2766301717789
 20
33.90734692582765
 30
0.0
  0
VERTEX
  5
312
330
2FE
100
AcDbEntity
  8
Visible (ANSI)
100
AcDbVertex
100
AcDb2dVertex
 10
109.273254319577
 20
33.90588688189421
 30
0.0
  0
VERTEX
  5
313
330
2FE
100
AcDbEntity
  8
Visible (ANSI)
100
AcDbVertex
100
AcDb2dVertex
 10
109.2703729981956
 20
33.90442682622756
 30
0.0
  0
VERTEX
  5
314
330
2FE
100
AcDbEntity
  8
Visible (ANSI)
100
AcDbVertex
100
AcDb2dVertex
 10
109.2679985333589
 20
33.90296677056091
 30
0.0
  0
VERTEX
  5
315
330
2FE
100
AcDbEntity
  8
Visible (ANSI)
100
AcDbVertex
100
AcDb2dVertex
 10
109.2661411036161
 20
33.90150671489427
 30
0.0
  0
VERTEX
  5
316
330
2FE
100
AcDbEntity
  8
Visible (ANSI)
100
AcDbVertex
100
AcDb2dVertex
 10
109.2648086582086
 20
33.90004667096082
 30
0.0
  0
VERTEX
  5
317
330
2FE
100
AcDbEntity
  8
Visible (ANSI)
100
AcDbVertex
100
AcDb2dVertex
 10
109.2640068994706
 20
33.89858661529417
 30
0.0
  0
VERTEX
  5
318
330
2FE
100
AcDbEntity
  8
Visible (ANSI)
100
AcDbVertex
100
AcDb2dVertex
 10
109.263739265229
 20
33.89712655962752
 30
0.0
  0
SEQEND
  5
301
330
2FE
100
AcDbEntity
  8
Visible (ANSI)
  0
LINE
  5
319
330
6C
100
AcDbEntity
  8
Visible (ANSI)
100
AcDbLine
 10
110.138739263821
 20
33.93216782224107
 30
0.0
 11
109.3887392638211
 21
33.93216782224107
 31
0.0
  0
LINE
  5
31A
330
6C
100
AcDbEntity
  8
Visible (ANSI)
100
AcDbLine
 10
109.357489263821
 20
33.89712656150484
 30
0.0
 11
109.263739263821
 21
33.89712656150484
 31
0.0
  0
POLYLINE
  5
31B
330
6C
100
AcDbEntity
  8
Visible (ANSI)
100
AcDb2dPolyline
 66
     1
 10
0.0
 20
0.0
 30
0.0
 70
   128
  0
VERTEX
  5
31C
330
31B
100
AcDbEntity
  8
Visible (ANSI)
100
AcDbVertex
100
AcDb2dVertex
 10
109.357489263821
 20
33.89712655962752
 30
0.0
  0
VERTEX
  5
31D
330
31B
100
AcDbEntity
  8
Visible (ANSI)
100
AcDbVertex
100
AcDb2dVertex
 10
109.3575561724674
 20
33.89858661529417
 30
0.0
  0
VERTEX
  5
31F
330
31B
100
AcDbEntity
  8
Visible (ANSI)
100
AcDbVertex
100
AcDb2dVertex
 10
109.3577566119055
 20
33.90004667096082
 30
0.0
  0
VERTEX
  5
320
330
31B
100
AcDbEntity
  8
Visible (ANSI)
100
AcDbVertex
100
AcDb2dVertex
 10
109.3580897238303
 20
33.90150671489427
 30
0.0
  0
VERTEX
  5
321
330
31B
100
AcDbEntity
  8
Visible (ANSI)
100
AcDbVertex
100
AcDb2dVertex
 10
109.3585540817702
 20
33.90296677056091
 30
0.0
  0
VERTEX
  5
322
330
31B
100
AcDbEntity
  8
Visible (ANSI)
100
AcDbVertex
100
AcDb2dVertex
 10
109.359147697246
 20
33.90442682622756
 30
0.0
  0
VERTEX
  5
323
330
31B
100
AcDbEntity
  8
Visible (ANSI)
100
AcDbVertex
100
AcDb2dVertex
 10
109.359868028508
 20
33.90588688189421
 30
0.0
  0
VERTEX
  5
324
330
31B
100
AcDbEntity
  8
Visible (ANSI)
100
AcDbVertex
100
AcDb2dVertex
 10
109.3607119908252
 20
33.90734692582765
 30
0.0
  0
VERTEX
  5
325
330
31B
100
AcDbEntity
  8
Visible (ANSI)
100
AcDbVertex
100
AcDb2dVertex
 10
109.3616759698225
 20
33.90880698149429
 30
0.0
  0
VERTEX
  5
326
330
31B
100
AcDbEntity
  8
Visible (ANSI)
100
AcDbVertex
100
AcDb2dVertex
 10
109.3627558383478
 20
33.91026703716094
 30
0.0
  0
VERTEX
  5
327
330
31B
100
AcDbEntity
  8
Visible (ANSI)
100
AcDbVertex
100
AcDb2dVertex
 10
109.3639469716877
 20
33.91172708109439
 30
0.0
  0
VERTEX
  5
328
330
31B
100
AcDbEntity
  8
Visible (ANSI)
100
AcDbVertex
100
AcDb2dVertex
 10
109.3652442695679
 20
33.91318713676103
 30
0.0
  0
VERTEX
  5
329
330
31B
100
AcDbEntity
  8
Visible (ANSI)
100
AcDbVertex
100
AcDb2dVertex
 10
109.3666421766858
 20
33.91464719242768
 30
0.0
  0
VERTEX
  5
32A
330
31B
100
AcDbEntity
  8
Visible (ANSI)
100
AcDbVertex
100
AcDb2dVertex
 10
109.3681347069107
 20
33.91610724809432
 30
0.0
  0
VERTEX
  5
32B
330
31B
100
AcDbEntity
  8
Visible (ANSI)
100
AcDbVertex
100
AcDb2dVertex
 10
109.3697154693162
 20
33.91756729202778
 30
0.0
  0
VERTEX
  5
32C
330
31B
100
AcDbEntity
  8
Visible (ANSI)
100
AcDbVertex
100
AcDb2dVertex
 10
109.3713776945807
 20
33.91902734769442
 30
0.0
  0
VERTEX
  5
32D
330
31B
100
AcDbEntity
  8
Visible (ANSI)
100
AcDbVertex
100
AcDb2dVertex
 10
109.3731142635864
 20
33.92048740336107
 30
0.0
  0
VERTEX
  5
32E
330
31B
100
AcDbEntity
  8
Visible (ANSI)
100
AcDbVertex
100
AcDb2dVertex
 10
109.3749177426191
 20
33.92194745902771
 30
0.0
  0
VERTEX
  5
32F
330
31B
100
AcDbEntity
  8
Visible (ANSI)
100
AcDbVertex
100
AcDb2dVertex
 10
109.3767804068348
 20
33.92340750296116
 30
0.0
  0
VERTEX
  5
330
330
31B
100
AcDbEntity
  8
Visible (ANSI)
100
AcDbVertex
100
AcDb2dVertex
 10
109.3786942805922
 20
33.9248675586278
 30
0.0
  0
VERTEX
  5
331
330
31B
100
AcDbEntity
  8
Visible (ANSI)
100
AcDbVertex
100
AcDb2dVertex
 10
109.3806511682527
 20
33.92632761429445
 30
0.0
  0
VERTEX
  5
332
330
31B
100
AcDbEntity
  8
Visible (ANSI)
100
AcDbVertex
100
AcDb2dVertex
 10
109.3826426908465
 20
33.9277876699611
 30
0.0
  0
VERTEX
  5
333
330
31B
100
AcDbEntity
  8
Visible (ANSI)
100
AcDbVertex
100
AcDb2dVertex
 10
109.3846603198054
 20
33.92924771389455
 30
0.0
  0
VERTEX
  5
334
330
31B
100
AcDbEntity
  8
Visible (ANSI)
100
AcDbVertex
100
AcDb2dVertex
 10
109.3866954165624
 20
33.93070776956119
 30
0.0
  0
VERTEX
  5
335
330
31B
100
AcDbEntity
  8
Visible (ANSI)
100
AcDbVertex
100
AcDb2dVertex
 10
109.3887392633517
 20
33.93216782522784
 30
0.0
  0
SEQEND
  5
31E
330
31B
100
AcDbEntity
  8
Visible (ANSI)
  0
POLYLINE
  5
336
330
6C
100
AcDbEntity
  8
Visible (ANSI)
100
AcDb2dPolyline
 66
     1
 10
0.0
 20
0.0
 30
0.0
 70
   128
  0
VERTEX
  5
337
330
336
100
AcDbEntity
  8
Visible (ANSI)
100
AcDbVertex
100
AcDb2dVertex
 10
109.357489263821
 20
111.6471287241678
 30
0.0
  0
VERTEX
  5
338
330
336
100
AcDbEntity
  8
Visible (ANSI)
100
AcDbVertex
100
AcDb2dVertex
 10
109.3575561724674
 20
111.6456689266315
 30
0.0
  0
VERTEX
  5
33A
330
336
100
AcDbEntity
  8
Visible (ANSI)
100
AcDbVertex
100
AcDb2dVertex
 10
109.3577566119055
 20
111.6442091290952
 30
0.0
  0
VERTEX
  5
33B
330
336
100
AcDbEntity
  8
Visible (ANSI)
100
AcDbVertex
100
AcDb2dVertex
 10
109.3580897238303
 20
111.6427493315589
 30
0.0
  0
VERTEX
  5
33C
330
336
100
AcDbEntity
  8
Visible (ANSI)
100
AcDbVertex
100
AcDb2dVertex
 10
109.3585540817702
 20
111.6412835266254
 30
0.0
  0
VERTEX
  5
33D
330
336
100
AcDbEntity
  8
Visible (ANSI)
100
AcDbVertex
100
AcDb2dVertex
 10
109.359147697246
 20
111.6398237290891
 30
0.0
  0
VERTEX
  5
33E
330
336
100
AcDbEntity
  8
Visible (ANSI)
100
AcDbVertex
100
AcDb2dVertex
 10
109.359868028508
 20
111.6383639315528
 30
0.0
  0
VERTEX
  5
33F
330
336
100
AcDbEntity
  8
Visible (ANSI)
100
AcDbVertex
100
AcDb2dVertex
 10
109.3607119908252
 20
111.6369041340165
 30
0.0
  0
VERTEX
  5
340
330
336
100
AcDbEntity
  8
Visible (ANSI)
100
AcDbVertex
100
AcDb2dVertex
 10
109.3616759698225
 20
111.6354443364802
 30
0.0
  0
VERTEX
  5
341
330
336
100
AcDbEntity
  8
Visible (ANSI)
100
AcDbVertex
100
AcDb2dVertex
 10
109.3627558383478
 20
111.6339845389439
 30
0.0
  0
VERTEX
  5
342
330
336
100
AcDbEntity
  8
Visible (ANSI)
100
AcDbVertex
100
AcDb2dVertex
 10
109.3639469716877
 20
111.6325247414076
 30
0.0
  0
VERTEX
  5
343
330
336
100
AcDbEntity
  8
Visible (ANSI)
100
AcDbVertex
100
AcDb2dVertex
 10
109.3652442695679
 20
111.6310649438713
 30
0.0
  0
VERTEX
  5
344
330
336
100
AcDbEntity
  8
Visible (ANSI)
100
AcDbVertex
100
AcDb2dVertex
 10
109.3666421766858
 20
111.629605146335
 30
0.0
  0
VERTEX
  5
345
330
336
100
AcDbEntity
  8
Visible (ANSI)
100
AcDbVertex
100
AcDb2dVertex
 10
109.3681347069107
 20
111.6281453487987
 30
0.0
  0
VERTEX
  5
346
330
336
100
AcDbEntity
  8
Visible (ANSI)
100
AcDbVertex
100
AcDb2dVertex
 10
109.3697154693162
 20
111.6266855512624
 30
0.0
  0
VERTEX
  5
347
330
336
100
AcDbEntity
  8
Visible (ANSI)
100
AcDbVertex
100
AcDb2dVertex
 10
109.3713776945807
 20
111.6252257537261
 30
0.0
  0
VERTEX
  5
348
330
336
100
AcDbEntity
  8
Visible (ANSI)
100
AcDbVertex
100
AcDb2dVertex
 10
109.3731142635864
 20
111.6237659561899
 30
0.0
  0
VERTEX
  5
349
330
336
100
AcDbEntity
  8
Visible (ANSI)
100
AcDbVertex
100
AcDb2dVertex
 10
109.3749177426191
 20
111.6223061586536
 30
0.0
  0
VERTEX
  5
34A
330
336
100
AcDbEntity
  8
Visible (ANSI)
100
AcDbVertex
100
AcDb2dVertex
 10
109.3767804068348
 20
111.6208463611173
 30
0.0
  0
VERTEX
  5
34B
330
336
100
AcDbEntity
  8
Visible (ANSI)
100
AcDbVertex
100
AcDb2dVertex
 10
109.3786942805922
 20
111.619386563581
 30
0.0
  0
VERTEX
  5
34C
330
336
100
AcDbEntity
  8
Visible (ANSI)
100
AcDbVertex
100
AcDb2dVertex
 10
109.3806511682527
 20
111.6179267660447
 30
0.0
  0
VERTEX
  5
34D
330
336
100
AcDbEntity
  8
Visible (ANSI)
100
AcDbVertex
100
AcDb2dVertex
 10
109.3826426908465
 20
111.6164669685084
 30
0.0
  0
VERTEX
  5
34E
330
336
100
AcDbEntity
  8
Visible (ANSI)
100
AcDbVertex
100
AcDb2dVertex
 10
109.3846603198054
 20
111.6150071709721
 30
0.0
  0
VERTEX
  5
34F
330
336
100
AcDbEntity
  8
Visible (ANSI)
100
AcDbVertex
100
AcDb2dVertex
 10
109.3866954165624
 20
111.6135473734358
 30
0.0
  0
VERTEX
  5
350
330
336
100
AcDbEntity
  8
Visible (ANSI)
100
AcDbVertex
100
AcDb2dVertex
 10
109.3887392633517
 20
111.6120875758995
 30
0.0
  0
SEQEND
  5
339
330
336
100
AcDbEntity
  8
Visible (ANSI)
  0
LINE
  5
351
330
6C
100
AcDbEntity
  8
Visible (ANSI)
100
AcDbLine
 10
109.357489263821
 20
111.6471265615048
 30
0.0
 11
109.263739263821
 21
111.6471265615048
 31
0.0
  0
LINE
  5
352
330
6C
100
AcDbEntity
  8
Visible (ANSI)
100
AcDbLine
 10
109.3887392638211
 20
111.6120853007686
 30
0.0
 11
110.138739263821
 21
111.6120853007686
 31
0.0
  0
POLYLINE
  5
353
330
6C
100
AcDbEntity
  8
Visible (ANSI)
100
AcDb2dPolyline
 66
     1
 10
0.0
 20
0.0
 30
0.0
 70
   128
  0
VERTEX
  5
354
330
353
100
AcDbEntity
  8
Visible (ANSI)
100
AcDbVertex
100
AcDb2dVertex
 10
109.3887392633517
 20
111.7721246391377
 30
0.0
  0
VERTEX
  5
355
330
353
100
AcDbEntity
  8
Visible (ANSI)
100
AcDbVertex
100
AcDb2dVertex
 10
109.3805638732612
 20
111.7718603136579
 30
0.0
  0
VERTEX
  5
357
330
353
100
AcDbEntity
  8
Visible (ANSI)
100
AcDbVertex
100
AcDb2dVertex
 10
109.3724234891663
 20
111.7710553224239
 30
0.0
  0
VERTEX
  5
358
330
353
100
AcDbEntity
  8
Visible (ANSI)
100
AcDbVertex
100
AcDb2dVertex
 10
109.3643529733309
 20
111.7697276876275
 30
0.0
  0
VERTEX
  5
359
330
353
100
AcDbEntity
  8
Visible (ANSI)
100
AcDbVertex
100
AcDb2dVertex
 10
109.3563868831392
 20
111.7678653944742
 30
0.0
  0
VERTEX
  5
35A
330
353
100
AcDbEntity
  8
Visible (ANSI)
100
AcDbVertex
100
AcDb2dVertex
 10
109.3485593308471
 20
111.765492472553
 30
0.0
  0
VERTEX
  5
35B
330
353
100
AcDbEntity
  8
Visible (ANSI)
100
AcDbVertex
100
AcDb2dVertex
 10
109.3409038343507
 20
111.7626089218641
 30
0.0
  0
VERTEX
  5
35C
330
353
100
AcDbEntity
  8
Visible (ANSI)
100
AcDbVertex
100
AcDb2dVertex
 10
109.3334531774879
 20
111.759232764599
 30
0.0
  0
VERTEX
  5
35D
330
353
100
AcDbEntity
  8
Visible (ANSI)
100
AcDbVertex
100
AcDb2dVertex
 10
109.3262392642904
 20
111.7553820229498
 30
0.0
  0
VERTEX
  5
35E
330
353
100
AcDbEntity
  8
Visible (ANSI)
100
AcDbVertex
100
AcDb2dVertex
 10
109.3192929853344
 20
111.7510627043136
 30
0.0
  0
VERTEX
  5
35F
330
353
100
AcDbEntity
  8
Visible (ANSI)
100
AcDbVertex
100
AcDb2dVertex
 10
109.3126440842764
 20
111.7462928308823
 30
0.0
  0
VERTEX
  5
360
330
353
100
AcDbEntity
  8
Visible (ANSI)
100
AcDbVertex
100
AcDb2dVertex
 10
109.3063210346541
 20
111.7411084470394
 30
0.0
  0
VERTEX
  5
361
330
353
100
AcDbEntity
  8
Visible (ANSI)
100
AcDbVertex
100
AcDb2dVertex
 10
109.3003509137548
 20
111.7355155601822
 30
0.0
  0
VERTEX
  5
362
330
353
100
AcDbEntity
  8
Visible (ANSI)
100
AcDbVertex
100
AcDb2dVertex
 10
109.2947592882164
 20
111.7295442072971
 30
0.0
  0
VERTEX
  5
363
330
353
100
AcDbEntity
  8
Visible (ANSI)
100
AcDbVertex
100
AcDb2dVertex
 10
109.2895700937624
 20
111.7232244253705
 30
0.0
  0
VERTEX
  5
364
330
353
100
AcDbEntity
  8
Visible (ANSI)
100
AcDbVertex
100
AcDb2dVertex
 10
109.2848055648027
 20
111.716574236594
 30
0.0
  0
VERTEX
  5
365
330
353
100
AcDbEntity
  8
Visible (ANSI)
100
AcDbVertex
100
AcDb2dVertex
 10
109.2804860877683
 20
111.7096236779541
 30
0.0
  0
VERTEX
  5
366
330
353
100
AcDbEntity
  8
Visible (ANSI)
100
AcDbVertex
100
AcDb2dVertex
 10
109.2766301717788
 20
111.7024148012317
 30
0.0
  0
VERTEX
  5
367
330
353
100
AcDbEntity
  8
Visible (ANSI)
100
AcDbVertex
100
AcDb2dVertex
 10
109.2732543195769
 20
111.6949596212212
 30
0.0
  0
VERTEX
  5
368
330
353
100
AcDbEntity
  8
Visible (ANSI)
100
AcDbVertex
100
AcDb2dVertex
 10
109.2703729981955
 20
111.6873061971009
 30
0.0
  0
VERTEX
  5
369
330
353
100
AcDbEntity
  8
Visible (ANSI)
100
AcDbVertex
100
AcDb2dVertex
 10
109.2679985333589
 20
111.6794785584598
 30
0.0
  0
VERTEX
  5
36A
330
353
100
AcDbEntity
  8
Visible (ANSI)
100
AcDbVertex
100
AcDb2dVertex
 10
109.2661411036161
 20
111.6715127496815
 30
0.0
  0
VERTEX
  5
36B
330
353
100
AcDbEntity
  8
Visible (ANSI)
100
AcDbVertex
100
AcDb2dVertex
 10
109.2648086582086
 20
111.6634448151496
 30
0.0
  0
VERTEX
  5
36C
330
353
100
AcDbEntity
  8
Visible (ANSI)
100
AcDbVertex
100
AcDb2dVertex
 10
109.2640068994706
 20
111.6553047918505
 30
0.0
  0
VERTEX
  5
36D
330
353
100
AcDbEntity
  8
Visible (ANSI)
100
AcDbVertex
100
AcDb2dVertex
 10
109.263739265229
 20
111.6471287241678
 30
0.0
  0
SEQEND
  5
356
330
353
100
AcDbEntity
  8
Visible (ANSI)
  0
LINE
  5
36E
330
6C
100
AcDbEntity
  8
Visible (ANSI)
100
AcDbLine
 10
109.388739263821
 20
111.6783765615048
 30
0.0
 11
110.138739263821
 21
111.6783765615047
 31
0.0
  0
LINE
  5
36F
330
6C
100
AcDbEntity
  8
Visible (ANSI)
100
AcDbLine
 10
110.138739263821
 20
111.7721265615047
 30
0.0
 11
109.388739263821
 21
111.7721265615048
 31
0.0
  0
LINE
  5
370
330
6C
100
AcDbEntity
  8
Visible (ANSI)
100
AcDbLine
 10
109.388739263821
 20
111.6783765615048
 30
0.0
 11
109.388739263821
 21
111.7721265615048
 31
0.0
  0
LINE
  5
371
330
6C
100
AcDbEntity
  8
Visible (ANSI)
100
AcDbLine
 10
110.138739263821
 20
111.6783765615047
 30
0.0
 11
110.138739263821
 21
111.7721265615047
 31
0.0
  0
POLYLINE
  5
372
330
6C
100
AcDbEntity
  8
Visible (ANSI)
100
AcDb2dPolyline
 66
     1
 10
0.0
 20
0.0
 30
0.0
 70
   128
  0
VERTEX
  5
373
330
372
100
AcDbEntity
  8
Visible (ANSI)
100
AcDbVertex
100
AcDb2dVertex
 10
109.357489263821
 20
111.6471287241678
 30
0.0
  0
VERTEX
  5
374
330
372
100
AcDbEntity
  8
Visible (ANSI)
100
AcDbVertex
100
AcDb2dVertex
 10
109.3575561724674
 20
111.6491712392392
 30
0.0
  0
VERTEX
  5
376
330
372
100
AcDbEntity
  8
Visible (ANSI)
100
AcDbVertex
100
AcDb2dVertex
 10
109.3577566119055
 20
111.6512077469133
 30
0.0
  0
VERTEX
  5
377
330
372
100
AcDbEntity
  8
Visible (ANSI)
100
AcDbVertex
100
AcDb2dVertex
 10
109.3580897238303
 20
111.6532202249983
 30
0.0
  0
VERTEX
  5
378
330
372
100
AcDbEntity
  8
Visible (ANSI)
100
AcDbVertex
100
AcDb2dVertex
 10
109.3585540817702
 20
111.6552146808915
 30
0.0
  0
VERTEX
  5
379
330
372
100
AcDbEntity
  8
Visible (ANSI)
100
AcDbVertex
100
AcDb2dVertex
 10
109.359147697246
 20
111.6571730924011
 30
0.0
  0
VERTEX
  5
37A
330
372
100
AcDbEntity
  8
Visible (ANSI)
100
AcDbVertex
100
AcDb2dVertex
 10
109.359868028508
 20
111.6590834447325
 30
0.0
  0
VERTEX
  5
37B
330
372
100
AcDbEntity
  8
Visible (ANSI)
100
AcDbVertex
100
AcDb2dVertex
 10
109.3607119908251
 20
111.6609457378858
 30
0.0
  0
VERTEX
  5
37C
330
372
100
AcDbEntity
  8
Visible (ANSI)
100
AcDbVertex
100
AcDb2dVertex
 10
109.3616759698225
 20
111.6627539644637
 30
0.0
  0
VERTEX
  5
37D
330
372
100
AcDbEntity
  8
Visible (ANSI)
100
AcDbVertex
100
AcDb2dVertex
 10
109.3627558383478
 20
111.6644901022744
 30
0.0
  0
VERTEX
  5
37E
330
372
100
AcDbEntity
  8
Visible (ANSI)
100
AcDbVertex
100
AcDb2dVertex
 10
109.3639469716877
 20
111.6661481439205
 30
0.0
  0
VERTEX
  5
37F
330
372
100
AcDbEntity
  8
Visible (ANSI)
100
AcDbVertex
100
AcDb2dVertex
 10
109.3652442695679
 20
111.6677340967995
 30
0.0
  0
VERTEX
  5
380
330
372
100
AcDbEntity
  8
Visible (ANSI)
100
AcDbVertex
100
AcDb2dVertex
 10
109.3666421766858
 20
111.6692239313221
 30
0.0
  0
VERTEX
  5
381
330
372
100
AcDbEntity
  8
Visible (ANSI)
100
AcDbVertex
100
AcDb2dVertex
 10
109.3681347069106
 20
111.6706236548857
 30
0.0
  0
VERTEX
  5
382
330
372
100
AcDbEntity
  8
Visible (ANSI)
100
AcDbVertex
100
AcDb2dVertex
 10
109.3697154693162
 20
111.6719212526958
 30
0.0
  0
VERTEX
  5
383
330
372
100
AcDbEntity
  8
Visible (ANSI)
100
AcDbVertex
100
AcDb2dVertex
 10
109.3713776945807
 20
111.673110717355
 30
0.0
  0
VERTEX
  5
384
330
372
100
AcDbEntity
  8
Visible (ANSI)
100
AcDbVertex
100
AcDb2dVertex
 10
109.3731142635864
 20
111.6741920488633
 30
0.0
  0
VERTEX
  5
385
330
372
100
AcDbEntity
  8
Visible (ANSI)
100
AcDbVertex
100
AcDb2dVertex
 10
109.3749177426191
 20
111.6751532324263
 30
0.0
  0
VERTEX
  5
386
330
372
100
AcDbEntity
  8
Visible (ANSI)
100
AcDbVertex
100
AcDb2dVertex
 10
109.3767804068348
 20
111.6760002754412
 30
0.0
  0
VERTEX
  5
387
330
372
100
AcDbEntity
  8
Visible (ANSI)
100
AcDbVertex
100
AcDb2dVertex
 10
109.3786942805922
 20
111.6767151557162
 30
0.0
  0
VERTEX
  5
388
330
372
100
AcDbEntity
  8
Visible (ANSI)
100
AcDbVertex
100
AcDb2dVertex
 10
109.3806511682527
 20
111.6773098880458
 30
0.0
  0
VERTEX
  5
389
330
372
100
AcDbEntity
  8
Visible (ANSI)
100
AcDbVertex
100
AcDb2dVertex
 10
109.3826426908465
 20
111.6777784650327
 30
0.0
  0
VERTEX
  5
38A
330
372
100
AcDbEntity
  8
Visible (ANSI)
100
AcDbVertex
100
AcDb2dVertex
 10
109.3846603198053
 20
111.6781088718825
 30
0.0
  0
VERTEX
  5
38B
330
372
100
AcDbEntity
  8
Visible (ANSI)
100
AcDbVertex
100
AcDb2dVertex
 10
109.3866954165624
 20
111.6783071159924
 30
0.0
  0
VERTEX
  5
38C
330
372
100
AcDbEntity
  8
Visible (ANSI)
100
AcDbVertex
100
AcDb2dVertex
 10
109.3887392633517
 20
111.6783792047596
 30
0.0
  0
SEQEND
  5
375
330
372
100
AcDbEntity
  8
Visible (ANSI)
  0
POLYLINE
  5
38D
330
6C
100
AcDbEntity
  8
Visible (ANSI)
100
AcDb2dPolyline
 66
     1
 10
0.0
 20
0.0
 30
0.0
 70
   128
  0
VERTEX
  5
38E
330
38D
100
AcDbEntity
  8
Visible (ANSI)
100
AcDbVertex
100
AcDb2dVertex
 10
109.263739265229
 20
33.89712655962752
 30
0.0
  0
VERTEX
  5
38F
330
38D
100
AcDbEntity
  8
Visible (ANSI)
100
AcDbVertex
100
AcDb2dVertex
 10
109.2640068994706
 20
33.8889511724703
 30
0.0
  0
VERTEX
  5
391
330
38D
100
AcDbEntity
  8
Visible (ANSI)
100
AcDbVertex
100
AcDb2dVertex
 10
109.2648086582086
 20
33.88081078544207
 30
0.0
  0
VERTEX
  5
392
330
38D
100
AcDbEntity
  8
Visible (ANSI)
100
AcDbVertex
100
AcDb2dVertex
 10
109.2661411036161
 20
33.8727402696067
 30
0.0
  0
VERTEX
  5
393
330
38D
100
AcDbEntity
  8
Visible (ANSI)
100
AcDbVertex
100
AcDb2dVertex
 10
109.2679985333589
 20
33.86477417923166
 30
0.0
  0
VERTEX
  5
394
330
38D
100
AcDbEntity
  8
Visible (ANSI)
100
AcDbVertex
100
AcDb2dVertex
 10
109.2703729981955
 20
33.85694662858952
 30
0.0
  0
VERTEX
  5
395
330
38D
100
AcDbEntity
  8
Visible (ANSI)
100
AcDbVertex
100
AcDb2dVertex
 10
109.2732543195769
 20
33.84929113355978
 30
0.0
  0
VERTEX
  5
396
330
38D
100
AcDbEntity
  8
Visible (ANSI)
100
AcDbVertex
100
AcDb2dVertex
 10
109.2766301717788
 20
33.84184047669708
 30
0.0
  0
VERTEX
  5
397
330
38D
100
AcDbEntity
  8
Visible (ANSI)
100
AcDbVertex
100
AcDb2dVertex
 10
109.2804860877683
 20
33.83462656056618
 30
0.0
  0
VERTEX
  5
398
330
38D
100
AcDbEntity
  8
Visible (ANSI)
100
AcDbVertex
100
AcDb2dVertex
 10
109.2848055648027
 20
33.82768028454349
 30
0.0
  0
VERTEX
  5
399
330
38D
100
AcDbEntity
  8
Visible (ANSI)
100
AcDbVertex
100
AcDb2dVertex
 10
109.2895700937624
 20
33.82103138348549
 30
0.0
  0
VERTEX
  5
39A
330
38D
100
AcDbEntity
  8
Visible (ANSI)
100
AcDbVertex
100
AcDb2dVertex
 10
109.2947592882164
 20
33.81470833386324
 30
0.0
  0
VERTEX
  5
39B
330
38D
100
AcDbEntity
  8
Visible (ANSI)
100
AcDbVertex
100
AcDb2dVertex
 10
109.3003509137548
 20
33.80873821296392
 30
0.0
  0
VERTEX
  5
39C
330
38D
100
AcDbEntity
  8
Visible (ANSI)
100
AcDbVertex
100
AcDb2dVertex
 10
109.3063210346541
 20
33.80314658449222
 30
0.0
  0
VERTEX
  5
39D
330
38D
100
AcDbEntity
  8
Visible (ANSI)
100
AcDbVertex
100
AcDb2dVertex
 10
109.3126440842764
 20
33.79795739297153
 30
0.0
  0
VERTEX
  5
39E
330
38D
100
AcDbEntity
  8
Visible (ANSI)
100
AcDbVertex
100
AcDb2dVertex
 10
109.3192929853344
 20
33.79319285961183
 30
0.0
  0
VERTEX
  5
39F
330
38D
100
AcDbEntity
  8
Visible (ANSI)
100
AcDbVertex
100
AcDb2dVertex
 10
109.3262392642904
 20
33.78887338551076
 30
0.0
  0
VERTEX
  5
3A0
330
38D
100
AcDbEntity
  8
Visible (ANSI)
100
AcDbVertex
100
AcDb2dVertex
 10
109.3334531774879
 20
33.7850174695213
 30
0.0
  0
VERTEX
  5
3A1
330
38D
100
AcDbEntity
  8
Visible (ANSI)
100
AcDbVertex
100
AcDb2dVertex
 10
109.3409038343507
 20
33.78164162025274
 30
0.0
  0
VERTEX
  5
3A2
330
38D
100
AcDbEntity
  8
Visible (ANSI)
100
AcDbVertex
100
AcDb2dVertex
 10
109.3485593308471
 20
33.77876029520471
 30
0.0
  0
VERTEX
  5
3A3
330
38D
100
AcDbEntity
  8
Visible (ANSI)
100
AcDbVertex
100
AcDb2dVertex
 10
109.3563868831392
 20
33.77638583330137
 30
0.0
  0
VERTEX
  5
3A4
330
38D
100
AcDbEntity
  8
Visible (ANSI)
100
AcDbVertex
100
AcDb2dVertex
 10
109.3643529733309
 20
33.77452840154191
 30
0.0
  0
VERTEX
  5
3A5
330
38D
100
AcDbEntity
  8
Visible (ANSI)
100
AcDbVertex
100
AcDb2dVertex
 10
109.3724234891663
 20
33.77319595384279
 30
0.0
  0
VERTEX
  5
3A6
330
38D
100
AcDbEntity
  8
Visible (ANSI)
100
AcDbVertex
100
AcDb2dVertex
 10
109.3805638732612
 20
33.77239419609018
 30
0.0
  0
VERTEX
  5
3A7
330
38D
100
AcDbEntity
  8
Visible (ANSI)
100
AcDbVertex
100
AcDb2dVertex
 10
109.3887392633517
 20
33.77212656150483
 30
0.0
  0
SEQEND
  5
390
330
38D
100
AcDbEntity
  8
Visible (ANSI)
  0
LINE
  5
3A8
330
6C
100
AcDbEntity
  8
Visible (ANSI)
100
AcDbLine
 10
109.388739263821
 20
33.86587656150484
 30
0.0
 11
110.138739263821
 21
33.86587656150484
 31
0.0
  0
LINE
  5
3A9
330
6C
100
AcDbEntity
  8
Visible (ANSI)
100
AcDbLine
 10
109.388739263821
 20
33.86587656150484
 30
0.0
 11
109.388739263821
 21
33.77212656150483
 31
0.0
  0
POLYLINE
  5
3AA
330
6C
100
AcDbEntity
  8
Visible (ANSI)
100
AcDb2dPolyline
 66
     1
 10
0.0
 20
0.0
 30
0.0
 70
   128
  0
VERTEX
  5
3AB
330
3AA
100
AcDbEntity
  8
Visible (ANSI)
100
AcDbVertex
100
AcDb2dVertex
 10
109.357489263821
 20
33.89712655962752
 30
0.0
  0
VERTEX
  5
3AC
330
3AA
100
AcDbEntity
  8
Visible (ANSI)
100
AcDbVertex
100
AcDb2dVertex
 10
109.3575561724674
 20
33.89508271870481
 30
0.0
  0
VERTEX
  5
3AE
330
3AA
100
AcDbEntity
  8
Visible (ANSI)
100
AcDbVertex
100
AcDb2dVertex
 10
109.3577566119055
 20
33.89304761901446
 30
0.0
  0
VERTEX
  5
3AF
330
3AA
100
AcDbEntity
  8
Visible (ANSI)
100
AcDbVertex
100
AcDb2dVertex
 10
109.3580897238303
 20
33.89102999005562
 30
0.0
  0
VERTEX
  5
3B0
330
3AA
100
AcDbEntity
  8
Visible (ANSI)
100
AcDbVertex
100
AcDb2dVertex
 10
109.3585540817702
 20
33.88903846746186
 30
0.0
  0
VERTEX
  5
3B1
330
3AA
100
AcDbEntity
  8
Visible (ANSI)
100
AcDbVertex
100
AcDb2dVertex
 10
109.359147697246
 20
33.88708158126797
 30
0.0
  0
VERTEX
  5
3B2
330
3AA
100
AcDbEntity
  8
Visible (ANSI)
100
AcDbVertex
100
AcDb2dVertex
 10
109.359868028508
 20
33.88516770897719
 30
0.0
  0
VERTEX
  5
3B3
330
3AA
100
AcDbEntity
  8
Visible (ANSI)
100
AcDbVertex
100
AcDb2dVertex
 10
109.3607119908251
 20
33.88330504036157
 30
0.0
  0
VERTEX
  5
3B4
330
3AA
100
AcDbEntity
  8
Visible (ANSI)
100
AcDbVertex
100
AcDb2dVertex
 10
109.3616759698225
 20
33.88150156572879
 30
0.0
  0
VERTEX
  5
3B5
330
3AA
100
AcDbEntity
  8
Visible (ANSI)
100
AcDbVertex
100
AcDb2dVertex
 10
109.3627558383478
 20
33.87976499378981
 30
0.0
  0
VERTEX
  5
3B6
330
3AA
100
AcDbEntity
  8
Visible (ANSI)
100
AcDbVertex
100
AcDb2dVertex
 10
109.3639469716877
 20
33.87810276339204
 30
0.0
  0
VERTEX
  5
3B7
330
3AA
100
AcDbEntity
  8
Visible (ANSI)
100
AcDbVertex
100
AcDb2dVertex
 10
109.3652442695679
 20
33.87652200831972
 30
0.0
  0
VERTEX
  5
3B8
330
3AA
100
AcDbEntity
  8
Visible (ANSI)
100
AcDbVertex
100
AcDb2dVertex
 10
109.3666421766858
 20
33.8750294751616
 30
0.0
  0
VERTEX
  5
3B9
330
3AA
100
AcDbEntity
  8
Visible (ANSI)
100
AcDbVertex
100
AcDb2dVertex
 10
109.3681347069106
 20
33.87363157024365
 30
0.0
  0
VERTEX
  5
3BA
330
3AA
100
AcDbEntity
  8
Visible (ANSI)
100
AcDbVertex
100
AcDb2dVertex
 10
109.3697154693162
 20
33.87233426576355
 30
0.0
  0
VERTEX
  5
3BB
330
3AA
100
AcDbEntity
  8
Visible (ANSI)
100
AcDbVertex
100
AcDb2dVertex
 10
109.3713776945807
 20
33.87114313499026
 30
0.0
  0
VERTEX
  5
3BC
330
3AA
100
AcDbEntity
  8
Visible (ANSI)
100
AcDbVertex
100
AcDb2dVertex
 10
109.3731142635864
 20
33.87006327013163
 30
0.0
  0
VERTEX
  5
3BD
330
3AA
100
AcDbEntity
  8
Visible (ANSI)
100
AcDbVertex
100
AcDb2dVertex
 10
109.3749177426191
 20
33.86909928820096
 30
0.0
  0
VERTEX
  5
3BE
330
3AA
100
AcDbEntity
  8
Visible (ANSI)
100
AcDbVertex
100
AcDb2dVertex
 10
109.3767804068348
 20
33.86825532515049
 30
0.0
  0
VERTEX
  5
3BF
330
3AA
100
AcDbEntity
  8
Visible (ANSI)
100
AcDbVertex
100
AcDb2dVertex
 10
109.3786942805922
 20
33.86753499480514
 30
0.0
  0
VERTEX
  5
3C0
330
3AA
100
AcDbEntity
  8
Visible (ANSI)
100
AcDbVertex
100
AcDb2dVertex
 10
109.3806511682527
 20
33.86694137712933
 30
0.0
  0
VERTEX
  5
3C1
330
3AA
100
AcDbEntity
  8
Visible (ANSI)
100
AcDbVertex
100
AcDb2dVertex
 10
109.3826426908465
 20
33.86647702409358
 30
0.0
  0
VERTEX
  5
3C2
330
3AA
100
AcDbEntity
  8
Visible (ANSI)
100
AcDbVertex
100
AcDb2dVertex
 10
109.3846603198053
 20
33.86614390687511
 30
0.0
  0
VERTEX
  5
3C3
330
3AA
100
AcDbEntity
  8
Visible (ANSI)
100
AcDbVertex
100
AcDb2dVertex
 10
109.3866954165624
 20
33.86594346865725
 30
0.0
  0
VERTEX
  5
3C4
330
3AA
100
AcDbEntity
  8
Visible (ANSI)
100
AcDbVertex
100
AcDb2dVertex
 10
109.3887392633517
 20
33.86587656009685
 30
0.0
  0
SEQEND
  5
3AD
330
3AA
100
AcDbEntity
  8
Visible (ANSI)
  0
LINE
  5
3C5
330
6C
100
AcDbEntity
  8
Visible (ANSI)
100
AcDbLine
 10
109.388739263821
 20
33.77212656150483
 30
0.0
 11
110.138739263821
 21
33.77212656150483
 31
0.0
  0
LINE
  5
3C6
330
6C
100
AcDbEntity
  8
Visible (ANSI)
100
AcDbLine
 10
110.138739263821
 20
33.86587656150484
 30
0.0
 11
110.138739263821
 21
33.77212656150483
 31
0.0
  0
LINE
  5
3C7
330
6C
100
AcDbEntity
  8
Visible (ANSI)
100
AcDbLine
 10
109.263739263821
 20
33.89712656150484
 30
0.0
 11
109.263739263821
 21
111.6471265615048
 31
0.0
  0
LINE
  5
3C8
330
6C
100
AcDbEntity
  8
Hidden (ANSI)
100
AcDbLine
 10
109.357489263821
 20
111.6471265615048
 30
0.0
 11
109.357489263821
 21
33.89712656150484
 31
0.0
  0
LINE
  5
3C9
330
6C
100
AcDbEntity
  8
Visible (ANSI)
100
AcDbLine
 10
110.138739263821
 20
111.6120853007686
 30
0.0
 11
110.138739263821
 21
33.93216782224107
 31
0.0
  0
LINE
  5
3CA
330
6C
100
AcDbEntity
  8
Hidden (ANSI)
100
AcDbLine
 10
109.3574892638208
 20
34.36562656150484
 30
0.0
 11
109.2637392638208
 21
34.36562656150484
 31
0.0
  0
LINE
  5
3CB
330
6C
100
AcDbEntity
  8
Hidden (ANSI)
100
AcDbLine
 10
109.3574892638208
 20
34.92862656150484
 30
0.0
 11
109.2637392638208
 21
34.92862656150484
 31
0.0
  0
LINE
  5
3CC
330
6C
100
AcDbEntity
  8
Hidden (ANSI)
100
AcDbLine
 10
109.3574892638208
 20
110.6156265615048
 30
0.0
 11
109.2637392638208
 21
110.6156265615048
 31
0.0
  0
LINE
  5
3CD
330
6C
100
AcDbEntity
  8
Hidden (ANSI)
100
AcDbLine
 10
109.3574892638208
 20
111.1786265615048
 30
0.0
 11
109.2637392638208
 21
111.1786265615048
 31
0.0
  0
MTEXT
  5
3CE
330
6C
100
AcDbEntity
  8
Symbol (ANSI)
100
AcDbMText
 10
104.6121957628884
 20
27.37273050812815
 30
0.0
 40
1.56000001927999
 41
0.0
 46
0.0
 71
     7
 72
     1
  1
SIDE VIEW
  7
Text Style153
 73
     1
 44
1.0
  0
LINE
  5
3CF
330
6C
100
AcDbEntity
  8
Symbol (ANSI)
370
    30
100
AcDbLine
 10
104.5323235574284
 20
27.04954249798696
 30
0.0
 11
115.0743332226999
 21
27.04954249798696
 31
0.0
  0
ELLIPSE
  5
3D0
330
6C
100
AcDbEntity
  8
Visible (ANSI)
100
AcDbEllipse
 10
179.0209510750008
 20
32.36125456824652
 30
0.0
 11
-0.1521840315244276
 21
0.2642718403811053
 31
0.0
210
0.0
220
0.0
230
1.0
 40
0.578093115915809
 41
0.0
 42
6.283185307179586
  0
ELLIPSE
  5
3D1
330
6C
100
AcDbEntity
  8
Visible (ANSI)
100
AcDbEllipse
 10
179.092766607465
 20
32.40261038292855
 30
0.0
 11
-0.1521840315244281
 21
0.2642718403811062
 31
0.0
210
0.0
220
0.0
230
0.9999999999999998
 40
0.578093115915809
 41
0.2372585647783909
 42
2.904334088811481
  0
ELLIPSE
  5
3D2
330
6C
100
AcDbEntity
  8
Visible (ANSI)
100
AcDbEllipse
 10
179.0209510750009
 20
99.89405352659359
 30
0.0
 11
-0.1521840315244276
 21
0.2642718403811053
 31
0.0
210
0.0
220
0.0
230
1.0
 40
0.578093115915809
 41
0.0
 42
6.283185307179586
  0
ELLIPSE
  5
3D3
330
6C
100
AcDbEntity
  8
Visible (ANSI)
100
AcDbEllipse
 10
179.0927666074651
 20
99.9354093412756
 30
0.0
 11
-0.1521840315244307
 21
0.2642718403811108
 31
0.0
210
0.0
220
0.0
230
1.0
 40
0.5780931159158089
 41
0.2372585647782053
 42
2.904334088811246
  0
ELLIPSE
  5
3D4
330
6C
100
AcDbEntity
  8
Visible (ANSI)
100
AcDbEllipse
 10
156.6145049461487
 20
45.2642687490393
 30
0.0
 11
-0.1521840315244276
 21
0.2642718403811053
 31
0.0
210
0.0
220
0.0
230
1.0
 40
0.578093115915809
 41
0.0
 42
6.283185307179586
  0
ELLIPSE
  5
3D5
330
6C
100
AcDbEntity
  8
Visible (ANSI)
100
AcDbEllipse
 10
156.686320478613
 20
45.30562456372135
 30
0.0
 11
-0.1521840315244276
 21
0.2642718403811052
 31
0.0
210
0.0
220
0.0
230
0.9999999999999998
 40
0.578093115915809
 41
0.2372585647784091
 42
2.904334088811397
  0
ELLIPSE
  5
3D6
330
6C
100
AcDbEntity
  8
Visible (ANSI)
100
AcDbEllipse
 10
156.6145049461489
 20
112.7970677073864
 30
0.0
 11
-0.1521840315244276
 21
0.2642718403811053
 31
0.0
210
0.0
220
0.0
230
1.0
 40
0.578093115915809
 41
0.0
 42
6.283185307179586
  0
ELLIPSE
  5
3D7
330
6C
100
AcDbEntity
  8
Visible (ANSI)
100
AcDbEllipse
 10
156.6863204786131
 20
112.8384235220684
 30
0.0
 11
-0.1521840315244283
 21
0.2642718403811064
 31
0.0
210
0.0
220
0.0
230
1.0
 40
0.578093115915809
 41
0.2372585647784087
 42
2.904334088811378
  0
LINE
  5
3D8
330
6C
100
AcDbEntity
  8
Visible Narrow (ANSI)
100
AcDbLine
 10
179.7869834212864
 20
100.1964288426089
 30
0.0
 11
179.7869834212862
 21
31.39718621731863
 31
0.0
  0
LINE
  5
3D9
330
6C
100
AcDbEntity
  8
Visible Narrow (ANSI)
100
AcDbLine
 10
179.5954753347149
 20
31.36615101185572
 30
0.0
 11
179.595475334715
 21
100.2274640480719
 31
0.0
  0
LINE
  5
3DA
330
6C
100
AcDbEntity
  8
Visible Narrow (ANSI)
100
AcDbLine
 10
156.162577468899
 20
113.9425641510665
 30
0.0
 11
179.6643866388222
 21
100.4087723462462
 31
0.0
  0
LINE
  5
3DB
330
6C
100
AcDbEntity
  8
Visible Narrow (ANSI)
100
AcDbLine
 10
179.595475334715
 20
100.2274640480719
 30
0.0
 11
156.0399806864348
 21
113.7921712637771
 31
0.0
  0
LINE
  5
3DC
330
6C
100
AcDbEntity
  8
Visible Narrow (ANSI)
100
AcDbLine
 10
156.0399806864348
 20
113.7921712637771
 30
0.0
 11
156.0399806864346
 21
44.93085822756096
 31
0.0
  0
LINE
  5
3DD
330
6C
100
AcDbEntity
  8
Visible Narrow (ANSI)
100
AcDbLine
 10
156.0399806864346
 20
44.93085822756096
 30
0.0
 11
179.5954753347149
 21
31.36615101185572
 31
0.0
  0
LINE
  5
3DE
330
6C
100
AcDbEntity
  8
Visible (ANSI)
100
AcDbLine
 10
156.0003180630537
 20
113.8317947472884
 30
0.0
 11
156.0003180630536
 21
45.00151691653514
 31
0.0
  0
LINE
  5
3DF
330
6C
100
AcDbEntity
  8
Visible (ANSI)
100
AcDbLine
 10
156.081611865063
 20
44.86090159176352
 30
0.0
 11
179.6101976853537
 21
31.31169013951592
 31
0.0
  0
POLYLINE
  5
3E0
330
6C
100
AcDbEntity
  8
Visible (ANSI)
100
AcDb2dPolyline
 66
     1
 10
0.0
 20
0.0
 30
0.0
 70
   128
  0
VERTEX
  5
3E1
330
3E0
100
AcDbEntity
  8
Visible (ANSI)
100
AcDbVertex
100
AcDb2dVertex
 10
179.5954755198681
 20
100.2274658581104
 30
0.0
  0
VERTEX
  5
3E2
330
3E0
100
AcDbEntity
  8
Visible (ANSI)
100
AcDbVertex
100
AcDb2dVertex
 10
179.6019436686645
 20
100.2226843135085
 30
0.0
  0
VERTEX
  5
3E4
330
3E0
100
AcDbEntity
  8
Visible (ANSI)
100
AcDbVertex
100
AcDb2dVertex
 10
179.6087933629384
 20
100.2181542867577
 30
0.0
  0
VERTEX
  5
3E5
330
3E0
100
AcDbEntity
  8
Visible (ANSI)
100
AcDbVertex
100
AcDb2dVertex
 10
179.6159966589696
 20
100.213888836528
 30
0.0
  0
VERTEX
  5
3E6
330
3E0
100
AcDbEntity
  8
Visible (ANSI)
100
AcDbVertex
100
AcDb2dVertex
 10
179.623521577422
 20
100.2098960269599
 30
0.0
  0
VERTEX
  5
3E7
330
3E0
100
AcDbEntity
  8
Visible (ANSI)
100
AcDbVertex
100
AcDb2dVertex
 10
179.6313367186861
 20
100.206197567825
 30
0.0
  0
VERTEX
  5
3E8
330
3E0
100
AcDbEntity
  8
Visible (ANSI)
100
AcDbVertex
100
AcDb2dVertex
 10
179.6394066745003
 20
100.202799548677
 30
0.0
  0
VERTEX
  5
3E9
330
3E0
100
AcDbEntity
  8
Visible (ANSI)
100
AcDbVertex
100
AcDb2dVertex
 10
179.6477012945883
 20
100.1997084574441
 30
0.0
  0
VERTEX
  5
3EA
330
3E0
100
AcDbEntity
  8
Visible (ANSI)
100
AcDbVertex
100
AcDb2dVertex
 10
179.6561818855712
 20
100.1969338125146
 30
0.0
  0
VERTEX
  5
3EB
330
3E0
100
AcDbEntity
  8
Visible (ANSI)
100
AcDbVertex
100
AcDb2dVertex
 10
179.6648104955809
 20
100.1944829092496
 30
0.0
  0
VERTEX
  5
3EC
330
3E0
100
AcDbEntity
  8
Visible (ANSI)
100
AcDbVertex
100
AcDb2dVertex
 10
179.6735545385905
 20
100.1923581828865
 30
0.0
  0
VERTEX
  5
3ED
330
3E0
100
AcDbEntity
  8
Visible (ANSI)
100
AcDbVertex
100
AcDb2dVertex
 10
179.6823730877011
 20
100.1905652155796
 30
0.0
  0
VERTEX
  5
3EE
330
3E0
100
AcDbEntity
  8
Visible (ANSI)
100
AcDbVertex
100
AcDb2dVertex
 10
179.6912284022625
 20
100.1891061242517
 30
0.0
  0
VERTEX
  5
3EF
330
3E0
100
AcDbEntity
  8
Visible (ANSI)
100
AcDbVertex
100
AcDb2dVertex
 10
179.7000860402243
 20
100.187979625292
 30
0.0
  0
VERTEX
  5
3F0
330
3E0
100
AcDbEntity
  8
Visible (ANSI)
100
AcDbVertex
100
AcDb2dVertex
 10
179.708905708342
 20
100.1871863656817
 30
0.0
  0
VERTEX
  5
3F1
330
3E0
100
AcDbEntity
  8
Visible (ANSI)
100
AcDbVertex
100
AcDb2dVertex
 10
179.7176482570951
 20
100.1867250009938
 30
0.0
  0
VERTEX
  5
3F2
330
3E0
100
AcDbEntity
  8
Visible (ANSI)
100
AcDbVertex
100
AcDb2dVertex
 10
179.726278069251
 20
100.1865909208397
 30
0.0
  0
VERTEX
  5
3F3
330
3E0
100
AcDbEntity
  8
Visible (ANSI)
100
AcDbVertex
100
AcDb2dVertex
 10
179.7347585546248
 20
100.186778954545
 30
0.0
  0
VERTEX
  5
3F4
330
3E0
100
AcDbEntity
  8
Visible (ANSI)
100
AcDbVertex
100
AcDb2dVertex
 10
179.7430499435235
 20
100.1872847505138
 30
0.0
  0
VERTEX
  5
3F5
330
3E0
100
AcDbEntity
  8
Visible (ANSI)
100
AcDbVertex
100
AcDb2dVertex
 10
179.7511231945665
 20
100.1880968849978
 30
0.0
  0
VERTEX
  5
3F6
330
3E0
100
AcDbEntity
  8
Visible (ANSI)
100
AcDbVertex
100
AcDb2dVertex
 10
179.7589370877613
 20
100.1892101712289
 30
0.0
  0
VERTEX
  5
3F7
330
3E0
100
AcDbEntity
  8
Visible (ANSI)
100
AcDbVertex
100
AcDb2dVertex
 10
179.766463646385
 20
100.1906111485192
 30
0.0
  0
VERTEX
  5
3F8
330
3E0
100
AcDbEntity
  8
Visible (ANSI)
100
AcDbVertex
100
AcDb2dVertex
 10
179.7736652346945
 20
100.1922913940622
 30
0.0
  0
VERTEX
  5
3F9
330
3E0
100
AcDbEntity
  8
Visible (ANSI)
100
AcDbVertex
100
AcDb2dVertex
 10
179.7805153806158
 20
100.1942356636043
 30
0.0
  0
VERTEX
  5
3FA
330
3E0
100
AcDbEntity
  8
Visible (ANSI)
100
AcDbVertex
100
AcDb2dVertex
 10
179.7869827766664
 20
100.1964312284358
 30
0.0
  0
SEQEND
  5
3E3
330
3E0
100
AcDbEntity
  8
Visible (ANSI)
  0
POLYLINE
  5
3FB
330
6C
100
AcDbEntity
  8
Visible (ANSI)
100
AcDb2dPolyline
 66
     1
 10
0.0
 20
0.0
 30
0.0
 70
   128
  0
VERTEX
  5
3FC
330
3FB
100
AcDbEntity
  8
Visible (ANSI)
100
AcDbVertex
100
AcDb2dVertex
 10
179.7869827766663
 20
31.39718659076185
 30
0.0
  0
VERTEX
  5
3FD
330
3FB
100
AcDbEntity
  8
Visible (ANSI)
100
AcDbVertex
100
AcDb2dVertex
 10
179.7805153806156
 20
31.39240498187333
 30
0.0
  0
VERTEX
  5
3FF
330
3FB
100
AcDbEntity
  8
Visible (ANSI)
100
AcDbVertex
100
AcDb2dVertex
 10
179.7736652346943
 20
31.38787466827432
 30
0.0
  0
VERTEX
  5
400
330
3FB
100
AcDbEntity
  8
Visible (ANSI)
100
AcDbVertex
100
AcDb2dVertex
 10
179.7664636463848
 20
31.38360838906621
 30
0.0
  0
VERTEX
  5
401
330
3FB
100
AcDbEntity
  8
Visible (ANSI)
100
AcDbVertex
100
AcDb2dVertex
 10
179.7589370877612
 20
31.37962136771893
 30
0.0
  0
VERTEX
  5
402
330
3FB
100
AcDbEntity
  8
Visible (ANSI)
100
AcDbVertex
100
AcDb2dVertex
 10
179.7511231945663
 20
31.37592203743086
 30
0.0
  0
VERTEX
  5
403
330
3FB
100
AcDbEntity
  8
Visible (ANSI)
100
AcDbVertex
100
AcDb2dVertex
 10
179.7430499435233
 20
31.37252385888996
 30
0.0
  0
VERTEX
  5
404
330
3FB
100
AcDbEntity
  8
Visible (ANSI)
100
AcDbVertex
100
AcDb2dVertex
 10
179.7347585546246
 20
31.36943202925602
 30
0.0
  0
VERTEX
  5
405
330
3FB
100
AcDbEntity
  8
Visible (ANSI)
100
AcDbVertex
100
AcDb2dVertex
 10
179.7262780692508
 20
31.36665795149372
 30
0.0
  0
VERTEX
  5
406
330
3FB
100
AcDbEntity
  8
Visible (ANSI)
100
AcDbVertex
100
AcDb2dVertex
 10
179.717648257095
 20
31.36420598759091
 30
0.0
  0
VERTEX
  5
407
330
3FB
100
AcDbEntity
  8
Visible (ANSI)
100
AcDbVertex
100
AcDb2dVertex
 10
179.7089057083418
 20
31.36208130822191
 30
0.0
  0
VERTEX
  5
408
330
3FB
100
AcDbEntity
  8
Visible (ANSI)
100
AcDbVertex
100
AcDb2dVertex
 10
179.7000860402242
 20
31.36028853416707
 30
0.0
  0
VERTEX
  5
409
330
3FB
100
AcDbEntity
  8
Visible (ANSI)
100
AcDbVertex
100
AcDb2dVertex
 10
179.6912284022623
 20
31.35882898906984
 30
0.0
  0
VERTEX
  5
40A
330
3FB
100
AcDbEntity
  8
Visible (ANSI)
100
AcDbVertex
100
AcDb2dVertex
 10
179.6823730877008
 20
31.35770203634077
 30
0.0
  0
VERTEX
  5
40B
330
3FB
100
AcDbEntity
  8
Visible (ANSI)
100
AcDbVertex
100
AcDb2dVertex
 10
179.6735545385903
 20
31.35690895959069
 30
0.0
  0
VERTEX
  5
40C
330
3FB
100
AcDbEntity
  8
Visible (ANSI)
100
AcDbVertex
100
AcDb2dVertex
 10
179.6648104955807
 20
31.35644765228871
 30
0.0
  0
VERTEX
  5
40D
330
3FB
100
AcDbEntity
  8
Visible (ANSI)
100
AcDbVertex
100
AcDb2dVertex
 10
179.6561818855711
 20
31.35631251149679
 30
0.0
  0
VERTEX
  5
40E
330
3FB
100
AcDbEntity
  8
Visible (ANSI)
100
AcDbVertex
100
AcDb2dVertex
 10
179.6477012945881
 20
31.35650111236924
 30
0.0
  0
VERTEX
  5
40F
330
3FB
100
AcDbEntity
  8
Visible (ANSI)
100
AcDbVertex
100
AcDb2dVertex
 10
179.6394066745001
 20
31.35700616993704
 30
0.0
  0
VERTEX
  5
410
330
3FB
100
AcDbEntity
  8
Visible (ANSI)
100
AcDbVertex
100
AcDb2dVertex
 10
179.6313367186859
 20
31.35781814502812
 30
0.0
  0
VERTEX
  5
411
330
3FB
100
AcDbEntity
  8
Visible (ANSI)
100
AcDbVertex
100
AcDb2dVertex
 10
179.6235215774218
 20
31.35893056010611
 30
0.0
  0
VERTEX
  5
412
330
3FB
100
AcDbEntity
  8
Visible (ANSI)
100
AcDbVertex
100
AcDb2dVertex
 10
179.6159966589694
 20
31.36033200500929
 30
0.0
  0
VERTEX
  5
413
330
3FB
100
AcDbEntity
  8
Visible (ANSI)
100
AcDbVertex
100
AcDb2dVertex
 10
179.6087933629381
 20
31.3620114215739
 30
0.0
  0
VERTEX
  5
414
330
3FB
100
AcDbEntity
  8
Visible (ANSI)
100
AcDbVertex
100
AcDb2dVertex
 10
179.6019436686643
 20
31.36395540426776
 30
0.0
  0
VERTEX
  5
415
330
3FB
100
AcDbEntity
  8
Visible (ANSI)
100
AcDbVertex
100
AcDb2dVertex
 10
179.5954755198679
 20
31.36615090481271
 30
0.0
  0
SEQEND
  5
3FE
330
3FB
100
AcDbEntity
  8
Visible (ANSI)
  0
LINE
  5
416
330
6C
100
AcDbEntity
  8
Visible (ANSI)
100
AcDbLine
 10
179.7151678888222
 20
100.237784657291
 30
0.0
 11
180.2896921485362
 21
100.5686311747473
 31
0.0
  0
LINE
  5
417
330
6C
100
AcDbEntity
  8
Visible (ANSI)
100
AcDbLine
 10
180.3615076810003
 20
31.72803273477493
 30
0.0
 11
179.7869834212862
 21
31.39718621731864
 31
0.0
  0
LINE
  5
418
330
6C
100
AcDbEntity
  8
Visible (ANSI)
100
AcDbLine
 10
179.7151678888222
 20
100.237784657291
 30
0.0
 11
179.7869834212864
 21
100.1964288426089
 31
0.0
  0
POLYLINE
  5
419
330
6C
100
AcDbEntity
  8
Visible (ANSI)
100
AcDb2dPolyline
 66
     1
 10
0.0
 20
0.0
 30
0.0
 70
   128
  0
VERTEX
  5
41A
330
419
100
AcDbEntity
  8
Visible (ANSI)
100
AcDbVertex
100
AcDb2dVertex
 10
179.6672910512538
 20
100.2688216721713
 30
0.0
  0
VERTEX
  5
41B
330
419
100
AcDbEntity
  8
Visible (ANSI)
100
AcDbVertex
100
AcDb2dVertex
 10
179.6689069380535
 20
100.2666572677787
 30
0.0
  0
VERTEX
  5
41D
330
419
100
AcDbEntity
  8
Visible (ANSI)
100
AcDbVertex
100
AcDb2dVertex
 10
179.6706205118985
 20
100.2645544176846
 30
0.0
  0
VERTEX
  5
41E
330
419
100
AcDbEntity
  8
Visible (ANSI)
100
AcDbVertex
100
AcDb2dVertex
 10
179.6724219115777
 20
100.2625180433366
 30
0.0
  0
VERTEX
  5
41F
330
419
100
AcDbEntity
  8
Visible (ANSI)
100
AcDbVertex
100
AcDb2dVertex
 10
179.674303141577
 20
100.2605461699221
 30
0.0
  0
VERTEX
  5
420
330
419
100
AcDbEntity
  8
Visible (ANSI)
100
AcDbVertex
100
AcDb2dVertex
 10
179.6762557758662
 20
100.2586525365348
 30
0.0
  0
VERTEX
  5
421
330
419
100
AcDbEntity
  8
Visible (ANSI)
100
AcDbVertex
100
AcDb2dVertex
 10
179.6782732655219
 20
100.2568333513633
 30
0.0
  0
VERTEX
  5
422
330
419
100
AcDbEntity
  8
Visible (ANSI)
100
AcDbVertex
100
AcDb2dVertex
 10
179.6803463447495
 20
100.2550912286971
 30
0.0
  0
VERTEX
  5
423
330
419
100
AcDbEntity
  8
Visible (ANSI)
100
AcDbVertex
100
AcDb2dVertex
 10
179.6824676429604
 20
100.253427224167
 30
0.0
  0
VERTEX
  5
424
330
419
100
AcDbEntity
  8
Visible (ANSI)
100
AcDbVertex
100
AcDb2dVertex
 10
179.6846247949011
 20
100.2518448172384
 30
0.0
  0
VERTEX
  5
425
330
419
100
AcDbEntity
  8
Visible (ANSI)
100
AcDbVertex
100
AcDb2dVertex
 10
179.686809656031
 20
100.2503446178527
 30
0.0
  0
VERTEX
  5
426
330
419
100
AcDbEntity
  8
Visible (ANSI)
100
AcDbVertex
100
AcDb2dVertex
 10
179.6890160184446
 20
100.2489257011504
 30
0.0
  0
VERTEX
  5
427
330
419
100
AcDbEntity
  8
Visible (ANSI)
100
AcDbVertex
100
AcDb2dVertex
 10
179.6912304228793
 20
100.2475909165986
 30
0.0
  0
VERTEX
  5
428
330
419
100
AcDbEntity
  8
Visible (ANSI)
100
AcDbVertex
100
AcDb2dVertex
 10
179.6934436819046
 20
100.2463402735786
 30
0.0
  0
VERTEX
  5
429
330
419
100
AcDbEntity
  8
Visible (ANSI)
100
AcDbVertex
100
AcDb2dVertex
 10
179.695648598934
 20
100.2451722778871
 30
0.0
  0
VERTEX
  5
42A
330
419
100
AcDbEntity
  8
Visible (ANSI)
100
AcDbVertex
100
AcDb2dVertex
 10
179.6978330856571
 20
100.244087918435
 30
0.0
  0
VERTEX
  5
42B
330
419
100
AcDbEntity
  8
Visible (ANSI)
100
AcDbVertex
100
AcDb2dVertex
 10
179.6999916885995
 20
100.2430840547753
 30
0.0
  0
VERTEX
  5
42C
330
419
100
AcDbEntity
  8
Visible (ANSI)
100
AcDbVertex
100
AcDb2dVertex
 10
179.7021118105047
 20
100.2421613827362
 30
0.0
  0
VERTEX
  5
42D
330
419
100
AcDbEntity
  8
Visible (ANSI)
100
AcDbVertex
100
AcDb2dVertex
 10
179.7041852329619
 20
100.2413178196851
 30
0.0
  0
VERTEX
  5
42E
330
419
100
AcDbEntity
  8
Visible (ANSI)
100
AcDbVertex
100
AcDb2dVertex
 10
179.7062035454418
 20
100.2405511723555
 30
0.0
  0
VERTEX
  5
42F
330
419
100
AcDbEntity
  8
Visible (ANSI)
100
AcDbVertex
100
AcDb2dVertex
 10
179.7081558679594
 20
100.2398604754512
 30
0.0
  0
VERTEX
  5
430
330
419
100
AcDbEntity
  8
Visible (ANSI)
100
AcDbVertex
100
AcDb2dVertex
 10
179.710038082883
 20
100.2392407077507
 30
0.0
  0
VERTEX
  5
431
330
419
100
AcDbEntity
  8
Visible (ANSI)
100
AcDbVertex
100
AcDb2dVertex
 10
179.7118390551929
 20
100.2386907570931
 30
0.0
  0
VERTEX
  5
432
330
419
100
AcDbEntity
  8
Visible (ANSI)
100
AcDbVertex
100
AcDb2dVertex
 10
179.7135498665373
 20
100.2382081377764
 30
0.0
  0
VERTEX
  5
433
330
419
100
AcDbEntity
  8
Visible (ANSI)
100
AcDbVertex
100
AcDb2dVertex
 10
179.7151684406859
 20
100.2377863541087
 30
0.0
  0
SEQEND
  5
41C
330
419
100
AcDbEntity
  8
Visible (ANSI)
  0
LINE
  5
434
330
6C
100
AcDbEntity
  8
Visible (ANSI)
100
AcDbLine
 10
179.6672908671793
 20
100.2688198627539
 30
0.0
 11
179.595475334715
 21
100.2274640480719
 31
0.0
  0
LINE
  5
435
330
6C
100
AcDbEntity
  8
Visible (ANSI)
100
AcDbLine
 10
179.7869834212864
 20
100.1964288426089
 30
0.0
 11
180.3615076810004
 21
100.5272753600652
 31
0.0
  0
LINE
  5
436
330
6C
100
AcDbEntity
  8
Visible (ANSI)
100
AcDbLine
 10
180.2896921485362
 20
100.5686311747473
 30
0.0
 11
180.3615076810004
 21
100.5272753600652
 31
0.0
  0
POLYLINE
  5
437
330
6C
100
AcDbEntity
  8
Visible (ANSI)
100
AcDb2dPolyline
 66
     1
 10
0.0
 20
0.0
 30
0.0
 70
   128
  0
VERTEX
  5
438
330
437
100
AcDbEntity
  8
Visible (ANSI)
100
AcDbVertex
100
AcDb2dVertex
 10
156.0399806860752
 20
113.7921731806452
 30
0.0
  0
VERTEX
  5
439
330
437
100
AcDbEntity
  8
Visible (ANSI)
100
AcDbVertex
100
AcDb2dVertex
 10
156.0413041524293
 20
113.7988885166895
 30
0.0
  0
VERTEX
  5
43B
330
437
100
AcDbEntity
  8
Visible (ANSI)
100
AcDbVertex
100
AcDb2dVertex
 10
156.0430367754246
 20
113.8058075467258
 30
0.0
  0
VERTEX
  5
43C
330
437
100
AcDbEntity
  8
Visible (ANSI)
100
AcDbVertex
100
AcDb2dVertex
 10
156.0451759125864
 20
113.8128968357585
 30
0.0
  0
VERTEX
  5
43D
330
437
100
AcDbEntity
  8
Visible (ANSI)
100
AcDbVertex
100
AcDb2dVertex
 10
156.0477172137183
 20
113.8201272549332
 30
0.0
  0
VERTEX
  5
43E
330
437
100
AcDbEntity
  8
Visible (ANSI)
100
AcDbVertex
100
AcDb2dVertex
 10
156.0506545804564
 20
113.8274633791399
 30
0.0
  0
VERTEX
  5
43F
330
437
100
AcDbEntity
  8
Visible (ANSI)
100
AcDbVertex
100
AcDb2dVertex
 10
156.0539802157026
 20
113.8348687946812
 30
0.0
  0
VERTEX
  5
440
330
437
100
AcDbEntity
  8
Visible (ANSI)
100
AcDbVertex
100
AcDb2dVertex
 10
156.0576846685655
 20
113.8423167870708
 30
0.0
  0
VERTEX
  5
441
330
437
100
AcDbEntity
  8
Visible (ANSI)
100
AcDbVertex
100
AcDb2dVertex
 10
156.061756874806
 20
113.8497583992705
 30
0.0
  0
VERTEX
  5
442
330
437
100
AcDbEntity
  8
Visible (ANSI)
100
AcDbVertex
100
AcDb2dVertex
 10
156.0661841838014
 20
113.8571757154072
 30
0.0
  0
VERTEX
  5
443
330
437
100
AcDbEntity
  8
Visible (ANSI)
100
AcDbVertex
100
AcDb2dVertex
 10
156.0709524079794
 20
113.8645233314978
 30
0.0
  0
VERTEX
  5
444
330
437
100
AcDbEntity
  8
Visible (ANSI)
100
AcDbVertex
100
AcDb2dVertex
 10
156.0760459486504
 20
113.8717656411114
 30
0.0
  0
VERTEX
  5
445
330
437
100
AcDbEntity
  8
Visible (ANSI)
100
AcDbVertex
100
AcDb2dVertex
 10
156.0814477645491
 20
113.8788768793642
 30
0.0
  0
VERTEX
  5
446
330
437
100
AcDbEntity
  8
Visible (ANSI)
100
AcDbVertex
100
AcDb2dVertex
 10
156.0871395201372
 20
113.8858198844823
 30
0.0
  0
VERTEX
  5
447
330
437
100
AcDbEntity
  8
Visible (ANSI)
100
AcDbVertex
100
AcDb2dVertex
 10
156.0931016215551
 20
113.8925567804245
 30
0.0
  0
VERTEX
  5
448
330
437
100
AcDbEntity
  8
Visible (ANSI)
100
AcDbVertex
100
AcDb2dVertex
 10
156.0993133447008
 20
113.8990702916631
 30
0.0
  0
VERTEX
  5
449
330
437
100
AcDbEntity
  8
Visible (ANSI)
100
AcDbVertex
100
AcDb2dVertex
 10
156.1057528689354
 20
113.9053159392321
 30
0.0
  0
VERTEX
  5
44A
330
437
100
AcDbEntity
  8
Visible (ANSI)
100
AcDbVertex
100
AcDb2dVertex
 10
156.1123974096561
 20
113.9112646405277
 30
0.0
  0
VERTEX
  5
44B
330
437
100
AcDbEntity
  8
Visible (ANSI)
100
AcDbVertex
100
AcDb2dVertex
 10
156.119223294694
 20
113.9168974533983
 30
0.0
  0
VERTEX
  5
44C
330
437
100
AcDbEntity
  8
Visible (ANSI)
100
AcDbVertex
100
AcDb2dVertex
 10
156.1262061025052
 20
113.9221843318848
 30
0.0
  0
VERTEX
  5
44D
330
437
100
AcDbEntity
  8
Visible (ANSI)
100
AcDbVertex
100
AcDb2dVertex
 10
156.1333207106212
 20
113.927094857448
 30
0.0
  0
VERTEX
  5
44E
330
437
100
AcDbEntity
  8
Visible (ANSI)
100
AcDbVertex
100
AcDb2dVertex
 10
156.1405414432495
 20
113.9316142443823
 30
0.0
  0
VERTEX
  5
44F
330
437
100
AcDbEntity
  8
Visible (ANSI)
100
AcDbVertex
100
AcDb2dVertex
 10
156.1478421603106
 20
113.9357061675371
 30
0.0
  0
VERTEX
  5
450
330
437
100
AcDbEntity
  8
Visible (ANSI)
100
AcDbVertex
100
AcDb2dVertex
 10
156.1551964077065
 20
113.939366013523
 30
0.0
  0
VERTEX
  5
451
330
437
100
AcDbEntity
  8
Visible (ANSI)
100
AcDbVertex
100
AcDb2dVertex
 10
156.1625774708274
 20
113.9425624469474
 30
0.0
  0
SEQEND
  5
43A
330
437
100
AcDbEntity
  8
Visible (ANSI)
  0
POLYLINE
  5
452
330
6C
100
AcDbEntity
  8
Visible (ANSI)
100
AcDb2dPolyline
 66
     1
 10
0.0
 20
0.0
 30
0.0
 70
   128
  0
VERTEX
  5
453
330
452
100
AcDbEntity
  8
Visible (ANSI)
100
AcDbVertex
100
AcDb2dVertex
 10
179.6643869086911
 20
100.4087704878304
 30
0.0
  0
VERTEX
  5
454
330
452
100
AcDbEntity
  8
Visible (ANSI)
100
AcDbVertex
100
AcDb2dVertex
 10
179.6592425475701
 20
100.4042860233878
 30
0.0
  0
VERTEX
  5
456
330
452
100
AcDbEntity
  8
Visible (ANSI)
100
AcDbVertex
100
AcDb2dVertex
 10
179.6541250021741
 20
100.3993381463837
 30
0.0
  0
VERTEX
  5
457
330
452
100
AcDbEntity
  8
Visible (ANSI)
100
AcDbVertex
100
AcDb2dVertex
 10
179.6490609781248
 20
100.3939581973865
 30
0.0
  0
VERTEX
  5
458
330
452
100
AcDbEntity
  8
Visible (ANSI)
100
AcDbVertex
100
AcDb2dVertex
 10
179.6440769474963
 20
100.3881507794339
 30
0.0
  0
VERTEX
  5
459
330
452
100
AcDbEntity
  8
Visible (ANSI)
100
AcDbVertex
100
AcDb2dVertex
 10
179.6391990413801
 20
100.3819522228525
 30
0.0
  0
VERTEX
  5
45A
330
452
100
AcDbEntity
  8
Visible (ANSI)
100
AcDbVertex
100
AcDb2dVertex
 10
179.6344529355689
 20
100.3753773133477
 30
0.0
  0
VERTEX
  5
45B
330
452
100
AcDbEntity
  8
Visible (ANSI)
100
AcDbVertex
100
AcDb2dVertex
 10
179.6298637435428
 20
100.3684564746348
 30
0.0
  0
VERTEX
  5
45C
330
452
100
AcDbEntity
  8
Visible (ANSI)
100
AcDbVertex
100
AcDb2dVertex
 10
179.6254582057523
 20
100.3612184173034
 30
0.0
  0
VERTEX
  5
45D
330
452
100
AcDbEntity
  8
Visible (ANSI)
100
AcDbVertex
100
AcDb2dVertex
 10
179.6212553835175
 20
100.3536847387161
 30
0.0
  0
VERTEX
  5
45E
330
452
100
AcDbEntity
  8
Visible (ANSI)
100
AcDbVertex
100
AcDb2dVertex
 10
179.6172803623717
 20
100.3458831964593
 30
0.0
  0
VERTEX
  5
45F
330
452
100
AcDbEntity
  8
Visible (ANSI)
100
AcDbVertex
100
AcDb2dVertex
 10
179.6135549539657
 20
100.3378582746746
 30
0.0
  0
VERTEX
  5
460
330
452
100
AcDbEntity
  8
Visible (ANSI)
100
AcDbVertex
100
AcDb2dVertex
 10
179.6100999003774
 20
100.3296272385383
 30
0.0
  0
VERTEX
  5
461
330
452
100
AcDbEntity
  8
Visible (ANSI)
100
AcDbVertex
100
AcDb2dVertex
 10
179.6069347864785
 20
100.3212279692673
 30
0.0
  0
VERTEX
  5
462
330
452
100
AcDbEntity
  8
Visible (ANSI)
100
AcDbVertex
100
AcDb2dVertex
 10
179.6040779478074
 20
100.3126976286354
 30
0.0
  0
VERTEX
  5
463
330
452
100
AcDbEntity
  8
Visible (ANSI)
100
AcDbVertex
100
AcDb2dVertex
 10
179.6015464166413
 20
100.3040619867024
 30
0.0
  0
VERTEX
  5
464
330
452
100
AcDbEntity
  8
Visible (ANSI)
100
AcDbVertex
100
AcDb2dVertex
 10
179.5993558096457
 20
100.2953566395475
 30
0.0
  0
VERTEX
  5
465
330
452
100
AcDbEntity
  8
Visible (ANSI)
100
AcDbVertex
100
AcDb2dVertex
 10
179.5975203054051
 20
100.2866269963295
 30
0.0
  0
VERTEX
  5
466
330
452
100
AcDbEntity
  8
Visible (ANSI)
100
AcDbVertex
100
AcDb2dVertex
 10
179.596052545554
 20
100.2778909780976
 30
0.0
  0
VERTEX
  5
467
330
452
100
AcDbEntity
  8
Visible (ANSI)
100
AcDbVertex
100
AcDb2dVertex
 10
179.5949636123076
 20
100.269197531538
 30
0.0
  0
VERTEX
  5
468
330
452
100
AcDbEntity
  8
Visible (ANSI)
100
AcDbVertex
100
AcDb2dVertex
 10
179.5942652484998
 20
100.2605720512954
 30
0.0
  0
VERTEX
  5
469
330
452
100
AcDbEntity
  8
Visible (ANSI)
100
AcDbVertex
100
AcDb2dVertex
 10
179.5939606493677
 20
100.2520536011025
 30
0.0
  0
VERTEX
  5
46A
330
452
100
AcDbEntity
  8
Visible (ANSI)
100
AcDbVertex
100
AcDb2dVertex
 10
179.5940582052177
 20
100.2436762862275
 30
0.0
  0
VERTEX
  5
46B
330
452
100
AcDbEntity
  8
Visible (ANSI)
100
AcDbVertex
100
AcDb2dVertex
 10
179.5945622842223
 20
100.2354692251729
 30
0.0
  0
VERTEX
  5
46C
330
452
100
AcDbEntity
  8
Visible (ANSI)
100
AcDbVertex
100
AcDb2dVertex
 10
179.5954755198681
 20
100.2274658581104
 30
0.0
  0
SEQEND
  5
455
330
452
100
AcDbEntity
  8
Visible (ANSI)
  0
LINE
  5
46D
330
6C
100
AcDbEntity
  8
Visible (ANSI)
100
AcDbLine
 10
179.6643866388221
 20
100.3257402163794
 30
0.0
 11
180.2389108985362
 21
100.6565867338355
 31
0.0
  0
LINE
  5
46E
330
6C
100
AcDbEntity
  8
Visible (ANSI)
100
AcDbLine
 10
180.2389108985362
 20
100.7396188637024
 30
0.0
 11
179.6643866388222
 21
100.4087723462462
 31
0.0
  0
LINE
  5
46F
330
6C
100
AcDbEntity
  8
Visible (ANSI)
100
AcDbLine
 10
179.6643866388221
 20
100.3257402163794
 30
0.0
 11
179.6643866388222
 21
100.4087723462462
 31
0.0
  0
LINE
  5
470
330
6C
100
AcDbEntity
  8
Visible (ANSI)
100
AcDbLine
 10
180.2389108985362
 20
100.6565867338355
 30
0.0
 11
180.2389108985362
 21
100.7396188637024
 31
0.0
  0
POLYLINE
  5
471
330
6C
100
AcDbEntity
  8
Visible (ANSI)
100
AcDb2dPolyline
 66
     1
 10
0.0
 20
0.0
 30
0.0
 70
   128
  0
VERTEX
  5
472
330
471
100
AcDbEntity
  8
Visible (ANSI)
100
AcDbVertex
100
AcDb2dVertex
 10
179.6672910512538
 20
100.2688216721713
 30
0.0
  0
VERTEX
  5
473
330
471
100
AcDbEntity
  8
Visible (ANSI)
100
AcDbVertex
100
AcDb2dVertex
 10
179.6662240533093
 20
100.271304152754
 30
0.0
  0
VERTEX
  5
475
330
471
100
AcDbEntity
  8
Visible (ANSI)
100
AcDbVertex
100
AcDb2dVertex
 10
179.6652593442706
 20
100.273840216992
 30
0.0
  0
VERTEX
  5
476
330
471
100
AcDbEntity
  8
Visible (ANSI)
100
AcDbVertex
100
AcDb2dVertex
 10
179.664396266648
 20
100.2764135244387
 30
0.0
  0
VERTEX
  5
477
330
471
100
AcDbEntity
  8
Visible (ANSI)
100
AcDbVertex
100
AcDb2dVertex
 10
179.6636337277184
 20
100.2790287664443
 30
0.0
  0
VERTEX
  5
478
330
471
100
AcDbEntity
  8
Visible (ANSI)
100
AcDbVertex
100
AcDb2dVertex
 10
179.662967903312
 20
100.2816704290277
 30
0.0
  0
VERTEX
  5
479
330
471
100
AcDbEntity
  8
Visible (ANSI)
100
AcDbVertex
100
AcDb2dVertex
 10
179.6624014482269
 20
100.2843240996991
 30
0.0
  0
VERTEX
  5
47A
330
471
100
AcDbEntity
  8
Visible (ANSI)
100
AcDbVertex
100
AcDb2dVertex
 10
179.6619296985291
 20
100.2869897427127
 30
0.0
  0
VERTEX
  5
47B
330
471
100
AcDbEntity
  8
Visible (ANSI)
100
AcDbVertex
100
AcDb2dVertex
 10
179.6615498854903
 20
100.2896604430562
 30
0.0
  0
VERTEX
  5
47C
330
471
100
AcDbEntity
  8
Visible (ANSI)
100
AcDbVertex
100
AcDb2dVertex
 10
179.6612588475786
 20
100.2923184183005
 30
0.0
  0
VERTEX
  5
47D
330
471
100
AcDbEntity
  8
Visible (ANSI)
100
AcDbVertex
100
AcDb2dVertex
 10
179.6610530421139
 20
100.2949563077441
 30
0.0
  0
VERTEX
  5
47E
330
471
100
AcDbEntity
  8
Visible (ANSI)
100
AcDbVertex
100
AcDb2dVertex
 10
179.660928562121
 20
100.2975771821176
 30
0.0
  0
VERTEX
  5
47F
330
471
100
AcDbEntity
  8
Visible (ANSI)
100
AcDbVertex
100
AcDb2dVertex
 10
179.6608811520587
 20
100.3001573083859
 30
0.0
  0
VERTEX
  5
480
330
471
100
AcDbEntity
  8
Visible (ANSI)
100
AcDbVertex
100
AcDb2dVertex
 10
179.6609062263568
 20
100.3026993665031
 30
0.0
  0
VERTEX
  5
481
330
471
100
AcDbEntity
  8
Visible (ANSI)
100
AcDbVertex
100
AcDb2dVertex
 10
179.6609988893595
 20
100.3051898960323
 30
0.0
  0
VERTEX
  5
482
330
471
100
AcDbEntity
  8
Visible (ANSI)
100
AcDbVertex
100
AcDb2dVertex
 10
179.6611539555471
 20
100.3076205902236
 30
0.0
  0
VERTEX
  5
483
330
471
100
AcDbEntity
  8
Visible (ANSI)
100
AcDbVertex
100
AcDb2dVertex
 10
179.6613659714451
 20
100.30998830863
 30
0.0
  0
VERTEX
  5
484
330
471
100
AcDbEntity
  8
Visible (ANSI)
100
AcDbVertex
100
AcDb2dVertex
 10
179.6616269416579
 20
100.3122804558287
 30
0.0
  0
VERTEX
  5
485
330
471
100
AcDbEntity
  8
Visible (ANSI)
100
AcDbVertex
100
AcDb2dVertex
 10
179.6619355505655
 20
100.314496294742
 30
0.0
  0
VERTEX
  5
486
330
471
100
AcDbEntity
  8
Visible (ANSI)
100
AcDbVertex
100
AcDb2dVertex
 10
179.6622833876386
 20
100.3166176702796
 30
0.0
  0
VERTEX
  5
487
330
471
100
AcDbEntity
  8
Visible (ANSI)
100
AcDbVertex
100
AcDb2dVertex
 10
179.6626641747528
 20
100.318651608326
 30
0.0
  0
VERTEX
  5
488
330
471
100
AcDbEntity
  8
Visible (ANSI)
100
AcDbVertex
100
AcDb2dVertex
 10
179.6630714933461
 20
100.3205890920694
 30
0.0
  0
VERTEX
  5
489
330
471
100
AcDbEntity
  8
Visible (ANSI)
100
AcDbVertex
100
AcDb2dVertex
 10
179.6634988102596
 20
100.3224157180978
 30
0.0
  0
VERTEX
  5
48A
330
471
100
AcDbEntity
  8
Visible (ANSI)
100
AcDbVertex
100
AcDb2dVertex
 10
179.6639395080715
 20
100.3241329962994
 30
0.0
  0
VERTEX
  5
48B
330
471
100
AcDbEntity
  8
Visible (ANSI)
100
AcDbVertex
100
AcDb2dVertex
 10
179.6643869086911
 20
100.3257424016255
 30
0.0
  0
SEQEND
  5
474
330
471
100
AcDbEntity
  8
Visible (ANSI)
  0
LINE
  5
48C
330
6C
100
AcDbEntity
  8
Visible (ANSI)
100
AcDbLine
 10
156.162577468899
 20
113.9425641510665
 30
0.0
 11
156.737101728613
 21
114.2734106685227
 31
0.0
  0
POLYLINE
  5
48D
330
6C
100
AcDbEntity
  8
Visible (ANSI)
100
AcDb2dPolyline
 66
     1
 10
0.0
 20
0.0
 30
0.0
 70
   128
  0
VERTEX
  5
48E
330
48D
100
AcDbEntity
  8
Visible (ANSI)
100
AcDbVertex
100
AcDb2dVertex
 10
156.039980686075
 20
44.93085822734751
 30
0.0
  0
VERTEX
  5
48F
330
48D
100
AcDbEntity
  8
Visible (ANSI)
100
AcDbVertex
100
AcDb2dVertex
 10
156.036898967418
 20
44.93333848536329
 30
0.0
  0
VERTEX
  5
491
330
48D
100
AcDbEntity
  8
Visible (ANSI)
100
AcDbVertex
100
AcDb2dVertex
 10
156.0339230915552
 20
44.93587582265474
 30
0.0
  0
VERTEX
  5
492
330
48D
100
AcDbEntity
  8
Visible (ANSI)
100
AcDbVertex
100
AcDb2dVertex
 10
156.0310562267601
 20
44.93846822322821
 30
0.0
  0
VERTEX
  5
493
330
48D
100
AcDbEntity
  8
Visible (ANSI)
100
AcDbVertex
100
AcDb2dVertex
 10
156.0283014649076
 20
44.94111359604027
 30
0.0
  0
VERTEX
  5
494
330
48D
100
AcDbEntity
  8
Visible (ANSI)
100
AcDbVertex
100
AcDb2dVertex
 10
156.0256617405827
 20
44.94380979048504
 30
0.0
  0
VERTEX
  5
495
330
48D
100
AcDbEntity
  8
Visible (ANSI)
100
AcDbVertex
100
AcDb2dVertex
 10
156.0231398850083
 20
44.9465546379615
 30
0.0
  0
VERTEX
  5
496
330
48D
100
AcDbEntity
  8
Visible (ANSI)
100
AcDbVertex
100
AcDb2dVertex
 10
156.020738603575
 20
44.94934587658305
 30
0.0
  0
VERTEX
  5
497
330
48D
100
AcDbEntity
  8
Visible (ANSI)
100
AcDbVertex
100
AcDb2dVertex
 10
156.0184604533715
 20
44.95218121086011
 30
0.0
  0
VERTEX
  5
498
330
48D
100
AcDbEntity
  8
Visible (ANSI)
100
AcDbVertex
100
AcDb2dVertex
 10
156.0163078926182
 20
44.9550582987205
 30
0.0
  0
VERTEX
  5
499
330
48D
100
AcDbEntity
  8
Visible (ANSI)
100
AcDbVertex
100
AcDb2dVertex
 10
156.0142832132574
 20
44.95797474892144
 30
0.0
  0
VERTEX
  5
49A
330
48D
100
AcDbEntity
  8
Visible (ANSI)
100
AcDbVertex
100
AcDb2dVertex
 10
156.0123885858933
 20
44.96092813140126
 30
0.0
  0
VERTEX
  5
49B
330
48D
100
AcDbEntity
  8
Visible (ANSI)
100
AcDbVertex
100
AcDb2dVertex
 10
156.010626041816
 20
44.96391597727945
 30
0.0
  0
VERTEX
  5
49C
330
48D
100
AcDbEntity
  8
Visible (ANSI)
100
AcDbVertex
100
AcDb2dVertex
 10
156.0089974685073
 20
44.96693577105269
 30
0.0
  0
VERTEX
  5
49D
330
48D
100
AcDbEntity
  8
Visible (ANSI)
100
AcDbVertex
100
AcDb2dVertex
 10
156.007504609641
 20
44.96998498698634
 30
0.0
  0
VERTEX
  5
49E
330
48D
100
AcDbEntity
  8
Visible (ANSI)
100
AcDbVertex
100
AcDb2dVertex
 10
156.0061490605887
 20
44.97306104487897
 30
0.0
  0
VERTEX
  5
49F
330
48D
100
AcDbEntity
  8
Visible (ANSI)
100
AcDbVertex
100
AcDb2dVertex
 10
156.0049322729138
 20
44.97616134386588
 30
0.0
  0
VERTEX
  5
4A0
330
48D
100
AcDbEntity
  8
Visible (ANSI)
100
AcDbVertex
100
AcDb2dVertex
 10
156.0038555588658
 20
44.97928325461517
 30
0.0
  0
VERTEX
  5
4A1
330
48D
100
AcDbEntity
  8
Visible (ANSI)
100
AcDbVertex
100
AcDb2dVertex
 10
156.0029200599216
 20
44.98242412709155
 30
0.0
  0
VERTEX
  5
4A2
330
48D
100
AcDbEntity
  8
Visible (ANSI)
100
AcDbVertex
100
AcDb2dVertex
 10
156.0021267782443
 20
44.98558128796842
 30
0.0
  0
VERTEX
  5
4A3
330
48D
100
AcDbEntity
  8
Visible (ANSI)
100
AcDbVertex
100
AcDb2dVertex
 10
156.0014765699419
 20
44.98875204446962
 30
0.0
  0
VERTEX
  5
4A4
330
48D
100
AcDbEntity
  8
Visible (ANSI)
100
AcDbVertex
100
AcDb2dVertex
 10
156.0009701338319
 20
44.99193371170308
 30
0.0
  0
VERTEX
  5
4A5
330
48D
100
AcDbEntity
  8
Visible (ANSI)
100
AcDbVertex
100
AcDb2dVertex
 10
156.000608000207
 20
44.99512356195567
 30
0.0
  0
VERTEX
  5
4A6
330
48D
100
AcDbEntity
  8
Visible (ANSI)
100
AcDbVertex
100
AcDb2dVertex
 10
156.0003905645395
 20
44.99831887273018
 30
0.0
  0
VERTEX
  5
4A7
330
48D
100
AcDbEntity
  8
Visible (ANSI)
100
AcDbVertex
100
AcDb2dVertex
 10
156.0003180605176
 20
45.00151691635358
 30
0.0
  0
SEQEND
  5
490
330
48D
100
AcDbEntity
  8
Visible (ANSI)
  0
POLYLINE
  5
4A8
330
6C
100
AcDbEntity
  8
Visible (ANSI)
100
AcDb2dPolyline
 66
     1
 10
0.0
 20
0.0
 30
0.0
 70
   128
  0
VERTEX
  5
4A9
330
4A8
100
AcDbEntity
  8
Visible (ANSI)
100
AcDbVertex
100
AcDb2dVertex
 10
156.0399806860752
 20
113.8714202456216
 30
0.0
  0
VERTEX
  5
4AA
330
4A8
100
AcDbEntity
  8
Visible (ANSI)
100
AcDbVertex
100
AcDb2dVertex
 10
156.0339230895717
 20
113.8689886929257
 30
0.0
  0
VERTEX
  5
4AC
330
4A8
100
AcDbEntity
  8
Visible (ANSI)
100
AcDbVertex
100
AcDb2dVertex
 10
156.0283014644162
 20
113.8663369653257
 30
0.0
  0
VERTEX
  5
4AD
330
4A8
100
AcDbEntity
  8
Visible (ANSI)
100
AcDbVertex
100
AcDb2dVertex
 10
156.0231398862724
 20
113.8634819560587
 30
0.0
  0
VERTEX
  5
4AE
330
4A8
100
AcDbEntity
  8
Visible (ANSI)
100
AcDbVertex
100
AcDb2dVertex
 10
156.0184604563208
 20
113.8604414264084
 30
0.0
  0
VERTEX
  5
4AF
330
4A8
100
AcDbEntity
  8
Visible (ANSI)
100
AcDbVertex
100
AcDb2dVertex
 10
156.0142832126958
 20
113.8572339329701
 30
0.0
  0
VERTEX
  5
4B0
330
4A8
100
AcDbEntity
  8
Visible (ANSI)
100
AcDbVertex
100
AcDb2dVertex
 10
156.0106260429397
 20
113.8538787464046
 30
0.0
  0
VERTEX
  5
4B1
330
4A8
100
AcDbEntity
  8
Visible (ANSI)
100
AcDbVertex
100
AcDb2dVertex
 10
156.0075046085177
 20
113.8503957716568
 30
0.0
  0
VERTEX
  5
4B2
330
4A8
100
AcDbEntity
  8
Visible (ANSI)
100
AcDbVertex
100
AcDb2dVertex
 10
156.0049322740375
 20
113.8468054601282
 30
0.0
  0
VERTEX
  5
4B3
330
4A8
100
AcDbEntity
  8
Visible (ANSI)
100
AcDbVertex
100
AcDb2dVertex
 10
156.0029200565512
 20
113.8431287209594
 30
0.0
  0
VERTEX
  5
4B4
330
4A8
100
AcDbEntity
  8
Visible (ANSI)
100
AcDbVertex
100
AcDb2dVertex
 10
156.0014765699421
 20
113.8393868353055
 30
0.0
  0
VERTEX
  5
4B5
330
4A8
100
AcDbEntity
  8
Visible (ANSI)
100
AcDbVertex
100
AcDb2dVertex
 10
156.0006079979602
 20
113.8356013631704
 30
0.0
  0
VERTEX
  5
4B6
330
4A8
100
AcDbEntity
  8
Visible (ANSI)
100
AcDbVertex
100
AcDb2dVertex
 10
156.0003180605178
 20
113.8317940515355
 30
0.0
  0
VERTEX
  5
4B7
330
4A8
100
AcDbEntity
  8
Visible (ANSI)
100
AcDbVertex
100
AcDb2dVertex
 10
156.0006080002072
 20
113.8279867411945
 30
0.0
  0
VERTEX
  5
4B8
330
4A8
100
AcDbEntity
  8
Visible (ANSI)
100
AcDbVertex
100
AcDb2dVertex
 10
156.0014765699421
 20
113.8242012677654
 30
0.0
  0
VERTEX
  5
4B9
330
4A8
100
AcDbEntity
  8
Visible (ANSI)
100
AcDbVertex
100
AcDb2dVertex
 10
156.0029200599218
 20
113.8204593840525
 30
0.0
  0
VERTEX
  5
4BA
330
4A8
100
AcDbEntity
  8
Visible (ANSI)
100
AcDbVertex
100
AcDb2dVertex
 10
156.004932272914
 20
113.8167826448837
 30
0.0
  0
VERTEX
  5
4BB
330
4A8
100
AcDbEntity
  8
Visible (ANSI)
100
AcDbVertex
100
AcDb2dVertex
 10
156.0075046096412
 20
113.8131923320611
 30
0.0
  0
VERTEX
  5
4BC
330
4A8
100
AcDbEntity
  8
Visible (ANSI)
100
AcDbVertex
100
AcDb2dVertex
 10
156.0106260418162
 20
113.8097093560194
 30
0.0
  0
VERTEX
  5
4BD
330
4A8
100
AcDbEntity
  8
Visible (ANSI)
100
AcDbVertex
100
AcDb2dVertex
 10
156.0142832132576
 20
113.8063541717183
 30
0.0
  0
VERTEX
  5
4BE
330
4A8
100
AcDbEntity
  8
Visible (ANSI)
100
AcDbVertex
100
AcDb2dVertex
 10
156.0184604533717
 20
113.8031466777139
 30
0.0
  0
VERTEX
  5
4BF
330
4A8
100
AcDbEntity
  8
Visible (ANSI)
100
AcDbVertex
100
AcDb2dVertex
 10
156.0231398850085
 20
113.8001114694802
 30
0.0
  0
VERTEX
  5
4C0
330
4A8
100
AcDbEntity
  8
Visible (ANSI)
100
AcDbVertex
100
AcDb2dVertex
 10
156.0283014649078
 20
113.7972564612241
 30
0.0
  0
VERTEX
  5
4C1
330
4A8
100
AcDbEntity
  8
Visible (ANSI)
100
AcDbVertex
100
AcDb2dVertex
 10
156.0339230915554
 20
113.7946047318955
 30
0.0
  0
VERTEX
  5
4C2
330
4A8
100
AcDbEntity
  8
Visible (ANSI)
100
AcDbVertex
100
AcDb2dVertex
 10
156.0399806860752
 20
113.7921731806452
 30
0.0
  0
SEQEND
  5
4AB
330
4A8
100
AcDbEntity
  8
Visible (ANSI)
  0
LINE
  5
4C3
330
6C
100
AcDbEntity
  8
Visible (ANSI)
100
AcDbLine
 10
156.5112609968462
 20
45.26085625733986
 30
0.0
 11
156.6863204786128
 21
45.3616663082836
 31
0.0
  0
LINE
  5
4C4
330
6C
100
AcDbEntity
  8
Visible (ANSI)
100
AcDbLine
 10
156.119938946836
 20
113.9174631306422
 30
0.0
 11
156.0399806864347
 21
113.8714182307996
 31
0.0
  0
LINE
  5
4C5
330
6C
100
AcDbEntity
  8
Visible (ANSI)
100
AcDbLine
 10
156.0657974258556
 20
113.8565513593229
 30
0.0
 11
156.0399806864347
 21
113.8714182307996
 31
0.0
  0
POLYLINE
  5
4C6
330
6C
100
AcDbEntity
  8
Visible (ANSI)
100
AcDb2dPolyline
 66
     1
 10
0.0
 20
0.0
 30
0.0
 70
   128
  0
VERTEX
  5
4C7
330
4C6
100
AcDbEntity
  8
Visible (ANSI)
100
AcDbVertex
100
AcDb2dVertex
 10
179.5954755198679
 20
31.36615090481271
 30
0.0
  0
VERTEX
  5
4C8
330
4C6
100
AcDbEntity
  8
Visible (ANSI)
100
AcDbVertex
100
AcDb2dVertex
 10
179.5945622842221
 20
31.35967217990959
 30
0.0
  0
VERTEX
  5
4CA
330
4C6
100
AcDbEntity
  8
Visible (ANSI)
100
AcDbVertex
100
AcDb2dVertex
 10
179.5940582052175
 20
31.35346007142191
 30
0.0
  0
VERTEX
  5
4CB
330
4C6
100
AcDbEntity
  8
Visible (ANSI)
100
AcDbVertex
100
AcDb2dVertex
 10
179.5939606493675
 20
31.34754394729171
 30
0.0
  0
VERTEX
  5
4CC
330
4C6
100
AcDbEntity
  8
Visible (ANSI)
100
AcDbVertex
100
AcDb2dVertex
 10
179.5942652484996
 20
31.34195189594303
 30
0.0
  0
VERTEX
  5
4CD
330
4C6
100
AcDbEntity
  8
Visible (ANSI)
100
AcDbVertex
100
AcDb2dVertex
 10
179.5949636123074
 20
31.33671194994927
 30
0.0
  0
VERTEX
  5
4CE
330
4C6
100
AcDbEntity
  8
Visible (ANSI)
100
AcDbVertex
100
AcDb2dVertex
 10
179.5960525455538
 20
31.33184665343694
 30
0.0
  0
VERTEX
  5
4CF
330
4C6
100
AcDbEntity
  8
Visible (ANSI)
100
AcDbVertex
100
AcDb2dVertex
 10
179.5975203054049
 20
31.32738092891663
 30
0.0
  0
VERTEX
  5
4D0
330
4C6
100
AcDbEntity
  8
Visible (ANSI)
100
AcDbVertex
100
AcDb2dVertex
 10
179.5993558096455
 20
31.32333664990272
 30
0.0
  0
VERTEX
  5
4D1
330
4C6
100
AcDbEntity
  8
Visible (ANSI)
100
AcDbVertex
100
AcDb2dVertex
 10
179.6015464166411
 20
31.31973390339962
 30
0.0
  0
VERTEX
  5
4D2
330
4C6
100
AcDbEntity
  8
Visible (ANSI)
100
AcDbVertex
100
AcDb2dVertex
 10
179.6040779478072
 20
31.31659085995398
 30
0.0
  0
VERTEX
  5
4D3
330
4C6
100
AcDbEntity
  8
Visible (ANSI)
100
AcDbVertex
100
AcDb2dVertex
 10
179.6069347864783
 20
31.3139237474546
 30
0.0
  0
VERTEX
  5
4D4
330
4C6
100
AcDbEntity
  8
Visible (ANSI)
100
AcDbVertex
100
AcDb2dVertex
 10
179.6100999003772
 20
31.31174673937021
 30
0.0
  0
VERTEX
  5
4D5
330
4C6
100
AcDbEntity
  8
Visible (ANSI)
100
AcDbVertex
100
AcDb2dVertex
 10
179.6135549539655
 20
31.31007191812751
 30
0.0
  0
VERTEX
  5
4D6
330
4C6
100
AcDbEntity
  8
Visible (ANSI)
100
AcDbVertex
100
AcDb2dVertex
 10
179.6172803623715
 20
31.30890921263992
 30
0.0
  0
VERTEX
  5
4D7
330
4C6
100
AcDbEntity
  8
Visible (ANSI)
100
AcDbVertex
100
AcDb2dVertex
 10
179.6212553835173
 20
31.30826635913273
 30
0.0
  0
VERTEX
  5
4D8
330
4C6
100
AcDbEntity
  8
Visible (ANSI)
100
AcDbVertex
100
AcDb2dVertex
 10
179.6254582057521
 20
31.30814886587514
 30
0.0
  0
VERTEX
  5
4D9
330
4C6
100
AcDbEntity
  8
Visible (ANSI)
100
AcDbVertex
100
AcDb2dVertex
 10
179.6298637435426
 20
31.30856132109571
 30
0.0
  0
VERTEX
  5
4DA
330
4C6
100
AcDbEntity
  8
Visible (ANSI)
100
AcDbVertex
100
AcDb2dVertex
 10
179.6344529355687
 20
31.30950206931949
 30
0.0
  0
VERTEX
  5
4DB
330
4C6
100
AcDbEntity
  8
Visible (ANSI)
100
AcDbVertex
100
AcDb2dVertex
 10
179.63919904138
 20
31.31097116644175
 30
0.0
  0
VERTEX
  5
4DC
330
4C6
100
AcDbEntity
  8
Visible (ANSI)
100
AcDbVertex
100
AcDb2dVertex
 10
179.6440769474961
 20
31.31296507886061
 30
0.0
  0
VERTEX
  5
4DD
330
4C6
100
AcDbEntity
  8
Visible (ANSI)
100
AcDbVertex
100
AcDb2dVertex
 10
179.6490609781246
 20
31.31547802553819
 30
0.0
  0
VERTEX
  5
4DE
330
4C6
100
AcDbEntity
  8
Visible (ANSI)
100
AcDbVertex
100
AcDb2dVertex
 10
179.6541250021738
 20
31.31850200317304
 30
0.0
  0
VERTEX
  5
4DF
330
4C6
100
AcDbEntity
  8
Visible (ANSI)
100
AcDbVertex
100
AcDb2dVertex
 10
179.6592425475699
 20
31.32202682107829
 30
0.0
  0
VERTEX
  5
4E0
330
4C6
100
AcDbEntity
  8
Visible (ANSI)
100
AcDbVertex
100
AcDb2dVertex
 10
179.6643869086909
 20
31.32604014123055
 30
0.0
  0
SEQEND
  5
4C9
330
4C6
100
AcDbEntity
  8
Visible (ANSI)
  0
POLYLINE
  5
4E1
330
6C
100
AcDbEntity
  8
Visible (ANSI)
100
AcDb2dPolyline
 66
     1
 10
0.0
 20
0.0
 30
0.0
 70
   128
  0
VERTEX
  5
4E2
330
4E1
100
AcDbEntity
  8
Visible (ANSI)
100
AcDbVertex
100
AcDb2dVertex
 10
156.0816118631239
 20
44.86090159598375
 30
0.0
  0
VERTEX
  5
4E3
330
4E1
100
AcDbEntity
  8
Visible (ANSI)
100
AcDbVertex
100
AcDb2dVertex
 10
156.0788625255348
 20
44.86256891141915
 30
0.0
  0
VERTEX
  5
4E5
330
4E1
100
AcDbEntity
  8
Visible (ANSI)
100
AcDbVertex
100
AcDb2dVertex
 10
156.0761882602912
 20
44.86436105984916
 30
0.0
  0
VERTEX
  5
4E6
330
4E1
100
AcDbEntity
  8
Visible (ANSI)
100
AcDbVertex
100
AcDb2dVertex
 10
156.0735913503473
 20
44.86627646441794
 30
0.0
  0
VERTEX
  5
4E7
330
4E1
100
AcDbEntity
  8
Visible (ANSI)
100
AcDbVertex
100
AcDb2dVertex
 10
156.0710739797894
 20
44.86831340560285
 30
0.0
  0
VERTEX
  5
4E8
330
4E1
100
AcDbEntity
  8
Visible (ANSI)
100
AcDbVertex
100
AcDb2dVertex
 10
156.0686382563055
 20
44.8704700445459
 30
0.0
  0
VERTEX
  5
4E9
330
4E1
100
AcDbEntity
  8
Visible (ANSI)
100
AcDbVertex
100
AcDb2dVertex
 10
156.0662861977038
 20
44.87274440230017
 30
0.0
  0
VERTEX
  5
4EA
330
4E1
100
AcDbEntity
  8
Visible (ANSI)
100
AcDbVertex
100
AcDb2dVertex
 10
156.064019731912
 20
44.87513438061351
 30
0.0
  0
VERTEX
  5
4EB
330
4E1
100
AcDbEntity
  8
Visible (ANSI)
100
AcDbVertex
100
AcDb2dVertex
 10
156.0618406924841
 20
44.87763775154665
 30
0.0
  0
VERTEX
  5
4EC
330
4E1
100
AcDbEntity
  8
Visible (ANSI)
100
AcDbVertex
100
AcDb2dVertex
 10
156.0597508275878
 20
44.88025218083478
 30
0.0
  0
VERTEX
  5
4ED
330
4E1
100
AcDbEntity
  8
Visible (ANSI)
100
AcDbVertex
100
AcDb2dVertex
 10
156.0577517730408
 20
44.88297518638051
 30
0.0
  0
VERTEX
  5
4EE
330
4E1
100
AcDbEntity
  8
Visible (ANSI)
100
AcDbVertex
100
AcDb2dVertex
 10
156.0558450837686
 20
44.8858041979365
 30
0.0
  0
VERTEX
  5
4EF
330
4E1
100
AcDbEntity
  8
Visible (ANSI)
100
AcDbVertex
100
AcDb2dVertex
 10
156.0540322068407
 20
44.88873651040254
 30
0.0
  0
VERTEX
  5
4F0
330
4E1
100
AcDbEntity
  8
Visible (ANSI)
100
AcDbVertex
100
AcDb2dVertex
 10
156.0523144904584
 20
44.89176932017683
 30
0.0
  0
VERTEX
  5
4F1
330
4E1
100
AcDbEntity
  8
Visible (ANSI)
100
AcDbVertex
100
AcDb2dVertex
 10
156.050693179461
 20
44.89489971217622
 30
0.0
  0
VERTEX
  5
4F2
330
4E1
100
AcDbEntity
  8
Visible (ANSI)
100
AcDbVertex
100
AcDb2dVertex
 10
156.0491694108316
 20
44.89812465724829
 30
0.0
  0
VERTEX
  5
4F3
330
4E1
100
AcDbEntity
  8
Visible (ANSI)
100
AcDbVertex
100
AcDb2dVertex
 10
156.0477442271793
 20
44.90144104591467
 30
0.0
  0
VERTEX
  5
4F4
330
4E1
100
AcDbEntity
  8
Visible (ANSI)
100
AcDbVertex
100
AcDb2dVertex
 10
156.046418558763
 20
44.904845641648
 30
0.0
  0
VERTEX
  5
4F5
330
4E1
100
AcDbEntity
  8
Visible (ANSI)
100
AcDbVertex
100
AcDb2dVertex
 10
156.0451932145036
 20
44.90833514320272
 30
0.0
  0
VERTEX
  5
4F6
330
4E1
100
AcDbEntity
  8
Visible (ANSI)
100
AcDbVertex
100
AcDb2dVertex
 10
156.0440689314177
 20
44.91190613530412
 30
0.0
  0
VERTEX
  5
4F7
330
4E1
100
AcDbEntity
  8
Visible (ANSI)
100
AcDbVertex
100
AcDb2dVertex
 10
156.043046307208
 20
44.91555511193968
 30
0.0
  0
VERTEX
  5
4F8
330
4E1
100
AcDbEntity
  8
Visible (ANSI)
100
AcDbVertex
100
AcDb2dVertex
 10
156.0421258407089
 20
44.91927851539853
 30
0.0
  0
VERTEX
  5
4F9
330
4E1
100
AcDbEntity
  8
Visible (ANSI)
100
AcDbVertex
100
AcDb2dVertex
 10
156.0413079139109
 20
44.92307266872469
 30
0.0
  0
VERTEX
  5
4FA
330
4E1
100
AcDbEntity
  8
Visible (ANSI)
100
AcDbVertex
100
AcDb2dVertex
 10
156.0405928054422
 20
44.92693383543989
 30
0.0
  0
VERTEX
  5
4FB
330
4E1
100
AcDbEntity
  8
Visible (ANSI)
100
AcDbVertex
100
AcDb2dVertex
 10
156.039980686075
 20
44.93085822734751
 30
0.0
  0
SEQEND
  5
4E4
330
4E1
100
AcDbEntity
  8
Visible (ANSI)
  0
LINE
  5
4FC
330
6C
100
AcDbEntity
  8
Visible (ANSI)
100
AcDbLine
 10
156.56231887603
 20
45.1730599984038
 30
0.0
 11
156.7371017286128
 21
45.27371074919526
 31
0.0
  0
LINE
  5
4FD
330
6C
100
AcDbEntity
  8
Visible (ANSI)
100
AcDbLine
 10
179.664386638822
 20
31.35643328622888
 30
0.0
 11
179.664386638822
 21
31.32604029705182
 31
0.0
  0
LINE
  5
4FE
330
6C
100
AcDbEntity
  8
Visible (ANSI)
100
AcDbLine
 10
179.664386638822
 20
31.32604029705182
 30
0.0
 11
179.7506191538022
 21
31.3756982998086
 31
0.0
  0
LINE
  5
4FF
330
6C
100
AcDbEntity
  8
Visible (ANSI)
100
AcDbLine
 10
179.7840440118323
 20
31.39494639540899
 30
0.0
 11
180.238910898536
 21
31.65688681450814
 31
0.0
  0
LINE
  5
500
330
6C
100
AcDbEntity
  8
Visible (ANSI)
100
AcDbLine
 10
180.238910898536
 20
31.6574339430897
 30
0.0
 11
180.238910898536
 21
31.65688681450814
 31
0.0
  0
LINE
  5
501
330
6C
100
AcDbEntity
  8
Visible (ANSI)
100
AcDbLine
 10
180.3615076810004
 20
100.5272753600652
 30
0.0
 11
180.3615076810003
 21
31.72803273477493
 31
0.0
  0
LINE
  5
502
330
6C
100
AcDbEntity
  8
Visible (ANSI)
100
AcDbLine
 10
156.737101728613
 20
114.2734106685227
 30
0.0
 11
180.2389108985362
 21
100.7396188637024
 31
0.0
  0
LINE
  5
503
330
6C
100
AcDbEntity
  8
Visible (ANSI)
100
AcDbLine
 10
156.6863204786128
 20
45.3616663082836
 30
0.0
 11
156.6863204786128
 21
45.45799809999236
 31
0.0
  0
LINE
  5
504
330
6C
100
AcDbEntity
  8
Visible (ANSI)
100
AcDbLine
 10
156.686320478613
 20
112.589105713455
 30
0.0
 11
156.686320478613
 21
112.9907970583394
 31
0.0
  0
LINE
  5
505
330
6C
100
AcDbEntity
  8
Visible (ANSI)
100
AcDbLine
 10
179.2251745723429
 20
32.32369086952694
 30
0.0
 11
178.8771408755923
 21
32.52411014613787
 31
0.0
  0
LINE
  5
506
330
6C
100
AcDbEntity
  8
Visible (ANSI)
100
AcDbLine
 10
156.8187284434909
 20
45.22670505031974
 30
0.0
 11
156.7371017286128
 21
45.27371074919526
 31
0.0
  0
SPLINE
  5
507
330
6C
100
AcDbEntity
  8
Visible (ANSI)
100
AcDbSpline
210
0.0
220
0.0
230
1.0
 70
     8
 71
     3
 72
    11
 73
     7
 74
     0
 42
0.0000000001
 43
0.0000000001
 40
0.0
 40
0.0
 40
0.0
 40
0.0
 40
1.048975082050535
 40
1.048975082050535
 40
1.048975082050535
 40
1.570796326794735
 40
1.570796326794735
 40
1.570796326794735
 40
1.570796326794735
 10
71.51986652182578
 20
130.8672860197113
 30
0.0
 10
71.56357381691122
 20
130.8672860197113
 30
0.0
 10
71.60644429128234
 20
130.8920881281187
 30
0.0
 10
71.6282306218995
 20
130.9299785417074
 30
0.0
 10
71.63906841047581
 20
130.9488274382361
 30
0.0
 10
71.64486652182578
 20
130.970543467847
 30
0.0
 10
71.64486652182578
 20
130.9922860197113
 30
0.0
  0
LINE
  5
508
330
6C
100
AcDbEntity
  8
Visible (ANSI)
100
AcDbLine
 10
71.55111652182577
 20
130.9922860197113
 30
0.0
 11
71.5511165218258
 21
131.7422860197113
 31
0.0
  0
LINE
  5
509
330
6C
100
AcDbEntity
  8
Visible (ANSI)
100
AcDbLine
 10
71.55111652182577
 20
130.9922860197113
 30
0.0
 11
71.64486652182578
 21
130.9922860197113
 31
0.0
  0
SPLINE
  5
50A
330
6C
100
AcDbEntity
  8
Visible (ANSI)
100
AcDbSpline
210
0.0
220
0.0
230
1.0
 70
     8
 71
     3
 72
    11
 73
     7
 74
     0
 42
0.0000000001
 43
0.0000000001
 40
0.0
 40
0.0
 40
0.0
 40
0.0
 40
1.483474787626141
 40
1.483474787626141
 40
1.483474787626141
 40
1.570796326794735
 40
1.570796326794735
 40
1.570796326794735
 40
1.570796326794735
 10
71.51986652182578
 20
130.9610360197113
 30
0.0
 10
71.53531938419689
 20
130.9610360197113
 30
0.0
 10
71.54964980253898
 20
130.9741667027976
 30
0.0
 10
71.55099745608644
 20
130.9895606881612
 30
0.0
 10
71.55107678280169
 20
130.9904668218597
 30
0.0
 10
71.55111652182577
 20
130.9913764203449
 30
0.0
 10
71.55111652182577
 20
130.9922860197113
 30
0.0
  0
LINE
  5
50B
330
6C
100
AcDbEntity
  8
Visible (ANSI)
100
AcDbLine
 10
71.51986652182578
 20
130.9610360197113
 30
0.0
 11
71.51986652182578
 21
130.8672860197113
 31
0.0
  0
LINE
  5
50C
330
6C
100
AcDbEntity
  8
Visible (ANSI)
100
AcDbLine
 10
71.64486652182578
 20
130.9922860197113
 30
0.0
 11
71.64486652182581
 21
131.7422860197113
 31
0.0
  0
LINE
  5
50D
330
6C
100
AcDbEntity
  8
Visible (ANSI)
100
AcDbLine
 10
71.5511165218258
 20
131.7422860197113
 30
0.0
 11
71.64486652182581
 21
131.7422860197113
 31
0.0
  0
SPLINE
  5
50E
330
6C
100
AcDbEntity
  8
Visible (ANSI)
100
AcDbSpline
210
0.0
220
0.0
230
1.0
 70
     8
 71
     3
 72
    11
 73
     7
 74
     0
 42
0.0000000001
 43
0.0000000001
 40
0.0
 40
0.0
 40
0.0
 40
0.0
 40
1.048975082049782
 40
1.048975082049782
 40
1.048975082049782
 40
1.570796326794967
 40
1.570796326794967
 40
1.570796326794967
 40
1.570796326794967
 10
40.76986652182577
 20
130.8672860197113
 30
0.0
 10
40.77766668635145
 20
130.8672860197113
 30
0.0
 10
40.7854668508771
 20
130.8920881281186
 30
0.0
 10
40.79326701540277
 20
130.9299785417074
 30
0.0
 10
40.79714727112252
 20
130.9488274382361
 30
0.0
 10
40.80102752684227
 20
130.970543467847
 30
0.0
 10
40.80490778256201
 20
130.9922860197114
 30
0.0
  0
SPLINE
  5
50F
330
6C
100
AcDbEntity
  8
Visible (ANSI)
100
AcDbSpline
210
0.0
220
0.0
230
1.0
 70
     8
 71
     3
 72
    11
 73
     7
 74
     0
 42
0.0000000001
 43
0.0000000001
 40
0.0
 40
0.0
 40
0.0
 40
0.0
 40
1.048975082050352
 40
1.048975082050352
 40
1.048975082050352
 40
1.570796326794967
 40
1.570796326794967
 40
1.570796326794967
 40
1.570796326794967
 10
71.48482526108954
 20
130.9922860197114
 30
0.0
 10
71.4926254256152
 20
130.9485787246259
 30
0.0
 10
71.50042559014088
 20
130.9057082502548
 30
0.0
 10
71.50822575466654
 20
130.8839219196376
 30
0.0
 10
71.51210601038631
 20
130.8730841310613
 30
0.0
 10
71.51598626610604
 20
130.8672860197113
 30
0.0
 10
71.51986652182578
 20
130.8672860197113
 30
0.0
  0
LINE
  5
510
330
6C
100
AcDbEntity
  8
Visible (ANSI)
100
AcDbLine
 10
71.48482526108954
 20
131.7422860197114
 30
0.0
 11
71.48482526108954
 21
130.9922860197114
 31
0.0
  0
SPLINE
  5
511
330
6C
100
AcDbEntity
  8
Visible (ANSI)
100
AcDbSpline
210
0.0
220
0.0
230
1.0
 70
     8
 71
     3
 72
    11
 73
     7
 74
     0
 42
0.0000000001
 43
0.0000000001
 40
0.0
 40
0.0
 40
0.0
 40
0.0
 40
1.483474787630861
 40
1.483474787630861
 40
1.483474787630861
 40
1.570796326794967
 40
1.570796326794967
 40
1.570796326794967
 40
1.570796326794967
 10
71.51986652182578
 20
130.9610360197113
 30
0.0
 10
71.50883542336481
 20
130.9610360197113
 30
0.0
 10
71.49780432490385
 20
130.9741667027977
 30
0.0
 10
71.48677322644288
 20
130.9895606881614
 30
0.0
 10
71.48612390465842
 20
130.9904668218599
 30
0.0
 10
71.48547458287399
 20
130.991376420345
 30
0.0
 10
71.48482526108954
 20
130.9922860197113
 30
0.0
  0
SPLINE
  5
512
330
6C
100
AcDbEntity
  8
Visible (ANSI)
100
AcDbSpline
210
0.0
220
0.0
230
1.0
 70
     8
 71
     3
 72
    11
 73
     7
 74
     0
 42
0.0000000001
 43
0.0000000001
 40
0.0
 40
0.0
 40
0.0
 40
0.0
 40
1.483474787630861
 40
1.483474787630861
 40
1.483474787630861
 40
1.570796326794967
 40
1.570796326794967
 40
1.570796326794967
 40
1.570796326794967
 10
40.76986652182577
 20
130.9610360197113
 30
0.0
 10
40.78089762028674
 20
130.9610360197113
 30
0.0
 10
40.79192871874772
 20
130.9741667027977
 30
0.0
 10
40.80295981720868
 20
130.9895606881614
 30
0.0
 10
40.80360913899313
 20
130.9904668218599
 30
0.0
 10
40.80425846077758
 20
130.991376420345
 30
0.0
 10
40.80490778256201
 20
130.9922860197113
 30
0.0
  0
LINE
  5
513
330
6C
100
AcDbEntity
  8
Visible (ANSI)
100
AcDbLine
 10
40.76986652182577
 20
130.9610360197113
 30
0.0
 11
40.76986652182577
 21
130.8672860197113
 31
0.0
  0
LINE
  5
514
330
6C
100
AcDbEntity
  8
Visible (ANSI)
100
AcDbLine
 10
40.80490778256201
 20
130.9922860197114
 30
0.0
 11
40.80490778256201
 21
131.7422860197114
 31
0.0
  0
SPLINE
  5
515
330
6C
100
AcDbEntity
  8
Visible (ANSI)
100
AcDbSpline
210
0.0
220
0.0
230
1.0
 70
     8
 71
     3
 72
    11
 73
     7
 74
     0
 42
0.0000000001
 43
0.0000000001
 40
0.0
 40
0.0
 40
0.0
 40
0.0
 40
1.048975082050298
 40
1.048975082050298
 40
1.048975082050298
 40
1.570796326794933
 40
1.570796326794933
 40
1.570796326794933
 40
1.570796326794933
 10
40.64486652182578
 20
130.9922860197113
 30
0.0
 10
40.64486652182577
 20
130.9485787246259
 30
0.0
 10
40.66966863023312
 20
130.9057082502548
 30
0.0
 10
40.70755904382183
 20
130.8839219196376
 30
0.0
 10
40.72640794035052
 20
130.8730841310613
 30
0.0
 10
40.74812396996142
 20
130.8672860197113
 30
0.0
 10
40.76986652182577
 20
130.8672860197113
 30
0.0
  0
LINE
  5
516
330
6C
100
AcDbEntity
  8
Visible (ANSI)
100
AcDbLine
 10
40.73861652182578
 20
130.9922860197113
 30
0.0
 11
40.73861652182578
 21
131.7422860197113
 31
0.0
  0
LINE
  5
517
330
6C
100
AcDbEntity
  8
Visible (ANSI)
100
AcDbLine
 10
40.64486652182578
 20
131.7422860197113
 30
0.0
 11
40.64486652182578
 21
130.9922860197113
 31
0.0
  0
LINE
  5
518
330
6C
100
AcDbEntity
  8
Visible (ANSI)
100
AcDbLine
 10
40.73861652182578
 20
130.9922860197113
 30
0.0
 11
40.64486652182578
 21
130.9922860197113
 31
0.0
  0
LINE
  5
519
330
6C
100
AcDbEntity
  8
Visible (ANSI)
100
AcDbLine
 10
40.73861652182578
 20
131.7422860197113
 30
0.0
 11
40.64486652182578
 21
131.7422860197113
 31
0.0
  0
SPLINE
  5
51A
330
6C
100
AcDbEntity
  8
Visible (ANSI)
100
AcDbSpline
210
0.0
220
0.0
230
1.0
 70
     8
 71
     3
 72
    11
 73
     7
 74
     0
 42
0.0000000001
 43
0.0000000001
 40
0.0
 40
0.0
 40
0.0
 40
0.0
 40
1.483474787626956
 40
1.483474787626956
 40
1.483474787626956
 40
1.570796326794933
 40
1.570796326794933
 40
1.570796326794933
 40
1.570796326794933
 10
40.76986652182577
 20
130.9610360197113
 30
0.0
 10
40.75441365945466
 20
130.9610360197113
 30
0.0
 10
40.74008324111257
 20
130.9741667027976
 30
0.0
 10
40.7387355875651
 20
130.9895606881613
 30
0.0
 10
40.73865626084987
 20
130.9904668218597
 30
0.0
 10
40.73861652182578
 20
130.991376420345
 30
0.0
 10
40.73861652182578
 20
130.9922860197113
 30
0.0
  0
LINE
  5
51B
330
6C
100
AcDbEntity
  8
Visible (ANSI)
100
AcDbLine
 10
71.51986652182578
 20
130.8672860197113
 30
0.0
 11
40.76986652182577
 21
130.8672860197113
 31
0.0
  0
LINE
  5
51C
330
6C
100
AcDbEntity
  8
Hidden (ANSI)
100
AcDbLine
 10
40.76986652182577
 20
130.9610360197113
 30
0.0
 11
71.51986652182578
 21
130.9610360197113
 31
0.0
  0
LINE
  5
51D
330
6C
100
AcDbEntity
  8
Visible (ANSI)
100
AcDbLine
 10
40.80490778256201
 20
131.7422860197114
 30
0.0
 11
71.48482526108954
 21
131.7422860197114
 31
0.0
  0
LINE
  5
51E
330
6C
100
AcDbEntity
  8
Hidden (ANSI)
100
AcDbLine
 10
71.05136652182578
 20
130.9610360197111
 30
0.0
 11
71.05136652182578
 21
130.8672860197111
 31
0.0
  0
LINE
  5
51F
330
6C
100
AcDbEntity
  8
Hidden (ANSI)
100
AcDbLine
 10
70.48836652182578
 20
130.9610360197111
 30
0.0
 11
70.48836652182578
 21
130.8672860197111
 31
0.0
  0
LINE
  5
520
330
6C
100
AcDbEntity
  8
Hidden (ANSI)
100
AcDbLine
 10
41.80136652182578
 20
130.9610360197111
 30
0.0
 11
41.80136652182578
 21
130.8672860197111
 31
0.0
  0
LINE
  5
521
330
6C
100
AcDbEntity
  8
Hidden (ANSI)
100
AcDbLine
 10
41.23836652182577
 20
130.9610360197111
 30
0.0
 11
41.23836652182577
 21
130.8672860197111
 31
0.0
  0
MTEXT
  5
522
330
6C
100
AcDbEntity
  8
Symbol (ANSI)
100
AcDbMText
 10
51.09963008662204
 20
125.8633912637328
 30
0.0
 40
1.56000001927999
 41
0.0
 46
0.0
 71
     7
 72
     1
  1
TOP VIEW
  7
Text Style153
 73
     1
 44
1.0
  0
LINE
  5
523
330
6C
100
AcDbEntity
  8
Symbol (ANSI)
370
    30
100
AcDbLine
 10
51.10087808983236
 20
125.5452599778593
 30
0.0
 11
60.94379529561287
 21
125.5452599778593
 31
0.0
  0
DIMENSION
  5
524
330
6C
100
AcDbEntity
  8
Dimension (ANSI)
100
AcDbDimension
280
     0
  2
*D4
 10
109.263739263821
 20
96.66776012486289
 30
0.0
 11
115.8882906506355
 21
96.66776012486289
 31
0.0
 70
   160
  1
<>{\PTYP.}
 71
     4
 42
0.8750000000000142
 73
     0
 74
     0
 75
     0
  3
Default (ANSI)
100
AcDbAlignedDimension
 13
110.138739263821
 23
107.948539448917
 33
0.0
 14
109.263739263821
 24
111.6471265615048
 34
0.0
 50
180.0
100
AcDbRotatedDimension
1001
ACAD
1000
DSTYLE
1002
{
1070
   289
1070
     1
1070
    73
1070
     0
1070
    74
1070
     0
1070
   271
1070
     2
1070
    76
1070
     1
1070
    75
1070
     1
1070
   272
1070
     2
1070
    48
1040
0.0
1070
    47
1040
0.0
1002
}
  0
DIMENSION
  5
615
330
6C
100
AcDbEntity
  8
Dimension (ANSI)
100
AcDbDimension
280
     0
  2
*D5
 10
28.18100553475088
 20
33.77212656150483
 30
0.0
 11
28.18100553475088
 21
72.77212656150481
 31
0.0
 70
   160
  1
<>
 42
78.00000000000003
 73
     0
 74
     0
 75
     0
  3
Default (ANSI)
100
AcDbAlignedDimension
 13
40.80490778254466
 23
111.7721265615048
 33
0.0
 14
40.80490778254468
 24
33.77212656150483
 34
0.0
 50
90.0
100
AcDbRotatedDimension
1001
ACAD
1000
DSTYLE
1002
{
1070
   289
1070
     1
1070
   271
1070
     2
1070
   272
1070
     2
1070
    48
1040
0.0
1070
    47
1040
0.0
1002
}
  0
DIMENSION
  5
6FF
330
6C
100
AcDbEntity
  8
Dimension (ANSI)
100
AcDbDimension
280
     0
  2
*D6
 10
70.76986652180841
 20
115.1993591259256
 30
0.0
 11
56.14486652180842
 21
115.1993591259256
 31
0.0
 70
   160
  1
<>
 42
29.24999999999999
 73
     0
 74
     0
 75
     0
  3
Default (ANSI)
100
AcDbAlignedDimension
 13
41.51986652180841
 23
110.8971265615048
 33
0.0
 14
70.76986652180841
 24
110.8971265615048
 34
0.0
 50
180.0
100
AcDbRotatedDimension
1001
ACAD
1000
DSTYLE
1002
{
1070
   289
1070
     1
1070
    73
1070
     0
1070
    74
1070
     0
1070
   271
1070
     2
1070
   272
1070
     2
1070
    48
1040
0.0
1070
    47
1040
0.0
1002
}
  0
DIMENSION
  5
7E9
330
6C
100
AcDbEntity
  8
Dimension (ANSI)
100
AcDbDimension
280
     0
  2
*D7
 10
70.57081596290432
 20
34.44807600260084
 30
0.0
 11
81.76247794822858
 21
40.15458528740343
 31
0.0
 70
   163
  1
<>{\P(4 PL.)}
 71
     5
 42
0.5629999999999999
 73
     0
 74
     0
 75
     0
  3
Default (ANSI)
100
AcDbDiametricDimension
 15
70.96891708071241
 25
34.8461771204088
 35
0.0
 40
0.0
1001
ACAD
1000
DSTYLE
1002
{
1070
   144
1040
0.9999999999999957
1070
   271
1070
     3
1070
   272
1070
     2
1070
    48
1040
0.0
1070
    47
1040
0.0
1002
}
1001
ACAD_DSTYLE_DIMRADIAL_EXTENSION
1070
   387
1070
     1
1070
   388
1040
0.0
1070
   390
1040
0.0
  0
LINE
  5
8A4
330
6C
100
AcDbEntity
  8
Center Mark (ANSI)
  6
Continuous
100
AcDbLine
 10
41.51986652180841
 20
112.8036265615048
 30
0.0
 11
41.51986652180841
 21
108.9906265615048
 31
0.0
  0
LINE
  5
8A5
330
6C
100
AcDbEntity
  8
Center Mark (ANSI)
  6
Continuous
100
AcDbLine
 10
70.76986652180841
 20
112.8036265615048
 30
0.0
 11
70.76986652180841
 21
108.9906265615048
 31
0.0
  0
LINE
  5
8A6
330
6C
100
AcDbEntity
  8
Centerline (ANSI)
  6
Continuous
100
AcDbLine
 10
39.61336652180842
 20
110.8971265615048
 30
0.0
 11
72.6763665218084
 21
110.8971265615048
 31
0.0
  0
LINE
  5
8A7
330
6C
100
AcDbEntity
  8
Center Mark (ANSI)
  6
Continuous
100
AcDbLine
 10
72.6763665218084
 20
110.8971265615048
 30
0.0
 11
68.86336652180841
 21
110.8971265615048
 31
0.0
  0
LINE
  5
8A8
330
6C
100
AcDbEntity
  8
Center Mark (ANSI)
  6
Continuous
100
AcDbLine
 10
72.6763665218084
 20
34.64712656150484
 30
0.0
 11
68.86336652180841
 21
34.64712656150484
 31
0.0
  0
LINE
  5
8A9
330
6C
100
AcDbEntity
  8
Centerline (ANSI)
  6
Continuous
100
AcDbLine
 10
70.76986652180841
 20
112.8036265615048
 30
0.0
 11
70.76986652180841
 21
32.74062656150483
 31
0.0
  0
LINE
  5
8AA
330
6C
100
AcDbEntity
  8
Center Mark (ANSI)
  6
Continuous
100
AcDbLine
 10
70.76986652180841
 20
32.74062656150484
 30
0.0
 11
70.76986652180841
 21
36.55362656150483
 31
0.0
  0
LINE
  5
8AB
330
6C
100
AcDbEntity
  8
Center Mark (ANSI)
  6
Continuous
100
AcDbLine
 10
41.51986652180842
 20
32.74062656150484
 30
0.0
 11
41.51986652180842
 21
36.55362656150483
 31
0.0
  0
LINE
  5
8AC
330
6C
100
AcDbEntity
  8
Centerline (ANSI)
  6
Continuous
100
AcDbLine
 10
72.6763665218084
 20
34.64712656150484
 30
0.0
 11
39.61336652180842
 21
34.64712656150484
 31
0.0
  0
LINE
  5
8AD
330
6C
100
AcDbEntity
  8
Center Mark (ANSI)
  6
Continuous
100
AcDbLine
 10
39.61336652180842
 20
34.64712656150484
 30
0.0
 11
43.42636652180842
 21
34.64712656150484
 31
0.0
  0
LINE
  5
8AE
330
6C
100
AcDbEntity
  8
Center Mark (ANSI)
  6
Continuous
100
AcDbLine
 10
39.61336652180842
 20
110.8971265615048
 30
0.0
 11
43.42636652180841
 21
110.8971265615048
 31
0.0
  0
LINE
  5
8AF
330
6C
100
AcDbEntity
  8
Centerline (ANSI)
  6
Continuous
100
AcDbLine
 10
41.51986652180842
 20
32.74062656150484
 30
0.0
 11
41.51986652180841
 21
112.8036265615048
 31
0.0
  0
DIMENSION
  5
8B0
330
6C
100
AcDbEntity
  8
Dimension (ANSI)
100
AcDbDimension
280
     0
  2
*D8
 10
35.2826578603911
 20
34.64712656150484
 30
0.0
 11
35.2826578603911
 21
72.77212656150486
 31
0.0
 70
   160
  1
<>
 42
76.25000000000003
 73
     0
 74
     0
 75
     0
  3
Default (ANSI)
100
AcDbAlignedDimension
 13
39.61336652180842
 23
110.8971265615048
 33
0.0
 14
39.61336652180842
 24
34.64712656150484
 34
0.0
 50
270.0
100
AcDbRotatedDimension
1001
ACAD
1000
DSTYLE
1002
{
1070
   289
1070
     1
1070
   271
1070
     2
1070
   272
1070
     2
1070
    48
1040
0.0
1070
    47
1040
0.0
1002
}
  0
DIMENSION
  5
99A
330
6C
100
AcDbEntity
  8
Dimension (ANSI)
100
AcDbDimension
280
     0
  2
*D9
 10
38.97113729805961
 20
34.64712656150484
 30
0.0
 11
35.2826578603911
 21
30.04115690503702
 31
0.0
 70
   160
  1
<>
 42
0.875
 73
     0
 74
     0
 75
     0
  3
Default (ANSI)
100
AcDbAlignedDimension
 13
40.80490778254468
 23
33.77212656150483
 33
0.0
 14
39.61336652180842
 24
34.64712656150484
 34
0.0
 50
90.0
100
AcDbRotatedDimension
1001
ACAD
1000
DSTYLE
1002
{
1070
   289
1070
     1
1070
   271
1070
     2
1070
   272
1070
     2
1070
    48
1040
0.0
1070
    47
1040
0.0
1002
}
  0
DIMENSION
  5
A9A
330
6C
100
AcDbEntity
  8
Dimension (ANSI)
100
AcDbDimension
280
     0
  2
*D10
 10
71.64486652180841
 20
119.1871133411289
 30
0.0
 11
56.14486652180842
 21
119.1871133411289
 31
0.0
 70
   160
  1
<>
 42
31.0
 73
     0
 74
     0
 75
     0
  3
Default (ANSI)
100
AcDbAlignedDimension
 13
40.64486652180842
 23
111.6120853007686
 33
0.0
 14
71.64486652180841
 24
111.6120853007686
 34
0.0
100
AcDbRotatedDimension
1001
ACAD
1000
DSTYLE
1002
{
1070
   289
1070
     1
1070
    73
1070
     0
1070
    74
1070
     0
1070
   271
1070
     2
1070
   272
1070
     2
1070
    48
1040
0.0
1070
    47
1040
0.0
1002
}
  0
DIMENSION
  5
B84
330
6C
100
AcDbEntity
  8
Dimension (ANSI)
100
AcDbDimension
280
     0
  2
*D11
 10
40.64486652180842
 20
115.1993591259256
 30
0.0
 11
34.48479674110407
 21
115.1993591259256
 31
0.0
 70
   160
  1
<>
 42
0.875
 73
     0
 74
     0
 75
     0
  3
Default (ANSI)
100
AcDbAlignedDimension
 13
41.51986652180841
 23
112.8036265615048
 33
0.0
 14
40.64486652180842
 24
111.6120853007686
 34
0.0
 50
180.0
100
AcDbRotatedDimension
1001
ACAD
1000
DSTYLE
1002
{
1070
   289
1070
     1
1070
    73
1070
     0
1070
    74
1070
     0
1070
   271
1070
     2
1070
   272
1070
     2
1070
    48
1040
0.0
1070
    47
1040
0.0
1002
}
  0
DIMENSION
  5
C6E
330
6C
100
AcDbEntity
  8
Dimension (ANSI)
100
AcDbDimension
280
     0
  2
*D12
 10
64.6822372894857
 20
130.8672860197113
 30
0.0
 11
68.43200618520436
 21
138.4263548839596
 31
0.0
 70
   160
  1
<>{\PTYP.}
 42
0.8750000000000568
 73
     0
 74
     0
 75
     0
  3
Default (ANSI)
100
AcDbAlignedDimension
 13
68.43200618520436
 23
131.7422860197114
 33
0.0
 14
68.43200618520436
 24
130.8672860197113
 34
0.0
 50
270.0
100
AcDbRotatedDimension
1001
ACAD
1000
DSTYLE
1002
{
1070
   289
1070
     1
1070
   145
1040
-0.25
1070
   271
1070
     2
1070
    76
1070
     1
1070
    75
1070
     1
1070
   272
1070
     2
1070
    48
1040
0.0
1070
    47
1040
0.0
1002
}
  0
MTEXT
  5
D77
102
{ACAD_XDICTIONARY
360
D7E
102
}
330
6C
100
AcDbEntity
  8
Symbol (ANSI)
100
AcDbMText
 10
122.4511356093019
 20
11.72626091014374
 30
0.0
 40
1.300000041488587
 41
95.98403239813382
 46
0.0
 71
     4
 72
     1
  3
{\fRomanS|b0|i0|c0|p2;\H2x;PART#: WA90SP36F3\P(DATA SUBJECT TO CHANGE WITHOUT NOTICE)\H1.6157x; \H0.61894x;\P \H1.352x; \H0.73963x;\P\H0.6x;THIS DRAWING IS PROPERTY OF HUBBELL INC. WIEGMANN\H1.5633x; \H0.63966x;\PALL INFORMATION IS PROPRIETARY AND NO
  1
T TO BE DUPLICATED\H1.234x; \H0.81039x;\P\H1.2571x; }
  7
Note Text (ANSI)
 73
     1
 44
0.8026435375213623
  0
ENDSEC
  0
SECTION
  2
OBJECTS
  0
DICTIONARY
  5
C
330
0
100
AcDbDictionary
281
     1
  3
ACAD_CIP_PREVIOUS_PRODUCT_INFO
350
D79
  3
ACAD_COLOR
350
63
  3
ACAD_GROUP
350
D
  3
ACAD_LAYOUT
350
62
  3
ACAD_MATERIAL
350
10
  3
ACAD_MLEADERSTYLE
350
66
  3
ACAD_MLINESTYLE
350
5F
  3
ACAD_PLOTSETTINGS
350
61
  3
ACAD_PLOTSTYLENAME
350
E
  3
ACAD_SCALELIST
350
42
  3
ACAD_TABLESTYLE
350
64
  3
ACAD_VISUALSTYLE
350
29
  3
ACDB_RECOMPOSE_DATA
350
D80
  3
AcDbVariableDictionary
350
76
  0
DICTIONARY
  5
D7E
330
D77
100
AcDbDictionary
280
     1
281
     1
  3
ACAD_MTEXT_2008_RT
360
D7F
  0
XRECORD
  5
D79
102
{ACAD_REACTORS
330
C
102
}
330
C
100
AcDbXrecord
280
     1
300
INVNTOR
300
2012
300
PDSP_F_S
  0
DICTIONARY
  5
63
102
{ACAD_REACTORS
330
C
102
}
330
C
100
AcDbDictionary
281
     1
  0
DICTIONARY
  5
D
102
{ACAD_REACTORS
330
C
102
}
330
C
100
AcDbDictionary
281
     1
  0
DICTIONARY
  5
62
102
{ACAD_REACTORS
330
C
102
}
330
C
100
AcDbDictionary
281
     1
  3
Layout1
350
6B
  3
Layout2
350
73
  3
Model
350
6F
  0
DICTIONARY
  5
10
102
{ACAD_REACTORS
330
C
102
}
330
C
100
AcDbDictionary
281
     1
  3
ByBlock
350
19
  3
ByLayer
350
11
  3
Global
350
21
  0
DICTIONARY
  5
66
102
{ACAD_REACTORS
330
C
102
}
330
C
100
AcDbDictionary
281
     1
  3
Standard
350
67
  0
DICTIONARY
  5
5F
102
{ACAD_REACTORS
330
C
102
}
330
C
100
AcDbDictionary
281
     1
  3
Standard
350
60
  0
DICTIONARY
  5
61
102
{ACAD_REACTORS
330
C
102
}
330
C
100
AcDbDictionary
281
     1
  0
ACDBDICTIONARYWDFLT
  5
E
102
{ACAD_REACTORS
330
C
102
}
330
C
100
AcDbDictionary
281
     1
  3
Normal
350
F
100
AcDbDictionaryWithDefault
340
F
  0
DICTIONARY
  5
42
102
{ACAD_REACTORS
330
C
102
}
330
C
100
AcDbDictionary
281
     1
  3
A0
350
43
  3
A1
350
44
  3
A2
350
45
  3
A3
350
46
  3
A4
350
47
  3
A5
350
48
  3
A6
350
49
  3
A7
350
4A
  3
A8
350
4B
  3
A9
350
4C
  3
B0
350
4D
  3
B1
350
4E
  3
B2
350
4F
  3
B3
350
50
  3
B4
350
51
  3
B5
350
52
  3
B6
350
53
  0
DICTIONARY
  5
64
102
{ACAD_REACTORS
330
C
102
}
330
C
100
AcDbDictionary
281
     1
  3
Standard
350
65
  0
DICTIONARY
  5
29
102
{ACAD_REACTORS
330
C
102
}
330
C
100
AcDbDictionary
281
     1
  3
2dWireframe
350
2F
  3
Basic
350
2E
  3
Brighten
350
35
  3
ColorChange
350
39
  3
Conceptual
350
32
  3
Dim
350
34
  3
EdgeColorOff
350
41
  3
Facepattern
350
38
  3
Flat
350
2A
  3
FlatWithEdges
350
2B
  3
Gouraud
350
2C
  3
GouraudWithEdges
350
2D
  3
Hidden
350
31
  3
JitterOff
350
3F
  3
Linepattern
350
37
  3
OverhangOff
350
40
  3
Realistic
350
33
  3
Shaded
350
3E
  3
Shaded with edges
350
3D
  3
Shades of Gray
350
3A
  3
Sketchy
350
3B
  3
Thicken
350
36
  3
Wireframe
350
30
  3
X-Ray
350
3C
  0
XRECORD
  5
D80
102
{ACAD_REACTORS
330
C
102
}
330
C
100
AcDbXrecord
280
     1
 90
        1
330
65
330
D77
  0
DICTIONARY
  5
76
102
{ACAD_REACTORS
330
C
102
}
330
C
100
AcDbDictionary
281
     1
  3
CANNOSCALE
350
79
  3
CMLEADERSTYLE
350
78
  3
CTABLESTYLE
350
77
  0
XRECORD
  5
D7F
102
{ACAD_REACTORS
330
D7E
102
}
330
D7E
100
AcDbXrecord
280
     1
 40
3109697.0
  1
\pxsm0.94;{\fRomanS|b0|i0;\H2.6000;PART#: WA90SP36F3\P(DATA SUBJECT TO CHANGE WITHOUT NOTICE)\P \P\fRomanS|b0|i0;\H1.5600;THIS DRAWING IS PROPERTY OF HUBBELL INC. WIEGMANN\PALL INFORMATION IS PROPRIETARY AND NOT TO BE DUPLICATED\P}
  0
LAYOUT
  5
6B
102
{ACAD_REACTORS
330
62
102
}
330
62
100
AcDbPlotSettings
  1

  2

  4

  6

 40
0.0
 41
0.0
 42
0.0
 43
0.0
 44
0.0
 45
0.0
 46
0.0
 47
0.0
 48
0.0
 49
0.0
140
0.0
141
0.0
142
1.0
143
1.0
 70
   688
 72
     0
 73
     0
 74
     5
  7

 75
    16
147
1.0
 76
     0
 77
     2
 78
   300
148
0.0
149
0.0
100
AcDbLayout
  1
Layout1
 70
     1
 71
     1
 10
0.0
 20
0.0
 11
12.0
 21
9.0
 12
0.0
 22
0.0
 32
0.0
 14
0.0
 24
0.0
 34
0.0
 15
0.0
 25
0.0
 35
0.0
146
0.0
 13
0.0
 23
0.0
 33
0.0
 16
1.0
 26
0.0
 36
0.0
 17
0.0
 27
1.0
 37
0.0
 76
     0
330
68
  0
LAYOUT
  5
73
102
{ACAD_REACTORS
330
62
102
}
330
62
100
AcDbPlotSettings
  1

  2

  4

  6

 40
0.0
 41
0.0
 42
0.0
 43
0.0
 44
0.0
 45
0.0
 46
0.0
 47
0.0
 48
0.0
 49
0.0
140
0.0
141
0.0
142
1.0
143
1.0
 70
   688
 72
     0
 73
     0
 74
     5
  7

 75
    16
147
1.0
 76
     0
 77
     2
 78
   300
148
0.0
149
0.0
100
AcDbLayout
  1
Layout2
 70
     1
 71
     2
 10
0.0
 20
0.0
 11
12.0
 21
9.0
 12
0.0
 22
0.0
 32
0.0
 14
0.0
 24
0.0
 34
0.0
 15
0.0
 25
0.0
 35
0.0
146
0.0
 13
0.0
 23
0.0
 33
0.0
 16
1.0
 26
0.0
 36
0.0
 17
0.0
 27
1.0
 37
0.0
 76
     0
330
70
  0
LAYOUT
  5
6F
102
{ACAD_REACTORS
330
62
102
}
330
62
100
AcDbPlotSettings
  1

  2

  4

  6

 40
0.0
 41
0.0
 42
0.0
 43
0.0
 44
0.0
 45
0.0
 46
0.0
 47
0.0
 48
0.0
 49
0.0
140
0.0
141
0.0
142
1.0
143
1.0
 70
  1712
 72
     0
 73
     0
 74
     0
  7

 75
     0
147
1.0
 76
     0
 77
     2
 78
   300
148
0.0
149
0.0
100
AcDbLayout
  1
Model
 70
     1
 71
     0
 10
0.0
 20
0.0
 11
12.0
 21
9.0
 12
0.0
 22
0.0
 32
0.0
 14
0.0
 24
0.0
 34
0.0
 15
0.0
 25
0.0
 35
0.0
146
0.0
 13
0.0
 23
0.0
 33
0.0
 16
1.0
 26
0.0
 36
0.0
 17
0.0
 27
1.0
 37
0.0
 76
     0
330
6C
  0
MATERIAL
  5
19
102
{ACAD_XDICTIONARY
360
1A
102
}
102
{ACAD_REACTORS
330
10
102
}
330
10
100
AcDbMaterial
  1
ByBlock
 72
     0
 43
0.0208333333333333
 43
0.0
 43
0.0
 43
0.0
 43
0.0
 43
0.0208333333333333
 43
0.0
 43
0.0
 43
0.0
 43
0.0
 43
1.0
 43
0.0
 43
0.0
 43
0.0
 43
0.0
 43
1.0
 77
     0
 47
0.0208333333333333
 47
0.0
 47
0.0
 47
0.0
 47
0.0
 47
0.0208333333333333
 47
0.0
 47
0.0
 47
0.0
 47
0.0
 47
1.0
 47
0.0
 47
0.0
 47
0.0
 47
0.0
 47
1.0
171
     0
 49
0.0208333333333333
 49
0.0
 49
0.0
 49
0.0
 49
0.0
 49
0.0208333333333333
 49
0.0
 49
0.0
 49
0.0
 49
0.0
 49
1.0
 49
0.0
 49
0.0
 49
0.0
 49
0.0
 49
1.0
175
     0
142
0.0208333333333333
142
0.0
142
0.0
142
0.0
142
0.0
142
0.0208333333333333
142
0.0
142
0.0
142
0.0
142
0.0
142
1.0
142
0.0
142
0.0
142
0.0
142
0.0
142
1.0
179
     0
144
0.0208333333333333
144
0.0
144
0.0
144
0.0
144
0.0
144
0.0208333333333333
144
0.0
144
0.0
144
0.0
144
0.0
144
1.0
144
0.0
144
0.0
144
0.0
144
0.0
144
1.0
147
0.0208333333333333
147
0.0
147
0.0
147
0.0
147
0.0
147
0.0208333333333333
147
0.0
147
0.0
147
0.0
147
0.0
147
1.0
147
0.0
147
0.0
147
0.0
147
0.0
147
1.0
  0
MATERIAL
  5
11
102
{ACAD_XDICTIONARY
360
12
102
}
102
{ACAD_REACTORS
330
10
102
}
330
10
100
AcDbMaterial
  1
ByLayer
 72
     0
 43
0.0208333333333333
 43
0.0
 43
0.0
 43
0.0
 43
0.0
 43
0.0208333333333333
 43
0.0
 43
0.0
 43
0.0
 43
0.0
 43
1.0
 43
0.0
 43
0.0
 43
0.0
 43
0.0
 43
1.0
 77
     0
 47
0.0208333333333333
 47
0.0
 47
0.0
 47
0.0
 47
0.0
 47
0.0208333333333333
 47
0.0
 47
0.0
 47
0.0
 47
0.0
 47
1.0
 47
0.0
 47
0.0
 47
0.0
 47
0.0
 47
1.0
171
     0
 49
0.0208333333333333
 49
0.0
 49
0.0
 49
0.0
 49
0.0
 49
0.0208333333333333
 49
0.0
 49
0.0
 49
0.0
 49
0.0
 49
1.0
 49
0.0
 49
0.0
 49
0.0
 49
0.0
 49
1.0
175
     0
142
0.0208333333333333
142
0.0
142
0.0
142
0.0
142
0.0
142
0.0208333333333333
142
0.0
142
0.0
142
0.0
142
0.0
142
1.0
142
0.0
142
0.0
142
0.0
142
0.0
142
1.0
179
     0
144
0.0208333333333333
144
0.0
144
0.0
144
0.0
144
0.0
144
0.0208333333333333
144
0.0
144
0.0
144
0.0
144
0.0
144
1.0
144
0.0
144
0.0
144
0.0
144
0.0
144
1.0
147
0.0208333333333333
147
0.0
147
0.0
147
0.0
147
0.0
147
0.0208333333333333
147
0.0
147
0.0
147
0.0
147
0.0
147
1.0
147
0.0
147
0.0
147
0.0
147
0.0
147
1.0
  0
MATERIAL
  5
21
102
{ACAD_XDICTIONARY
360
22
102
}
102
{ACAD_REACTORS
330
10
102
}
330
10
100
AcDbMaterial
  1
Global
 72
     0
 43
0.0208333333333333
 43
0.0
 43
0.0
 43
0.0
 43
0.0
 43
0.0208333333333333
 43
0.0
 43
0.0
 43
0.0
 43
0.0
 43
1.0
 43
0.0
 43
0.0
 43
0.0
 43
0.0
 43
1.0
 77
     0
 47
0.0208333333333333
 47
0.0
 47
0.0
 47
0.0
 47
0.0
 47
0.0208333333333333
 47
0.0
 47
0.0
 47
0.0
 47
0.0
 47
1.0
 47
0.0
 47
0.0
 47
0.0
 47
0.0
 47
1.0
171
     0
 49
0.0208333333333333
 49
0.0
 49
0.0
 49
0.0
 49
0.0
 49
0.0208333333333333
 49
0.0
 49
0.0
 49
0.0
 49
0.0
 49
1.0
 49
0.0
 49
0.0
 49
0.0
 49
0.0
 49
1.0
175
     0
142
0.0208333333333333
142
0.0
142
0.0
142
0.0
142
0.0
142
0.0208333333333333
142
0.0
142
0.0
142
0.0
142
0.0
142
1.0
142
0.0
142
0.0
142
0.0
142
0.0
142
1.0
179
     0
144
0.0208333333333333
144
0.0
144
0.0
144
0.0
144
0.0
144
0.0208333333333333
144
0.0
144
0.0
144
0.0
144
0.0
144
1.0
144
0.0
144
0.0
144
0.0
144
0.0
144
1.0
147
0.0208333333333333
147
0.0
147
0.0
147
0.0
147
0.0
147
0.0208333333333333
147
0.0
147
0.0
147
0.0
147
0.0
147
1.0
147
0.0
147
0.0
147
0.0
147
0.0
147
1.0
  0
MLEADERSTYLE
  5
67
102
{ACAD_XDICTIONARY
360
D7C
102
}
102
{ACAD_REACTORS
330
66
102
}
330
66
100
AcDbMLeaderStyle
179
     2
170
     2
171
     1
172
     0
 90
        2
 40
0.0
 41
0.0
173
     1
 91
-1056964608
340
5B
 92
       -2
290
     1
 42
0.09
291
     1
 43
0.36
  3
Standard
 44
0.18
300

342
55
174
     1
178
     6
175
     1
176
     0
 93
-1056964608
 45
0.18
292
     0
297
     0
 46
0.18
 94
-1056964608
 47
1.0
 49
1.0
140
1.0
293
     1
141
0.0
294
     1
177
     0
142
1.0
295
     0
296
     0
143
0.125
271
     0
272
     9
273
     9
  0
MLINESTYLE
  5
60
102
{ACAD_REACTORS
330
5F
102
}
330
5F
100
AcDbMlineStyle
  2
STANDARD
 70
     0
  3

 62
   256
 51
90.0
 52
90.0
 71
     2
 49
0.5
 62
   256
  6
BYLAYER
 49
-0.5
 62
   256
  6
BYLAYER
  0
ACDBPLACEHOLDER
  5
F
102
{ACAD_REACTORS
330
E
102
}
330
E
  0
SCALE
  5
43
102
{ACAD_REACTORS
330
42
102
}
330
42
100
AcDbScale
 70
     0
300
1:1
140
1.0
141
1.0
290
     1
  0
SCALE
  5
44
102
{ACAD_REACTORS
330
42
102
}
330
42
100
AcDbScale
 70
     0
300
1/128" = 1'-0"
140
0.0078125
141
12.0
290
     0
  0
SCALE
  5
45
102
{ACAD_REACTORS
330
42
102
}
330
42
100
AcDbScale
 70
     0
300
1/64" = 1'-0"
140
0.015625
141
12.0
290
     0
  0
SCALE
  5
46
102
{ACAD_REACTORS
330
42
102
}
330
42
100
AcDbScale
 70
     0
300
1/32" = 1'-0"
140
0.03125
141
12.0
290
     0
  0
SCALE
  5
47
102
{ACAD_REACTORS
330
42
102
}
330
42
100
AcDbScale
 70
     0
300
1/16" = 1'-0"
140
0.0625
141
12.0
290
     0
  0
SCALE
  5
48
102
{ACAD_REACTORS
330
42
102
}
330
42
100
AcDbScale
 70
     0
300
3/32" = 1'-0"
140
0.09375
141
12.0
290
     0
  0
SCALE
  5
49
102
{ACAD_REACTORS
330
42
102
}
330
42
100
AcDbScale
 70
     0
300
1/8" = 1'-0"
140
0.125
141
12.0
290
     0
  0
SCALE
  5
4A
102
{ACAD_REACTORS
330
42
102
}
330
42
100
AcDbScale
 70
     0
300
3/16" = 1'-0"
140
0.1875
141
12.0
290
     0
  0
SCALE
  5
4B
102
{ACAD_REACTORS
330
42
102
}
330
42
100
AcDbScale
 70
     0
300
1/4" = 1'-0"
140
0.25
141
12.0
290
     0
  0
SCALE
  5
4C
102
{ACAD_REACTORS
330
42
102
}
330
42
100
AcDbScale
 70
     0
300
3/8" = 1'-0"
140
0.375
141
12.0
290
     0
  0
SCALE
  5
4D
102
{ACAD_REACTORS
330
42
102
}
330
42
100
AcDbScale
 70
     0
300
1/2" = 1'-0"
140
0.5
141
12.0
290
     0
  0
SCALE
  5
4E
102
{ACAD_REACTORS
330
42
102
}
330
42
100
AcDbScale
 70
     0
300
3/4" = 1'-0"
140
0.75
141
12.0
290
     0
  0
SCALE
  5
4F
102
{ACAD_REACTORS
330
42
102
}
330
42
100
AcDbScale
 70
     0
300
1" = 1'-0"
140
1.0
141
12.0
290
     0
  0
SCALE
  5
50
102
{ACAD_REACTORS
330
42
102
}
330
42
100
AcDbScale
 70
     0
300
1-1/2" = 1'-0"
140
1.5
141
12.0
290
     0
  0
SCALE
  5
51
102
{ACAD_REACTORS
330
42
102
}
330
42
100
AcDbScale
 70
     0
300
3" = 1'-0"
140
3.0
141
12.0
290
     0
  0
SCALE
  5
52
102
{ACAD_REACTORS
330
42
102
}
330
42
100
AcDbScale
 70
     0
300
6" = 1'-0"
140
6.0
141
12.0
290
     0
  0
SCALE
  5
53
102
{ACAD_REACTORS
330
42
102
}
330
42
100
AcDbScale
 70
     0
300
1'-0" = 1'-0"
140
12.0
141
12.0
290
     0
  0
TABLESTYLE
  5
65
102
{ACAD_XDICTIONARY
360
D7A
102
}
102
{ACAD_REACTORS
330
64
102
}
330
64
100
AcDbTableStyle
280
     0
  3
Standard
 70
     0
 71
     0
 40
0.06
 41
0.06
280
     0
281
     0
  7
Standard
140
0.18
170
     2
 62
     0
 63
     7
283
     0
 90
      512
 91
        0
  1

274
    -2
284
     1
 64
     0
275
    -2
285
     1
 65
     0
276
    -2
286
     1
 66
     0
277
    -2
287
     1
 67
     0
278
    -2
288
     1
 68
     0
279
    -2
289
     1
 69
     0
  7
Standard
140
0.25
170
     5
 62
     0
 63
     7
283
     0
 90
      512
 91
        0
  1

274
    -2
284
     1
 64
     0
275
    -2
285
     1
 65
     0
276
    -2
286
     1
 66
     0
277
    -2
287
     1
 67
     0
278
    -2
288
     1
 68
     0
279
    -2
289
     1
 69
     0
  7
Standard
140
0.18
170
     5
 62
     0
 63
     7
283
     0
 90
      512
 91
        0
  1

274
    -2
284
     1
 64
     0
275
    -2
285
     1
 65
     0
276
    -2
286
     1
 66
     0
277
    -2
287
     1
 67
     0
278
    -2
288
     1
 68
     0
279
    -2
289
     1
 69
     0
  0
VISUALSTYLE
  5
2F
102
{ACAD_REACTORS
330
29
102
}
330
29
100
AcDbVisualStyle
  2
2dWireframe
 70
     4
177
     2
291
     0
 71
     0
176
     1
 72
     2
176
     1
 73
     0
176
     1
 90
        0
176
     1
 40
0.6
176
     1
 41
30.0
176
     1
 63
     7
421
 16777215
176
     1
 74
     1
176
     1
 91
        4
176
     1
 64
     7
176
     1
 65
   257
176
     1
 75
     1
176
     1
175
     1
176
     1
 42
1.0
176
     1
 92
        0
176
     1
 66
   257
176
     1
 43
1.0
176
     1
 76
     1
176
     1
 77
     6
176
     1
 78
     2
176
     1
 67
     7
176
     1
 79
     5
176
     1
170
     0
176
     1
171
     0
176
     1
290
     0
176
     1
 93
        1
176
     1
 44
0.0
176
     1
173
     0
176
     1
  0
VISUALSTYLE
  5
2E
102
{ACAD_REACTORS
330
29
102
}
330
29
100
AcDbVisualStyle
  2
Basic
 70
     7
177
     2
291
     1
 71
     1
176
     1
 72
     0
176
     1
 73
     1
176
     1
 90
        0
176
     1
 40
0.6
176
     1
 41
30.0
176
     1
 63
     7
421
 16777215
176
     1
 74
     0
176
     1
 91
        4
176
     1
 64
     7
176
     1
 65
   257
176
     1
 75
     1
176
     1
175
     1
176
     1
 42
1.0
176
     1
 92
        8
176
     1
 66
     7
176
     1
 43
1.0
176
     1
 76
     1
176
     1
 77
     6
176
     1
 78
     2
176
     1
 67
     7
176
     1
 79
     5
176
     1
170
     0
176
     1
171
     0
176
     1
290
     0
176
     1
 93
        1
176
     1
 44
0.0
176
     1
173
     0
176
     1
  0
VISUALSTYLE
  5
35
102
{ACAD_REACTORS
330
29
102
}
330
29
100
AcDbVisualStyle
  2
Brighten
 70
    12
177
     2
291
     1
 71
     2
176
     1
 72
     2
176
     1
 73
     0
176
     1
 90
        0
176
     1
 40
0.6
176
     1
 41
30.0
176
     1
 63
     7
421
 16777215
176
     1
 74
     1
176
     1
 91
        4
176
     1
 64
     7
176
     1
 65
   257
176
     1
 75
     1
176
     1
175
     1
176
     1
 42
1.0
176
     1
 92
        8
176
     1
 66
     7
176
     1
 43
1.0
176
     1
 76
     1
176
     1
 77
     6
176
     1
 78
     2
176
     1
 67
     7
176
     1
 79
     5
176
     1
170
     0
176
     1
171
     0
176
     1
290
     0
176
     1
 93
        1
176
     1
 44
50.0
176
     1
173
     0
176
     1
  0
VISUALSTYLE
  5
39
102
{ACAD_REACTORS
330
29
102
}
330
29
100
AcDbVisualStyle
  2
ColorChange
 70
    16
177
     2
291
     1
 71
     2
176
     1
 72
     2
176
     1
 73
     3
176
     1
 90
        0
176
     1
 40
0.6
176
     1
 41
30.0
176
     1
 63
     8
421
  8421504
176
     1
 74
     1
176
     1
 91
        4
176
     1
 64
     7
176
     1
 65
   257
176
     1
 75
     1
176
     1
175
     1
176
     1
 42
1.0
176
     1
 92
        8
176
     1
 66
     8
424
  8421504
176
     1
 43
1.0
176
     1
 76
     1
176
     1
 77
     6
176
     1
 78
     2
176
     1
 67
     7
176
     1
 79
     5
176
     1
170
     0
176
     1
171
     0
176
     1
290
     0
176
     1
 93
        1
176
     1
 44
0.0
176
     1
173
     0
176
     1
  0
VISUALSTYLE
  5
32
102
{ACAD_REACTORS
330
29
102
}
330
29
100
AcDbVisualStyle
  2
Conceptual
 70
     9
177
     2
291
     0
 71
     3
176
     1
 72
     2
176
     1
 73
     0
176
     1
 90
        0
176
     1
 40
0.6
176
     1
 41
30.0
176
     1
 63
     7
421
 16777215
176
     1
 74
     2
176
     1
 91
        2
176
     1
 64
     7
176
     1
 65
   257
176
     1
 75
     1
176
     1
175
     1
176
     1
 42
179.0
176
     1
 92
        8
176
     1
 66
     7
176
     1
 43
1.0
176
     1
 76
     1
176
     1
 77
     6
176
     1
 78
     2
176
     1
 67
     7
176
     1
 79
     3
176
     1
170
     0
176
     1
171
     0
176
     1
290
     0
176
     1
 93
        1
176
     1
 44
0.0
176
     1
173
     0
176
     1
  0
VISUALSTYLE
  5
34
102
{ACAD_REACTORS
330
29
102
}
330
29
100
AcDbVisualStyle
  2
Dim
 70
    11
177
     2
291
     1
 71
     2
176
     1
 72
     2
176
     1
 73
     0
176
     1
 90
        0
176
     1
 40
0.6
176
     1
 41
30.0
176
     1
 63
     7
421
 16777215
176
     1
 74
     1
176
     1
 91
        4
176
     1
 64
     7
176
     1
 65
   257
176
     1
 75
     1
176
     1
175
     1
176
     1
 42
1.0
176
     1
 92
        8
176
     1
 66
     7
176
     1
 43
1.0
176
     1
 76
     1
176
     1
 77
     6
176
     1
 78
     2
176
     1
 67
     7
176
     1
 79
     5
176
     1
170
     0
176
     1
171
     0
176
     1
290
     0
176
     1
 93
        1
176
     1
 44
-50.0
176
     1
173
     0
176
     1
  0
VISUALSTYLE
  5
41
102
{ACAD_REACTORS
330
29
102
}
330
29
100
AcDbVisualStyle
  2
EdgeColorOff
 70
    22
177
     2
291
     1
 71
     2
176
     0
 72
     2
176
     0
 73
     0
176
     0
 90
        0
176
     0
 40
0.6
176
     0
 41
30.0
176
     0
 63
     7
421
 16777215
176
     0
 74
     1
176
     0
 91
        4
176
     0
 64
     7
176
     0
 65
   257
176
     0
 75
     1
176
     0
175
     1
176
     0
 42
1.0
176
     0
 92
        8
176
     2
 66
     7
176
     0
 43
1.0
176
     0
 76
     1
176
     0
 77
     6
176
     0
 78
     2
176
     0
 67
     7
176
     0
 79
     5
176
     0
170
     0
176
     0
171
     0
176
     0
290
     0
176
     0
 93
        1
176
     0
 44
0.0
176
     0
173
     0
176
     0
  0
VISUALSTYLE
  5
38
102
{ACAD_REACTORS
330
29
102
}
330
29
100
AcDbVisualStyle
  2
Facepattern
 70
    15
177
     2
291
     1
 71
     2
176
     1
 72
     2
176
     1
 73
     0
176
     1
 90
        0
176
     1
 40
0.6
176
     1
 41
30.0
176
     1
 63
     7
421
 16777215
176
     1
 74
     1
176
     1
 91
        4
176
     1
 64
     7
176
     1
 65
   257
176
     1
 75
     1
176
     1
175
     1
176
     1
 42
1.0
176
     1
 92
        8
176
     1
 66
     7
176
     1
 43
1.0
176
     1
 76
     1
176
     1
 77
     6
176
     1
 78
     2
176
     1
 67
     7
176
     1
 79
     5
176
     1
170
     0
176
     1
171
     0
176
     1
290
     0
176
     1
 93
        1
176
     1
 44
0.0
176
     1
173
     0
176
     1
  0
VISUALSTYLE
  5
2A
102
{ACAD_REACTORS
330
29
102
}
330
29
100
AcDbVisualStyle
  2
Flat
 70
     0
177
     2
291
     1
 71
     2
176
     1
 72
     1
176
     1
 73
     1
176
     1
 90
        2
176
     1
 40
0.6
176
     1
 41
30.0
176
     1
 63
     7
421
 16777215
176
     1
 74
     0
176
     1
 91
        0
176
     1
 64
     7
176
     1
 65
   257
176
     1
 75
     1
176
     1
175
     1
176
     1
 42
1.0
176
     1
 92
        8
176
     1
 66
     7
176
     1
 43
1.0
176
     1
 76
     1
176
     1
 77
     6
176
     1
 78
     2
176
     1
 67
     7
176
     1
 79
     5
176
     1
170
     0
176
     1
171
     0
176
     1
290
     0
176
     1
 93
       13
176
     1
 44
0.0
176
     1
173
     0
176
     1
  0
VISUALSTYLE
  5
2B
102
{ACAD_REACTORS
330
29
102
}
330
29
100
AcDbVisualStyle
  2
FlatWithEdges
 70
     1
177
     2
291
     1
 71
     2
176
     1
 72
     1
176
     1
 73
     1
176
     1
 90
        2
176
     1
 40
0.6
176
     1
 41
30.0
176
     1
 63
     7
421
 16777215
176
     1
 74
     1
176
     1
 91
        0
176
     1
 64
     7
176
     1
 65
   257
176
     1
 75
     1
176
     1
175
     1
176
     1
 42
1.0
176
     1
 92
        0
176
     1
 66
   257
176
     1
 43
1.0
176
     1
 76
     1
176
     1
 77
     6
176
     1
 78
     2
176
     1
 67
     7
176
     1
 79
     5
176
     1
170
     0
176
     1
171
     0
176
     1
290
     0
176
     1
 93
       13
176
     1
 44
0.0
176
     1
173
     0
176
     1
  0
VISUALSTYLE
  5
2C
102
{ACAD_REACTORS
330
29
102
}
330
29
100
AcDbVisualStyle
  2
Gouraud
 70
     2
177
     2
291
     1
 71
     2
176
     1
 72
     2
176
     1
 73
     1
176
     1
 90
        2
176
     1
 40
0.6
176
     1
 41
30.0
176
     1
 63
     7
421
 16777215
176
     1
 74
     0
176
     1
 91
        0
176
     1
 64
     7
176
     1
 65
   257
176
     1
 75
     1
176
     1
175
     1
176
     1
 42
1.0
176
     1
 92
        0
176
     1
 66
     7
176
     1
 43
1.0
176
     1
 76
     1
176
     1
 77
     6
176
     1
 78
     2
176
     1
 67
     7
176
     1
 79
     5
176
     1
170
     0
176
     1
171
     0
176
     1
290
     0
176
     1
 93
       13
176
     1
 44
0.0
176
     1
173
     0
176
     1
  0
VISUALSTYLE
  5
2D
102
{ACAD_REACTORS
330
29
102
}
330
29
100
AcDbVisualStyle
  2
GouraudWithEdges
 70
     3
177
     2
291
     1
 71
     2
176
     1
 72
     2
176
     1
 73
     1
176
     1
 90
        2
176
     1
 40
0.6
176
     1
 41
30.0
176
     1
 63
     7
421
 16777215
176
     1
 74
     1
176
     1
 91
        0
176
     1
 64
     7
176
     1
 65
   257
176
     1
 75
     1
176
     1
175
     1
176
     1
 42
1.0
176
     1
 92
        0
176
     1
 66
   257
176
     1
 43
1.0
176
     1
 76
     1
176
     1
 77
     6
176
     1
 78
     2
176
     1
 67
     7
176
     1
 79
     5
176
     1
170
     0
176
     1
171
     0
176
     1
290
     0
176
     1
 93
       13
176
     1
 44
0.0
176
     1
173
     0
176
     1
  0
VISUALSTYLE
  5
31
102
{ACAD_REACTORS
330
29
102
}
330
29
100
AcDbVisualStyle
  2
Hidden
 70
     6
177
     2
291
     0
 71
     1
176
     1
 72
     2
176
     1
 73
     2
176
     1
 90
        0
176
     1
 40
0.6
176
     1
 41
30.0
176
     1
 63
     7
421
 16777215
176
     1
 74
     2
176
     1
 91
        2
176
     1
 64
     7
176
     1
 65
   257
176
     1
 75
     2
176
     1
175
     1
176
     1
 42
40.0
176
     1
 92
        0
176
     1
 66
   257
176
     1
 43
1.0
176
     1
 76
     1
176
     1
 77
     6
176
     1
 78
     2
176
     1
 67
     7
176
     1
 79
     3
176
     1
170
     0
176
     1
171
     0
176
     1
290
     0
176
     1
 93
        1
176
     1
 44
0.0
176
     1
173
     0
176
     1
  0
VISUALSTYLE
  5
3F
102
{ACAD_REACTORS
330
29
102
}
330
29
100
AcDbVisualStyle
  2
JitterOff
 70
    20
177
     2
291
     1
 71
     2
176
     0
 72
     2
176
     0
 73
     0
176
     0
 90
        0
176
     0
 40
0.6
176
     0
 41
30.0
176
     0
 63
     7
421
 16777215
176
     0
 74
     1
176
     0
 91
        4
176
     0
 64
     7
176
     0
 65
   257
176
     0
 75
     1
176
     0
175
     1
176
     0
 42
1.0
176
     0
 92
       10
176
     2
 66
     7
176
     0
 43
1.0
176
     0
 76
     1
176
     0
 77
     6
176
     0
 78
     2
176
     0
 67
     7
176
     0
 79
     5
176
     0
170
     0
176
     0
171
     0
176
     0
290
     0
176
     0
 93
        1
176
     0
 44
0.0
176
     0
173
     0
176
     0
  0
VISUALSTYLE
  5
37
102
{ACAD_REACTORS
330
29
102
}
330
29
100
AcDbVisualStyle
  2
Linepattern
 70
    14
177
     2
291
     1
 71
     2
176
     1
 72
     2
176
     1
 73
     0
176
     1
 90
        0
176
     1
 40
0.6
176
     1
 41
30.0
176
     1
 63
     7
421
 16777215
176
     1
 74
     1
176
     1
 91
        4
176
     1
 64
     7
176
     1
 65
   257
176
     1
 75
     7
176
     1
175
     7
176
     1
 42
1.0
176
     1
 92
        8
176
     1
 66
     7
176
     1
 43
1.0
176
     1
 76
     1
176
     1
 77
     6
176
     1
 78
     2
176
     1
 67
     7
176
     1
 79
     5
176
     1
170
     0
176
     1
171
     0
176
     1
290
     0
176
     1
 93
        1
176
     1
 44
0.0
176
     1
173
     0
176
     1
  0
VISUALSTYLE
  5
40
102
{ACAD_REACTORS
330
29
102
}
330
29
100
AcDbVisualStyle
  2
OverhangOff
 70
    21
177
     2
291
     1
 71
     2
176
     0
 72
     2
176
     0
 73
     0
176
     0
 90
        0
176
     0
 40
0.6
176
     0
 41
30.0
176
     0
 63
     7
421
 16777215
176
     0
 74
     1
176
     0
 91
        4
176
     0
 64
     7
176
     0
 65
   257
176
     0
 75
     1
176
     0
175
     1
176
     0
 42
1.0
176
     0
 92
        9
176
     2
 66
     7
176
     0
 43
1.0
176
     0
 76
     1
176
     0
 77
     6
176
     0
 78
     2
176
     0
 67
     7
176
     0
 79
     5
176
     0
170
     0
176
     0
171
     0
176
     0
290
     0
176
     0
 93
        1
176
     0
 44
0.0
176
     0
173
     0
176
     0
  0
VISUALSTYLE
  5
33
102
{ACAD_REACTORS
330
29
102
}
330
29
100
AcDbVisualStyle
  2
Realistic
 70
     8
177
     2
291
     0
 71
     2
176
     1
 72
     3
176
     1
 73
     0
176
     1
 90
        2
176
     1
 40
0.6
176
     1
 41
30.0
176
     1
 63
     7
421
 16777215
176
     1
 74
     0
176
     1
 91
        0
176
     1
 64
     7
176
     1
 65
   257
176
     1
 75
     1
176
     1
175
     1
176
     1
 42
1.0
176
     1
 92
        8
176
     1
 66
   257
176
     1
 43
1.0
176
     1
 76
     1
176
     1
 77
     6
176
     1
 78
     2
176
     1
 67
     7
176
     1
 79
     3
176
     1
170
     0
176
     1
171
     0
176
     1
290
     0
176
     1
 93
       13
176
     1
 44
0.0
176
     1
173
     0
176
     1
  0
VISUALSTYLE
  5
3E
102
{ACAD_REACTORS
330
29
102
}
330
29
100
AcDbVisualStyle
  2
Shaded
 70
    27
177
     2
291
     0
 71
     2
176
     1
 72
     2
176
     1
 73
     1
176
     1
 90
        2
176
     1
 40
0.6
176
     1
 41
30.0
176
     1
 63
     7
421
 16777215
176
     1
 74
     0
176
     1
 91
        4
176
     1
 64
     7
176
     1
 65
   257
176
     1
 75
     1
176
     1
175
     1
176
     1
 42
1.0
176
     1
 92
        8
176
     1
 66
   257
176
     1
 43
1.0
176
     1
 76
     1
176
     1
 77
     6
176
     1
 78
     2
176
     1
 67
     8
425
  7895160
176
     1
 79
     3
176
     1
170
     0
176
     1
171
     0
176
     1
290
     0
176
     1
 93
        5
176
     1
 44
0.0
176
     1
173
     0
176
     1
  0
VISUALSTYLE
  5
3D
102
{ACAD_REACTORS
330
29
102
}
330
29
100
AcDbVisualStyle
  2
Shaded with edges
 70
    26
177
     2
291
     0
 71
     2
176
     1
 72
     2
176
     1
 73
     1
176
     1
 90
        2
176
     1
 40
0.6
176
     1
 41
30.0
176
     1
 63
     7
421
 16777215
176
     1
 74
     1
176
     1
 91
       10
176
     1
 64
     7
176
     1
 65
   257
176
     1
 75
     2
176
     1
175
     1
176
     1
 42
1.0
176
     1
 92
        8
176
     1
 66
   257
176
     1
 43
1.0
176
     1
 76
     1
176
     1
 77
     6
176
     1
 78
     2
176
     1
 67
     7
176
     1
 79
     3
176
     1
170
     0
176
     1
171
     0
176
     1
290
     0
176
     1
 93
        5
176
     1
 44
0.0
176
     1
173
     0
176
     1
  0
VISUALSTYLE
  5
3A
102
{ACAD_REACTORS
330
29
102
}
330
29
100
AcDbVisualStyle
  2
Shades of Gray
 70
    23
177
     2
291
     0
 71
     2
176
     1
 72
     2
176
     1
 73
     3
176
     1
 90
        0
176
     1
 40
0.6
176
     1
 41
30.0
176
     1
 63
     7
421
 16777215
176
     1
 74
     2
176
     1
 91
        2
176
     1
 64
     7
176
     1
 65
     7
176
     1
 75
     1
176
     1
175
     1
176
     1
 42
40.0
176
     1
 92
        8
176
     1
 66
     7
176
     1
 43
1.0
176
     1
 76
     1
176
     1
 77
     6
176
     1
 78
     2
176
     1
 67
     7
176
     1
 79
     3
176
     1
170
     0
176
     1
171
     0
176
     1
290
     0
176
     1
 93
        1
176
     1
 44
0.0
176
     1
173
     0
176
     1
  0
VISUALSTYLE
  5
3B
102
{ACAD_REACTORS
330
29
102
}
330
29
100
AcDbVisualStyle
  2
Sketchy
 70
    24
177
     2
291
     0
 71
     1
176
     1
 72
     2
176
     1
 73
     2
176
     1
 90
        0
176
     1
 40
0.6
176
     1
 41
30.0
176
     1
 63
     7
421
 16777215
176
     1
 74
     2
176
     1
 91
        2
176
     1
 64
     7
176
     1
 65
     7
176
     1
 75
     1
176
     1
175
     1
176
     1
 42
40.0
176
     1
 92
       11
176
     1
 66
     7
176
     1
 43
1.0
176
     1
 76
     1
176
     1
 77
     6
176
     1
 78
     2
176
     1
 67
     7
176
     1
 79
     6
176
     1
170
     0
176
     1
171
     0
176
     1
290
     0
176
     1
 93
        1
176
     1
 44
0.0
176
     1
173
     0
176
     1
  0
VISUALSTYLE
  5
36
102
{ACAD_REACTORS
330
29
102
}
330
29
100
AcDbVisualStyle
  2
Thicken
 70
    13
177
     2
291
     1
 71
     2
176
     1
 72
     2
176
     1
 73
     0
176
     1
 90
        0
176
     1
 40
0.6
176
     1
 41
30.0
176
     1
 63
     7
421
 16777215
176
     1
 74
     1
176
     1
 91
        4
176
     1
 64
     7
176
     1
 65
   257
176
     1
 75
     1
176
     1
175
     1
176
     1
 42
1.0
176
     1
 92
       12
176
     1
 66
     7
176
     1
 43
1.0
176
     1
 76
     1
176
     1
 77
     6
176
     1
 78
     2
176
     1
 67
     7
176
     1
 79
     5
176
     1
170
     0
176
     1
171
     0
176
     1
290
     0
176
     1
 93
        1
176
     1
 44
0.0
176
     1
173
     0
176
     1
  0
VISUALSTYLE
  5
30
102
{ACAD_REACTORS
330
29
102
}
330
29
100
AcDbVisualStyle
  2
Wireframe
 70
     5
177
     2
291
     0
 71
     0
176
     1
 72
     2
176
     1
 73
     0
176
     1
 90
        0
176
     1
 40
0.6
176
     1
 41
30.0
176
     1
 63
     7
421
 16777215
176
     1
 74
     1
176
     1
 91
        4
176
     1
 64
     7
176
     1
 65
   257
176
     1
 75
     1
176
     1
175
     1
176
     1
 42
1.0
176
     1
 92
        0
176
     1
 66
   257
176
     1
 43
1.0
176
     1
 76
     1
176
     1
 77
     6
176
     1
 78
     2
176
     1
 67
     7
176
     1
 79
     3
176
     1
170
     0
176
     1
171
     0
176
     1
290
     0
176
     1
 93
        1
176
     1
 44
0.0
176
     1
173
     0
176
     1
  0
VISUALSTYLE
  5
3C
102
{ACAD_REACTORS
330
29
102
}
330
29
100
AcDbVisualStyle
  2
X-Ray
 70
    25
177
     2
291
     0
 71
     2
176
     1
 72
     2
176
     1
 73
     1
176
     1
 90
        1
176
     1
 40
0.5
176
     1
 41
30.0
176
     1
 63
     7
421
 16777215
176
     1
 74
     1
176
     1
 91
        0
176
     1
 64
     7
176
     1
 65
   257
176
     1
 75
     1
176
     1
175
     1
176
     1
 42
1.0
176
     1
 92
        8
176
     1
 66
     7
176
     1
 43
1.0
176
     1
 76
     1
176
     1
 77
     6
176
     1
 78
     2
176
     1
 67
     7
176
     1
 79
     3
176
     1
170
     0
176
     1
171
     0
176
     1
290
     0
176
     1
 93
       13
176
     1
 44
0.0
176
     1
173
     0
176
     1
  0
DICTIONARYVAR
  5
79
102
{ACAD_REACTORS
330
76
102
}
330
76
100
DictionaryVariables
280
     0
  1
1:1
  0
DICTIONARYVAR
  5
78
102
{ACAD_REACTORS
330
76
102
}
330
76
100
DictionaryVariables
280
     0
  1
STANDARD
  0
DICTIONARYVAR
  5
77
102
{ACAD_REACTORS
330
76
102
}
330
76
100
DictionaryVariables
280
     0
  1
STANDARD
  0
DICTIONARY
  5
1A
330
19
100
AcDbDictionary
280
     1
281
     1
  3
BUMPTILE
360
1C
  3
DIFFUSETILE
360
1B
  3
OPACITYTILE
360
1F
  3
REFLECTIONTILE
360
1E
  3
REFRACTIONTILE
360
20
  3
SPECULARTILE
360
1D
  0
DICTIONARY
  5
12
330
11
100
AcDbDictionary
280
     1
281
     1
  3
BUMPTILE
360
14
  3
DIFFUSETILE
360
13
  3
FBXASSET
360
109
  3
OPACITYTILE
360
17
  3
REFLECTIONTILE
360
16
  3
REFRACTIONTILE
360
18
  3
SPECULARTILE
360
15
  0
DICTIONARY
  5
22
330
21
100
AcDbDictionary
280
     1
281
     1
  3
BUMPTILE
360
24
  3
DIFFUSETILE
360
23
  3
FBXASSET
360
BA
  3
OPACITYTILE
360
27
  3
REFLECTIONTILE
360
26
  3
REFRACTIONTILE
360
28
  3
SPECULARTILE
360
25
  0
DICTIONARY
  5
D7C
330
67
100
AcDbDictionary
280
     1
281
     1
  3
ACAD_XREC_ROUNDTRIP
360
D7D
  0
DICTIONARY
  5
D7A
330
65
100
AcDbDictionary
280
     1
281
     1
  3
ACAD_ROUNDTRIP_2008_TABLESTYLE_CELLSTYLEMAP
360
D7B
  0
XRECORD
  5
1C
102
{ACAD_REACTORS
330
1A
102
}
330
1A
100
AcDbXrecord
280
     1
270
     1
271
     1
  0
XRECORD
  5
1B
102
{ACAD_REACTORS
330
1A
102
}
330
1A
100
AcDbXrecord
280
     1
270
     1
271
     1
  0
XRECORD
  5
1F
102
{ACAD_REACTORS
330
1A
102
}
330
1A
100
AcDbXrecord
280
     1
270
     1
271
     1
  0
XRECORD
  5
1E
102
{ACAD_REACTORS
330
1A
102
}
330
1A
100
AcDbXrecord
280
     1
270
     1
271
     1
  0
XRECORD
  5
20
102
{ACAD_REACTORS
330
1A
102
}
330
1A
100
AcDbXrecord
280
     1
270
     1
271
     1
  0
XRECORD
  5
1D
102
{ACAD_REACTORS
330
1A
102
}
330
1A
100
AcDbXrecord
280
     1
270
     1
271
     1
  0
XRECORD
  5
14
102
{ACAD_REACTORS
330
12
102
}
330
12
100
AcDbXrecord
280
     1
270
     1
271
     1
  0
XRECORD
  5
13
102
{ACAD_REACTORS
330
12
102
}
330
12
100
AcDbXrecord
280
     1
270
     1
271
     1
  0
XRECORD
  5
109
102
{ACAD_REACTORS
330
12
102
}
330
12
100
AcDbXrecord
280
     1
 70
     1
 90
1959938040
 71
     1
  1
31A10DF1-EF81-47DA-85B2-2F947A631B5F
311
504B03040A00000800004BA1E4423DEE336E79000000790000001B0000006175746F6465736B2D64657369676E2D7061636B6167652E786D6C3C3F786D6C2076657273696F6E3D22312E302220656E636F64696E673D227574662D3822203F3E3C666F726D6174733E3C666F726D61743E687474703A2F2F736368656D612E
311
6175746F6465736B2E636F6D2F64657369676E2D7061636B6167652F323030393C2F666F726D61743E3C2F666F726D6174733E504B03041400060808004BA1E442D486FD9CA0000000F4000000130000005B436F6E74656E745F54797065735D2E786D6C7D8EC10E82300C865F65E91D8A1E8C310C0EEA1BF002731658846E
311
D98AC1B77784ABF1D8FE5FBFBF75BBCE937A534CCEB38643598122B6FEE978D0B0485F9C41B54DDD7D022595594E1A469170414C76A4D9A4D207E29CF43ECE46F218070CC6BECC4078ACAA135ACF422C856C0E68EA1BF5669944DDD7BCDE7B1F8E415D77AECB980613C2E4AC91FC167A2B244592486606FC29C8FD7F045B9A
311
EF7053A7E60B504B03041400060808004BA1E442C0DAA5DBEB0000007C01000008000000636F72652E786D6C8D90596EC4201044AF82FA37C266B167B13023DB494E900B20CC3868C660198872FCE059A4E42F5F5D2AEAD1AD12A7EFF98ABECC1AAC772DD08200324EFBD1BAA98514CFF800E824C5EA7DFC1503E4D46C5AD8
311
6C90625A7D5A1E96F62E1A17B3EBFC681EA60AC14440FA9A450B417F9A59152AC59C08976251FAA22653D0A7CA704A7644F72576CCFFD9B3352BC81DEDDED950F7F8F0561D71C5F734ABA1C33DEB6BBE1B5E797764A2DC6029A29D9FFBF56A543423484628C7648F49F5C1484349C3F80BA91B4E44B9C5FF406919FF0925EB
311
22678F73EF580049F321B70729CAAD8B3C6E45E5B9F5267F00504B03041400060808004BA1E44255019EA25F0000007C00000007000000636E782E786D6C4DCB3B0E80201045D1AD90E915ED2CF8AC45050C11660C8261F98AB1B07AC9C97D42D718D865D3E909258CFD00CCE24AC6E326A164D74DC0B4128928FF32603847
311
2BA13128B1252AC747C6BAB984FC68F0B87FE8960A5C09FE86CFB69FBA01504B03041400060808004BA1E4423150482E67010000020300000C0000006662782F636F72652E786D6C8D52D96E833010FC15CBAF15D81C39651C2569FB05FD01C73814056CE403E5F3BB1C519A2A8A2A2463CDECECCE0EB0DDB56D50AFACAB8D
311
2E7012538C9496A6AC7555E0E0CFD11AA31D67D618FFAB0C232D5A55E001C69C55D6846E86A4D15E690FA836A59A41E19CF218C9062E0576F25BB52216C14385BBC49D901751A9388981863ACE9CB760004D438613F3F3E9CAC8847316425DCE6C5DC2B4FA5C2B8BF932D97FA6C7C5215A7FE49B28CF5609DC8EFBE8901E16
311
D9F2F89EED3729238398335FB73777D22AE15589794A932CA2AB88E65F29DD26749B666F74B1CD282343F9832874E53F45A1D63E4B67BB93CC619E809191F8B32D44E491133DF8219C912144788D093F060D8140C85E9C9ADB1E17807A25BDB13930A50977AA174D503095A2F1616462A1F3D800367BDA277DD1E7750FF880
311
4257604D78B89E821FA6B369EA1C45A76CD4FB2BD2C6B6A2B99B9B2CDECFFBA0A772691A63FFA326F3AA640E930C7F2FFF01504B03041400060808004BA1E4426B9B69287E0000009D0000000B0000006662782F636E782E786D6C4DCCD10A83201886E15B91FFDCD299D3408D46DB7DC4B290990EA76397BF1A1DECE88387
311
8F57759FD5A3B74D2F1783065A114036DCE3E4C2A2A1E4194B409D5129C6FC770314C6D56AD8198C5A522CCF83263B8FC5E74DBD0B8F031913BD689B33E662A0B8395181DB414A7CE15729092394931BD446D5BFD2B67BD87C01504B03041400060808004BA1E4423C59BB142C01000014020000310000006662782F333337
311
41373934362D353744312D343231372D394438382D4235453838303330313530462F636F72652E786D6C8D515B6EC32010BC0AE22B5585CDC38EED0813B54A7B825EC00192A0C460F1A872FCE2DA91DABFFCB068766676B4CBF7F7F106BEB50FC6D91E920243A0AD74CAD8730F533CA11682BDE0DEB9F88706811D46DDC319
311
86829FBD4BD30A4967A3B631A3D629BD8243083A42206FF9D3C3202F7A1C8A21C5CC08D7621AE47538EB8214B99D798287E87300B00C995F28186BDE9AAEDAA2BA39105451D2A0EED0B6E8BDFE685BCC30A9F1272F17A1E02919B5CA8DCA71CCC968FFACC92C163C9AF1115F7A3D44ADA0A09830841B84AB2F8A7704EF287B
311
C5F58E615ECEF47FA234A92745C9D8C8E81A77910528082F9786E0CAA5E3ED1146DF27E72398E76D82962F50E00213CA3A5A75BC5CA87901D9735BAD9E213A9F17BCB91E339BD48BF1B612BC9C6F94CBEF01739DEF297E00504B03041400060808004BA1E4424830C8E94E01000033030000300000006662782F3333374137
311
3934362D353744312D343231372D394438382D4235453838303330313530462F636E782E786D6CD593CD6EC32010845F0571ADFC17BB69156122F5D027E8A1570C9B860683C54FD5BC7D9784A4B9E4D0632FC89A1D66569F30DB7ECF867C810FDAD99176754B0958E994B61F234D71573D53B2E5CC3B176F6C945831C348B3
311
4C39FBF02E2D4552B013C944548DB687227A082E790901E57C93182785C100B0554211E609940245AE46FCDA81C755509C8E24EE81BCBEBC13377D828C81353985B326777096CFD27463A2441A11C24883DCC32C6A91A253100EB51251D45D7DE9BAB3D36F12C9172E95C96B92CB479A4FCACB463572640D0E390BD123BD62
311
8AC7052817CB62B41411213727E3D9C359D236AE87E2D508DEA3BB5BF7C38061A7196751CF501CD28388A0285FB55D5FB54F553BBCADDA4DD76E56FD43FBB8E95BD6643B679373A65CC218F06E21D2D9083652DEB1268FEFE12B3EA2B447D6CE1FFF00120194D6339D6BC67FE6D39CDE37E2F2F817F01F504B030414000608
311
08004BA1E44228CBB777A405000081100000340000006662782F33333741373934362D353744312D343231372D394438382D4235453838303330313530462F6F626A656374732E786D6CAD57D96EDB3814FD1541F332F3E045B6932603458597BA30DAB4458D16F360C0A0254AE1845A405289335F3F8722254BAE9D7A067D
311
D1C2E5F2DE73CF5DE8BFDDA7DC79A242B23CBB73BDFED0756816E611CB923BB75471EFC675DE06BEC873D55AE63A1949E99DAB87DDC04F445E167628A23129B93A1A5DCEFE72644833EA3A212752DEB9327CA029E99352E511958FFD8828D24FE27DDFEB9B855DB18920C5C391D082089A29688AF10C521CA394D7FD1DBA83
311
C01FE8F9C0D74FBB6A7C7ED5A0B2A77B3ECBA42259F8C3614762C6DE64F16E7475DBBB9A4CC6BDC9F5C8EBCD96B345CF7B331ECEAFE7F3DBE9BB5B1C2C958024AB89A0B11BBC07368285FEC04C057EC932351ED925D64103419F98F6941B8C1CCF1F98358D75D6C853EA877996D1B0C20A6854F659D1112D6816C1E78C4A68
311
D64268D8FDF5348EADE9B1FEB747B6872F43A0BDA325A8D6BD7EB735CD777FC30479098384A49A81064B6BA8E1EAF080F02ECFB99D63D24989A28211EE70B61344BCB80196EA2581DF11A3992C7434680BDC005E30D35DBA208C7ECEF3535AC625E79AC66E5045C116B14295AC3463FF5071D0BE8D0C7482AF341B6EAC41EA
311
A5A06E706B287273C42603A4137392C0E53053EF1C8F8E0C9DEB385D2DDCE0C372B75FEBD83D7D7821F2820AA5E9036AD58EABDF1A25AB937791E7F406F7489503285F81FC2784FA4115F84DB0FD643FB1A728413219E722856F9CA1D31BE23174BCEAA9BF5B5FFEA0D9DCF5DE393CE16C0DD52FC0B36B43DB972D3803FF09
311
84CFC5D89AB60E0947DAB8671900D22471788E21E4E178B7778315B21CB23276111E783019EA3EE1D31F58314814D549AD77062C8FD2E205091AB0558C841A86FC56C1839F7E4867D5C176D93978AF7E095DA78BF58775296212D27B1BD30B1AB38C2994B8036FDA0A7530EF58F4485F9E7311C1D01FF15EB7F14EED511268
311
6BCC35F0499DD3F5CFE1E4CE0121F625B94E37FE4F4E8011BAB0B6E4DF331952CE4946F3B23EF7D5FA81B26120D6C1AE99DC149843610169CCCC510CA2488782151AC4A65A3549B37FC6BA6FAB4F60A41BCC5E3E929776F6DA1D726F98F35C6C772F5B93964E42FDBDCB6D8BC1404B01DDAB20A9E3DF82BE8D581C971249F0
311
04AEDF57F3B6EF745A408AA8A59A6899C07E04171196B4B55C546B415049F36CCB50371177270F68CB07A4960195C0731A4BCAE32DE3BC4CB731E3A846DB941467E0F8FFFAEFCAB4D892342F3375467647755487AEEE1DF6CA67A2C207375857EFDE0CB937A2D11932E85A7202AB8E6BC7DED41B2E965EEFDDF2C6EB4DDE2C
311
A6BD9BABD9A8375ADE4EDE4CAFC7DEEC6A59FBC96812F875A9694734BC84D2E6978259F77D5B217E6C1270837BA2E4E6BD09CFFAFD6DD5472FEC0FB007F5B2D9388D9ED0F7D1E8E7020E2B4F0A5AA505A729CD14D13174AF3FF857823EA3A38C195FA524A11748F9FC7E7D640C462ED8F745C73B7D3EDA6B47E73A204F0A51
311
0F65BACB08E3471B138364BFC8128B5FED93E66D0A4DFDABFFAC63D099CA9CB308793072129AA754211B5E5084444A25A8D7EEE9237BF7B860F793E91015D9715A6BF240D0247389B000B5CA5075C79DDFD0D4E9BEEACE45B9ED3FE2613385EB8033772E9A74C5422AFB3B1468DD0A55C2C1A576278FC69F640947AF6D3635
311
FFCD2E8D4DA724374B2EE99FAC5D26855B0390460AF40D6888E09D4A99C0AF74B3F3E17F32BC56C7210A9FBB5235B61C061A63AA6310A2C6287B5B4013F3688FDE23505F37CBEB576B3A885C74CB7A9504466A4F1191543705AD9F5569BAF8324087E2AC3E3B052F13F8F272493D4141E652073858045658990551A0EAFCCF
311
CD1791E3269B3A4B060A38BFEF6FAEFFD8CCF334CD3333B499DAFBB0B37EC0ED36DA2039507D2D919BD1D01B6DAAEB80BDA16C7744D23E89E42306E059C11AA03BEE072FCD9D1175C84C34EB06DA15470C5D2D1C5BD826106AE9D2CEAD1A1C341E19751043FA4AA923A6BDA078F54630A8964205815E3EF817504B03041400
311
060800004BA1E442000000000000000000000000350000006662782F33333741373934362D353744312D343231372D394438382D4235453838303330313530462F76657274696365732E62696E504B03041400060808004BA1E442F270F1330600000004000000360000006662782F33333741373934362D353744312D3432
311
31372D394438382D4235453838303330313530462F747269616E676C65732E62696E636660600000504B03041400060800004BA1E442000000000000000000000000370000006662782F33333741373934362D353744312D343231372D394438382D4235453838303330313530462F617474726962757465732E62696E504B
311
03041400060808004BA1E442D5987DFC8F00000041010000360000006662782F33333741373934362D353744312D343231372D394438382D4235453838303330313530462F6469726563746F72792E786D6C858F410EC2201045AF4266AF15DDB800BA74E7C21B903225242D6328188F2FA5C4183471359997F9FF81E89FF3
311
C41E1816475E02DF1F80A11FC8386F25A438EECEC07A250251FC3803E6F58C12560C4AD840E95E91C151A72936F496F35732D860FE635F62C8F2DA16B505C545B74125BAA2FA9E05D7CC053D063734D5C7665FD55B6B8D15D5E9BFEAFD8490FFA45E504B03041400060808004BA1E442A830F8EAFC000000A00100003B0000
311
006662782F33333741373934362D353744312D343231372D394438382D4235453838303330313530462F7265736F75726365732F636F72652E786D6C8D50596AC33010BD8A99DF225B4B766405C76D4FD00B0879E288C452D0527AFCCA890BED5F7F6686B7308F278F5FD3ADFAC410AD772DB09A4285CEF8C1BAB1859CCE64
311
07D551C9E07DFA2583CAE9095B986150720C3EDF17C87897D0A5823A3FE002EA183141656EE568219A0B4EBAD6391545BCD6776DAE7AC49AD5852E3A25630A2540F57C324F5001A3CFC16094CD935532673B2C1A3B949FF66C3180DAB0EE9DF7EB8EECDE567BB2125B56AEBE23277E5A8B4DFF2ABA3D97CD6C5632D9E927A3
311
09A8130EA0386582D02DA1AB0F4E0F8C1EB878A1EB83A0B299E57F4CF93EFCD394AD4B822F719FB6088A95200F42C966EEABAC479965CFDDAA6F504B010214000A00000800004BA1E4423DEE336E79000000790000001B00000000000000000000000000000000006175746F6465736B2D64657369676E2D7061636B616765
311
2E786D6C504B010214001400060808004BA1E442D486FD9CA0000000F40000001300000000000000000000000000B20000005B436F6E74656E745F54797065735D2E786D6C504B010214001400060808004BA1E442C0DAA5DBEB0000007C010000080000000000000000000000000083010000636F72652E786D6C504B0102
311
14001400060808004BA1E44255019EA25F0000007C000000070000000000000000000000000094020000636E782E786D6C504B010214001400060808004BA1E4423150482E67010000020300000C00000000000000000000000000180300006662782F636F72652E786D6C504B010214001400060808004BA1E4426B9B6928
311
7E0000009D0000000B00000000000000000000000000A90400006662782F636E782E786D6C504B010214001400060808004BA1E4423C59BB142C010000140200003100000000000000000000000000500500006662782F33333741373934362D353744312D343231372D394438382D4235453838303330313530462F636F72
311
652E786D6C504B010214001400060808004BA1E4424830C8E94E010000330300003000000000000000000000000000CB0600006662782F33333741373934362D353744312D343231372D394438382D4235453838303330313530462F636E782E786D6C504B010214001400060808004BA1E44228CBB777A405000081100000
311
3400000000000000000000000000670800006662782F33333741373934362D353744312D343231372D394438382D4235453838303330313530462F6F626A656374732E786D6C504B010214001400060800004BA1E44200000000000000000000000035000000000000000000000000005D0E00006662782F33333741373934
311
362D353744312D343231372D394438382D4235453838303330313530462F76657274696365732E62696E504B010214001400060808004BA1E442F270F13306000000040000003600000000000000000000000000B00E00006662782F33333741373934362D353744312D343231372D394438382D4235453838303330313530
311
462F747269616E676C65732E62696E504B010214001400060800004BA1E44200000000000000000000000037000000000000000000000000000A0F00006662782F33333741373934362D353744312D343231372D394438382D4235453838303330313530462F617474726962757465732E62696E504B010214001400060808
311
004BA1E442D5987DFC8F0000004101000036000000000000000000000000005F0F00006662782F33333741373934362D353744312D343231372D394438382D4235453838303330313530462F6469726563746F72792E786D6C504B010214001400060808004BA1E442A830F8EAFC000000A00100003B000000000000000000
311
00000000421000006662782F33333741373934362D353744312D343231372D394438382D4235453838303330313530462F7265736F75726365732F636F72652E786D6C504B0506000000000E000E0080040000971100000000
310
504B03040A00000800004BA1E4423DEE336E79000000790000001B0000006175746F6465736B2D64657369676E2D7061636B6167652E786D6C3C3F786D6C2076657273696F6E3D22312E302220656E636F64696E673D227574662D3822203F3E3C666F726D6174733E3C666F726D61743E687474703A2F2F736368656D612E
310
6175746F6465736B2E636F6D2F64657369676E2D7061636B6167652F323030393C2F666F726D61743E3C2F666F726D6174733E504B03041400060808004BA1E442D486FD9CA0000000F4000000130000005B436F6E74656E745F54797065735D2E786D6C7D8EC10E82300C865F65E91D8A1E8C310C0EEA1BF002731658846E
310
D98AC1B77784ABF1D8FE5FBFBF75BBCE937A534CCEB38643598122B6FEE978D0B0485F9C41B54DDD7D022595594E1A469170414C76A4D9A4D207E29CF43ECE46F218070CC6BECC4078ACAA135ACF422C856C0E68EA1BF5669944DDD7BCDE7B1F8E415D77AECB980613C2E4AC91FC167A2B244592486606FC29C8FD7F045B9A
310
EF7053A7E60B504B03041400060808004BA1E4424C13512EEC0000007C01000008000000636F72652E786D6C8D904D6EC3201085AF82665B61E3FFD8C2448ED39CA01740405C94182C03558F5F9C3852BBEB6A466FDE37337AF4F83DDFD1975A9DB6A6872C21809411566A33F510FC151F001D195DADF5BF6C800C9F550F9B
310
0C8C4EAB0DCB2E096BBC323EAAC64AB58BDC39E501897B6C7A70E253CD3CE1C14787BB250B17373EA9247B75110E414BF43CA265DCA7AF5AADC0C8F03EB697F1809BF3B9C1E5A96C714B2E03AE86BAAEF2E254B7ED48D30D66D4EBF9755FAC8A7B2581E5242B306930293F72D265A4CB8B37527505A1E966FF038545FE130A
310
DAF822DFDF7D620E58161F790C184DB72C62790415EB961BFB01504B03041400060808004BA1E44255019EA25F0000007C00000007000000636E782E786D6C4DCB3B0E80201045D1AD90E915ED2CF8AC45050C11660C8261F98AB1B07AC9C97D42D718D865D3E909258CFD00CCE24AC6E326A164D74DC0B4128928FF326038
310
472BA13128B1252AC747C6BAB984FC68F0B87FE8960A5C09FE86CFB69FBA01504B03041400060808004BA1E442A3E22AFA69010000020300000C0000006662782F636F72652E786D6C8D52D96E833010FC15CBAF15D81C39888CA31CCD17F4071C70A815B091B1513EBFCB11A5A9AA284232D6CCCEEEEC00DBDE9A1AF5D276
310
CAE81C4721C548EAC2944A5739F6EE12AC31DA72668D71BFCA30D2A291391E60CC59658D6F67A830DA49ED00D5A6943328BA4E3A8C8A1A2E39EE8A6FD98850780715DD356C457115950CA31068A8E3AC73160CA069C870627E39DF189970CEBC57E5CCAA12A6A98B921673BAFB3C64A7C33A581D8FAB20DDA75990D1D32E58
310
EC96CB459CEC97597660641073E65473775758299C2C318F6994047415D0F42BA69B886EE2E4832E36096564287F12F9B67C53E49576493CDB9D641DE6111819893FDB42440E75A2073F8433328408AF31E1E7A0211008D989737DDFE30A502F0B676C0A4C69FC83EA45ED254CA5687C189958E83C3680CDFEED13BFE8F3BA
310
077C40A12BB0261C5CCFDE0DD3D934758EA29536E8DD0D69631B513FCC4D161FE763D0BFF2C2D4C6BEA326F3AA640E930C7F2FFF01504B03041400060808004BA1E442415EDC137E0000009D0000000B0000006662782F636E782E786D6C4DCCD10A83201886E15B91FFDCB5245B033574FDDD472C8B98E9703A76F9ABD1C1
310
8E3E78F87845FB591D79DBF85A8297509ECE40ACBF8771F1B3849C26DA0069958821A4BF1B103FAC56C2CEA0C41C437E1E34DA69C82E6DEA16FF38B0341563C89076575DD30A9B9A1A643DD5177EE35D8F1AB9814289E257DA760FAB2F504B03041400060808004BA1E4427567F0502E01000014020000310000006662782F
310
31423432324532452D443941362D344538362D424532462D4137354335444645414535422F636F72652E786D6C8D515B6EC23010BC4AE42FAA2A89ED3C20C83182124ED00B98C4500B62477E541CBFEB2648ED1F3F5E6B766676B4CB768FF19E7C4BEB94D12D22194689D4BD1994BEB628F84BBA41C98E336B8CFF43438916
310
A36C51841167576BC2B440BDD15E6A0FA836835C40E19CF428E9EFF06991EBBFE42832113C30DC2D9B447F135799910CDAC0E3CC790B019279487C11278792D28E76E9B1D9D769D96DEAF4D0D153BA5F571FD5F1D4EDBBEAC0F259C859086A58E46A8038EAA2A47DD5248A39F36A7CC6EFAD145E0E88534C8A14AF535C7E52
310
BC25784B8B775C6D0BCCF248FF270AD3F0A22828ED0BBAC49D650EB2B27C6E70369870BE3FC3C8C764AC4FE2BC9593FD1BE238C384D2B26908CB672A2C003CEB72F174DE5858F0EA76067601AC685C979CE5F146507E0F0835DE93FF00504B03041400060808004BA1E4422E9707FE5501000033030000300000006662782F
310
31423432324532452D443941362D344538362D424532462D4137354335444645414535422F636E782E786D6CBD93CD6EC32010845F0571ADFCEFA6518489D4439FA0875E316C1A1A0C16E0AA79FB2E094973C9A152D50BB2668799D527CCB65F93219FE0837676A04D595302563AA5EDFB4097B82BD6946C39F3CEC51B1B25
310
564C30D02453CEDEBD5BE62C29D889C544548DB6872C7A086EF11202CAE926314E0A8301608B05459846500A14B91AF16B071E5741713C92B807F2F2FC46DCF801320656A514CEAAD4C1593A73D38D8912694408030D720F9328C5129D8270289588A26CCA4BD79D9D7E9248BA70A95CBC26A97CA0E9A43C6F54224756E190
310
B3103DD2CBA6789C817231CF464B11117275329E3D9C2DDAC6559FBD1AC17B7477ED6ABDC6B0D38CB3A827C80EE941445094B775D315F55351F7AF6DBD69EA4DDB3DD48F9BAE6655B273363A67F2258C01EF66229D8D6023E50DABD2F81EBEEC234A7B64EDFCF1172011406E3DD3B966FC259F66D5F5FD3FF2A94EEF1B7179
310
FC0BF837504B03041400060808004BA1E4423F541F91640700009A1B0000340000006662782F31423432324532452D443941362D344538362D424532462D4137354335444645414535422F6F626A656374732E786D6CED59DD739B3810FF5718EEE5EEC1D8D84E9ADC103A49DC743CBDB49DFADAB907CF3032C84417211849
310
A4F1FDF5B7FA00033109BEE6DEFA6003425AEDFEF6534BF0F631A3CE03E682E4ECC2F5BD89EB6016E70961E9855BCAEDE8CC75DE8601CF73D998E63A0C65F8C255C36E18A43C2F0B3B94E02D2AA9EC8CDE5CFDE5881833EC3A3145425CB822BEC319F25029F3048B7B2F411279E9F6D1F33D33B14D36E5A8B8EB102D10C74C
310
02A730CE808A6398F2DB8F13771C0663F53E0CD4BF9D351B346BDE3F6BACA56E7349989088C54F58EA90990D6269E6CF17EFA627E7A393F97C369A9F4EFDD1D5CDD562E4BF994DAE4FAFAFCF2FDF9D037B9B3CA756A604179825A0BF9D1BFAC158BDA945B7081CE23ACE19C3B10612A0D2627509122C60AB067C93F6A3AF24
310
6ABCD612369EE7EABD65A1313C6B53E99B350C88165D10C46E57495C5D9BF2E59BBF417031C428B9C012B8159283762D3C1CBCC20D27C1D88C86C166AF0B229C0C49CC09A20E251B8E382805A6AA296160165832CA3938907294045A73E675DBB6C0335F769D435C6E4B4A9567B8A176AC08DC0F4BA13923FF60BEE7BE890C
310
F004D29684C933CBA5DC15D80DCF83B11E0C0375994DED4B03A4B3A528151A11F3B623E8B572FDE5C20D3FDC6C1E572A1C1CDEBCE07981B95446A7F4A8F90243B6578592DDD61FA439B5008431A0DA957B50BE00F21F217AEC5901BD71F2387F9CDBB9922326B639CF4037CEC4194DE06FE2F8FA5FDD37EE8271BDB8ADBD3E
310
3CC14D1554673F8E675B068D95E5BF0167183C80C1E77C665FAD6244C19E6F09038094913834872108EDDBCDA31B2E217042A0875588863E880CEC3EC06D30B664F65AA9DCCB7A1D0344ED1EB3214A02D8B445021B3D7A7A0FD9839378AFA6A6887DF09EBC8AB95E2E561F5625DFA218DF5A9F5EE02D614442D63CCC500BF3
310
9644F778F73DE70908FA14EF5513EFCC6E25006D85B9023EAD40500FFB9D5B1BC4B02ECD55B8095ED8018450B9BA41FF968818538A18CECB6ADF3ABA2943AD3DDED60C6E383510CFA61D13E6F881A8AA029C663FA3C528E4FD98934281E886EF8D6475D0F47AA4FBBAFC081659CFEF99B564107A19A27FEAA0750087966557
310
485B206A8137FB701EE734E7D166179948E7422D016CB4BDE55B8B28C47AA32445053C48FB5D155252236D9490EDB61410570FB0F86D79DD34878937F34F9CE67FC719E7106DC17711B77ED7D92322194A71B44549DF76CDDD6ADA4293EC21CDF196825CE481C85D84643449707A0C3447113F7F55EA29CD85200C0BC85707
310
C16FA231F12090186D562C2BAD76802622CAB044F4180414991E7075DAD1356E0CA5C3CB3CD6D6FB9CC69A44FF278BE0086AC99C45044A51C8212F32EE7B271043DAE81A943BF882B555B4B518B4841222DE45DF3149EFE431A81BF23DB8C77024296594172806B31E40F689AF28A57678DFA0F85EE58F282EE96B1988C074
310
1B114ACB2C821F6170F218E2DA75607A1685067113FB24CEA02843B2E44336393D993CD9C7D40CDD10D8D8684B2884ED2843450FEAAD80A8EB11A706DF52EF51EAA6CC8A086579C906198A37EB7A9325DF55AB223B905F552A42D95811B604C380305967D52A6683A9EBC00A6EA403D52E12282BA83985BD9078FCDA9B34E5
310
DE0DB8F5D3D7DD2083C2AF477BCD883AAF60B03CB60A03F11DC9F8CE0D57FA3ABA82FA3BC1C93ED557B566B30204C454242F39B12AFABA84F2C6D6686E788BA458BF3759B7BA7E5D7AD0FD08C6B0066A977AE152019D612691AA4C6ED50DFD822004B76898F1A5CAA9C750B94C125D35227A43FAD4D92A235A9B66C42BEE30
310
CB33F8B13561312D13BC4689B88F6E258D5644B16EA5F4325261FCAC809FDEAF3AF0C0C800913EAB020F7FEFACB5A3D7AA5C3A4844DE95D986210241B0255A6A74E3152CB51AA9B45C5FD59902EA2E3030ABE2F9CF9345B31DF1F364915AC3F8A193C5D5EE0FB46BF6451AE93C56767DD431A0CE4F8ACA6B1C0374DBA1A65A
310
671193CCADFCD69922088A55941F5C8D5541C310ECE3F83F67EDBE2C68B6EBF07F5CD6F69F541C476595D664D5A53A50B92E9B396CE65FFA93C58D3F7A7773E68FE66F1697A3B393ABE9687A733E7F73793AF3AF4E6E6A34B5A386411DCC74EE826713D4AA61F5643180AEACC82949E0349F382986982FE14C3FA07DCE332C
310
2079369BDD896DCA0F58FD60FA9C126D28AE38B943D020A602D23A6054C6B23DEEFC02AD490907ED0B179A46DE3DFC59AB741DC83C172EB40A2489B1F036D066520D3D4D1C52AECEFD9618E08358AA52A259543FD7AB1436ADF05F4F199206AC5CAD1E06146E0574BF5A1D0ACD9BE5293E4AF08A1D0749B8DD9412AA3523CB
310
7EA016466FB357BF918D12766FB77E04D77D5E2CDFD3735A880CFA64F0AC1118AA238978AAFBDD8A31CBD2E5E2F318FA6CCEF29353D032055D0EA734E2188CB954051558115885A5592009A67AFDFBFA33CFE1134FE6E8AAC8F9F5F1ECF4B7F5759E65393343EB4B389525F0A1C859DDC1679F640DC50356CD75B19E4EFCE9
310
5A37B56D9F3DDA20813D5515C140554C28413A260776F9A44165DB9763A58ACEF4E5C2B141149A01C68E9EF478CD472E077C487D4E511EA3FDBC92F6D9BEF6584F059BE0D0910EFF05504B03041400060800004BA1E442000000000000000000000000350000006662782F31423432324532452D443941362D344538362D42
310
4532462D4137354335444645414535422F76657274696365732E62696E504B03041400060808004BA1E442F270F1330600000004000000360000006662782F31423432324532452D443941362D344538362D424532462D4137354335444645414535422F747269616E676C65732E62696E636660600000504B030414000608
310
00004BA1E442000000000000000000000000370000006662782F31423432324532452D443941362D344538362D424532462D4137354335444645414535422F617474726962757465732E62696E504B03041400060808004BA1E442D5987DFC8F00000041010000360000006662782F31423432324532452D443941362D3445
310
38362D424532462D4137354335444645414535422F6469726563746F72792E786D6C858F410EC2201045AF4266AF15DDB800BA74E7C21B903225242D6328188F2FA5C4183471359997F9FF81E89FF3C41E1816475E02DF1F80A11FC8386F25A438EECEC07A250251FC3803E6F58C12560C4AD840E95E91C151A72936F496F3
310
5732D860FE635F62C8F2DA16B505C545B74125BAA2FA9E05D7CC053D063734D5C7665FD55B6B8D15D5E9BFEAFD8490FFA45E504B03041400060808004BA1E442BC72C55EFF000000A00100003B0000006662782F31423432324532452D443941362D344538362D424532462D4137354335444645414535422F7265736F7572
310
6365732F636F72652E786D6C8D504B6E833010BD0A9A6D65309040898C23923427E8052C33A156828DFCA97AFCDA814AEDAE9B99D1FB689E1E3B7ECD8FEC13AD5346F750E61432D4D28C4A4F3D047F23AF901D39B3C6F85F32C8B498B187040367933561D92069B447ED23AACD881B289C430F997CC4A307273F7016B9083E
310
2ADC3D5F84BC8B09F3328F74D471E6BC8D01B2F5499AC02D3A13AC44C78A95E52C04356E1A35C69FEAA6D002A7C3DBB9BB9E5BD25E2E2DD99D761DE9E87520FBA169F6557D6ABAEECC8A64E6CCABF927A3B4283C8EC02B5AD684B684EEDE2B7A28E9A1AA5FE8FE50535624F91F5358C67F9A82D2BEAEB6B8ABCD012F639027
310
C15991FA8AEB5966DCA95BFE0D504B010214000A00000800004BA1E4423DEE336E79000000790000001B00000000000000000000000000000000006175746F6465736B2D64657369676E2D7061636B6167652E786D6C504B010214001400060808004BA1E442D486FD9CA0000000F400000013000000000000000000000000
310
00B20000005B436F6E74656E745F54797065735D2E786D6C504B010214001400060808004BA1E4424C13512EEC0000007C010000080000000000000000000000000083010000636F72652E786D6C504B010214001400060808004BA1E44255019EA25F0000007C000000070000000000000000000000000095020000636E78
310
2E786D6C504B010214001400060808004BA1E442A3E22AFA69010000020300000C00000000000000000000000000190300006662782F636F72652E786D6C504B010214001400060808004BA1E442415EDC137E0000009D0000000B00000000000000000000000000AC0400006662782F636E782E786D6C504B010214001400
310
060808004BA1E4427567F0502E010000140200003100000000000000000000000000530500006662782F31423432324532452D443941362D344538362D424532462D4137354335444645414535422F636F72652E786D6C504B010214001400060808004BA1E4422E9707FE5501000033030000300000000000000000000000
310
0000D00600006662782F31423432324532452D443941362D344538362D424532462D4137354335444645414535422F636E782E786D6C504B010214001400060808004BA1E4423F541F91640700009A1B00003400000000000000000000000000730800006662782F31423432324532452D443941362D344538362D42453246
310
2D4137354335444645414535422F6F626A656374732E786D6C504B010214001400060800004BA1E4420000000000000000000000003500000000000000000000000000291000006662782F31423432324532452D443941362D344538362D424532462D4137354335444645414535422F76657274696365732E62696E504B01
310
0214001400060808004BA1E442F270F133060000000400000036000000000000000000000000007C1000006662782F31423432324532452D443941362D344538362D424532462D4137354335444645414535422F747269616E676C65732E62696E504B010214001400060800004BA1E4420000000000000000000000003700
310
000000000000000000000000D61000006662782F31423432324532452D443941362D344538362D424532462D4137354335444645414535422F617474726962757465732E62696E504B010214001400060808004BA1E442D5987DFC8F0000004101000036000000000000000000000000002B1100006662782F314234323245
310
32452D443941362D344538362D424532462D4137354335444645414535422F6469726563746F72792E786D6C504B010214001400060808004BA1E442BC72C55EFF000000A00100003B000000000000000000000000000E1200006662782F31423432324532452D443941362D344538362D424532462D413735433544464541
310
4535422F7265736F75726365732F636F72652E786D6C504B0506000000000E000E0080040000661300000000
  0
XRECORD
  5
17
102
{ACAD_REACTORS
330
12
102
}
330
12
100
AcDbXrecord
280
     1
270
     1
271
     1
  0
XRECORD
  5
16
102
{ACAD_REACTORS
330
12
102
}
330
12
100
AcDbXrecord
280
     1
270
     1
271
     1
  0
XRECORD
  5
18
102
{ACAD_REACTORS
330
12
102
}
330
12
100
AcDbXrecord
280
     1
270
     1
271
     1
  0
XRECORD
  5
15
102
{ACAD_REACTORS
330
12
102
}
330
12
100
AcDbXrecord
280
     1
270
     1
271
     1
  0
XRECORD
  5
24
102
{ACAD_REACTORS
330
22
102
}
330
22
100
AcDbXrecord
280
     1
270
     1
271
     1
  0
XRECORD
  5
23
102
{ACAD_REACTORS
330
22
102
}
330
22
100
AcDbXrecord
280
     1
270
     1
271
     1
  0
XRECORD
  5
BA
102
{ACAD_REACTORS
330
22
102
}
330
22
100
AcDbXrecord
280
     1
 70
     1
 90
1959938040
 71
     1
  1
E6F750CC-350F-4747-A038-5D0B28CB55CF
311
504B03040A00000800004AA1E4423DEE336E79000000790000001B0000006175746F6465736B2D64657369676E2D7061636B6167652E786D6C3C3F786D6C2076657273696F6E3D22312E302220656E636F64696E673D227574662D3822203F3E3C666F726D6174733E3C666F726D61743E687474703A2F2F736368656D612E
311
6175746F6465736B2E636F6D2F64657369676E2D7061636B6167652F323030393C2F666F726D61743E3C2F666F726D6174733E504B03041400060808004AA1E442D486FD9CA0000000F4000000130000005B436F6E74656E745F54797065735D2E786D6C7D8EC10E82300C865F65E91D8A1E8C310C0EEA1BF002731658846E
311
D98AC1B77784ABF1D8FE5FBFBF75BBCE937A534CCEB38643598122B6FEE978D0B0485F9C41B54DDD7D022595594E1A469170414C76A4D9A4D207E29CF43ECE46F218070CC6BECC4078ACAA135ACF422C856C0E68EA1BF5669944DDD7BCDE7B1F8E415D77AECB980613C2E4AC91FC167A2B244592486606FC29C8FD7F045B9A
311
EF7053A7E60B504B03041400060808004AA1E4421151A0F2EA0000007C01000008000000636F72652E786D6C8D90416EC3201045AF82665B61834DE5D4C2448E1C9FA01740863828315806AA1EBF903852BBEB6A467FFE9B197D7EFC5EEEE84B6FDE38DB012D08206D27A78C9D3B88E1820F808E826FCE855F3640562EBA83
311
2C83E0F3E6E2BA4B93B341DB9054EB94DE45E9BD0E80A67B6A3AF0D3552FB290312487BF15AB9C6E72D6057D75098ED128F43C6254DA672E466F201A3236EC5C0FF834F607CCD881E27E60031E9B1323CD47DDF767CACB0C0B1ECCF2BA3F6D5A06AD405484D6983498B0CF8AB494B4157923EF6D4D7899ED7FA0B8AA7F42D1
311
D85057FBBB4FCC83C88F3C068297398B541E41A59A73133F504B03041400060808004AA1E44255019EA25F0000007C00000007000000636E782E786D6C4DCB3B0E80201045D1AD90E915ED2CF8AC45050C11660C8261F98AB1B07AC9C97D42D718D865D3E909258CFD00CCE24AC6E326A164D74DC0B4128928FF326038472B
311
A13128B1252AC747C6BAB984FC68F0B87FE8960A5C09FE86CFB69FBA01504B03041400060808004AA1E442C730298766010000020300000C0000006662782F636F72652E786D6C8D52ED8A8330107C9590BF474CFC38EC95986269FB04F702A9A69E54138989F4F16FFD285E8F528A10C3CCCEEEEC28DFDDDA060DCAF6B5D1
311
190E038691D285296B5D65D8BB0BD960B413DC1AE3FE9461A465AB323CC258F0CA1ADF2D5061B453DA01AA4DA91650F6BD7218150D5C32DC173FAA9581F40E2AFA6BD0C9E22A2B158401D0502778EF2C1840F390F1C4E272BE713AE3827B5F970B5B9730ADBED4CA6291B2539A1CE303D99FF20D49924D48F2437220A7749F
311
B0F42BCEF363C8E92816DCD5EDDD5D619574AAC42262614C584A58F21DB16DC8B611FB609FDB98713A963F887C57BE29F2B57671B4D89D653D16A39189F8B72D44E4502F07F04305A76388F09A127E0C1A0281909D3C37F73DAE000DAA70C626C094C6AFD4201BAF602A43D3C3E9CC42E7A9016CF6B44FF4A2CFEB1EF001A5
311
AEC09A74703D7B374EE7F3D4258A4E5932B81BD2C6B6B259CDCD16D7731DF4545E98C6D877D47459952E61D2F1EF15BF504B03041400060808004AA1E4423BA01DEA7D0000009D0000000B0000006662782F636E782E786D6C4DCCD10AC2201886E15B91FFDCF65B460DD48113EF63343724A7C334BAFCB6D841471F3C7CBC
311
A2FB2C81BC5D7EF91425B0130271F191461F6709B54CF40EA45322A754FE6E40E2B038093B8312734E753D6874D35043D934F8F83C10B9E196334BF16635E5D823D5BA6D29339C9F2FFA6A4D8FD028D1FC4ADBEE61F505504B03041400060808004AA1E4428999A42B2A01000014020000310000006662782F303444344634
311
31462D303746422D343043302D424239392D3144343432334235464443302F636F72652E786D6C8D515B6EC32010BC0AE22B55651B6CE23611269213F904BD0035244589C1E251E5F85D6A476AFFF2C3A2D999D981E587FB7443DFDA07E36C87694930D27674CAD84B87533C17EF181D04F7CEC53F348CAC9C7487338C05BF
311
7897E6151A9D8DDA4640AD537A0565083A6234DEE0D2E1307EE94996324560846B39CBF12A2FBAA425B4812778881E02A065483EB120ECC406468782BC0D7DC1C891147DBFDB15F4C458DDF4DBE17424BC5A8482A764D42A370AE298B3D1FE59932C163C9AE9117FF45A46ADB0A8096D204041D8474DF694EC6BF24AB6FB06
311
2667FA3F519AD593A2646C6CEA35EE220B58505E2D0DC1954B9FB747187D9F9D8F28CFDB043DBEC0AB4A4269D3B6ACE1D542850F00CF96AD9E213A0F1FBCB97E029B6E17E396095EE51D41F95D20D4BC4FF103504B03041400060808004AA1E4424B0F447B4E01000033030000300000006662782F30344434463431462D30
311
3746422D343043302D424239392D3144343432334235464443302F636E782E786D6CD593CD6EC32010845F0571AD6CE3C44DAB0813A9873E410FBD12D83434182C7EAAE6EDBB2424CD25871E7B41D6EC30B3FA84F9E67BB2E40B4234DE8DB46F1925E094D7C67D8C34A75DF34CC946F0E07DBAB151E2E404232D3215FC23F8
311
3C5749C34E669B50B5C61DAA1820FA1C144494CB4D62BD921603C035194598B6A035687235E2D70E02AE82E2F648D21EC8EBCB3BF1DB4F5029F2AEA408DE950EC1CB599B6E4C94282B631C69547B98642B73F21AE2A1D532C9B66F2F5D7776FA4D22E5C2A53207434AF948CB4945DDA8458EBCC3A1E03105A4574DE9380315
311
729EAD513221E4EE643C7B04CFC6A5D550BD06C10774F7ABE53060D8692678321354870A2013682A16AC5F36ECA961C3DB82AD7BB65EB007F6B85E32DE15BBE05BEF6DBD843110FC4C9477095CA2A2E75D19DFC3577D449B80AC7D38FE012402A8AD673AD78CFFCCA73BBD6FC415F02F103F504B03041400060808004AA1E4
311
420C90DEE3A405000080100000340000006662782F30344434463431462D303746422D343043302D424239392D3144343432334235464443302F6F626A656374732E786D6CAD57DB6EDB3810FD1541FBB2FBE0BB9DCB425191D8756114698B1A2DF6C180414994A20D250A249538FBF57B2852B2E4D88977D117CBA286C399
311
33672EF43EEC32E63C5121539EDFB8A3FED075681EF228CD931BB75471EFCA753EF89EE05CB5C45C272719BD71F5B2EB7B89E0656197221A9392A983D5E5DD5F8E0C694E5D276444CA1B57860F34237D522A1E51F9D88F8822FD24DEF5477D23D8559B08523C1C282D88A0B982A558CFA1C531468DBAAF4377E07B03FDDDF7
311
F4AF959A9C961A54FE74CF4F73A9481EBE3AEC40CD64345D7C1CCFAE7BB3E974D29B5E8C47BDBBE5DDA237BA9C0CE717F3F9F5EDC76B1C2C9580266B89A0B1EB7F0236220DBD81F9E47B659AABC9D88AD8000D047D4A75A45C7FEC8CBC819169BCB34E1E333FE4794EC30A2BA051F9675547B4A0798498A754C2B21642C3EE
311
EB48E3D8FA3CD1EFF6C8F6F27908B477B414D5B6D7CFB6A53CF81B2EC873182424D50C34585A470D57877B8403CE99FD964A27238A8A943087A58120E2C5F521AA457CAFA3463359E86CD01EB83EA2603E77E982347A9FE7C7AC8C4BC6348D5DBFCA822D72852A595996FE43C5DEFA3632B009B1D26CB8B20EA99782BAFEB5
311
A1C8D5019B0C904ECC488290C34DBD73323E7074AEF374B570FDCFCB60B7D6B97BFCF042F0820AA5E9036AD581AB9F1A256BD3E8ACC8E90DEE81297B50BE03F92F48F5BD29889B4877D3DDD49EA204C965CC4586D83843A737C4CFD01955BFFA7FEB9F37683677A3770A4F045B43F50BF0ECFAD08E650B4EDF7B02E1B99858
311
D7D62161281BF7690E8034491CC6B1843A1C073BD75FA1CAA12A631761FE082EC3DC27FCF506560D0A457552EB9903CB83B2784681066C1523618621BF35701FA757E5AC3AD88A9D8277F64BE87ABB587F5E97222621BDB739BDA0719AA70A2D6ECF9BB6411DCC3B1E3DD297672E2238FA1AEF751BEFCC1E2581B6C65C039F
311
D4355DBFEC4FEE1C10625FC275B9F1DE39014EE8C6DAD27F9FCA90324672CACBFADC37FB07DA86815827BB6672D360F68D05A4315F0E72104D3A1469A1416CBA555334FB27BCFBB1FA0246429EF180B0BD50B02FBD21675C6C8397ADA94A4791FED9A5B68560A0B580ED558ED4E96F31DF46691C971235F008AC3F57F376E8
311
74554085A8B59A6499C27DE4161196B3B55E346B41D04879BE4DD1369176470F68EB07A2960095C253164BCAE26DCA58996DE394A1196D33529C80E3FFDB1F9459B125192F73754277C7743487AEED1DF2CA67A2C207D75F57CFDE1D4A6F44A37D983BC2BA951CC1AA13DA8F17CBCBD9703EEF4D66C3656F7A39BDECDD0E27
311
57BDD9627837BE9ADFCD66F3651D27A3DCF7EA4ED34E6844099DCD2B456AC3F76385F4B135C0F5EF89929B4F263BEBE78F551FA3B037C01EB4CB66E36DF484B18F46EF2BD84B1E55B4CA0A46339A2BA253E85EFF61DF09C68C8E31667D9591849EA1E5EBA7F58133583963DF379DEEF4F960AF5D9DEB843CAA443D94599093
311
941D6C4C0C92FD224F2C7E754C9AA7E933F5AB7EB381C1602A394B2394C1C84928CFA842313CA307898C4A50AF3DD247F6EA71C6EE2733202A12305A5BF24030233389B400B5CA5075D79DDF30D3E9B1EAC645B7ED3FE2C7560AD701676E5CCCE82A0DA9EC07E8CF7A12AA94834BED411E733FC9138651DB6C6ADE9B5D1A9B
311
4E476E44CE199FAC5FA6825B0750460A8C0D9887109DCA18DFAB6CB3DFC3FFE4786D8E4314FE06A56A7CD92F34CE54C720458D53F6B28019E6D11EBD43A2BEEDD6A85FC9741039EB92F526098CD69E2222A92E0ADA3E6BD2EDE2DB00038AB3FAEA14AC4C10CBF335F50405994B9DE06011586175164481AAF33F37DF04C745
311
3673962928E0FCBEBBBAF86333E759C673B3B4B9B5D76167FD80CB6DB44171A0FA562237E3E168BCA96E03F682B20D88A47D12C9472C20B2226D80EE841FBC345746F421F3A1911BE8501C3074B5706C639B42A9A54BBBB66A703077E4D4410EE91BA5CE98B640F1E685605089C2048151DEFF17504B03041400060800004A
311
A1E442000000000000000000000000350000006662782F30344434463431462D303746422D343043302D424239392D3144343432334235464443302F76657274696365732E62696E504B03041400060808004AA1E442F270F1330600000004000000360000006662782F30344434463431462D303746422D343043302D4242
311
39392D3144343432334235464443302F747269616E676C65732E62696E636660600000504B03041400060800004AA1E442000000000000000000000000370000006662782F30344434463431462D303746422D343043302D424239392D3144343432334235464443302F617474726962757465732E62696E504B0304140006
311
0808004AA1E442D5987DFC8F00000041010000360000006662782F30344434463431462D303746422D343043302D424239392D3144343432334235464443302F6469726563746F72792E786D6C858F410EC2201045AF4266AF15DDB800BA74E7C21B903225242D6328188F2FA5C4183471359997F9FF81E89FF3C41E181647
311
5E02DF1F80A11FC8386F25A438EECEC07A250251FC3803E6F58C12560C4AD840E95E91C151A72936F496F35732D860FE635F62C8F2DA16B505C545B74125BAA2FA9E05D7CC053D063734D5C7665FD55B6B8D15D5E9BFEAFD8490FFA45E504B03041400060808004AA1E442CE3F6A4AFD000000A00100003B0000006662782F
311
30344434463431462D303746422D343043302D424239392D3144343432334235464443302F7265736F75726365732F636F72652E786D6C8D50596E833010BD0A9ADFCA60968A141947A40927E8052C332156828DBC543D7EED40A5F6AF3F33A3B7689E1E3B7E2D8FEC13AD5346F750E61432D4D24C4ACF3D047F2507C88E9C
311
5963FC2F19645A2CD8438281B3D99AB0EE9034DAA3F611D566C21D14CEA1874C3EE2D18393375C442E828F0A77CF5721EF62C6BCCC231D759C396F63806C7B9226708BCE042BD1B16263390B414DBB464DF1A7BA2AB4C05B3AB6CDA57E27A7713890A639946438376732B6A786B66FF5305C4A562433675E2D3F19A545E171
311
025ED1B226B425B4F9A86857D2AEA22FF4B5AB292B92FC8F29ACD33F4D41695F577BDCCDE680A7204F82B322F515D7B3CCB853B7FC1B504B010214000A00000800004AA1E4423DEE336E79000000790000001B00000000000000000000000000000000006175746F6465736B2D64657369676E2D7061636B6167652E786D6C
311
504B010214001400060808004AA1E442D486FD9CA0000000F40000001300000000000000000000000000B20000005B436F6E74656E745F54797065735D2E786D6C504B010214001400060808004AA1E4421151A0F2EA0000007C010000080000000000000000000000000083010000636F72652E786D6C504B010214001400
311
060808004AA1E44255019EA25F0000007C000000070000000000000000000000000093020000636E782E786D6C504B010214001400060808004AA1E442C730298766010000020300000C00000000000000000000000000170300006662782F636F72652E786D6C504B010214001400060808004AA1E4423BA01DEA7D000000
311
9D0000000B00000000000000000000000000A70400006662782F636E782E786D6C504B010214001400060808004AA1E4428999A42B2A0100001402000031000000000000000000000000004D0500006662782F30344434463431462D303746422D343043302D424239392D3144343432334235464443302F636F72652E786D
311
6C504B010214001400060808004AA1E4424B0F447B4E010000330300003000000000000000000000000000C60600006662782F30344434463431462D303746422D343043302D424239392D3144343432334235464443302F636E782E786D6C504B010214001400060808004AA1E4420C90DEE3A40500008010000034000000
311
00000000000000000000620800006662782F30344434463431462D303746422D343043302D424239392D3144343432334235464443302F6F626A656374732E786D6C504B010214001400060800004AA1E4420000000000000000000000003500000000000000000000000000580E00006662782F30344434463431462D3037
311
46422D343043302D424239392D3144343432334235464443302F76657274696365732E62696E504B010214001400060808004AA1E442F270F13306000000040000003600000000000000000000000000AB0E00006662782F30344434463431462D303746422D343043302D424239392D3144343432334235464443302F7472
311
69616E676C65732E62696E504B010214001400060800004AA1E4420000000000000000000000003700000000000000000000000000050F00006662782F30344434463431462D303746422D343043302D424239392D3144343432334235464443302F617474726962757465732E62696E504B010214001400060808004AA1E4
311
42D5987DFC8F0000004101000036000000000000000000000000005A0F00006662782F30344434463431462D303746422D343043302D424239392D3144343432334235464443302F6469726563746F72792E786D6C504B010214001400060808004AA1E442CE3F6A4AFD000000A00100003B00000000000000000000000000
311
3D1000006662782F30344434463431462D303746422D343043302D424239392D3144343432334235464443302F7265736F75726365732F636F72652E786D6C504B0506000000000E000E0080040000931100000000
310
504B03040A00000800004AA1E4423DEE336E79000000790000001B0000006175746F6465736B2D64657369676E2D7061636B6167652E786D6C3C3F786D6C2076657273696F6E3D22312E302220656E636F64696E673D227574662D3822203F3E3C666F726D6174733E3C666F726D61743E687474703A2F2F736368656D612E
310
6175746F6465736B2E636F6D2F64657369676E2D7061636B6167652F323030393C2F666F726D61743E3C2F666F726D6174733E504B03041400060808004AA1E442D486FD9CA0000000F4000000130000005B436F6E74656E745F54797065735D2E786D6C7D8EC10E82300C865F65E91D8A1E8C310C0EEA1BF002731658846E
310
D98AC1B77784ABF1D8FE5FBFBF75BBCE937A534CCEB38643598122B6FEE978D0B0485F9C41B54DDD7D022595594E1A469170414C76A4D9A4D207E29CF43ECE46F218070CC6BECC4078ACAA135ACF422C856C0E68EA1BF5669944DDD7BCDE7B1F8E415D77AECB980613C2E4AC91FC167A2B244592486606FC29C8FD7F045B9A
310
EF7053A7E60B504B03041400060808004AA1E442A5E135FEE90000007C01000008000000636F72652E786D6C8D90416EC3201045AF82665BE180498A6561A2C4694FD00B20200E4A0C9681A8C72F4E1CA9DD7535A33FFFCD8CBED87F8F3774B77374C177402B02C87A1D8CF34307399D7103682FC51C42FA6503E4D5683B58
310
64906298439E5649079FAC4F45F5C1D8555431DA0448DF4AD341D4173BAA4AE5541CF15A4D4A5FD5602BFAEA0A9CB333E879C499B2CF9D9D9D41D60DE5849F0EF8C43F18DE1EDF396E587DC07CD7F4ACA7FD276F88D82CB014C98DAFFB7AB62A5953784219261C93ED574D5A4ADA9ABC915DCB0AB4D8FF407932FF84B2F389
310
D5EBBB4F2C82A4E591C7408ACD9245298FA04A5D72933F504B03041400060808004AA1E44255019EA25F0000007C00000007000000636E782E786D6C4DCB3B0E80201045D1AD90E915ED2CF8AC45050C11660C8261F98AB1B07AC9C97D42D718D865D3E909258CFD00CCE24AC6E326A164D74DC0B4128928FF326038472BA1
310
3128B1252AC747C6BAB984FC68F0B87FE8960A5C09FE86CFB69FBA01504B03041400060808004AA1E4428260DA2966010000020300000C0000006662782F636F72652E786D6C8D52ED8E8320107C15C2DF0B82DA9EA6419A5E7BF704F70254A947AA60104C1FFFD68FA6D74BD33426486676766747F9F6D2366850AED7D614
310
388E1846CA94B6D2A62E70F0279263B415DC59EBFF94616464AB0A3CC258F0DAD9D02D50698D57C6036A6CA51650F6BDF218950D5C0ADC973FAA95910C1E2AFA73D4C9F22C6B15C511D0502778EF1D1840F390F1C4E274BC703AE38287A0AB85D5154CD327AD1C16491E672C3BECC821FB4CC9EAE33D23799AEC48B6CEF7E9
310
3EDE7F6539E374140BEE757B75573A25BDAA40CFE294B08CB0D577C23631DB24EC8DAD372988C6F23B51E8AA1745411B9F268BDD59D66311839189F8B72D44E4512F07F04305A76388F09A12BE0F1A028190BD3C36D73DCE000DAAF4D6AD80A96CB851836C8282A90C4D0FA7330B9DA706B0D9C33EC9933ECF7BC00794A606
310
6BD2C3F518FC389DCF5397283AE5C8E02FC858D7CAE6666EB6783B6F831ECA4BDB58F78A9A2EABD2254C3AFEBDE217504B03041400060808004AA1E4425F703DFE7D0000009D0000000B0000006662782F636E782E786D6C4DCCD10AC2201886E15B91FFDCD66AA1823A54E67D8CE686E4344CA3CB6F8B1D74F4C1C3C7CBFB
310
CF1AD0DBE5974F51407B3A0372F19E261F1701B5CC9802EA25CF2995BF1BA038AE4EC0CE20F992537D1E34B979ACA16C1A7C7C1CA808192CE95A6CACD1B853D6607A192CB64CEB1B658CA82B8346F2E657DA760FCB2F504B03041400060808004AA1E4421643B2C12C01000014020000310000006662782F41373745463734
310
312D434643422D344146432D383245462D4639424235383939374133392F636F72652E786D6C8D51ED8EC220107C15C22F2F175A68AB6D0DC5A8B14F702F50019568A1E1E3E2E31F5C6B72F7CF3F2C999D999DECD2DD737C806F699D32BA8324C31048CD8D50FADAC1E02FA88160C7A835C6FFA141A087517630C190D1AB35
310
615A206EB497DA47541B211770704E7A08F8237E3AE8F84D8E4336041F19EE9E4D03BF0F5799912CB6238F51E76D0C00E621E9856C5FD7A7BEAE083AF6C703AAF6FD1135C5A9477D7B38AC9BB6ADF7654BF359C868084A2C7225621C7551D2BE6B92C48C7A35BEE2732B072F0564052625C235C2D55781B7046F0BFC89D7DB
310
12D33CD1FF89C224DE1405A57D592C716799838CD07C6E302A4C383F5E61E47332D683346FE524FF800C679890A6C1455CC04C8D0B889E9B6AF174DED8B8E0D5FD1CD9E562BCA918CDD38D62F93D60ACE99EEC07504B03041400060808004AA1E4422DA88B6C5601000033030000300000006662782F41373745463734312D
310
434643422D344146432D383245462D4639424235383939374133392F636E782E786D6CBD93CD6EC32010845F0571AD6CE39FA6518489D4439FA0875E316C1A1A1B2CC055F3F65D1292E69243A5AA1764CD0E33AB4F986FBFA6917C820FC6D99ED625A304AC72DAD8F79E2E7157AC29D90AEE9D8B37364AAC9CA0A749A682BF
310
7BB7CC59D2B093CB18511D8D3D64D143708B5710504E37C9E8941C31006CB1A008D3005A832657237EEDC0E32A280E4712F7405E9EDF881B3E40C5C0AB942278953A044F676EBA3151A24619424F83DAC3244BB944A7211C4A2DA32CEBF2D27567A79F24922E5C2A176F482AEF693AA9C81B95C8915738143C448FF4B2291E
310
67A042CEF368948C08B93A19CF1EC11763E3AACB5E83E03DBADB66B55E63D869267834136487F22023682A1A56B7057B2A58F7DAB04DCD360D7B608F9B96F12AD9051F9C1BF3258C01EF66A29C8D60231535AFD2F81EBEEC23DA7864EDFCF1172011406E3DD3B966FC259F7AD576DD3FF2A94EEF1B7179FC0BC437504B0304
310
1400060808004AA1E44245F7DBD162070000991B0000340000006662782F41373745463734312D434643422D344146432D383245462D4639424235383939374133392F6F626A656374732E786D6CED595B73A33614FE2B0C7D691F8C21B673E9103A89B3D9F1EC6477A7EE76FAE019460699A81182914436E9AFEFD1050CC4
310
24B84DDFFA6003423A3AE73B571DC25F9E72EA3C622E48C12EDDC0F35D07B3A44809CB2EDD4AEE26E7AEF34B14F2A290AD69AEC3508E2F5D35EC4661C68BAAB44329DEA18ACADEE8EDF51F8E4830C3AE935024C4A52B927B9C230F55B248B178F052249197ED9EBCC03313BB64338ECAFB1ED11271CC24700AE30CA83886A9
310
A0FBE8BBD3289CAAF751A8FEEDACD9A859F3E159532D75974BC284442C79C1528FCC6C144BB3607EF3E164713159CCE7B3C9FCF424985CDF5EDF4C82B399BF3C5D2E2FAE3E5C007BDBA2A056A6149798A5A0BF67370AC2A97AD3886E1138C475523086130D2440A5C5EA132458C0562DF8FCEE63A0246ABDD612B69EE7EABD
310
65A1353CEB52199A350E880E5D10C46E574B5C5FDBF215DB3F417031C628B9C012B8159283762D3C1CBCC28DFC706A46A370BBD705114E8E24E6045187922D471C940253D59428340B2C19E51C1C48394A02AD39F3BA6B5BE0996FBBCE212E7715A5CA33DC483B560CEE87A5D09C91BF30DF73DF46067802692BC2E4B9E552
310
3E97D88D2EC2A91E8C4275999DD8970648674751263422E66D4FD0A572FDD58D1B7DBADD3EAD553838BC79C98B1273A98C4EE951F305866CAF0A25BB6D304A736A01086340B52BF7A0FC0AC87F86E8B16705F4C6C9D3FC696EE74A8E98D8153C07DD38BE33F1E1CF7702FDAFEE5B77E1B459DCD5DE109EE0A60AAAF37F8F67
310
57068D95E5BF0567143E82C1177C665FAD1344C19EEF080380949138B4802108EDBBED931BAD207042A08755884601880CEC3EC26D38B564F65AA9DDCB7A1D0344ED1EB3314A02D8B445021B037AFA08D9839364AFA6B68843F02EDEC55CAF6ED69FD615DFA104DF599FBEC13BC28884AC7998A10EE61D891EF0F3F782A720
310
E84BBCD76DBC73BB9500B415E60AF8AC06413DEC77EE6C90C0BAAC50E1267C63071042E5EA16FD3B22124C2962B8A8EA7D9BE8A60CB5F1785B33B8D189817876D233618E1F89AA2AC069F6333A8C42DE4F382915886EF4D148D6044D6F40BA6FABCF6091CDFC81592B06A19721FA9B0E5A0770E858768DB405A21178BB0FE7
310
49410B1E6F9F6313E95CA825808DAEB7FCDE210AB1DE284951010FD27E578794CC481BA764B7AB04C4D5032CFEBE5AB6CDC1F766C1C269FFF79C710ED1167C1771EB77BD3D6292A30CC73B940E6DD7DEADA12D34C901D21CEF28C8451E897C8E918CFD1467C7407314F18B77A59ED14208C2B0807C7510FC361ABE0781C468
310
B3665969B5073411718E25A2C720A0C80C80ABD38EAE7113281DDEE6B1B1DED734D626FA1F590447504B162C26508A420E7993F1C05B400CE9A26B50EEE10BD656D3D662D00A4A88E439FE8E49762F8F41DD901FC03D81234925E3A2440998F508B22F7C4529B5C7FB16250F2A7FC44945DFCB4004A6BB98505AE531FC0883
310
93C718D76E02D3AB28B4889BD827710E451992151FB3C9E9C27FB18FA919FA21B0B5D18E5008DB718ECA01D43B0151D7234E03BEA53EA0D46D959731CA8B8A8D32146FD6F7264BBEAF56457624BFAA5484B2B1266C09462161B2C9AA75CC0653D78115DC4807AAE758A0BCA4E614F646E2091A6FD2940737E0D64FDF77831C
310
0ABF01EDB523EABC86C1F2D8290CC47724937B375AEBEBE41AEAEF14A7FB545FD79AED0A10105391BCE2C4AAE8DB0ACA1B5BA3B9D11D9262F3D164DDFAFA6DE541F7239CC21AA85D9A852B05748E9944AA32B95337F4570421B843C38CAF544E3D86CA559AEAAA11D15B32A4CE4E19D1D934275E798F5991C38F6D084B6895
310
E20D4AC5437C2769BC268A752BA597931AE35705FCF271DD8307464688F4551578F87B6FAD1D5DAA72E92011795FE55B860804C18E6899D18D57B2CC6AA4D6727355670AA8BBC0C0AC8AE7FF9F2CDAED88FF4F1699358C7F77B2A0C516D17DB46965F34499F551A780263D292AEF710AD05D87866A93444C2EB7E25B5F8A21
310
26D6417E743156C70C437088E37F9CB48792A0D9AEC7FF71493B7851701C95543A935593EA40E1BA6AA7B00FA7B7670B7FB99CCC16FEED647E363F9B5CF9B3F3C9E2C6BF3E395F5E2F16CBDB064DEDA751D8C4329DBAE0D9C4B47A583D590CA0292B0A4A5238CCA74E8621E44B38D28FE89EF31C0BC89DED5E776A7BF22356
310
3F9A36A7445B8A6B4EEE11F487A980AC0E185589EC8E3B3F406752C239FBD2859E91F7007FD62A5D0712CFA50B9D0249122CBC2D7499543F4F13878CAB53BF2506F82096A98C681635CFCD2A854D27FA3753C664012B57A78501755B09CDAF4E8342F366794A8E12BC66C741126EB7958462CDC8B21F6884D1DBECD56F64A3
310
843DD8AD9FC0755F172BF0F49C0E22A3BE18BC6A0486EA44229EE976B762CCB27475F3750A6D3667F5C5296995812EC7539A700CC65CA97A0AAC08ACC2D22C9104535DFEBCF9CA0BF8C2933BBA28727E7C3A3FFD69B32CF2BC606668730587B214BE1339EB7BF8EA936EA076C0AAB72E36277E70B2D13D6DDB668FB748604F
310
15453050D7124A909EC9815DBEE84FD9EEE554A9A2377D75E3D8200ABD0063472F5ABCE61B97033EA4BEA6288FD17E5E4BFB6A5B7BAAA7824D706848477F03504B03041400060800004AA1E442000000000000000000000000350000006662782F41373745463734312D434643422D344146432D383245462D463942423538
310
3939374133392F76657274696365732E62696E504B03041400060808004AA1E442F270F1330600000004000000360000006662782F41373745463734312D434643422D344146432D383245462D4639424235383939374133392F747269616E676C65732E62696E636660600000504B03041400060800004AA1E44200000000
310
0000000000000000370000006662782F41373745463734312D434643422D344146432D383245462D4639424235383939374133392F617474726962757465732E62696E504B03041400060808004AA1E442D5987DFC8F00000041010000360000006662782F41373745463734312D434643422D344146432D383245462D4639
310
424235383939374133392F6469726563746F72792E786D6C858F410EC2201045AF4266AF15DDB800BA74E7C21B903225242D6328188F2FA5C4183471359997F9FF81E89FF3C41E1816475E02DF1F80A11FC8386F25A438EECEC07A250251FC3803E6F58C12560C4AD840E95E91C151A72936F496F35732D860FE635F62C8F2
310
DA16B505C545B74125BAA2FA9E05D7CC053D063734D5C7665FD55B6B8D15D5E9BFEAFD8490FFA45E504B03041400060808004AA1E4421828563FFE000000A00100003B0000006662782F41373745463734312D434643422D344146432D383245462D4639424235383939374133392F7265736F75726365732F636F72652E78
310
6D6C8D905D6EC3201084AF62F15A6183498A6B61A2D6694FD00B20BC715162B0F8A97AFC42EC4AED5B5F5834339F76B4E2F4B5DCAA4FF0C1383B205A135481D56E32761E508A17DCA1EA2485772EFE8AA1CAAA0506546424C5EC5D5A77493B1BC1C6AC5A37C12EAA1020A24ADFF26740417FC0A26A95624E846BBD2A7D5533
310
D4B4CE76CE4911A2CF05AA6D497991F4105CF21A826836578A94CCB467CC94779A8B018F64DB514EF8F9099FF92BC38797478E3BD63E637EEC4636D2F18D7744340596229AE5A7A3F6A0224C99279461C23139BCB7A4A7A46FC90339F62C4325FE074AEBF44F28191B59BBD7DDB08024CD45EE86144DB9571EF763E6596E2B
310
BF01504B010214000A00000800004AA1E4423DEE336E79000000790000001B00000000000000000000000000000000006175746F6465736B2D64657369676E2D7061636B6167652E786D6C504B010214001400060808004AA1E442D486FD9CA0000000F40000001300000000000000000000000000B20000005B436F6E7465
310
6E745F54797065735D2E786D6C504B010214001400060808004AA1E442A5E135FEE90000007C010000080000000000000000000000000083010000636F72652E786D6C504B010214001400060808004AA1E44255019EA25F0000007C000000070000000000000000000000000092020000636E782E786D6C504B0102140014
310
00060808004AA1E4428260DA2966010000020300000C00000000000000000000000000160300006662782F636F72652E786D6C504B010214001400060808004AA1E4425F703DFE7D0000009D0000000B00000000000000000000000000A60400006662782F636E782E786D6C504B010214001400060808004AA1E4421643B2
310
C12C0100001402000031000000000000000000000000004C0500006662782F41373745463734312D434643422D344146432D383245462D4639424235383939374133392F636F72652E786D6C504B010214001400060808004AA1E4422DA88B6C56010000330300003000000000000000000000000000C70600006662782F41
310
373745463734312D434643422D344146432D383245462D4639424235383939374133392F636E782E786D6C504B010214001400060808004AA1E44245F7DBD162070000991B000034000000000000000000000000006B0800006662782F41373745463734312D434643422D344146432D383245462D46394242353839393741
310
33392F6F626A656374732E786D6C504B010214001400060800004AA1E44200000000000000000000000035000000000000000000000000001F1000006662782F41373745463734312D434643422D344146432D383245462D4639424235383939374133392F76657274696365732E62696E504B010214001400060808004AA1
310
E442F270F13306000000040000003600000000000000000000000000721000006662782F41373745463734312D434643422D344146432D383245462D4639424235383939374133392F747269616E676C65732E62696E504B010214001400060800004AA1E44200000000000000000000000037000000000000000000000000
310
00CC1000006662782F41373745463734312D434643422D344146432D383245462D4639424235383939374133392F617474726962757465732E62696E504B010214001400060808004AA1E442D5987DFC8F000000410100003600000000000000000000000000211100006662782F41373745463734312D434643422D344146
310
432D383245462D4639424235383939374133392F6469726563746F72792E786D6C504B010214001400060808004AA1E4421828563FFE000000A00100003B00000000000000000000000000041200006662782F41373745463734312D434643422D344146432D383245462D4639424235383939374133392F7265736F757263
310
65732F636F72652E786D6C504B0506000000000E000E00800400005B1300000000
  0
XRECORD
  5
27
102
{ACAD_REACTORS
330
22
102
}
330
22
100
AcDbXrecord
280
     1
270
     1
271
     1
  0
XRECORD
  5
26
102
{ACAD_REACTORS
330
22
102
}
330
22
100
AcDbXrecord
280
     1
270
     1
271
     1
  0
XRECORD
  5
28
102
{ACAD_REACTORS
330
22
102
}
330
22
100
AcDbXrecord
280
     1
270
     1
271
     1
  0
XRECORD
  5
25
102
{ACAD_REACTORS
330
22
102
}
330
22
100
AcDbXrecord
280
     1
270
     1
271
     1
  0
XRECORD
  5
D7D
102
{ACAD_REACTORS
330
D7C
102
}
330
D7C
100
AcDbXrecord
280
     1
102
ACAD_ROUNDTRIP_2012_MLEADER_STYLE
298
     1
  0
CELLSTYLEMAP
  5
D7B
102
{ACAD_REACTORS
330
D7A
102
}
330
D7A
100
AcDbCellStyleMap
 90
        3
300
CELLSTYLE
  1
TABLEFORMAT_BEGIN
 90
        5
170
     1
 91
        0
 92
    32768
 62
   257
 93
        1
300
CONTENTFORMAT
  1
CONTENTFORMAT_BEGIN
 90
        0
 91
        0
 92
      512
 93
        0
300

 40
0.0
140
1.0
 94
        5
 62
     0
340
55
144
0.25
309
CONTENTFORMAT_END
171
     0
 94
        0
309
TABLEFORMAT_END
  1
CELLSTYLE_BEGIN
 90
        1
 91
        1
300
_TITLE
309
CELLSTYLE_END
300
CELLSTYLE
  1
TABLEFORMAT_BEGIN
 90
        5
170
     1
 91
        0
 92
        0
 62
   257
 93
        1
300
CONTENTFORMAT
  1
CONTENTFORMAT_BEGIN
 90
        0
 91
        0
 92
      512
 93
        0
300

 40
0.0
140
1.0
 94
        5
 62
     0
340
55
144
0.18
309
CONTENTFORMAT_END
171
     0
 94
        0
309
TABLEFORMAT_END
  1
CELLSTYLE_BEGIN
 90
        2
 91
        1
300
_HEADER
309
CELLSTYLE_END
300
CELLSTYLE
  1
TABLEFORMAT_BEGIN
 90
        5
170
     1
 91
        0
 92
        0
 62
   257
 93
        1
300
CONTENTFORMAT
  1
CONTENTFORMAT_BEGIN
 90
        0
 91
        0
 92
      512
 93
        0
300

 40
0.0
140
1.0
 94
        2
 62
     0
340
55
144
0.18
309
CONTENTFORMAT_END
171
     0
 94
        0
309
TABLEFORMAT_END
  1
CELLSTYLE_BEGIN
 90
        3
 91
        2
300
_DATA
309
CELLSTYLE_END
  0
ENDSEC
  0
EOF
