  0
SECTION
  2
HEADER
  9
$ACADVER
  1
AC1018
  9
$ACADMAINTVER
 70
   104
  9
$DWGCODEPAGE
  3
ANSI_1252
  9
$AUTHOR
  1
PR
  9
$REVISIONNUMBER
  1
-
  9
$CUSTOMPROPERTYTAG
  1
Manager
  9
$CUSTOMPROPERTY
  1

  9
$CUSTOMPROPERTYTAG
  1
Company
  9
$CUSTOMPROPERTY
  1

  9
$CUSTOMPROPERTYTAG
  1
Category
  9
$CUSTOMPROPERTY
  1

  9
$CUSTOMPROPERTYTAG
  1
Part Number
  9
$CUSTOMPROPERTY
  1
HWDWA90SP36F3
  9
$CUSTOMPROPERTYTAG
  1
Description
  9
$CUSTOMPROPERTY
  1
N1P PANEL MASTER VIEW
  9
$CUSTOMPROPERTYTAG
  1
Project
  9
$CUSTOMPROPERTY
  1

  9
$CUSTOMPROPERTYTAG
  1
Designer
  9
$CUSTOMPROPERTY
  1
PR
  9
$CUSTOMPROPERTYTAG
  1
Engineer
  9
$CUSTOMPROPERTY
  1

  9
$CUSTOMPROPERTYTAG
  1
Authority
  9
$CUSTOMPROPERTY
  1

  9
$CUSTOMPROPERTYTAG
  1
Cost Center
  9
$CUSTOMPROPERTY
  1

  9
$CUSTOMPROPERTYTAG
  1
Vendor
  9
$CUSTOMPROPERTY
  1

  9
$CUSTOMPROPERTYTAG
  1
User Status
  9
$CUSTOMPROPERTY
  1

  9
$CUSTOMPROPERTYTAG
  1
Design Status
  9
$CUSTOMPROPERTY
  1
WorkInProgress
  9
$CUSTOMPROPERTYTAG
  1
Checked by
  9
$CUSTOMPROPERTY
  1
NJ
  9
$CUSTOMPROPERTYTAG
  1
Engr Approved by
  9
$CUSTOMPROPERTY
  1

  9
$CUSTOMPROPERTYTAG
  1
Date Eng Approved
  9
$CUSTOMPROPERTY
  1
06/27/2013
  9
$CUSTOMPROPERTYTAG
  1
Mfg Approved by
  9
$CUSTOMPROPERTY
  1

  9
$CUSTOMPROPERTYTAG
  1
DWG. NO
  9
$CUSTOMPROPERTY
  1

  9
$CUSTOMPROPERTYTAG
  1
NUMBER OF SHEETS
  9
$CUSTOMPROPERTY
  1
1
  9
$CUSTOMPROPERTYTAG
  1
DRAWING #
  9
$CUSTOMPROPERTY
  1
1
  9
$INSBASE
 10
0.0
 20
0.0
 30
0.0
  9
$EXTMIN
 10
0.0
 20
0.0
 30
0.0
  9
$EXTMAX
 10
221.0
 20
143.0
 30
0.0
  9
$LIMMIN
 10
0.0
 20
0.0
  9
$LIMMAX
 10
221.0
 20
143.0
  9
$ORTHOMODE
 70
     0
  9
$REGENMODE
 70
     1
  9
$FILLMODE
 70
     1
  9
$QTEXTMODE
 70
     0
  9
$MIRRTEXT
 70
     0
  9
$LTSCALE
 40
13.0
  9
$ATTMODE
 70
     1
  9
$TEXTSIZE
 40
0.2
  9
$TRACEWID
 40
0.05
  9
$TEXTSTYLE
  7
Standard
  9
$CLAYER
  8
0
  9
$CELTYPE
  6
ByLayer
  9
$CECOLOR
 62
   256
  9
$CELTSCALE
 40
1.0
  9
$DISPSILH
 70
     0
  9
$DIMSCALE
 40
1.0
  9
$DIMASZ
 40
0.0708661417322835
  9
$DIMEXO
 40
0.0625
  9
$DIMDLI
 40
0.38
  9
$DIMRND
 40
0.0
  9
$DIMDLE
 40
0.0
  9
$DIMEXE
 40
0.18
  9
$DIMTP
 40
0.0
  9
$DIMTM
 40
0.0
  9
$DIMTXT
 40
0.0708661417322835
  9
$DIMCEN
 40
0.09
  9
$DIMTSZ
 40
0.0
  9
$DIMTOL
 70
     0
  9
$DIMLIM
 70
     0
  9
$DIMTIH
 70
     1
  9
$DIMTOH
 70
     1
  9
$DIMSE1
 70
     0
  9
$DIMSE2
 70
     0
  9
$DIMTAD
 70
     0
  9
$DIMZIN
 70
     0
  9
$DIMBLK
  1

  9
$DIMASO
 70
     1
  9
$DIMSHO
 70
     1
  9
$DIMPOST
  1

  9
$DIMAPOST
  1

  9
$DIMALT
 70
     0
  9
$DIMALTD
 70
     2
  9
$DIMALTF
 40
25.4
  9
$DIMLFAC
 40
1.0
  9
$DIMTOFL
 70
     0
  9
$DIMTVP
 40
0.0
  9
$DIMTIX
 70
     0
  9
$DIMSOXD
 70
     0
  9
$DIMSAH
 70
     0
  9
$DIMBLK1
  1

  9
$DIMBLK2
  1

  9
$DIMSTYLE
  2
STANDARD
  9
$DIMCLRD
 70
     0
  9
$DIMCLRE
 70
     0
  9
$DIMCLRT
 70
     0
  9
$DIMTFAC
 40
1.0
  9
$DIMGAP
 40
0.09
  9
$DIMJUST
 70
     0
  9
$DIMSD1
 70
     0
  9
$DIMSD2
 70
     0
  9
$DIMTOLJ
 70
     1
  9
$DIMTZIN
 70
     0
  9
$DIMALTZ
 70
     0
  9
$DIMALTTZ
 70
     0
  9
$DIMUPT
 70
     0
  9
$DIMDEC
 70
     4
  9
$DIMTDEC
 70
     4
  9
$DIMALTU
 70
     2
  9
$DIMALTTD
 70
     2
  9
$DIMTXSTY
  7
Standard
  9
$DIMAUNIT
 70
     0
  9
$DIMADEC
 70
     0
  9
$DIMALTRND
 40
0.0
  9
$DIMAZIN
 70
     0
  9
$DIMDSEP
 70
    46
  9
$DIMATFIT
 70
     3
  9
$DIMFRAC
 70
     0
  9
$DIMLDRBLK
  1

  9
$DIMLUNIT
 70
     2
  9
$DIMLWD
 70
    -2
  9
$DIMLWE
 70
    -2
  9
$DIMTMOVE
 70
     0
  9
$LUNITS
 70
     2
  9
$LUPREC
 70
     4
  9
$SKETCHINC
 40
0.1
  9
$FILLETRAD
 40
0.0
  9
$AUNITS
 70
     0
  9
$AUPREC
 70
     0
  9
$MENU
  1
.
  9
$ELEVATION
 40
0.0
  9
$PELEVATION
 40
0.0
  9
$THICKNESS
 40
0.0
  9
$LIMCHECK
 70
     0
  9
$CHAMFERA
 40
0.0
  9
$CHAMFERB
 40
0.0
  9
$CHAMFERC
 40
0.0
  9
$CHAMFERD
 40
0.0
  9
$SKPOLY
 70
     0
  9
$TDCREATE
 40
2456479.486022338
  9
$TDUCREATE
 40
2456479.256855672
  9
$TDUPDATE
 40
2456479.486022349
  9
$TDUUPDATE
 40
2456479.256855683
  9
$TDINDWG
 40
0.0000389352
  9
$TDUSRTIMER
 40
0.0000389352
  9
$USRTIMER
 70
     1
  9
$ANGBASE
 50
0.0
  9
$ANGDIR
 70
     0
  9
$PDMODE
 70
     0
  9
$PDSIZE
 40
0.0
  9
$PLINEWID
 40
0.0
  9
$SPLFRAME
 70
     0
  9
$SPLINETYPE
 70
     6
  9
$SPLINESEGS
 70
     8
  9
$HANDSEED
  5
DBF
  9
$SURFTAB1
 70
     6
  9
$SURFTAB2
 70
     6
  9
$SURFTYPE
 70
     6
  9
$SURFU
 70
     6
  9
$SURFV
 70
     6
  9
$UCSBASE
  2

  9
$UCSNAME
  2

  9
$UCSORG
 10
0.0
 20
0.0
 30
0.0
  9
$UCSXDIR
 10
1.0
 20
0.0
 30
0.0
  9
$UCSYDIR
 10
0.0
 20
1.0
 30
0.0
  9
$UCSORTHOREF
  2

  9
$UCSORTHOVIEW
 70
     0
  9
$UCSORGTOP
 10
0.0
 20
0.0
 30
0.0
  9
$UCSORGBOTTOM
 10
0.0
 20
0.0
 30
0.0
  9
$UCSORGLEFT
 10
0.0
 20
0.0
 30
0.0
  9
$UCSORGRIGHT
 10
0.0
 20
0.0
 30
0.0
  9
$UCSORGFRONT
 10
0.0
 20
0.0
 30
0.0
  9
$UCSORGBACK
 10
0.0
 20
0.0
 30
0.0
  9
$PUCSBASE
  2

  9
$PUCSNAME
  2

  9
$PUCSORG
 10
0.0
 20
0.0
 30
0.0
  9
$PUCSXDIR
 10
1.0
 20
0.0
 30
0.0
  9
$PUCSYDIR
 10
0.0
 20
1.0
 30
0.0
  9
$PUCSORTHOREF
  2

  9
$PUCSORTHOVIEW
 70
     0
  9
$PUCSORGTOP
 10
0.0
 20
0.0
 30
0.0
  9
$PUCSORGBOTTOM
 10
0.0
 20
0.0
 30
0.0
  9
$PUCSORGLEFT
 10
0.0
 20
0.0
 30
0.0
  9
$PUCSORGRIGHT
 10
0.0
 20
0.0
 30
0.0
  9
$PUCSORGFRONT
 10
0.0
 20
0.0
 30
0.0
  9
$PUCSORGBACK
 10
0.0
 20
0.0
 30
0.0
  9
$USERI1
 70
     0
  9
$USERI2
 70
     0
  9
$USERI3
 70
     0
  9
$USERI4
 70
     0
  9
$USERI5
 70
     0
  9
$USERR1
 40
0.0
  9
$USERR2
 40
0.0
  9
$USERR3
 40
0.0
  9
$USERR4
 40
0.0
  9
$USERR5
 40
0.0
  9
$WORLDVIEW
 70
     1
  9
$SHADEDGE
 70
     3
  9
$SHADEDIF
 70
    70
  9
$TILEMODE
 70
     1
  9
$MAXACTVP
 70
    64
  9
$PINSBASE
 10
0.0
 20
0.0
 30
0.0
  9
$PLIMCHECK
 70
     0
  9
$PEXTMIN
 10
0.0
 20
0.0
 30
0.0
  9
$PEXTMAX
 10
221.0
 20
143.0
 30
0.0
  9
$PLIMMIN
 10
0.0
 20
0.0
  9
$PLIMMAX
 10
221.0
 20
143.0
  9
$UNITMODE
 70
     0
  9
$VISRETAIN
 70
     1
  9
$PLINEGEN
 70
     0
  9
$PSLTSCALE
 70
     1
  9
$TREEDEPTH
 70
  3020
  9
$CMLSTYLE
  2
Standard
  9
$CMLJUST
 70
     0
  9
$CMLSCALE
 40
1.0
  9
$PROXYGRAPHICS
 70
     1
  9
$MEASUREMENT
 70
     0
  9
$CELWEIGHT
370
    -1
  9
$ENDCAPS
280
     0
  9
$JOINSTYLE
280
     0
  9
$LWDISPLAY
290
     0
  9
$INSUNITS
 70
     1
  9
$HYPERLINKBASE
  1

  9
$STYLESHEET
  1

  9
$XEDIT
290
     1
  9
$CEPSNTYPE
380
     0
  9
$PSTYLEMODE
290
     1
  9
$FINGERPRINTGUID
  2
{A8FAEDDF-624E-435D-879B-91E659C1284F}
  9
$VERSIONGUID
  2
{5193921A-BB6C-415D-8E15-3427F483102D}
  9
$EXTNAMES
290
     1
  9
$PSVPSCALE
 40
0.0
  9
$OLESTARTUP
290
     0
  9
$SORTENTS
280
   127
  9
$INDEXCTL
280
     0
  9
$HIDETEXT
280
     1
  9
$XCLIPFRAME
290
     0
  9
$HALOGAP
280
     0
  9
$OBSCOLOR
 70
   257
  9
$OBSLTYPE
280
     0
  9
$INTERSECTIONDISPLAY
280
     0
  9
$INTERSECTIONCOLOR
 70
   257
  9
$DIMASSOC
280
     1
  9
$PROJECTNAME
  1

  0
ENDSEC
  0
SECTION
  2
CLASSES
  0
CLASS
  1
ACDBDICTIONARYWDFLT
  2
AcDbDictionaryWithDefault
  3
ObjectDBX Classes
 90
        0
 91
        1
280
     0
281
     0
  0
CLASS
  1
MATERIAL
  2
AcDbMaterial
  3
ObjectDBX Classes
 90
     1153
 91
        3
280
     0
281
     0
  0
CLASS
  1
VISUALSTYLE
  2
AcDbVisualStyle
  3
ObjectDBX Classes
 90
     4095
 91
       24
280
     0
281
     0
  0
CLASS
  1
SCALE
  2
AcDbScale
  3
ObjectDBX Classes
 90
     1153
 91
       17
280
     0
281
     0
  0
CLASS
  1
TABLESTYLE
  2
AcDbTableStyle
  3
ObjectDBX Classes
 90
     4095
 91
        1
280
     0
281
     0
  0
CLASS
  1
MLEADERSTYLE
  2
AcDbMLeaderStyle
  3
ACDB_MLEADERSTYLE_CLASS
 90
     4095
 91
        1
280
     0
281
     0
  0
CLASS
  1
DICTIONARYVAR
  2
AcDbDictionaryVar
  3
ObjectDBX Classes
 90
        0
 91
        8
280
     0
281
     0
  0
CLASS
  1
CELLSTYLEMAP
  2
AcDbCellStyleMap
  3
ObjectDBX Classes
 90
     1152
 91
        1
280
     0
281
     0
  0
ENDSEC
  0
SECTION
  2
TABLES
  0
TABLE
  2
VPORT
  5
8
330
0
100
AcDbSymbolTable
 70
     1
  0
VPORT
  5
57
330
8
100
AcDbSymbolTableRecord
100
AcDbViewportTableRecord
  2
*Active
 70
     0
 10
0.0
 20
0.0
 11
1.0
 21
1.0
 12
110.5
 22
71.5
 13
0.0
 23
0.0
 14
1.0
 24
1.0
 15
0.0
 25
0.0
 16
0.0
 26
0.0
 36
1.0
 17
0.0
 27
0.0
 37
0.0
 40
143.0
 41
1.545454545454545
 42
50.0
 43
0.0
 44
0.0
 50
0.0
 51
0.0
 71
     0
 72
   100
 73
     1
 74
     1
 75
     0
 76
     0
 77
     0
 78
     0
281
     0
 65
     1
110
0.0
120
0.0
130
0.0
111
1.0
121
0.0
131
0.0
112
0.0
122
1.0
132
0.0
 79
     0
146
0.0
  0
ENDTAB
  0
TABLE
  2
LTYPE
  5
5
330
0
100
AcDbSymbolTable
 70
    59
  0
LTYPE
  5
5B
330
5
100
AcDbSymbolTableRecord
100
AcDbLinetypeTableRecord
  2
ByBlock
 70
     0
  3

 72
    65
 73
     0
 40
0.0
  0
LTYPE
  5
5C
330
5
100
AcDbSymbolTableRecord
100
AcDbLinetypeTableRecord
  2
ByLayer
 70
     0
  3

 72
    65
 73
     0
 40
0.0
  0
LTYPE
  5
5D
330
5
100
AcDbSymbolTableRecord
100
AcDbLinetypeTableRecord
  2
Continuous
 70
     0
  3
Solid line
 72
    65
 73
     0
 40
0.0
  0
LTYPE
  5
7C
330
5
100
AcDbSymbolTableRecord
100
AcDbLinetypeTableRecord
  2
BY_STANDARD
 70
     0
  3
By Standard ____________    ____    ____   _
 72
    65
 73
     6
 40
1.240299999999999
 49
0.6614
 74
     0
 49
-0.0827
 74
     0
 49
0.1654
 74
     0
 49
-0.0827
 74
     0
 49
0.1654
 74
     0
 49
-0.0827
 74
     0
  0
LTYPE
  5
7D
330
5
100
AcDbSymbolTableRecord
100
AcDbLinetypeTableRecord
  2
CHAIN
 70
     0
  3
Chain ____ _ ____ _ ____ _ ____ _ ____ _ ____
 72
    65
 73
     4
 40
0.7087
 49
0.4724000000000001
 74
     0
 49
-0.0591
 74
     0
 49
0.1181
 74
     0
 49
-0.0591
 74
     0
  0
LTYPE
  5
7E
330
5
100
AcDbSymbolTableRecord
100
AcDbLinetypeTableRecord
  2
DASH_DOT
 70
     0
  3
Dash dot __ . __ . __ . __ . __ . __ . __ . __
 72
    65
 73
     4
 40
0.37
 49
0.24
 74
     0
 49
-0.06
 74
     0
 49
0.01
 74
     0
 49
-0.06
 74
     0
  0
LTYPE
  5
7F
330
5
100
AcDbSymbolTableRecord
100
AcDbLinetypeTableRecord
  2
DOUBLE_DASH_DOT
 70
     0
  3
Double-Dash Dot __ __ . __ __ . __ __ . __ _
 72
    65
 73
     6
 40
0.4398
 49
0.24
 74
     0
 49
-0.06
 74
     0
 49
0.0098
 74
     0
 49
-0.06
 74
     0
 49
0.01
 74
     0
 49
-0.06
 74
     0
  0
LTYPE
  5
80
330
5
100
AcDbSymbolTableRecord
100
AcDbLinetypeTableRecord
  2
DASH_TRIPLE_DOT
 70
     0
  3
Dash Triple-Dot _ . . . _ . . . _ . . . _
 72
    65
 73
     8
 40
0.51
 49
0.24
 74
     0
 49
-0.06
 74
     0
 49
0.01
 74
     0
 49
-0.06
 74
     0
 49
0.01
 74
     0
 49
-0.06
 74
     0
 49
0.01
 74
     0
 49
-0.06
 74
     0
  0
LTYPE
  5
81
330
5
100
AcDbSymbolTableRecord
100
AcDbLinetypeTableRecord
  2
DASHED
 70
     0
  3
Dashed __ __ __ __ __ __ __ __ __ __ __ __ __ _
 72
    65
 73
     2
 40
0.2067
 49
0.1654
 74
     0
 49
-0.0413
 74
     0
  0
LTYPE
  5
82
330
5
100
AcDbSymbolTableRecord
100
AcDbLinetypeTableRecord
  2
DASH_DOUBLE_DOT
 70
     0
  3
Dash Double-Dot __ . . __ . . __ . . __ . .
 72
    65
 73
     6
 40
0.4398
 49
0.24
 74
     0
 49
-0.06
 74
     0
 49
0.0098
 74
     0
 49
-0.06
 74
     0
 49
0.01
 74
     0
 49
-0.06
 74
     0
  0
LTYPE
  5
83
330
5
100
AcDbSymbolTableRecord
100
AcDbLinetypeTableRecord
  2
DASHED_SPACE
 70
     0
  3
Dashed Space __ __ __ __ __ __ __ __ __ __ __ _
 72
    65
 73
     2
 40
0.2067
 49
0.1654
 74
     0
 49
-0.0413
 74
     0
  0
LTYPE
  5
84
330
5
100
AcDbSymbolTableRecord
100
AcDbLinetypeTableRecord
  2
DOTTED
 70
     0
  3
Dotted . . . . . . . . . . . . . . . . . . . . 
 72
    65
 73
     2
 40
0.0482
 49
0.0069
 74
     0
 49
-0.0413
 74
     0
  0
LTYPE
  5
85
330
5
100
AcDbSymbolTableRecord
100
AcDbLinetypeTableRecord
  2
DOUBLE_DASH_CHAIN
 70
     0
  3
Double-Dash Chain ______  __  __  ______  __  _
 72
    65
 73
     6
 40
1.240299999999999
 49
0.6614
 74
     0
 49
-0.0827
 74
     0
 49
0.1654
 74
     0
 49
-0.0827
 74
     0
 49
0.1654
 74
     0
 49
-0.0827
 74
     0
  0
LTYPE
  5
87
330
5
100
AcDbSymbolTableRecord
100
AcDbLinetypeTableRecord
  2
DOUBLE_DASH_DOUBLE_DOT
 70
     0
  3
Double-Dash Double-dot _ _ . . _ _ . . _
 72
    65
 73
     8
 40
0.7400000000000001
 49
0.24
 74
     0
 49
-0.06
 74
     0
 49
0.24
 74
     0
 49
-0.06
 74
     0
 49
0.01
 74
     0
 49
-0.06
 74
     0
 49
0.01
 74
     0
 49
-0.06
 74
     0
  0
LTYPE
  5
88
330
5
100
AcDbSymbolTableRecord
100
AcDbLinetypeTableRecord
  2
DOUBLE_DASH_TRIPLE_DOT
 70
     0
  3
Double Dash Triple Dot __ __ . . . __ __ . .
 72
    65
 73
    10
 40
0.8100000000000001
 49
0.24
 74
     0
 49
-0.06
 74
     0
 49
0.24
 74
     0
 49
-0.06
 74
     0
 49
0.01
 74
     0
 49
-0.06
 74
     0
 49
0.01
 74
     0
 49
-0.06
 74
     0
 49
0.01
 74
     0
 49
-0.06
 74
     0
  0
LTYPE
  5
89
330
5
100
AcDbSymbolTableRecord
100
AcDbLinetypeTableRecord
  2
LONG_DASH_DOTTED
 70
     0
  3
Long Dash Dotted ____ . ____ . ____ . ____ . _
 72
    65
 73
     4
 40
0.3543
 49
0.2362
 74
     0
 49
-0.0295
 74
     0
 49
0.0591
 74
     0
 49
-0.0295
 74
     0
  0
LTYPE
  5
8A
330
5
100
AcDbSymbolTableRecord
100
AcDbLinetypeTableRecord
  2
LONG_DASH_DOUBLE_DOT
 70
     0
  3
Long Dash Double Dot ________  .  .  ________  
 72
    65
 73
     6
 40
0.6799999999999999
 49
0.48
 74
     0
 49
-0.06
 74
     0
 49
0.01
 74
     0
 49
-0.06
 74
     0
 49
0.01
 74
     0
 49
-0.06
 74
     0
  0
LTYPE
  5
8B
330
5
100
AcDbSymbolTableRecord
100
AcDbLinetypeTableRecord
  2
LONG_DASH_TRIPLE_DOT
 70
     0
  3
Long Dash Triple Dot ____ ... ____ ... ____
 72
    65
 73
     8
 40
0.3689
 49
0.2362
 74
     0
 49
-0.0295
 74
     0
 49
0.0049
 74
     0
 49
-0.0295
 74
     0
 49
0.0049
 74
     0
 49
-0.0295
 74
     0
 49
0.0049
 74
     0
 49
-0.0295
 74
     0
  0
LTYPE
  5
8C
330
5
100
AcDbSymbolTableRecord
100
AcDbLinetypeTableRecord
  2
BORDER
 70
     0
  3
Border __ __ . __ __ . __ __ . __ __ . __ __ .
 72
    65
 73
     6
 40
1.75
 49
0.5
 74
     0
 49
-0.25
 74
     0
 49
0.5
 74
     0
 49
-0.25
 74
     0
 49
0.0
 74
     0
 49
-0.25
 74
     0
  0
LTYPE
  5
8D
330
5
100
AcDbSymbolTableRecord
100
AcDbLinetypeTableRecord
  2
BORDER2
 70
     0
  3
Border (.5x) __.__.__.__.__.__.__.__.__.__.__.
 72
    65
 73
     6
 40
0.875
 49
0.25
 74
     0
 49
-0.125
 74
     0
 49
0.25
 74
     0
 49
-0.125
 74
     0
 49
0.0
 74
     0
 49
-0.125
 74
     0
  0
LTYPE
  5
8E
330
5
100
AcDbSymbolTableRecord
100
AcDbLinetypeTableRecord
  2
BORDERX2
 70
     0
  3
Border (2x) ____  ____  .  ____  ____  .  ___
 72
    65
 73
     6
 40
3.5
 49
1.0
 74
     0
 49
-0.5
 74
     0
 49
1.0
 74
     0
 49
-0.5
 74
     0
 49
0.0
 74
     0
 49
-0.5
 74
     0
  0
LTYPE
  5
8F
330
5
100
AcDbSymbolTableRecord
100
AcDbLinetypeTableRecord
  2
CENTER
 70
     0
  3
Center ____ _ ____ _ ____ _ ____ _ ____ _ ____
 72
    65
 73
     4
 40
2.0
 49
1.25
 74
     0
 49
-0.25
 74
     0
 49
0.25
 74
     0
 49
-0.25
 74
     0
  0
LTYPE
  5
90
330
5
100
AcDbSymbolTableRecord
100
AcDbLinetypeTableRecord
  2
CENTER2
 70
     0
  3
Center (.5x) ___ _ ___ _ ___ _ ___ _ ___ _ ___
 72
    65
 73
     4
 40
1.125
 49
0.75
 74
     0
 49
-0.125
 74
     0
 49
0.125
 74
     0
 49
-0.125
 74
     0
  0
LTYPE
  5
91
330
5
100
AcDbSymbolTableRecord
100
AcDbLinetypeTableRecord
  2
CENTERX2
 70
     0
  3
Center (2x) ________  __  ________  __  _____
 72
    65
 73
     4
 40
4.0
 49
2.5
 74
     0
 49
-0.5
 74
     0
 49
0.5
 74
     0
 49
-0.5
 74
     0
  0
LTYPE
  5
92
330
5
100
AcDbSymbolTableRecord
100
AcDbLinetypeTableRecord
  2
DASHDOT2
 70
     0
  3
Dash dot (.5x) _._._._._._._._._._._._._._._.
 72
    65
 73
     4
 40
0.5
 49
0.25
 74
     0
 49
-0.125
 74
     0
 49
0.0
 74
     0
 49
-0.125
 74
     0
  0
LTYPE
  5
93
330
5
100
AcDbSymbolTableRecord
100
AcDbLinetypeTableRecord
  2
DASHDOTX2
 70
     0
  3
Dash dot (2x) ____  .  ____  .  ____  .  ___
 72
    65
 73
     4
 40
2.0
 49
1.0
 74
     0
 49
-0.5
 74
     0
 49
0.0
 74
     0
 49
-0.5
 74
     0
  0
LTYPE
  5
95
330
5
100
AcDbSymbolTableRecord
100
AcDbLinetypeTableRecord
  2
DASHED2
 70
     0
  3
Dashed (.5x) _ _ _ _ _ _ _ _ _ _ _ _ _ _ _ _ _
 72
    65
 73
     2
 40
0.375
 49
0.25
 74
     0
 49
-0.125
 74
     0
  0
LTYPE
  5
96
330
5
100
AcDbSymbolTableRecord
100
AcDbLinetypeTableRecord
  2
DASHEDX2
 70
     0
  3
Dashed (2x) ____  ____  ____  ____  ____  ___
 72
    65
 73
     2
 40
1.5
 49
1.0
 74
     0
 49
-0.5
 74
     0
  0
LTYPE
  5
97
330
5
100
AcDbSymbolTableRecord
100
AcDbLinetypeTableRecord
  2
DIVIDE
 70
     0
  3
Divide ____ . . ____ . . ____ . . ____ . . ____
 72
    65
 73
     6
 40
1.25
 49
0.5
 74
     0
 49
-0.25
 74
     0
 49
0.0
 74
     0
 49
-0.25
 74
     0
 49
0.0
 74
     0
 49
-0.25
 74
     0
  0
LTYPE
  5
98
330
5
100
AcDbSymbolTableRecord
100
AcDbLinetypeTableRecord
  2
DIVIDE2
 70
     0
  3
Divide (.5x) __..__..__..__..__..__..__..__.._
 72
    65
 73
     6
 40
0.625
 49
0.25
 74
     0
 49
-0.125
 74
     0
 49
0.0
 74
     0
 49
-0.125
 74
     0
 49
0.0
 74
     0
 49
-0.125
 74
     0
  0
LTYPE
  5
99
330
5
100
AcDbSymbolTableRecord
100
AcDbLinetypeTableRecord
  2
DIVIDEX2
 70
     0
  3
Divide (2x) ________  .  .  ________  .  .  _
 72
    65
 73
     6
 40
2.5
 49
1.0
 74
     0
 49
-0.5
 74
     0
 49
0.0
 74
     0
 49
-0.5
 74
     0
 49
0.0
 74
     0
 49
-0.5
 74
     0
  0
LTYPE
  5
9A
330
5
100
AcDbSymbolTableRecord
100
AcDbLinetypeTableRecord
  2
DOT
 70
     0
  3
Dot . . . . . . . . . . . . . . . . . . . . . .
 72
    65
 73
     2
 40
0.25
 49
0.0
 74
     0
 49
-0.25
 74
     0
  0
LTYPE
  5
9B
330
5
100
AcDbSymbolTableRecord
100
AcDbLinetypeTableRecord
  2
DOT2
 70
     0
  3
Dot (.5x) .....................................
 72
    65
 73
     2
 40
0.125
 49
0.0
 74
     0
 49
-0.125
 74
     0
  0
LTYPE
  5
9C
330
5
100
AcDbSymbolTableRecord
100
AcDbLinetypeTableRecord
  2
DOTX2
 70
     0
  3
Dot (2x) .  .  .  .  .  .  .  .  .  .  .  .  . 
 72
    65
 73
     2
 40
0.5
 49
0.0
 74
     0
 49
-0.5
 74
     0
  0
LTYPE
  5
9D
330
5
100
AcDbSymbolTableRecord
100
AcDbLinetypeTableRecord
  2
HIDDEN
 70
     0
  3
Hidden __ __ __ __ __ __ __ __ __ __ __ __ __ _
 72
    65
 73
     2
 40
0.375
 49
0.25
 74
     0
 49
-0.125
 74
     0
  0
LTYPE
  5
9E
330
5
100
AcDbSymbolTableRecord
100
AcDbLinetypeTableRecord
  2
HIDDEN2
 70
     0
  3
Hidden (.5x) _ _ _ _ _ _ _ _ _ _ _ _ _ _ _ _ _
 72
    65
 73
     2
 40
0.1875
 49
0.125
 74
     0
 49
-0.0625
 74
     0
  0
LTYPE
  5
9F
330
5
100
AcDbSymbolTableRecord
100
AcDbLinetypeTableRecord
  2
HIDDENX2
 70
     0
  3
Hidden (2x) ____ ____ ____ ____ ____ ____ ____
 72
    65
 73
     2
 40
0.75
 49
0.5
 74
     0
 49
-0.25
 74
     0
  0
LTYPE
  5
A0
330
5
100
AcDbSymbolTableRecord
100
AcDbLinetypeTableRecord
  2
PHANTOM
 70
     0
  3
Phantom ______  __  __  ______  __  __  ______
 72
    65
 73
     6
 40
2.5
 49
1.25
 74
     0
 49
-0.25
 74
     0
 49
0.25
 74
     0
 49
-0.25
 74
     0
 49
0.25
 74
     0
 49
-0.25
 74
     0
  0
LTYPE
  5
A1
330
5
100
AcDbSymbolTableRecord
100
AcDbLinetypeTableRecord
  2
PHANTOM2
 70
     0
  3
Phantom (.5x) ___ _ _ ___ _ _ ___ _ _ ___ _ _
 72
    65
 73
     6
 40
1.25
 49
0.625
 74
     0
 49
-0.125
 74
     0
 49
0.125
 74
     0
 49
-0.125
 74
     0
 49
0.125
 74
     0
 49
-0.125
 74
     0
  0
LTYPE
  5
A2
330
5
100
AcDbSymbolTableRecord
100
AcDbLinetypeTableRecord
  2
PHANTOMX2
 70
     0
  3
Phantom (2x) ____________    ____    ____   _
 72
    65
 73
     6
 40
5.0
 49
2.5
 74
     0
 49
-0.5
 74
     0
 49
0.5
 74
     0
 49
-0.5
 74
     0
 49
0.5
 74
     0
 49
-0.5
 74
     0
  0
LTYPE
  5
A3
330
5
100
AcDbSymbolTableRecord
100
AcDbLinetypeTableRecord
  2
ACAD_ISO02W100
 70
     0
  3
ISO dash __ __ __ __ __ __ __ __ __ __ __ __ __
 72
    65
 73
     2
 40
0.59
 49
0.47
 74
     0
 49
-0.12
 74
     0
  0
LTYPE
  5
A4
330
5
100
AcDbSymbolTableRecord
100
AcDbLinetypeTableRecord
  2
ACAD_ISO03W100
 70
     0
  3
ISO dash space __    __    __    __    __    __
 72
    65
 73
     2
 40
1.179999999999999
 49
0.47
 74
     0
 49
-0.71
 74
     0
  0
LTYPE
  5
A5
330
5
100
AcDbSymbolTableRecord
100
AcDbLinetypeTableRecord
  2
ACAD_ISO04W100
 70
     0
  3
ISO long-dash dot ____ . ____ . ____ . ____ . _
 72
    65
 73
     4
 40
1.179999999999999
 49
0.9399999999999998
 74
     0
 49
-0.12
 74
     0
 49
0.0
 74
     0
 49
-0.12
 74
     0
  0
LTYPE
  5
A6
330
5
100
AcDbSymbolTableRecord
100
AcDbLinetypeTableRecord
  2
ACAD_ISO05W100
 70
     0
  3
ISO long-dash double-dot ____ .. ____ .. ____ .
 72
    65
 73
     6
 40
1.299999999999999
 49
0.9399999999999998
 74
     0
 49
-0.12
 74
     0
 49
0.0
 74
     0
 49
-0.12
 74
     0
 49
0.0
 74
     0
 49
-0.12
 74
     0
  0
LTYPE
  5
A7
330
5
100
AcDbSymbolTableRecord
100
AcDbLinetypeTableRecord
  2
ACAD_ISO06W100
 70
     0
  3
ISO long-dash triple-dot ____ ... ____ ... ____
 72
    65
 73
     8
 40
1.419999999999999
 49
0.9399999999999998
 74
     0
 49
-0.12
 74
     0
 49
0.0
 74
     0
 49
-0.12
 74
     0
 49
0.0
 74
     0
 49
-0.12
 74
     0
 49
0.0
 74
     0
 49
-0.12
 74
     0
  0
LTYPE
  5
A8
330
5
100
AcDbSymbolTableRecord
100
AcDbLinetypeTableRecord
  2
ACAD_ISO07W100
 70
     0
  3
ISO dot . . . . . . . . . . . . . . . . . . . .
 72
    65
 73
     2
 40
0.12
 49
0.0
 74
     0
 49
-0.12
 74
     0
  0
LTYPE
  5
A9
330
5
100
AcDbSymbolTableRecord
100
AcDbLinetypeTableRecord
  2
ACAD_ISO08W100
 70
     0
  3
ISO long-dash short-dash ____ __ ____ __ ____ _
 72
    65
 73
     4
 40
0.95
 49
0.47
 74
     0
 49
-0.12
 74
     0
 49
0.24
 74
     0
 49
-0.12
 74
     0
  0
LTYPE
  5
AA
330
5
100
AcDbSymbolTableRecord
100
AcDbLinetypeTableRecord
  2
ACAD_ISO09W100
 70
     0
  3
ISO long-dash double-short-dash ____ __ __ ____
 72
    65
 73
     6
 40
1.31
 49
0.47
 74
     0
 49
-0.12
 74
     0
 49
0.24
 74
     0
 49
-0.12
 74
     0
 49
0.24
 74
     0
 49
-0.12
 74
     0
  0
LTYPE
  5
AB
330
5
100
AcDbSymbolTableRecord
100
AcDbLinetypeTableRecord
  2
ACAD_ISO10W100
 70
     0
  3
ISO dash dot __ . __ . __ . __ . __ . __ . __ .
 72
    65
 73
     4
 40
0.71
 49
0.47
 74
     0
 49
-0.12
 74
     0
 49
0.0
 74
     0
 49
-0.12
 74
     0
  0
LTYPE
  5
AC
330
5
100
AcDbSymbolTableRecord
100
AcDbLinetypeTableRecord
  2
ACAD_ISO11W100
 70
     0
  3
ISO double-dash dot __ __ . __ __ . __ __ . __ 
 72
    65
 73
     6
 40
1.299999999999999
 49
0.47
 74
     0
 49
-0.12
 74
     0
 49
0.47
 74
     0
 49
-0.12
 74
     0
 49
0.0
 74
     0
 49
-0.12
 74
     0
  0
LTYPE
  5
AD
330
5
100
AcDbSymbolTableRecord
100
AcDbLinetypeTableRecord
  2
ACAD_ISO12W100
 70
     0
  3
ISO dash double-dot __ . . __ . . __ . . __ . .
 72
    65
 73
     6
 40
0.8299999999999998
 49
0.47
 74
     0
 49
-0.12
 74
     0
 49
0.0
 74
     0
 49
-0.12
 74
     0
 49
0.0
 74
     0
 49
-0.12
 74
     0
  0
LTYPE
  5
AE
330
5
100
AcDbSymbolTableRecord
100
AcDbLinetypeTableRecord
  2
ACAD_ISO13W100
 70
     0
  3
ISO double-dash double-dot __ __ . . __ __ . . 
 72
    65
 73
     8
 40
1.419999999999999
 49
0.47
 74
     0
 49
-0.12
 74
     0
 49
0.47
 74
     0
 49
-0.12
 74
     0
 49
0.0
 74
     0
 49
-0.12
 74
     0
 49
0.0
 74
     0
 49
-0.12
 74
     0
  0
LTYPE
  5
AF
330
5
100
AcDbSymbolTableRecord
100
AcDbLinetypeTableRecord
  2
ACAD_ISO14W100
 70
     0
  3
ISO dash triple-dot __ . . . __ . . . __ . . . 
 72
    65
 73
     8
 40
0.95
 49
0.47
 74
     0
 49
-0.12
 74
     0
 49
0.0
 74
     0
 49
-0.12
 74
     0
 49
0.0
 74
     0
 49
-0.12
 74
     0
 49
0.0
 74
     0
 49
-0.12
 74
     0
  0
LTYPE
  5
B0
330
5
100
AcDbSymbolTableRecord
100
AcDbLinetypeTableRecord
  2
ACAD_ISO15W100
 70
     0
  3
ISO double-dash triple-dot __ __ . . . __ __ . 
 72
    65
 73
    10
 40
1.539999999999999
 49
0.47
 74
     0
 49
-0.12
 74
     0
 49
0.47
 74
     0
 49
-0.12
 74
     0
 49
0.0
 74
     0
 49
-0.12
 74
     0
 49
0.0
 74
     0
 49
-0.12
 74
     0
 49
0.0
 74
     0
 49
-0.12
 74
     0
  0
LTYPE
  5
B3
330
5
100
AcDbSymbolTableRecord
100
AcDbLinetypeTableRecord
  2
FENCELINE1
 70
     0
  3
Fenceline circle ----0-----0----0-----0----0---
 72
    65
 73
     4
 40
1.45
 49
0.25
 74
     0
 49
-0.1
 74
     4
 75
   133
340
B2
 46
0.1
 50
0.0
 44
-0.1
 45
0.0
 49
-0.1
 74
     0
 49
1.0
 74
     0
  0
LTYPE
  5
B4
330
5
100
AcDbSymbolTableRecord
100
AcDbLinetypeTableRecord
  2
FENCELINE2
 70
     0
  3
Fenceline square ----[]-----[]----[]-----[]----
 72
    65
 73
     4
 40
1.45
 49
0.25
 74
     0
 49
-0.1
 74
     4
 75
   132
340
B2
 46
0.1
 50
0.0
 44
-0.1
 45
0.0
 49
-0.1
 74
     0
 49
1.0
 74
     0
  0
LTYPE
  5
B5
330
5
100
AcDbSymbolTableRecord
100
AcDbLinetypeTableRecord
  2
TRACKS
 70
     0
  3
Tracks -|-|-|-|-|-|-|-|-|-|-|-|-|-|-|-|-|-|-|-|
 72
    65
 73
     2
 40
0.3
 49
0.15
 74
     4
 75
   130
340
B2
 46
0.25
 50
0.0
 44
0.0
 45
0.0
 49
0.15
 74
     0
  0
LTYPE
  5
B6
330
5
100
AcDbSymbolTableRecord
100
AcDbLinetypeTableRecord
  2
BATTING
 70
     0
  3
Batting SSSSSSSSSSSSSSSSSSSSSSSSSSSSSSSSSSSSSSS
 72
    65
 73
     4
 40
0.4001000000000001
 49
0.0001
 74
     0
 49
-0.1
 74
     4
 75
   134
340
B2
 46
0.1
 50
0.0
 44
-0.1
 45
0.0
 49
-0.2
 74
     4
 75
   134
340
B2
 46
0.1
 50
180.0
 44
0.1
 45
0.0
 49
-0.1
 74
     0
  0
LTYPE
  5
B7
330
5
100
AcDbSymbolTableRecord
100
AcDbLinetypeTableRecord
  2
HOT_WATER_SUPPLY
 70
     0
  3
Hot water supply ---- HW ---- HW ---- HW ----
 72
    65
 73
     3
 40
0.9
 49
0.5
 74
     0
 49
-0.2
 74
     2
 75
     0
340
55
 46
0.1
 50
0.0
 44
-0.1
 45
-0.05
  9
HW
 49
-0.2
 74
     0
  0
LTYPE
  5
B8
330
5
100
AcDbSymbolTableRecord
100
AcDbLinetypeTableRecord
  2
GAS_LINE
 70
     0
  3
Gas line ----GAS----GAS----GAS----GAS----GAS---
 72
    65
 73
     3
 40
0.95
 49
0.5
 74
     0
 49
-0.2
 74
     2
 75
     0
340
55
 46
0.1
 50
0.0
 44
-0.1
 45
-0.05
  9
GAS
 49
-0.25
 74
     0
  0
LTYPE
  5
B9
330
5
100
AcDbSymbolTableRecord
100
AcDbLinetypeTableRecord
  2
ZIGZAG
 70
     0
  3
Zig zag /\/\/\/\/\/\/\/\/\/\/\/\/\/\/\/\/\/\/\/
 72
    65
 73
     4
 40
0.8001000000000001
 49
0.0001
 74
     0
 49
-0.2
 74
     4
 75
   131
340
B2
 46
0.2
 50
0.0
 44
-0.2
 45
0.0
 49
-0.4
 74
     4
 75
   131
340
B2
 46
0.2
 50
180.0
 44
0.2
 45
0.0
 49
-0.2
 74
     0
  0
ENDTAB
  0
TABLE
  2
LAYER
  5
2
330
0
100
AcDbSymbolTable
 70
    27
  0
LAYER
  5
54
330
2
100
AcDbSymbolTableRecord
100
AcDbLayerTableRecord
  2
0
 70
     0
 62
     7
  6
Continuous
370
    18
390
F
  0
LAYER
  5
C0
330
2
100
AcDbSymbolTableRecord
100
AcDbLayerTableRecord
  2
Center Mark (ANSI)
 70
     0
 62
     7
  6
Continuous
370
    15
390
F
  0
LAYER
  5
C1
330
2
100
AcDbSymbolTableRecord
100
AcDbLayerTableRecord
  2
Centerline (ANSI)
 70
     0
 62
     7
  6
Continuous
370
    15
390
F
  0
LAYER
  5
C3
330
2
100
AcDbSymbolTableRecord
100
AcDbLayerTableRecord
  2
Dimension (ANSI)
 70
     0
 62
     7
  6
Continuous
370
    13
390
F
  0
LAYER
  5
C5
330
2
100
AcDbSymbolTableRecord
100
AcDbLayerTableRecord
  2
Hidden (ANSI)
 70
     0
 62
     7
  6
DASHED
370
    15
390
F
  0
LAYER
  5
CC
330
2
100
AcDbSymbolTableRecord
100
AcDbLayerTableRecord
  2
Symbol (ANSI)
 70
     0
 62
     7
  6
Continuous
370
    18
390
F
  0
LAYER
  5
CF
330
2
100
AcDbSymbolTableRecord
100
AcDbLayerTableRecord
  2
Visible (ANSI)
 70
     0
 62
     7
  6
Continuous
370
    13
390
F
  0
LAYER
  5
D0
330
2
100
AcDbSymbolTableRecord
100
AcDbLayerTableRecord
  2
Visible Narrow (ANSI)
 70
     0
 62
     7
  6
Continuous
370
    18
390
F
  0
LAYER
  5
526
330
2
100
AcDbSymbolTableRecord
100
AcDbLayerTableRecord
  2
Defpoints
 70
     0
 62
     7
  6
Continuous
290
     0
370
    -3
390
F
  0
ENDTAB
  0
TABLE
  2
STYLE
  5
3
330
0
100
AcDbSymbolTable
 70
    18
  0
STYLE
  5
55
330
3
100
AcDbSymbolTableRecord
100
AcDbTextStyleTableRecord
  2
Standard
 70
     0
 40
0.0
 41
1.0
 50
0.0
 71
     0
 42
0.2
  3
txt
  4

  0
STYLE
  5
5A
330
3
100
AcDbSymbolTableRecord
100
AcDbTextStyleTableRecord
  2
Annotative
 70
     0
 40
0.0
 41
1.0
 50
0.0
 71
     0
 42
0.2
  3
txt
  4

1001
AcadAnnotative
1000
AnnotativeData
1002
{
1070
     1
1070
     1
1002
}
  0
STYLE
  5
B2
330
3
100
AcDbSymbolTableRecord
100
AcDbTextStyleTableRecord
  2

 70
     1
 40
0.0
 41
1.0
 50
0.0
 71
     0
 42
0.2
  3
ltypeshp.shx
  4

  0
STYLE
  5
D4
330
3
100
AcDbSymbolTableRecord
100
AcDbTextStyleTableRecord
  2
ITALICC_120
 70
     0
 40
0.0
 41
1.0
 50
0.0
 71
     0
 42
0.2
  3
italicc.shx
  4

  0
STYLE
  5
D5
330
3
100
AcDbSymbolTableRecord
100
AcDbTextStyleTableRecord
  2
Label Text (ANSI)
 70
     0
 40
0.0
 41
1.0
 50
0.0
 71
     0
 42
0.2
  3
tahoma.ttf
  4

1001
ACAD
1000
Tahoma
1071
      256
  0
STYLE
  5
D6
330
3
100
AcDbSymbolTableRecord
100
AcDbTextStyleTableRecord
  2
Note Text (ANSI)
 70
     0
 40
0.0
 41
1.0
 50
0.0
 71
     0
 42
0.2
  3
tahoma.ttf
  4

1001
ACAD
1000
Tahoma
1071
      256
  0
STYLE
  5
D7
330
3
100
AcDbSymbolTableRecord
100
AcDbTextStyleTableRecord
  2
ROMANS
 70
     0
 40
0.0
 41
1.0
 50
0.0
 71
     0
 42
0.2
  3
romans.shx
  4

  0
STYLE
  5
D8
330
3
100
AcDbSymbolTableRecord
100
AcDbTextStyleTableRecord
  2
SANSSERIF_114
 70
     0
 40
0.0
 41
1.0
 50
0.0
 71
     0
 42
0.2
  3
tahoma.ttf
  4

1001
ACAD
1000
Tahoma
1071
      256
  0
STYLE
  5
D9
330
3
100
AcDbSymbolTableRecord
100
AcDbTextStyleTableRecord
  2
SANSSERIF_117
 70
     0
 40
0.0
 41
1.0
 50
0.0
 71
     0
 42
0.2
  3
tahoma.ttf
  4

1001
ACAD
1000
Tahoma
1071
      256
  0
STYLE
  5
DA
330
3
100
AcDbSymbolTableRecord
100
AcDbTextStyleTableRecord
  2
STANDARDAM_ANSI
 70
     0
 40
0.0
 41
1.0
 50
0.0
 71
     0
 42
0.2
  3
txt.shx
  4

  0
STYLE
  5
DB
330
3
100
AcDbSymbolTableRecord
100
AcDbTextStyleTableRecord
  2
StandardAM_ANSI$0
 70
     0
 40
0.0
 41
1.0
 50
0.0
 71
     0
 42
0.2
  3
txt.shx
  4

  0
STYLE
  5
DC
330
3
100
AcDbSymbolTableRecord
100
AcDbTextStyleTableRecord
  2
STANDARDAM_ANSI$3
 70
     0
 40
0.0
 41
1.0
 50
0.0
 71
     0
 42
0.2
  3
txt.shx
  4

  0
STYLE
  5
DD
330
3
100
AcDbSymbolTableRecord
100
AcDbTextStyleTableRecord
  2
STANDARDAM_ANSI$4
 70
     0
 40
0.0
 41
1.0
 50
0.0
 71
     0
 42
0.2
  3
txt.shx
  4

  0
STYLE
  5
DE
330
3
100
AcDbSymbolTableRecord
100
AcDbTextStyleTableRecord
  2
STANDARDAM_ANSI$7
 70
     0
 40
0.0
 41
1.0
 50
0.0
 71
     0
 42
0.2
  3
txt.shx
  4

  0
STYLE
  5
DF
330
3
100
AcDbSymbolTableRecord
100
AcDbTextStyleTableRecord
  2
STANDARDAM_ANSI$SF
 70
     0
 40
0.0
 41
1.0
 50
0.0
 71
     0
 42
0.2
  3
txt.shx
  4

  0
STYLE
  5
E0
330
3
100
AcDbSymbolTableRecord
100
AcDbTextStyleTableRecord
  2
STANDARDAM_ANSI$SH
 70
     0
 40
0.0
 41
1.0
 50
0.0
 71
     0
 42
0.2
  3
txt.shx
  4

  0
STYLE
  5
E1
330
3
100
AcDbSymbolTableRecord
100
AcDbTextStyleTableRecord
  2
STANDARDSTANDARD
 70
     0
 40
0.0
 41
1.0
 50
0.0
 71
     0
 42
0.2
  3
txt.shx
  4

  0
STYLE
  5
2DF
330
3
100
AcDbSymbolTableRecord
100
AcDbTextStyleTableRecord
  2
Text Style153
 70
     0
 40
0.0
 41
1.0
 50
0.0
 71
     0
 42
0.2
  3
tahoma.ttf
  4

1001
ACAD
1000
Tahoma
1071
      256
  0
ENDTAB
  0
TABLE
  2
VIEW
  5
6
330
0
100
AcDbSymbolTable
 70
     0
  0
ENDTAB
  0
TABLE
  2
UCS
  5
7
330
0
100
AcDbSymbolTable
 70
     0
  0
ENDTAB
  0
TABLE
  2
APPID
  5
9
330
0
100
AcDbSymbolTable
 70
     4
  0
APPID
  5
56
330
9
100
AcDbSymbolTableRecord
100
AcDbRegAppTableRecord
  2
ACAD
 70
     0
  0
APPID
  5
5E
330
9
100
AcDbSymbolTableRecord
100
AcDbRegAppTableRecord
  2
AcadAnnotative
 70
     0
  0
APPID
  5
883
330
9
100
AcDbSymbolTableRecord
100
AcDbRegAppTableRecord
  2
ACAD_DSTYLE_DIMRADIAL_EXTENSION
 70
     0
  0
APPID
  5
DBC
330
9
100
AcDbSymbolTableRecord
100
AcDbRegAppTableRecord
  2
ACAD_MLEADERVER
 70
     0
  0
ENDTAB
  0
TABLE
  2
DIMSTYLE
  5
A
330
0
100
AcDbSymbolTable
 70
    27
100
AcDbDimStyleTable
 71
     2
340
F6
340
58
  0
DIMSTYLE
105
58
330
A
100
AcDbSymbolTableRecord
100
AcDbDimStyleTableRecord
  2
STANDARD
 70
     0
 41
0.1800000071525573
 42
0.0625
140
0.1800000071525574
144
1.0
147
0.0900000035762787
176
   256
177
   256
178
   256
274
     3
340
55
371
    -1
372
    -1
  0
DIMSTYLE
105
59
330
A
100
AcDbSymbolTableRecord
100
AcDbDimStyleTableRecord
  2
Annotative
 70
     0
340
55
1001
AcadAnnotative
1000
AnnotativeData
1002
{
1070
     1
1070
     1
1002
}
  0
DIMSTYLE
105
E2
330
A
100
AcDbSymbolTableRecord
100
AcDbDimStyleTableRecord
  2
AM_ANSI
 70
     0
  4
 mm
 40
13.0
 41
0.119999997317791
 42
0.05
 43
0.5
 44
0.1
 45
0.00000001
 78
     4
 79
     2
140
0.1200000047683716
146
0.7099999189376831
147
0.0599999986588955
176
   256
177
   256
178
     2
284
     4
340
DA
371
    -1
372
    -1
  0
DIMSTYLE
105
E3
330
A
100
AcDbSymbolTableRecord
100
AcDbDimStyleTableRecord
  2
AM_ANSI$7
 70
     0
  4
 mm
 40
13.0
 41
0.119999997317791
 42
0.05
 43
0.5
 44
0.1
 45
0.00000001
 78
     4
 79
     2
140
0.1200000047683716
146
0.7099999189376831
147
0.0599999986588955
176
   256
177
   256
178
     2
284
     4
340
DA
371
    -1
372
    -1
  0
DIMSTYLE
105
E4
330
A
100
AcDbSymbolTableRecord
100
AcDbDimStyleTableRecord
  2
AM_ANSI$0
 70
     0
  4
 mm
 40
13.0
 41
0.119999997317791
 42
0.05
 43
0.5
 44
0.1
 45
0.00000001
 78
     4
 79
     2
140
0.1200000047683716
146
0.7099999189376831
147
0.0599999986588955
176
   256
177
   256
178
     2
284
     4
340
DB
371
    -1
372
    -1
  0
DIMSTYLE
105
E5
330
A
100
AcDbSymbolTableRecord
100
AcDbDimStyleTableRecord
  2
AM_ANSI$0$7
 70
     0
  4
 mm
 40
13.0
 41
0.119999997317791
 42
0.05
 43
0.5
 44
0.1
 45
0.00000001
 78
     4
 79
     2
140
0.1200000047683716
146
0.7099999189376831
147
0.0599999986588955
176
   256
177
   256
178
     2
284
     4
340
DB
371
    -1
372
    -1
  0
DIMSTYLE
105
E6
330
A
100
AcDbSymbolTableRecord
100
AcDbDimStyleTableRecord
  2
AM_ANSI$3
 70
     0
  4
 mm
 40
13.0
 41
0.119999997317791
 42
0.05
 43
0.5
 44
0.1
 45
0.00000001
 78
     4
 79
     2
140
0.1200000047683716
146
0.7099999189376831
147
0.0599999986588955
176
   256
177
   256
178
     2
284
     4
340
DC
371
    -1
372
    -1
  0
DIMSTYLE
105
E7
330
A
100
AcDbSymbolTableRecord
100
AcDbDimStyleTableRecord
  2
AM_ANSI$3$7
 70
     0
  4
 mm
 40
13.0
 41
0.119999997317791
 42
0.05
 43
0.5
 44
0.1
 45
0.00000001
 78
     4
 79
     2
140
0.1200000047683716
146
0.7099999189376831
147
0.0599999986588955
176
   256
177
   256
178
     2
284
     4
340
DC
371
    -1
372
    -1
  0
DIMSTYLE
105
E8
330
A
100
AcDbSymbolTableRecord
100
AcDbDimStyleTableRecord
  2
AM_ANSI$4
 70
     0
  4
 mm
 40
13.0
 41
0.119999997317791
 42
0.05
 43
0.5
 44
0.1
 45
0.00000001
 78
     4
 79
     2
140
0.1200000047683716
146
0.7099999189376831
147
0.0599999986588955
176
   256
177
   256
178
     2
284
     4
340
DD
371
    -1
372
    -1
  0
DIMSTYLE
105
E9
330
A
100
AcDbSymbolTableRecord
100
AcDbDimStyleTableRecord
  2
AM_ANSI$4$7
 70
     0
  4
 mm
 40
13.0
 41
0.119999997317791
 42
0.05
 43
0.5
 44
0.1
 45
0.00000001
 78
     4
 79
     2
140
0.1200000047683716
146
0.7099999189376831
147
0.0599999986588955
176
   256
177
   256
178
     2
284
     4
340
DD
371
    -1
372
    -1
  0
DIMSTYLE
105
EA
330
A
100
AcDbSymbolTableRecord
100
AcDbDimStyleTableRecord
  2
AM_ANSI$SF
 70
     0
  4
 mm
 40
13.0
 41
0.119999997317791
 42
0.05
 43
0.5
 44
0.1
 45
0.00000001
 75
     1
 76
     1
 78
     4
 79
     2
140
0.1200000047683716
146
0.7099999189376831
147
0.0599999986588955
176
   256
177
   256
178
     2
284
     4
340
DF
371
    -1
372
    -1
  0
DIMSTYLE
105
EB
330
A
100
AcDbSymbolTableRecord
100
AcDbDimStyleTableRecord
  2
AM_ANSI$SF$7
 70
     0
  4
 mm
 40
13.0
 41
0.119999997317791
 42
0.05
 43
0.5
 44
0.1
 45
0.00000001
 75
     1
 76
     1
 78
     4
 79
     2
140
0.1200000047683716
146
0.7099999189376831
147
0.0599999986588955
176
   256
177
   256
178
     2
284
     4
340
DF
371
    -1
372
    -1
  0
DIMSTYLE
105
EC
330
A
100
AcDbSymbolTableRecord
100
AcDbDimStyleTableRecord
  2
AM_ANSI$SH
 70
     0
  4
 mm
 40
13.0
 41
0.119999997317791
 42
0.05
 43
0.5
 44
0.1
 45
0.00000001
 75
     1
 76
     1
 78
     4
 79
     2
140
0.1200000047683716
146
0.7099999189376831
147
0.0599999986588955
176
   256
177
   256
178
     2
284
     4
340
E0
371
    -1
372
    -1
  0
DIMSTYLE
105
ED
330
A
100
AcDbSymbolTableRecord
100
AcDbDimStyleTableRecord
  2
AM_ANSI$SH$7
 70
     0
  4
 mm
 40
13.0
 41
0.119999997317791
 42
0.05
 43
0.5
 44
0.1
 45
0.00000001
 75
     1
 76
     1
 78
     4
 79
     2
140
0.1200000047683716
146
0.7099999189376831
147
0.0599999986588955
176
   256
177
   256
178
     2
284
     4
340
E0
371
    -1
372
    -1
  0
DIMSTYLE
105
EE
330
A
100
AcDbSymbolTableRecord
100
AcDbDimStyleTableRecord
  2
Architectural (ANSI)
 70
     0
 40
13.0
 41
0.0984251946210861
 43
0.2362204724409449
 44
0.125
 45
0.00000001
 46
0.3937007874015748
 78
     3
 79
     3
140
0.1200000047683716
147
0.031496062992126
171
     1
176
   256
177
   256
178
   256
272
     2
274
     1
276
     2
277
     4
284
    12
285
     4
286
    12
340
D6
371
    -1
372
    -1
  0
DIMSTYLE
105
EF
330
A
100
AcDbSymbolTableRecord
100
AcDbDimStyleTableRecord
  2
Architectural (ANSI)$7
 70
     0
 40
13.0
 41
0.0984251946210861
 43
0.2362204724409449
 44
0.125
 45
0.00000001
 46
0.3937007874015748
 78
     3
 79
     3
140
0.1200000047683716
147
0.031496062992126
171
     1
176
   256
177
   256
178
   256
272
     2
274
     1
276
     2
277
     4
284
    12
285
     4
286
    12
340
D6
371
    -1
372
    -1
  0
DIMSTYLE
105
F0
330
A
100
AcDbSymbolTableRecord
100
AcDbDimStyleTableRecord
  2
Default - Fraction (ANSI)
 70
     0
 40
13.0
 41
0.0984251946210861
 43
0.2362204724409449
 44
0.125
 45
0.00000001
 46
0.3937007874015748
 79
     3
140
0.1200000047683716
147
0.031496062992126
171
     1
176
   256
177
   256
178
   256
272
     2
274
     1
276
     2
277
     5
284
    12
285
     4
286
    12
340
D6
371
    -1
372
    -1
  0
DIMSTYLE
105
F1
330
A
100
AcDbSymbolTableRecord
100
AcDbDimStyleTableRecord
  2
Default - Fraction (ANSI)$7
 70
     0
 40
13.0
 41
0.0984251946210861
 43
0.2362204724409449
 44
0.125
 45
0.00000001
 46
0.3937007874015748
 79
     3
140
0.1200000047683716
147
0.031496062992126
171
     1
176
   256
177
   256
178
   256
272
     2
274
     1
276
     2
277
     5
284
    12
285
     4
286
    12
340
D6
371
    -1
372
    -1
  0
DIMSTYLE
105
F2
330
A
100
AcDbSymbolTableRecord
100
AcDbDimStyleTableRecord
  2
Default - mm (ANSI)
 70
     0
 40
13.0
 41
0.0984251946210861
 42
0.063
 43
0.2362204724409449
 44
0.125
 45
0.00000001
 46
0.3937007874015748
 73
     0
 78
     4
 79
     1
140
0.1200000047683716
143
1.0
144
25.4
147
0.031496062992126
171
     1
176
   256
177
   256
178
   256
179
     1
271
     2
272
     2
274
     1
284
     4
285
     4
340
D6
371
    -1
372
    -1
  0
DIMSTYLE
105
F3
330
A
100
AcDbSymbolTableRecord
100
AcDbDimStyleTableRecord
  2
Default - mm (ANSI)$7
 70
     0
 40
13.0
 41
0.0984251946210861
 42
0.063
 43
0.2362204724409449
 44
0.125
 45
0.00000001
 46
0.3937007874015748
 73
     0
 78
     4
 79
     1
140
0.1200000047683716
143
1.0
144
25.4
147
0.031496062992126
171
     1
176
   256
177
   256
178
   256
179
     1
271
     2
272
     2
274
     1
284
     4
285
     4
340
D6
371
    -1
372
    -1
  0
DIMSTYLE
105
F4
330
A
100
AcDbSymbolTableRecord
100
AcDbDimStyleTableRecord
  2
Default - mm [in] (ANSI)
 70
     0
  4
 in
 40
13.0
 41
0.0984251946210861
 42
0.063
 43
0.25
 44
0.125
 45
0.00000001
 46
0.3937007874015748
 73
     0
 78
     4
 79
     1
140
0.1200000047683716
143
0.03937
144
25.4
147
0.031496062992126
170
     1
171
     3
176
   256
177
   256
178
   256
179
     1
271
     2
272
     2
274
     3
284
     4
285
     4
286
     4
340
D6
371
    -1
372
    -1
  0
DIMSTYLE
105
F5
330
A
100
AcDbSymbolTableRecord
100
AcDbDimStyleTableRecord
  2
Default - mm [in] (ANSI)$7
 70
     0
  4
 in
 40
13.0
 41
0.0984251946210861
 42
0.063
 43
0.25
 44
0.125
 45
0.00000001
 46
0.3937007874015748
 73
     0
 78
     4
 79
     1
140
0.1200000047683716
143
0.03937
144
25.4
147
0.031496062992126
170
     1
171
     3
176
   256
177
   256
178
   256
179
     1
271
     2
272
     2
274
     3
284
     4
285
     4
286
     4
340
D6
371
    -1
372
    -1
  0
DIMSTYLE
105
F6
102
{ACAD_REACTORS
330
524
330
615
330
6FF
330
7E9
330
8B0
330
99A
330
A9A
330
B84
330
C6E
102
}
330
A
100
AcDbSymbolTableRecord
100
AcDbDimStyleTableRecord
  2
Default (ANSI)
 70
     0
 40
13.0
 41
0.0984251946210861
 43
0.2362204724409449
 44
0.125
 45
0.00000001
 46
0.3937007874015748
 79
     1
140
0.1200000047683716
147
0.031496062992126
171
     1
176
   256
177
   256
178
   256
271
     2
272
     2
274
     1
284
     4
285
     4
340
D6
371
    -1
372
    -1
  0
DIMSTYLE
105
F7
330
A
100
AcDbSymbolTableRecord
100
AcDbDimStyleTableRecord
  2
Default (ANSI)$7
 70
     0
 40
13.0
 41
0.0984251946210861
 43
0.2362204724409449
 44
0.125
 45
0.00000001
 46
0.3937007874015748
 79
     1
140
0.1200000047683716
147
0.031496062992126
171
     1
176
   256
177
   256
178
   256
271
     2
272
     2
274
     1
284
     4
285
     4
340
D6
371
    -1
372
    -1
  0
DIMSTYLE
105
F8
330
A
100
AcDbSymbolTableRecord
100
AcDbDimStyleTableRecord
  2
Alternate (ANSI)
 70
     0
 40
13.0
 41
0.0979999974370003
340
55
342
F9
  0
DIMSTYLE
105
10B
330
A
100
AcDbSymbolTableRecord
100
AcDbDimStyleTableRecord
  2
Datum (ANSI)
 70
     0
 40
13.0
 41
0.0979999974370003
340
55
342
F9
  0
DIMSTYLE
105
11A
330
A
100
AcDbSymbolTableRecord
100
AcDbDimStyleTableRecord
  2
Large (ANSI)
 70
     0
 40
13.0
 41
0.1959999948740005
340
55
342
F9
  0
ENDTAB
  0
TABLE
  2
BLOCK_RECORD
  5
1
330
0
100
AcDbSymbolTable
 70
    13
  0
BLOCK_RECORD
  5
6C
330
1
100
AcDbSymbolTableRecord
100
AcDbBlockTableRecord
  2
*Model_Space
340
6F
  0
BLOCK_RECORD
  5
68
330
1
100
AcDbSymbolTableRecord
100
AcDbBlockTableRecord
  2
*Paper_Space
340
6B
  0
BLOCK_RECORD
  5
70
330
1
100
AcDbSymbolTableRecord
100
AcDbBlockTableRecord
  2
*Paper_Space0
340
73
  0
BLOCK_RECORD
  5
F9
330
1
100
AcDbSymbolTableRecord
100
AcDbBlockTableRecord
  2
_Closed
340
0
  0
BLOCK_RECORD
  5
100
330
1
100
AcDbSymbolTableRecord
100
AcDbBlockTableRecord
  2
DatumFilled45
340
0
  0
BLOCK_RECORD
  5
10C
330
1
100
AcDbSymbolTableRecord
100
AcDbBlockTableRecord
  2
Filled-1
340
0
  0
BLOCK_RECORD
  5
527
330
1
100
AcDbSymbolTableRecord
100
AcDbBlockTableRecord
  2
*D4
340
0
  0
BLOCK_RECORD
  5
616
330
1
100
AcDbSymbolTableRecord
100
AcDbBlockTableRecord
  2
*D5
340
0
  0
BLOCK_RECORD
  5
700
330
1
100
AcDbSymbolTableRecord
100
AcDbBlockTableRecord
  2
*D6
340
0
  0
BLOCK_RECORD
  5
7EA
330
1
100
AcDbSymbolTableRecord
100
AcDbBlockTableRecord
  2
*D7
340
0
  0
BLOCK_RECORD
  5
8B1
330
1
100
AcDbSymbolTableRecord
100
AcDbBlockTableRecord
  2
*D8
340
0
  0
BLOCK_RECORD
  5
99B
330
1
100
AcDbSymbolTableRecord
100
AcDbBlockTableRecord
  2
*D9
340
0
  0
BLOCK_RECORD
  5
A9B
330
1
100
AcDbSymbolTableRecord
100
AcDbBlockTableRecord
  2
*D10
340
0
  0
BLOCK_RECORD
  5
B85
330
1
100
AcDbSymbolTableRecord
100
AcDbBlockTableRecord
  2
*D11
340
0
  0
BLOCK_RECORD
  5
C6F
330
1
100
AcDbSymbolTableRecord
100
AcDbBlockTableRecord
  2
*D12
340
0
  0
ENDTAB
  0
ENDSEC
  0
SECTION
  2
BLOCKS
  0
BLOCK
  5
6D
330
6C
100
AcDbEntity
  8
0
100
AcDbBlockBegin
  2
*Model_Space
 70
     0
 10
0.0
 20
0.0
 30
0.0
  3
*Model_Space
  1

  0
ENDBLK
  5
6E
330
6C
100
AcDbEntity
  8
0
100
AcDbBlockEnd
  0
BLOCK
  5
69
330
68
100
AcDbEntity
 67
     1
  8
0
100
AcDbBlockBegin
  2
*Paper_Space
 70
     0
 10
0.0
 20
0.0
 30
0.0
  3
*Paper_Space
  1

  0
ENDBLK
  5
6A
330
68
100
AcDbEntity
 67
     1
  8
0
100
AcDbBlockEnd
  0
BLOCK
  5
71
330
70
100
AcDbEntity
 67
     1
  8
0
100
AcDbBlockBegin
  2
*Paper_Space0
 70
     0
 10
0.0
 20
0.0
 30
0.0
  3
*Paper_Space0
  1

  0
ENDBLK
  5
72
330
70
100
AcDbEntity
 67
     1
  8
0
100
AcDbBlockEnd
  0
BLOCK
  5
FE
330
F9
100
AcDbEntity
  8
0
100
AcDbBlockBegin
  2
_Closed
 70
     0
 10
0.0
 20
0.0
 30
0.0
  3
_Closed
  1

  0
LINE
  5
FA
330
F9
100
AcDbEntity
  8
0
  6
ByBlock
 62
     0
370
    -2
100
AcDbLine
 10
-1.0
 20
0.1666666666666666
 30
0.0
 11
0.0
 21
0.0
 31
0.0
  0
LINE
  5
FB
330
F9
100
AcDbEntity
  8
0
  6
ByBlock
 62
     0
370
    -2
100
AcDbLine
 10
0.0
 20
0.0
 30
0.0
 11
-1.0
 21
-0.1666666666666666
 31
0.0
  0
LINE
  5
FC
330
F9
100
AcDbEntity
  8
0
  6
ByBlock
 62
     0
370
    -2
100
AcDbLine
 10
-1.0
 20
0.1666666666666666
 30
0.0
 11
-1.0
 21
-0.1666666666666666
 31
0.0
  0
LINE
  5
FD
330
F9
100
AcDbEntity
  8
0
  6
ByBlock
 62
     0
370
    -2
100
AcDbLine
 10
0.0
 20
0.0
 30
0.0
 11
-1.0
 21
0.0
 31
0.0
  0
ENDBLK
  5
FF
330
F9
100
AcDbEntity
  8
0
100
AcDbBlockEnd
  0
BLOCK
  5
101
330
100
100
AcDbEntity
  8
0
100
AcDbBlockBegin
  2
DatumFilled45
 70
     0
 10
0.0
 20
0.0
 30
0.0
  3
DatumFilled45
  1

  0
POLYLINE
  5
103
330
100
100
AcDbEntity
  8
0
 62
     0
100
AcDb2dPolyline
 66
     1
 10
0.0
 20
0.0
 30
0.0
 70
   128
  0
VERTEX
  5
104
330
103
100
AcDbEntity
  8
0
 62
     0
100
AcDbVertex
100
AcDb2dVertex
 10
0.0
 20
0.9999999999999998
 30
0.0
  0
VERTEX
  5
105
330
103
100
AcDbEntity
  8
0
 62
     0
100
AcDbVertex
100
AcDb2dVertex
 10
0.0
 20
-0.9999999999999998
 30
0.0
  0
VERTEX
  5
107
330
103
100
AcDbEntity
  8
0
 62
     0
100
AcDbVertex
100
AcDb2dVertex
 10
-0.9999999999999998
 20
0.0
 30
0.0
  0
VERTEX
  5
108
330
103
100
AcDbEntity
  8
0
 62
     0
100
AcDbVertex
100
AcDb2dVertex
 10
0.0
 20
0.9999999999999998
 30
0.0
  0
SEQEND
  5
106
330
103
100
AcDbEntity
  8
0
 62
     0
  0
SOLID
  5
10A
330
100
100
AcDbEntity
  8
0
 62
     0
100
AcDbTrace
 10
0.0
 20
0.9999999999999998
 30
0.0
 11
0.0
 21
-0.9999999999999998
 31
0.0
 12
-0.9999999999999998
 22
0.0
 32
0.0
 13
0.0
 23
0.9999999999999998
 33
0.0
  0
ENDBLK
  5
102
330
100
100
AcDbEntity
  8
0
100
AcDbBlockEnd
  0
BLOCK
  5
10D
330
10C
100
AcDbEntity
  8
0
100
AcDbBlockBegin
  2
Filled-1
 70
     0
 10
0.0
 20
0.0
 30
0.0
  3
Filled-1
  1

  0
LINE
  5
10F
330
10C
100
AcDbEntity
  8
0
 62
     0
100
AcDbLine
 10
-0.9999999999999998
 20
0.0
 30
0.0
 11
0.0
 21
0.0
 31
0.0
  0
POLYLINE
  5
110
330
10C
100
AcDbEntity
  8
0
 62
     0
100
AcDb2dPolyline
 66
     1
 10
0.0
 20
0.0
 30
0.0
 70
   128
  0
VERTEX
  5
111
330
110
100
AcDbEntity
  8
0
 62
     0
100
AcDbVertex
100
AcDb2dVertex
 10
-0.9999999999999998
 20
-0.0994897959183674
 30
0.0
  0
VERTEX
  5
112
330
110
100
AcDbEntity
  8
0
 62
     0
100
AcDbVertex
100
AcDb2dVertex
 10
0.0
 20
0.0
 30
0.0
  0
VERTEX
  5
114
330
110
100
AcDbEntity
  8
0
 62
     0
100
AcDbVertex
100
AcDb2dVertex
 10
-0.9999999999999998
 20
0.0994897959183674
 30
0.0
  0
VERTEX
  5
115
330
110
100
AcDbEntity
  8
0
 62
     0
100
AcDbVertex
100
AcDb2dVertex
 10
-0.9999999999999998
 20
-0.0994897959183674
 30
0.0
  0
SEQEND
  5
113
330
110
100
AcDbEntity
  8
0
 62
     0
  0
SOLID
  5
116
330
10C
100
AcDbEntity
  8
0
 62
     0
100
AcDbTrace
 10
-0.9999999999999998
 20
-0.0994897959183674
 30
0.0
 11
0.0
 21
0.0
 31
0.0
 12
-0.9999999999999998
 22
0.0994897959183674
 32
0.0
 13
-0.9999999999999998
 23
-0.0994897959183674
 33
0.0
  0
LINE
  5
117
330
10C
100
AcDbEntity
  8
0
 62
     0
100
AcDbLine
 10
-0.9999999999999998
 20
-0.0994897959183674
 30
0.0
 11
0.0
 21
0.0
 31
0.0
  0
LINE
  5
118
330
10C
100
AcDbEntity
  8
0
 62
     0
100
AcDbLine
 10
0.0
 20
0.0
 30
0.0
 11
-0.9999999999999998
 21
0.0994897959183674
 31
0.0
  0
LINE
  5
119
330
10C
100
AcDbEntity
  8
0
 62
     0
100
AcDbLine
 10
-0.9999999999999998
 20
0.0994897959183674
 30
0.0
 11
-0.9999999999999998
 21
-0.0994897959183674
 31
0.0
  0
ENDBLK
  5
10E
330
10C
100
AcDbEntity
  8
0
100
AcDbBlockEnd
  0
BLOCK
  5
528
330
527
100
AcDbEntity
  8
0
100
AcDbBlockBegin
  2
*D4
 70
     1
 10
0.0
 20
0.0
 30
0.0
  3
*D4
  1

  0
LINE
  5
60D
330
527
100
AcDbEntity
  8
Dimension (ANSI)
440
 16777216
100
AcDbLine
 10
107.9842117337469
 20
91.88730630220025
 30
0.0
 11
106.7046842036728
 21
91.88730630220025
 31
0.0
  0
LINE
  5
60E
330
527
100
AcDbEntity
  8
Dimension (ANSI)
440
 16777216
100
AcDbLine
 10
111.4182667938952
 20
91.88730630220025
 30
0.0
 11
113.4180492849909
 21
91.88730630220025
 31
0.0
  0
SOLID
  5
60F
330
527
100
AcDbEntity
  8
Dimension (ANSI)
440
 16777216
100
AcDbTrace
 10
107.9842117337469
 20
92.10056089054594
 30
0.0
 11
107.9842117337469
 21
91.67405171385455
 31
0.0
 12
109.263739263821
 22
91.88730630220025
 32
0.0
 13
109.263739263821
 23
91.88730630220025
 33
0.0
  0
SOLID
  5
610
330
527
100
AcDbEntity
  8
Dimension (ANSI)
440
 16777216
100
AcDbTrace
 10
111.4182667938952
 20
92.10056089054594
 30
0.0
 11
111.4182667938952
 21
91.67405171385455
 31
0.0
 12
110.138739263821
 22
91.88730630220025
 32
0.0
 13
110.138739263821
 23
91.88730630220025
 33
0.0
  0
MTEXT
  5
611
330
527
100
AcDbEntity
  8
Dimension (ANSI)
440
 16777216
100
AcDbMText
 10
113.8274981038885
 20
91.88730630220025
 30
0.0
 40
1.56000006198883
 41
0.0
 71
     4
 72
     1
  1
\A1;0.88{\PTYP.}
  7
Note Text (ANSI)
 73
     1
 44
1.0
  0
POINT
  5
612
330
527
100
AcDbEntity
  8
Defpoints
 62
     0
440
 16777216
100
AcDbPoint
 10
110.138739263821
 20
103.1680856262543
 30
0.0
  0
POINT
  5
613
330
527
100
AcDbEntity
  8
Defpoints
 62
     0
440
 16777216
100
AcDbPoint
 10
109.263739263821
 20
106.8666727388422
 30
0.0
  0
POINT
  5
614
330
527
100
AcDbEntity
  8
Defpoints
 62
     0
440
 16777216
100
AcDbPoint
 10
109.263739263821
 20
91.88730630220025
 30
0.0
  0
ENDBLK
  5
529
330
527
100
AcDbEntity
  8
0
100
AcDbBlockEnd
  0
BLOCK
  5
617
330
616
100
AcDbEntity
  8
0
100
AcDbBlockBegin
  2
*D5
 70
     1
 10
0.0
 20
0.0
 30
0.0
  3
*D5
  1

  0
LINE
  5
6F5
330
616
100
AcDbEntity
  8
Dimension (ANSI)
440
 16777216
100
AcDbLine
 10
39.99240778254464
 20
106.9916727388422
 30
0.0
 11
26.55600553475088
 21
106.9916727388422
 31
0.0
  0
LINE
  5
6F6
330
616
100
AcDbEntity
  8
Dimension (ANSI)
440
 16777216
100
AcDbLine
 10
39.99240778254466
 20
28.9916727388422
 30
0.0
 11
26.55600553475086
 21
28.9916727388422
 31
0.0
  0
LINE
  5
6F7
330
616
100
AcDbEntity
  8
Dimension (ANSI)
440
 16777216
100
AcDbLine
 10
28.18100553475088
 20
105.7121452087681
 30
0.0
 11
28.18100553475087
 21
69.21674280717677
 31
0.0
  0
LINE
  5
6F8
330
616
100
AcDbEntity
  8
Dimension (ANSI)
440
 16777216
100
AcDbLine
 10
28.18100553475086
 20
30.27120026891632
 30
0.0
 11
28.18100553475087
 21
66.7666026705076
 31
0.0
  0
SOLID
  5
6F9
330
616
100
AcDbEntity
  8
Dimension (ANSI)
440
 16777216
100
AcDbTrace
 10
27.96775094640519
 20
105.7121452087681
 30
0.0
 11
28.39426012309657
 21
105.7121452087681
 31
0.0
 12
28.18100553475088
 22
106.9916727388422
 32
0.0
 13
28.18100553475088
 23
106.9916727388422
 33
0.0
  0
SOLID
  5
6FA
330
616
100
AcDbEntity
  8
Dimension (ANSI)
440
 16777216
100
AcDbTrace
 10
27.96775094640517
 20
30.27120026891632
 30
0.0
 11
28.39426012309655
 21
30.27120026891632
 31
0.0
 12
28.18100553475086
 22
28.9916727388422
 32
0.0
 13
28.18100553475086
 23
28.9916727388422
 33
0.0
  0
MTEXT
  5
6FB
330
616
100
AcDbEntity
  8
Dimension (ANSI)
440
 16777216
100
AcDbMText
 10
25.60894366273068
 20
68.80729398827913
 30
0.0
 40
1.56000006198883
 41
0.0
 71
     1
 72
     1
  1
\A1;78.00
  7
Note Text (ANSI)
 73
     1
 44
1.0
  0
POINT
  5
6FC
330
616
100
AcDbEntity
  8
Defpoints
 62
     0
440
 16777216
100
AcDbPoint
 10
40.80490778254463
 20
106.9916727388422
 30
0.0
  0
POINT
  5
6FD
330
616
100
AcDbEntity
  8
Defpoints
 62
     0
440
 16777216
100
AcDbPoint
 10
40.80490778254466
 20
28.99167273884219
 30
0.0
  0
POINT
  5
6FE
330
616
100
AcDbEntity
  8
Defpoints
 62
     0
440
 16777216
100
AcDbPoint
 10
28.18100553475086
 20
28.9916727388422
 30
0.0
  0
ENDBLK
  5
618
330
616
100
AcDbEntity
  8
0
100
AcDbBlockEnd
  0
BLOCK
  5
701
330
700
100
AcDbEntity
  8
0
100
AcDbBlockBegin
  2
*D6
 70
     1
 10
0.0
 20
0.0
 30
0.0
  3
*D6
  1

  0
LINE
  5
7DF
330
700
100
AcDbEntity
  8
Dimension (ANSI)
440
 16777216
100
AcDbLine
 10
41.51986652180839
 20
106.9291727388422
 30
0.0
 11
41.51986652180839
 21
112.0439053032629
 31
0.0
  0
LINE
  5
7E0
330
700
100
AcDbEntity
  8
Dimension (ANSI)
440
 16777216
100
AcDbLine
 10
70.76986652180839
 20
106.9291727388422
 30
0.0
 11
70.76986652180839
 21
112.0439053032629
 31
0.0
  0
LINE
  5
7E1
330
700
100
AcDbEntity
  8
Dimension (ANSI)
440
 16777216
100
AcDbLine
 10
42.79939405188251
 20
110.4189053032629
 30
0.0
 11
53.18116644263166
 21
110.4189053032629
 31
0.0
  0
LINE
  5
7E2
330
700
100
AcDbEntity
  8
Dimension (ANSI)
440
 16777216
100
AcDbLine
 10
69.49033899173428
 20
110.4189053032629
 30
0.0
 11
59.10856660098513
 21
110.4189053032629
 31
0.0
  0
SOLID
  5
7E3
330
700
100
AcDbEntity
  8
Dimension (ANSI)
440
 16777216
100
AcDbTrace
 10
42.79939405188251
 20
110.6321598916086
 30
0.0
 11
42.79939405188251
 21
110.2056507149173
 31
0.0
 12
41.51986652180839
 22
110.4189053032629
 32
0.0
 13
41.51986652180839
 23
110.4189053032629
 33
0.0
  0
SOLID
  5
7E4
330
700
100
AcDbEntity
  8
Dimension (ANSI)
440
 16777216
100
AcDbTrace
 10
69.49033899173428
 20
110.6321598916086
 30
0.0
 11
69.49033899173428
 21
110.2056507149173
 31
0.0
 12
70.76986652180839
 22
110.4189053032629
 32
0.0
 13
70.76986652180839
 23
110.4189053032629
 33
0.0
  0
MTEXT
  5
7E5
330
700
100
AcDbEntity
  8
Dimension (ANSI)
440
 16777216
100
AcDbMText
 10
53.59061526152929
 20
111.2313835035691
 30
0.0
 40
1.56000006198883
 41
0.0
 71
     1
 72
     1
  1
\A1;29.25
  7
Note Text (ANSI)
 73
     1
 44
1.0
  0
POINT
  5
7E6
330
700
100
AcDbEntity
  8
Defpoints
 62
     0
440
 16777216
100
AcDbPoint
 10
41.51986652180839
 20
106.1166727388422
 30
0.0
  0
POINT
  5
7E7
330
700
100
AcDbEntity
  8
Defpoints
 62
     0
440
 16777216
100
AcDbPoint
 10
70.76986652180839
 20
106.1166727388422
 30
0.0
  0
POINT
  5
7E8
330
700
100
AcDbEntity
  8
Defpoints
 62
     0
440
 16777216
100
AcDbPoint
 10
70.76986652180839
 20
110.4189053032629
 30
0.0
  0
ENDBLK
  5
702
330
700
100
AcDbEntity
  8
0
100
AcDbBlockEnd
  0
BLOCK
  5
7EB
330
7EA
100
AcDbEntity
  8
0
100
AcDbBlockBegin
  2
*D7
 70
     1
 10
0.0
 20
0.0
 30
0.0
  3
*D7
  1

  0
LINE
  5
89C
330
7EA
100
AcDbEntity
  8
Dimension (ANSI)
440
 16777216
100
AcDbLine
 10
77.9429830390705
 20
35.37413146474078
 30
0.0
 11
76.277325247709
 21
35.37413146474079
 31
0.0
  0
LINE
  5
89D
330
7EA
100
AcDbEntity
  8
Dimension (ANSI)
440
 16777216
100
AcDbLine
 10
76.277325247709
 20
35.37413146474079
 30
0.0
 11
71.87367967394284
 21
30.97048589097624
 31
0.0
  0
MTEXT
  5
89E
102
{ACAD_XDICTIONARY
360
DBD
102
}
330
7EA
100
AcDbEntity
  8
Dimension (ANSI)
440
 16777216
100
AcDbMText
 10
81.76247794822854
 20
35.37413146474079
 30
0.0
 40
1.56000006198883
 41
0.0
 71
     5
 72
     1
  1
\A1;\U+22050.563{\P(4 PL.)}
  7
Note Text (ANSI)
 73
     1
 44
1.0
  0
SOLID
  5
89F
330
7EA
100
AcDbEntity
  8
Dimension (ANSI)
440
 16777216
100
AcDbTrace
 10
71.72288590840449
 20
31.12127965651465
 30
0.0
 11
72.0244734394812
 21
30.81969212543783
 31
0.0
 12
70.9689170807124
 22
30.06572329774613
 32
0.0
 13
70.9689170807124
 23
30.06572329774613
 33
0.0
  0
LINE
  5
8A0
330
7EA
100
AcDbEntity
  8
Dimension (ANSI)
440
 16777216
100
AcDbLine
 10
69.59986652180834
 20
29.86667273884215
 30
0.0
 11
71.93986652180837
 21
29.86667273884215
 31
0.0
  0
LINE
  5
8A1
330
7EA
100
AcDbEntity
  8
Dimension (ANSI)
440
 16777216
100
AcDbLine
 10
70.76986652180835
 20
28.69667273884215
 30
0.0
 11
70.76986652180835
 21
31.03667273884215
 31
0.0
  0
POINT
  5
8A2
330
7EA
100
AcDbEntity
  8
Defpoints
 62
     0
440
 16777216
100
AcDbPoint
 10
70.9689170807124
 20
30.06572329774613
 30
0.0
  0
POINT
  5
8A3
330
7EA
100
AcDbEntity
  8
Defpoints
 62
     0
440
 16777216
100
AcDbPoint
 10
70.5708159629043
 20
29.66762217993818
 30
0.0
  0
ENDBLK
  5
7EC
330
7EA
100
AcDbEntity
  8
0
100
AcDbBlockEnd
  0
BLOCK
  5
8B2
330
8B1
100
AcDbEntity
  8
0
100
AcDbBlockBegin
  2
*D8
 70
     1
 10
0.0
 20
0.0
 30
0.0
  3
*D8
  1

  0
LINE
  5
990
330
8B1
100
AcDbEntity
  8
Dimension (ANSI)
440
 16777216
100
AcDbLine
 10
38.80086652180839
 20
106.1166727388422
 30
0.0
 11
33.65765786039109
 21
106.1166727388422
 31
0.0
  0
LINE
  5
991
330
8B1
100
AcDbEntity
  8
Dimension (ANSI)
440
 16777216
100
AcDbLine
 10
38.80086652180841
 20
29.86667273884219
 30
0.0
 11
33.65765786039108
 21
29.86667273884219
 31
0.0
  0
LINE
  5
992
330
8B1
100
AcDbEntity
  8
Dimension (ANSI)
440
 16777216
100
AcDbLine
 10
35.28265786039109
 20
104.8371452087681
 30
0.0
 11
35.28265786039109
 21
69.213599758046
 31
0.0
  0
LINE
  5
993
330
8B1
100
AcDbEntity
  8
Dimension (ANSI)
440
 16777216
100
AcDbLine
 10
35.28265786039108
 20
31.14620026891631
 30
0.0
 11
35.28265786039109
 21
66.76974571963839
 31
0.0
  0
SOLID
  5
994
330
8B1
100
AcDbEntity
  8
Dimension (ANSI)
440
 16777216
100
AcDbTrace
 10
35.06940327204541
 20
104.8371452087681
 30
0.0
 11
35.49591244873678
 21
104.8371452087681
 31
0.0
 12
35.28265786039109
 22
106.1166727388422
 32
0.0
 13
35.28265786039109
 23
106.1166727388422
 33
0.0
  0
SOLID
  5
995
330
8B1
100
AcDbEntity
  8
Dimension (ANSI)
440
 16777216
100
AcDbTrace
 10
35.06940327204539
 20
31.14620026891631
 30
0.0
 11
35.49591244873676
 21
31.14620026891631
 31
0.0
 12
35.28265786039108
 22
29.86667273884219
 32
0.0
 13
35.28265786039108
 23
29.86667273884219
 33
0.0
  0
MTEXT
  5
996
330
8B1
100
AcDbEntity
  8
Dimension (ANSI)
440
 16777216
100
AcDbMText
 10
32.72316818489401
 20
68.80415093914838
 30
0.0
 40
1.56000006198883
 41
0.0
 71
     1
 72
     1
  1
\A1;76.25
  7
Note Text (ANSI)
 73
     1
 44
1.0
  0
POINT
  5
997
330
8B1
100
AcDbEntity
  8
Defpoints
 62
     0
440
 16777216
100
AcDbPoint
 10
39.6133665218084
 20
106.1166727388422
 30
0.0
  0
POINT
  5
998
330
8B1
100
AcDbEntity
  8
Defpoints
 62
     0
440
 16777216
100
AcDbPoint
 10
39.61336652180841
 20
29.86667273884219
 30
0.0
  0
POINT
  5
999
330
8B1
100
AcDbEntity
  8
Defpoints
 62
     0
440
 16777216
100
AcDbPoint
 10
35.28265786039108
 20
29.86667273884219
 30
0.0
  0
ENDBLK
  5
8B3
330
8B1
100
AcDbEntity
  8
0
100
AcDbBlockEnd
  0
BLOCK
  5
99C
330
99B
100
AcDbEntity
  8
0
100
AcDbBlockBegin
  2
*D9
 70
     1
 10
0.0
 20
0.0
 30
0.0
  3
*D9
  1

  0
LINE
  5
A8F
330
99B
100
AcDbEntity
  8
Dimension (ANSI)
440
 16777216
100
AcDbLine
 10
39.99240778254466
 20
28.9916727388422
 30
0.0
 11
37.34613729805959
 21
28.9916727388422
 31
0.0
  0
LINE
  5
A90
330
99B
100
AcDbEntity
  8
Dimension (ANSI)
440
 16777216
100
AcDbLine
 10
38.80086652180841
 20
29.86667273884219
 30
0.0
 11
37.34613729805959
 21
29.86667273884219
 31
0.0
  0
LINE
  5
A91
330
99B
100
AcDbEntity
  8
Dimension (ANSI)
440
 16777216
100
AcDbLine
 10
38.97113729805959
 20
31.14620026891631
 30
0.0
 11
38.97113729805959
 21
32.42572779899043
 31
0.0
  0
LINE
  5
A92
330
99B
100
AcDbEntity
  8
Dimension (ANSI)
440
 16777216
100
AcDbLine
 10
38.97113729805959
 20
27.71214520876807
 30
0.0
 11
38.97113729805959
 21
25.26070308237437
 31
0.0
  0
LINE
  5
A93
330
99B
100
AcDbEntity
  8
Dimension (ANSI)
440
 16777216
100
AcDbLine
 10
38.97113729805959
 20
25.26070308237437
 30
0.0
 11
37.69160976798547
 21
25.26070308237437
 31
0.0
  0
SOLID
  5
A94
330
99B
100
AcDbEntity
  8
Dimension (ANSI)
440
 16777216
100
AcDbTrace
 10
38.75788270971391
 20
31.14620026891631
 30
0.0
 11
39.18439188640527
 21
31.14620026891631
 31
0.0
 12
38.97113729805959
 22
29.86667273884219
 32
0.0
 13
38.97113729805959
 23
29.86667273884219
 33
0.0
  0
SOLID
  5
A95
330
99B
100
AcDbEntity
  8
Dimension (ANSI)
440
 16777216
100
AcDbTrace
 10
38.75788270971391
 20
27.71214520876807
 30
0.0
 11
39.18439188640527
 21
27.71214520876807
 31
0.0
 12
38.97113729805959
 22
28.9916727388422
 32
0.0
 13
38.97113729805959
 23
28.9916727388422
 33
0.0
  0
MTEXT
  5
A96
330
99B
100
AcDbEntity
  8
Dimension (ANSI)
440
 16777216
100
AcDbMText
 10
33.28315477169433
 20
26.07632433181132
 30
0.0
 40
1.56000006198883
 41
0.0
 71
     1
 72
     1
  1
\A1;0.88
  7
Note Text (ANSI)
 73
     1
 44
1.0
  0
POINT
  5
A97
330
99B
100
AcDbEntity
  8
Defpoints
 62
     0
440
 16777216
100
AcDbPoint
 10
40.80490778254466
 20
28.99167273884219
 30
0.0
  0
POINT
  5
A98
330
99B
100
AcDbEntity
  8
Defpoints
 62
     0
440
 16777216
100
AcDbPoint
 10
39.61336652180841
 20
29.86667273884219
 30
0.0
  0
POINT
  5
A99
330
99B
100
AcDbEntity
  8
Defpoints
 62
     0
440
 16777216
100
AcDbPoint
 10
38.97113729805959
 20
29.86667273884219
 30
0.0
  0
ENDBLK
  5
99D
330
99B
100
AcDbEntity
  8
0
100
AcDbBlockEnd
  0
BLOCK
  5
A9C
330
A9B
100
AcDbEntity
  8
0
100
AcDbBlockBegin
  2
*D10
 70
     1
 10
0.0
 20
0.0
 30
0.0
  3
*D10
  1

  0
LINE
  5
B7A
330
A9B
100
AcDbEntity
  8
Dimension (ANSI)
440
 16777216
100
AcDbLine
 10
40.64486652180839
 20
107.6441314781059
 30
0.0
 11
40.64486652180839
 21
116.0316595184663
 31
0.0
  0
LINE
  5
B7B
330
A9B
100
AcDbEntity
  8
Dimension (ANSI)
440
 16777216
100
AcDbLine
 10
71.64486652180838
 20
107.6441314781059
 30
0.0
 11
71.64486652180838
 21
116.0316595184663
 31
0.0
  0
LINE
  5
B7C
330
A9B
100
AcDbEntity
  8
Dimension (ANSI)
440
 16777216
100
AcDbLine
 10
41.92439405188252
 20
114.4066595184663
 30
0.0
 11
53.16230814784699
 21
114.4066595184663
 31
0.0
  0
LINE
  5
B7D
330
A9B
100
AcDbEntity
  8
Dimension (ANSI)
440
 16777216
100
AcDbLine
 10
70.36533899173426
 20
114.4066595184663
 30
0.0
 11
59.12742489576981
 21
114.4066595184663
 31
0.0
  0
SOLID
  5
B7E
330
A9B
100
AcDbEntity
  8
Dimension (ANSI)
440
 16777216
100
AcDbTrace
 10
41.92439405188252
 20
114.619914106812
 30
0.0
 11
41.92439405188252
 21
114.1934049301206
 31
0.0
 12
40.64486652180839
 22
114.4066595184663
 32
0.0
 13
40.64486652180839
 23
114.4066595184663
 33
0.0
  0
SOLID
  5
B7F
330
A9B
100
AcDbEntity
  8
Dimension (ANSI)
440
 16777216
100
AcDbTrace
 10
70.36533899173426
 20
114.619914106812
 30
0.0
 11
70.36533899173426
 21
114.1934049301206
 31
0.0
 12
71.64486652180838
 22
114.4066595184663
 32
0.0
 13
71.64486652180838
 23
114.4066595184663
 33
0.0
  0
MTEXT
  5
B80
330
A9B
100
AcDbEntity
  8
Dimension (ANSI)
440
 16777216
100
AcDbMText
 10
53.57175696674462
 20
115.2191377187725
 30
0.0
 40
1.56000006198883
 41
0.0
 71
     1
 72
     1
  1
\A1;31.00
  7
Note Text (ANSI)
 73
     1
 44
1.0
  0
POINT
  5
B81
330
A9B
100
AcDbEntity
  8
Defpoints
 62
     0
440
 16777216
100
AcDbPoint
 10
40.64486652180839
 20
106.8316314781059
 30
0.0
  0
POINT
  5
B82
330
A9B
100
AcDbEntity
  8
Defpoints
 62
     0
440
 16777216
100
AcDbPoint
 10
71.64486652180838
 20
106.8316314781059
 30
0.0
  0
POINT
  5
B83
330
A9B
100
AcDbEntity
  8
Defpoints
 62
     0
440
 16777216
100
AcDbPoint
 10
71.64486652180838
 20
114.4066595184663
 30
0.0
  0
ENDBLK
  5
A9D
330
A9B
100
AcDbEntity
  8
0
100
AcDbBlockEnd
  0
BLOCK
  5
B86
330
B85
100
AcDbEntity
  8
0
100
AcDbBlockBegin
  2
*D11
 70
     1
 10
0.0
 20
0.0
 30
0.0
  3
*D11
  1

  0
LINE
  5
C64
330
B85
100
AcDbEntity
  8
Dimension (ANSI)
440
 16777216
100
AcDbLine
 10
41.51986652180839
 20
108.8356727388422
 30
0.0
 11
41.51986652180839
 21
112.0439053032629
 31
0.0
  0
LINE
  5
C65
330
B85
100
AcDbEntity
  8
Dimension (ANSI)
440
 16777216
100
AcDbLine
 10
40.64486652180839
 20
107.6441314781059
 30
0.0
 11
40.64486652180839
 21
112.0439053032629
 31
0.0
  0
LINE
  5
C66
330
B85
100
AcDbEntity
  8
Dimension (ANSI)
440
 16777216
100
AcDbLine
 10
42.79939405188251
 20
110.4189053032629
 30
0.0
 11
44.07892158195664
 21
110.4189053032629
 31
0.0
  0
LINE
  5
C67
330
B85
100
AcDbEntity
  8
Dimension (ANSI)
440
 16777216
100
AcDbLine
 10
39.36533899173428
 20
110.4189053032629
 30
0.0
 11
36.89374864869844
 21
110.4189053032629
 31
0.0
  0
SOLID
  5
C68
330
B85
100
AcDbEntity
  8
Dimension (ANSI)
440
 16777216
100
AcDbTrace
 10
42.79939405188251
 20
110.6321598916086
 30
0.0
 11
42.79939405188251
 21
110.2056507149173
 31
0.0
 12
41.51986652180839
 22
110.4189053032629
 32
0.0
 13
41.51986652180839
 23
110.4189053032629
 33
0.0
  0
SOLID
  5
C69
330
B85
100
AcDbEntity
  8
Dimension (ANSI)
440
 16777216
100
AcDbTrace
 10
39.36533899173428
 20
110.6321598916086
 30
0.0
 11
39.36533899173428
 21
110.2056507149173
 31
0.0
 12
40.64486652180839
 22
110.4189053032629
 32
0.0
 13
40.64486652180839
 23
110.4189053032629
 33
0.0
  0
MTEXT
  5
C6A
330
B85
100
AcDbEntity
  8
Dimension (ANSI)
440
 16777216
100
AcDbMText
 10
32.4852936524073
 20
111.2345265526999
 30
0.0
 40
1.56000006198883
 41
0.0
 71
     1
 72
     1
  1
\A1;0.88
  7
Note Text (ANSI)
 73
     1
 44
1.0
  0
POINT
  5
C6B
330
B85
100
AcDbEntity
  8
Defpoints
 62
     0
440
 16777216
100
AcDbPoint
 10
41.51986652180839
 20
108.0231727388422
 30
0.0
  0
POINT
  5
C6C
330
B85
100
AcDbEntity
  8
Defpoints
 62
     0
440
 16777216
100
AcDbPoint
 10
40.64486652180839
 20
106.8316314781059
 30
0.0
  0
POINT
  5
C6D
330
B85
100
AcDbEntity
  8
Defpoints
 62
     0
440
 16777216
100
AcDbPoint
 10
40.64486652180839
 20
110.4189053032629
 30
0.0
  0
ENDBLK
  5
B87
330
B85
100
AcDbEntity
  8
0
100
AcDbBlockEnd
  0
BLOCK
  5
C70
330
C6F
100
AcDbEntity
  8
0
100
AcDbBlockBegin
  2
*D12
 70
     1
 10
0.0
 20
0.0
 30
0.0
  3
*D12
  1

  0
LINE
  5
D6E
330
C6F
100
AcDbEntity
  8
Dimension (ANSI)
440
 16777216
100
AcDbLine
 10
64.68223728948586
 20
122.8951231379097
 30
0.0
 11
64.68223728948586
 21
121.6155956078356
 31
0.0
  0
LINE
  5
D6F
330
C6F
100
AcDbEntity
  8
Dimension (ANSI)
440
 16777216
100
AcDbLine
 10
64.68223728948586
 20
126.329178198058
 30
0.0
 11
64.68223728948586
 21
131.733719532232
 31
0.0
  0
LINE
  5
D70
330
C6F
100
AcDbEntity
  8
Dimension (ANSI)
440
 16777216
100
AcDbLine
 10
64.68223728948586
 20
131.733719532232
 30
0.0
 11
65.96176481955999
 21
131.733719532232
 31
0.0
  0
SOLID
  5
D71
330
C6F
100
AcDbEntity
  8
Dimension (ANSI)
440
 16777216
100
AcDbTrace
 10
64.46898270114018
 20
122.8951231379097
 30
0.0
 11
64.89549187783156
 21
122.8951231379097
 31
0.0
 12
64.68223728948586
 22
124.1746506679838
 32
0.0
 13
64.68223728948586
 23
124.1746506679838
 33
0.0
  0
SOLID
  5
D72
330
C6F
100
AcDbEntity
  8
Dimension (ANSI)
440
 16777216
100
AcDbTrace
 10
64.46898270114018
 20
126.329178198058
 30
0.0
 11
64.89549187783156
 21
126.329178198058
 31
0.0
 12
64.68223728948586
 22
125.0496506679839
 32
0.0
 13
64.68223728948586
 23
125.0496506679839
 33
0.0
  0
MTEXT
  5
D73
330
C6F
100
AcDbEntity
  8
Dimension (ANSI)
440
 16777216
100
AcDbMText
 10
66.37121363845761
 20
132.7826248769087
 30
0.0
 40
1.56000006198883
 41
0.0
 71
     1
 72
     1
  1
\A1;0.88{\PTYP.}
  7
Note Text (ANSI)
 73
     1
 44
1.0
  0
POINT
  5
D74
330
C6F
100
AcDbEntity
  8
Defpoints
 62
     0
440
 16777216
100
AcDbPoint
 10
68.43200618520453
 20
125.0496506679839
 30
0.0
  0
POINT
  5
D75
330
C6F
100
AcDbEntity
  8
Defpoints
 62
     0
440
 16777216
100
AcDbPoint
 10
68.43200618520454
 20
124.1746506679838
 30
0.0
  0
POINT
  5
D76
330
C6F
100
AcDbEntity
  8
Defpoints
 62
     0
440
 16777216
100
AcDbPoint
 10
64.68223728948586
 20
124.1746506679838
 30
0.0
  0
ENDBLK
  5
C71
330
C6F
100
AcDbEntity
  8
0
100
AcDbBlockEnd
  0
ENDSEC
  0
SECTION
  2
ENTITIES
  0
CIRCLE
  5
11B
330
6C
100
AcDbEntity
  8
Visible (ANSI)
100
AcDbCircle
 10
70.76986652180839
 20
29.86667273884219
 30
0.0
 40
0.2814999999999999
  0
CIRCLE
  5
11C
330
6C
100
AcDbEntity
  8
Visible (ANSI)
100
AcDbCircle
 10
70.76986652180839
 20
106.1166727388422
 30
0.0
 40
0.2814999999999999
  0
CIRCLE
  5
11D
330
6C
100
AcDbEntity
  8
Visible (ANSI)
100
AcDbCircle
 10
41.5198665218084
 20
29.86667273884219
 30
0.0
 40
0.2814999999999999
  0
CIRCLE
  5
11E
330
6C
100
AcDbEntity
  8
Visible (ANSI)
100
AcDbCircle
 10
41.51986652180839
 20
106.1166727388422
 30
0.0
 40
0.2814999999999999
  0
LINE
  5
11F
330
6C
100
AcDbEntity
  8
Visible (ANSI)
100
AcDbLine
 10
71.64486652180838
 20
106.8316314781059
 30
0.0
 11
71.64486652180842
 21
29.15171399957842
 31
0.0
  0
LINE
  5
120
330
6C
100
AcDbEntity
  8
Visible (ANSI)
100
AcDbLine
 10
40.80490778254463
 20
106.9916727388422
 30
0.0
 11
71.48482526107216
 21
106.9916727388422
 31
0.0
  0
LINE
  5
121
330
6C
100
AcDbEntity
  8
Visible (ANSI)
100
AcDbLine
 10
40.64486652180842
 20
29.15171399957842
 30
0.0
 11
40.64486652180839
 21
106.8316314781059
 31
0.0
  0
LINE
  5
122
330
6C
100
AcDbEntity
  8
Visible (ANSI)
100
AcDbLine
 10
71.48482526107217
 20
28.99167273884219
 30
0.0
 11
40.80490778254466
 21
28.99167273884219
 31
0.0
  0
LINE
  5
123
330
6C
100
AcDbEntity
  8
Hidden (ANSI)
 48
1.070683598518371
100
AcDbLine
 10
71.55111652180842
 20
29.15171399957843
 30
0.0
 11
71.55111652180839
 21
106.8316314781059
 31
0.0
  0
LINE
  5
124
330
6C
100
AcDbEntity
  8
Hidden (ANSI)
 48
1.03795301914215
100
AcDbLine
 10
71.48482526107216
 20
106.8979227388421
 30
0.0
 11
40.80490778254463
 21
106.8979227388421
 31
0.0
  0
LINE
  5
125
330
6C
100
AcDbEntity
  8
Hidden (ANSI)
 48
1.070683598518371
100
AcDbLine
 10
40.73861652180839
 20
106.8316314781059
 30
0.0
 11
40.73861652180841
 21
29.15171399957842
 31
0.0
  0
LINE
  5
126
330
6C
100
AcDbEntity
  8
Hidden (ANSI)
 48
1.03795301914215
100
AcDbLine
 10
40.80490778254466
 20
29.08542273884219
 30
0.0
 11
71.48482526107217
 21
29.08542273884219
 31
0.0
  0
POLYLINE
  5
127
330
6C
100
AcDbEntity
  8
Visible (ANSI)
100
AcDb2dPolyline
 66
     1
 10
0.0
 20
0.0
 30
0.0
 70
   128
  0
VERTEX
  5
128
330
127
100
AcDbEntity
  8
Visible (ANSI)
100
AcDbVertex
100
AcDb2dVertex
 10
71.51986676210431
 20
106.8666749015052
 30
0.0
  0
VERTEX
  5
129
330
127
100
AcDbEntity
  8
Visible (ANSI)
100
AcDbVertex
100
AcDb2dVertex
 10
71.52804282978701
 20
106.8652151039689
 30
0.0
  0
VERTEX
  5
12B
330
127
100
AcDbEntity
  8
Visible (ANSI)
100
AcDbVertex
100
AcDb2dVertex
 10
71.5361828530861
 20
106.8637553064326
 30
0.0
  0
VERTEX
  5
12C
330
127
100
AcDbEntity
  8
Visible (ANSI)
100
AcDbVertex
100
AcDb2dVertex
 10
71.5442537913166
 20
106.8622955088963
 30
0.0
  0
VERTEX
  5
12D
330
127
100
AcDbEntity
  8
Visible (ANSI)
100
AcDbVertex
100
AcDb2dVertex
 10
71.5522196000949
 20
106.8608297039627
 30
0.0
  0
VERTEX
  5
12E
330
127
100
AcDbEntity
  8
Visible (ANSI)
100
AcDbVertex
100
AcDb2dVertex
 10
71.56004723873602
 20
106.8593699064264
 30
0.0
  0
VERTEX
  5
12F
330
127
100
AcDbEntity
  8
Visible (ANSI)
100
AcDbVertex
100
AcDb2dVertex
 10
71.56770066285634
 20
106.8579101088902
 30
0.0
  0
VERTEX
  5
130
330
127
100
AcDbEntity
  8
Visible (ANSI)
100
AcDbVertex
100
AcDb2dVertex
 10
71.57515283916817
 20
106.8564503113538
 30
0.0
  0
VERTEX
  5
131
330
127
100
AcDbEntity
  8
Visible (ANSI)
100
AcDbVertex
100
AcDb2dVertex
 10
71.58236772328788
 20
106.8549905138176
 30
0.0
  0
VERTEX
  5
132
330
127
100
AcDbEntity
  8
Visible (ANSI)
100
AcDbVertex
100
AcDb2dVertex
 10
71.58931227453049
 20
106.8535307162813
 30
0.0
  0
VERTEX
  5
133
330
127
100
AcDbEntity
  8
Visible (ANSI)
100
AcDbVertex
100
AcDb2dVertex
 10
71.59596246330695
 20
106.852070918745
 30
0.0
  0
VERTEX
  5
134
330
127
100
AcDbEntity
  8
Visible (ANSI)
100
AcDbVertex
100
AcDb2dVertex
 10
71.60228524893226
 20
106.8506111212087
 30
0.0
  0
VERTEX
  5
135
330
127
100
AcDbEntity
  8
Visible (ANSI)
100
AcDbVertex
100
AcDb2dVertex
 10
71.6082535981187
 20
106.8491513236724
 30
0.0
  0
VERTEX
  5
136
330
127
100
AcDbEntity
  8
Visible (ANSI)
100
AcDbVertex
100
AcDb2dVertex
 10
71.61384648497587
 20
106.8476915261361
 30
0.0
  0
VERTEX
  5
137
330
127
100
AcDbEntity
  8
Visible (ANSI)
100
AcDbVertex
100
AcDb2dVertex
 10
71.61903687621602
 20
106.8462317285998
 30
0.0
  0
VERTEX
  5
138
330
127
100
AcDbEntity
  8
Visible (ANSI)
100
AcDbVertex
100
AcDb2dVertex
 10
71.62380074225011
 20
106.8447719310635
 30
0.0
  0
VERTEX
  5
139
330
127
100
AcDbEntity
  8
Visible (ANSI)
100
AcDbVertex
100
AcDb2dVertex
 10
71.6281200608863
 20
106.8433121335272
 30
0.0
  0
VERTEX
  5
13A
330
127
100
AcDbEntity
  8
Visible (ANSI)
100
AcDbVertex
100
AcDb2dVertex
 10
71.63197680993281
 20
106.8418523359909
 30
0.0
  0
VERTEX
  5
13B
330
127
100
AcDbEntity
  8
Visible (ANSI)
100
AcDbVertex
100
AcDb2dVertex
 10
71.63534996349918
 20
106.8403925384546
 30
0.0
  0
VERTEX
  5
13C
330
127
100
AcDbEntity
  8
Visible (ANSI)
100
AcDbVertex
100
AcDb2dVertex
 10
71.63823351418816
 20
106.8389327409183
 30
0.0
  0
VERTEX
  5
13D
330
127
100
AcDbEntity
  8
Visible (ANSI)
100
AcDbVertex
100
AcDb2dVertex
 10
71.64060643610929
 20
106.837472943382
 30
0.0
  0
VERTEX
  5
13E
330
127
100
AcDbEntity
  8
Visible (ANSI)
100
AcDbVertex
100
AcDb2dVertex
 10
71.64246572556397
 20
106.8360131458457
 30
0.0
  0
VERTEX
  5
13F
330
127
100
AcDbEntity
  8
Visible (ANSI)
100
AcDbVertex
100
AcDb2dVertex
 10
71.64379636405897
 20
106.8345533483094
 30
0.0
  0
VERTEX
  5
140
330
127
100
AcDbEntity
  8
Visible (ANSI)
100
AcDbVertex
100
AcDb2dVertex
 10
71.64459835159433
 20
106.8330935507731
 30
0.0
  0
VERTEX
  5
141
330
127
100
AcDbEntity
  8
Visible (ANSI)
100
AcDbVertex
100
AcDb2dVertex
 10
71.64486568077281
 20
106.8316337532369
 30
0.0
  0
SEQEND
  5
12A
330
127
100
AcDbEntity
  8
Visible (ANSI)
  0
POLYLINE
  5
142
330
6C
100
AcDbEntity
  8
Visible (ANSI)
100
AcDb2dPolyline
 66
     1
 10
0.0
 20
0.0
 30
0.0
 70
   128
  0
VERTEX
  5
143
330
142
100
AcDbEntity
  8
Visible (ANSI)
100
AcDbVertex
100
AcDb2dVertex
 10
71.64486568077281
 20
29.15171400256519
 30
0.0
  0
VERTEX
  5
144
330
142
100
AcDbEntity
  8
Visible (ANSI)
100
AcDbVertex
100
AcDb2dVertex
 10
71.64459835159433
 20
29.15025394689854
 30
0.0
  0
VERTEX
  5
146
330
142
100
AcDbEntity
  8
Visible (ANSI)
100
AcDbVertex
100
AcDb2dVertex
 10
71.64379636405897
 20
29.1487938912319
 30
0.0
  0
VERTEX
  5
147
330
142
100
AcDbEntity
  8
Visible (ANSI)
100
AcDbVertex
100
AcDb2dVertex
 10
71.64246572556397
 20
29.14733384729845
 30
0.0
  0
VERTEX
  5
148
330
142
100
AcDbEntity
  8
Visible (ANSI)
100
AcDbVertex
100
AcDb2dVertex
 10
71.64060643610929
 20
29.1458737916318
 30
0.0
  0
VERTEX
  5
149
330
142
100
AcDbEntity
  8
Visible (ANSI)
100
AcDbVertex
100
AcDb2dVertex
 10
71.63823351418816
 20
29.14441373596516
 30
0.0
  0
VERTEX
  5
14A
330
142
100
AcDbEntity
  8
Visible (ANSI)
100
AcDbVertex
100
AcDb2dVertex
 10
71.63534996349918
 20
29.14295368029852
 30
0.0
  0
VERTEX
  5
14B
330
142
100
AcDbEntity
  8
Visible (ANSI)
100
AcDbVertex
100
AcDb2dVertex
 10
71.63197680993281
 20
29.14149363636507
 30
0.0
  0
VERTEX
  5
14C
330
142
100
AcDbEntity
  8
Visible (ANSI)
100
AcDbVertex
100
AcDb2dVertex
 10
71.6281200608863
 20
29.14003358069842
 30
0.0
  0
VERTEX
  5
14D
330
142
100
AcDbEntity
  8
Visible (ANSI)
100
AcDbVertex
100
AcDb2dVertex
 10
71.62380074225011
 20
29.13857352503177
 30
0.0
  0
VERTEX
  5
14E
330
142
100
AcDbEntity
  8
Visible (ANSI)
100
AcDbVertex
100
AcDb2dVertex
 10
71.61903687621602
 20
29.13711346936513
 30
0.0
  0
VERTEX
  5
14F
330
142
100
AcDbEntity
  8
Visible (ANSI)
100
AcDbVertex
100
AcDb2dVertex
 10
71.61384648497587
 20
29.13565342543168
 30
0.0
  0
VERTEX
  5
150
330
142
100
AcDbEntity
  8
Visible (ANSI)
100
AcDbVertex
100
AcDb2dVertex
 10
71.6082535981187
 20
29.13419336976503
 30
0.0
  0
VERTEX
  5
151
330
142
100
AcDbEntity
  8
Visible (ANSI)
100
AcDbVertex
100
AcDb2dVertex
 10
71.60228524893226
 20
29.13273331409839
 30
0.0
  0
VERTEX
  5
152
330
142
100
AcDbEntity
  8
Visible (ANSI)
100
AcDbVertex
100
AcDb2dVertex
 10
71.59596246330695
 20
29.13127325843174
 30
0.0
  0
VERTEX
  5
153
330
142
100
AcDbEntity
  8
Visible (ANSI)
100
AcDbVertex
100
AcDb2dVertex
 10
71.58931227453049
 20
29.12981321449829
 30
0.0
  0
VERTEX
  5
154
330
142
100
AcDbEntity
  8
Visible (ANSI)
100
AcDbVertex
100
AcDb2dVertex
 10
71.58236772328788
 20
29.12835315883165
 30
0.0
  0
VERTEX
  5
155
330
142
100
AcDbEntity
  8
Visible (ANSI)
100
AcDbVertex
100
AcDb2dVertex
 10
71.57515283916817
 20
29.12689310316501
 30
0.0
  0
VERTEX
  5
156
330
142
100
AcDbEntity
  8
Visible (ANSI)
100
AcDbVertex
100
AcDb2dVertex
 10
71.56770066285634
 20
29.12543305923156
 30
0.0
  0
VERTEX
  5
157
330
142
100
AcDbEntity
  8
Visible (ANSI)
100
AcDbVertex
100
AcDb2dVertex
 10
71.56004723873602
 20
29.12397300356491
 30
0.0
  0
VERTEX
  5
158
330
142
100
AcDbEntity
  8
Visible (ANSI)
100
AcDbVertex
100
AcDb2dVertex
 10
71.5522196000949
 20
29.12251294789827
 30
0.0
  0
VERTEX
  5
159
330
142
100
AcDbEntity
  8
Visible (ANSI)
100
AcDbVertex
100
AcDb2dVertex
 10
71.5442537913166
 20
29.12105289223162
 30
0.0
  0
VERTEX
  5
15A
330
142
100
AcDbEntity
  8
Visible (ANSI)
100
AcDbVertex
100
AcDb2dVertex
 10
71.5361828530861
 20
29.11959284829817
 30
0.0
  0
VERTEX
  5
15B
330
142
100
AcDbEntity
  8
Visible (ANSI)
100
AcDbVertex
100
AcDb2dVertex
 10
71.52804282978701
 20
29.11813279263153
 30
0.0
  0
VERTEX
  5
15C
330
142
100
AcDbEntity
  8
Visible (ANSI)
100
AcDbVertex
100
AcDb2dVertex
 10
71.51986676210431
 20
29.11667273696488
 30
0.0
  0
SEQEND
  5
145
330
142
100
AcDbEntity
  8
Visible (ANSI)
  0
POLYLINE
  5
15D
330
6C
100
AcDbEntity
  8
Visible (ANSI)
100
AcDb2dPolyline
 66
     1
 10
0.0
 20
0.0
 30
0.0
 70
   128
  0
VERTEX
  5
15E
330
15D
100
AcDbEntity
  8
Visible (ANSI)
100
AcDbVertex
100
AcDb2dVertex
 10
40.7698665199311
 20
106.8666749015052
 30
0.0
  0
VERTEX
  5
15F
330
15D
100
AcDbEntity
  8
Visible (ANSI)
100
AcDbVertex
100
AcDb2dVertex
 10
40.77132657559775
 20
106.8748509691879
 30
0.0
  0
VERTEX
  5
161
330
15D
100
AcDbEntity
  8
Visible (ANSI)
100
AcDbVertex
100
AcDb2dVertex
 10
40.7727866312644
 20
106.882990992487
 30
0.0
  0
VERTEX
  5
162
330
15D
100
AcDbEntity
  8
Visible (ANSI)
100
AcDbVertex
100
AcDb2dVertex
 10
40.77424667519784
 20
106.8910589270188
 30
0.0
  0
VERTEX
  5
163
330
15D
100
AcDbEntity
  8
Visible (ANSI)
100
AcDbVertex
100
AcDb2dVertex
 10
40.77570673086449
 20
106.8990247357971
 30
0.0
  0
VERTEX
  5
164
330
15D
100
AcDbEntity
  8
Visible (ANSI)
100
AcDbVertex
100
AcDb2dVertex
 10
40.77716678653113
 20
106.9068523744382
 30
0.0
  0
VERTEX
  5
165
330
15D
100
AcDbEntity
  8
Visible (ANSI)
100
AcDbVertex
100
AcDb2dVertex
 10
40.77862684219779
 20
106.9145057985586
 30
0.0
  0
VERTEX
  5
166
330
15D
100
AcDbEntity
  8
Visible (ANSI)
100
AcDbVertex
100
AcDb2dVertex
 10
40.78008688613123
 20
106.921960978569
 30
0.0
  0
VERTEX
  5
167
330
15D
100
AcDbEntity
  8
Visible (ANSI)
100
AcDbVertex
100
AcDb2dVertex
 10
40.78154694179787
 20
106.9291698552915
 30
0.0
  0
VERTEX
  5
168
330
15D
100
AcDbEntity
  8
Visible (ANSI)
100
AcDbVertex
100
AcDb2dVertex
 10
40.78300699746452
 20
106.9361204139314
 30
0.0
  0
VERTEX
  5
169
330
15D
100
AcDbEntity
  8
Visible (ANSI)
100
AcDbVertex
100
AcDb2dVertex
 10
40.78446704139797
 20
106.9427706027078
 30
0.0
  0
VERTEX
  5
16A
330
15D
100
AcDbEntity
  8
Visible (ANSI)
100
AcDbVertex
100
AcDb2dVertex
 10
40.78592709706462
 20
106.9490903846345
 30
0.0
  0
VERTEX
  5
16B
330
15D
100
AcDbEntity
  8
Visible (ANSI)
100
AcDbVertex
100
AcDb2dVertex
 10
40.78738715273126
 20
106.9550617375196
 30
0.0
  0
VERTEX
  5
16C
330
15D
100
AcDbEntity
  8
Visible (ANSI)
100
AcDbVertex
100
AcDb2dVertex
 10
40.7888472083979
 20
106.9606546243768
 30
0.0
  0
VERTEX
  5
16D
330
15D
100
AcDbEntity
  8
Visible (ANSI)
100
AcDbVertex
100
AcDb2dVertex
 10
40.79030725233136
 20
106.9658390082196
 30
0.0
  0
VERTEX
  5
16E
330
15D
100
AcDbEntity
  8
Visible (ANSI)
100
AcDbVertex
100
AcDb2dVertex
 10
40.791767307998
 20
106.970608881651
 30
0.0
  0
VERTEX
  5
16F
330
15D
100
AcDbEntity
  8
Visible (ANSI)
100
AcDbVertex
100
AcDb2dVertex
 10
40.79322736366465
 20
106.9749282002872
 30
0.0
  0
VERTEX
  5
170
330
15D
100
AcDbEntity
  8
Visible (ANSI)
100
AcDbVertex
100
AcDb2dVertex
 10
40.79468741933129
 20
106.9787789419364
 30
0.0
  0
VERTEX
  5
171
330
15D
100
AcDbEntity
  8
Visible (ANSI)
100
AcDbVertex
100
AcDb2dVertex
 10
40.79614746326474
 20
106.9821550992014
 30
0.0
  0
VERTEX
  5
172
330
15D
100
AcDbEntity
  8
Visible (ANSI)
100
AcDbVertex
100
AcDb2dVertex
 10
40.79760751893139
 20
106.9850386498904
 30
0.0
  0
VERTEX
  5
173
330
15D
100
AcDbEntity
  8
Visible (ANSI)
100
AcDbVertex
100
AcDb2dVertex
 10
40.79906757459803
 20
106.9874115718115
 30
0.0
  0
VERTEX
  5
174
330
15D
100
AcDbEntity
  8
Visible (ANSI)
100
AcDbVertex
100
AcDb2dVertex
 10
40.80052763026468
 20
106.9892738649648
 30
0.0
  0
VERTEX
  5
175
330
15D
100
AcDbEntity
  8
Visible (ANSI)
100
AcDbVertex
100
AcDb2dVertex
 10
40.80198767419813
 20
106.9906014997612
 30
0.0
  0
VERTEX
  5
176
330
15D
100
AcDbEntity
  8
Visible (ANSI)
100
AcDbVertex
100
AcDb2dVertex
 10
40.80344772986477
 20
106.9914064909952
 30
0.0
  0
VERTEX
  5
177
330
15D
100
AcDbEntity
  8
Visible (ANSI)
100
AcDbVertex
100
AcDb2dVertex
 10
40.80490778553141
 20
106.991670816475
 30
0.0
  0
SEQEND
  5
160
330
15D
100
AcDbEntity
  8
Visible (ANSI)
  0
POLYLINE
  5
178
330
6C
100
AcDbEntity
  8
Visible (ANSI)
100
AcDb2dPolyline
 66
     1
 10
0.0
 20
0.0
 30
0.0
 70
   128
  0
VERTEX
  5
179
330
178
100
AcDbEntity
  8
Visible (ANSI)
100
AcDbVertex
100
AcDb2dVertex
 10
71.48482561383598
 20
106.991670816475
 30
0.0
  0
VERTEX
  5
17A
330
178
100
AcDbEntity
  8
Visible (ANSI)
100
AcDbVertex
100
AcDb2dVertex
 10
71.48628541137227
 20
106.9914064909952
 30
0.0
  0
VERTEX
  5
17C
330
178
100
AcDbEntity
  8
Visible (ANSI)
100
AcDbVertex
100
AcDb2dVertex
 10
71.48774520890857
 20
106.9906014997612
 30
0.0
  0
VERTEX
  5
17D
330
178
100
AcDbEntity
  8
Visible (ANSI)
100
AcDbVertex
100
AcDb2dVertex
 10
71.48920500644486
 20
106.9892738649648
 30
0.0
  0
VERTEX
  5
17E
330
178
100
AcDbEntity
  8
Visible (ANSI)
100
AcDbVertex
100
AcDb2dVertex
 10
71.49066480398116
 20
106.9874115718115
 30
0.0
  0
VERTEX
  5
17F
330
178
100
AcDbEntity
  8
Visible (ANSI)
100
AcDbVertex
100
AcDb2dVertex
 10
71.49212460151744
 20
106.9850386498904
 30
0.0
  0
VERTEX
  5
180
330
178
100
AcDbEntity
  8
Visible (ANSI)
100
AcDbVertex
100
AcDb2dVertex
 10
71.49358439905374
 20
106.9821550992014
 30
0.0
  0
VERTEX
  5
181
330
178
100
AcDbEntity
  8
Visible (ANSI)
100
AcDbVertex
100
AcDb2dVertex
 10
71.49504419659004
 20
106.9787789419364
 30
0.0
  0
VERTEX
  5
182
330
178
100
AcDbEntity
  8
Visible (ANSI)
100
AcDbVertex
100
AcDb2dVertex
 10
71.49650699782497
 20
106.9749282002872
 30
0.0
  0
VERTEX
  5
183
330
178
100
AcDbEntity
  8
Visible (ANSI)
100
AcDbVertex
100
AcDb2dVertex
 10
71.49796679536127
 20
106.970608881651
 30
0.0
  0
VERTEX
  5
184
330
178
100
AcDbEntity
  8
Visible (ANSI)
100
AcDbVertex
100
AcDb2dVertex
 10
71.49942659289755
 20
106.9658390082196
 30
0.0
  0
VERTEX
  5
185
330
178
100
AcDbEntity
  8
Visible (ANSI)
100
AcDbVertex
100
AcDb2dVertex
 10
71.50088639043385
 20
106.9606546243768
 30
0.0
  0
VERTEX
  5
186
330
178
100
AcDbEntity
  8
Visible (ANSI)
100
AcDbVertex
100
AcDb2dVertex
 10
71.50234618797014
 20
106.9550617375196
 30
0.0
  0
VERTEX
  5
187
330
178
100
AcDbEntity
  8
Visible (ANSI)
100
AcDbVertex
100
AcDb2dVertex
 10
71.50380598550644
 20
106.9490903846345
 30
0.0
  0
VERTEX
  5
188
330
178
100
AcDbEntity
  8
Visible (ANSI)
100
AcDbVertex
100
AcDb2dVertex
 10
71.50526578304273
 20
106.9427706027078
 30
0.0
  0
VERTEX
  5
189
330
178
100
AcDbEntity
  8
Visible (ANSI)
100
AcDbVertex
100
AcDb2dVertex
 10
71.50672558057903
 20
106.9361204139314
 30
0.0
  0
VERTEX
  5
18A
330
178
100
AcDbEntity
  8
Visible (ANSI)
100
AcDbVertex
100
AcDb2dVertex
 10
71.50818537811533
 20
106.9291698552915
 30
0.0
  0
VERTEX
  5
18B
330
178
100
AcDbEntity
  8
Visible (ANSI)
100
AcDbVertex
100
AcDb2dVertex
 10
71.50964517565163
 20
106.921960978569
 30
0.0
  0
VERTEX
  5
18C
330
178
100
AcDbEntity
  8
Visible (ANSI)
100
AcDbVertex
100
AcDb2dVertex
 10
71.51110497318791
 20
106.9145057985586
 30
0.0
  0
VERTEX
  5
18D
330
178
100
AcDbEntity
  8
Visible (ANSI)
100
AcDbVertex
100
AcDb2dVertex
 10
71.51256477072419
 20
106.9068523744382
 30
0.0
  0
VERTEX
  5
18E
330
178
100
AcDbEntity
  8
Visible (ANSI)
100
AcDbVertex
100
AcDb2dVertex
 10
71.51402757195914
 20
106.8990247357971
 30
0.0
  0
VERTEX
  5
18F
330
178
100
AcDbEntity
  8
Visible (ANSI)
100
AcDbVertex
100
AcDb2dVertex
 10
71.51548736949543
 20
106.8910589270188
 30
0.0
  0
VERTEX
  5
190
330
178
100
AcDbEntity
  8
Visible (ANSI)
100
AcDbVertex
100
AcDb2dVertex
 10
71.51694716703173
 20
106.882990992487
 30
0.0
  0
VERTEX
  5
191
330
178
100
AcDbEntity
  8
Visible (ANSI)
100
AcDbVertex
100
AcDb2dVertex
 10
71.51840696456801
 20
106.8748509691879
 30
0.0
  0
VERTEX
  5
192
330
178
100
AcDbEntity
  8
Visible (ANSI)
100
AcDbVertex
100
AcDb2dVertex
 10
71.51986676210431
 20
106.8666749015052
 30
0.0
  0
SEQEND
  5
17B
330
178
100
AcDbEntity
  8
Visible (ANSI)
  0
POLYLINE
  5
193
330
6C
100
AcDbEntity
  8
Visible (ANSI)
100
AcDb2dPolyline
 66
     1
 10
0.0
 20
0.0
 30
0.0
 70
   128
  0
VERTEX
  5
194
330
193
100
AcDbEntity
  8
Visible (ANSI)
100
AcDbVertex
100
AcDb2dVertex
 10
40.7698665199311
 20
29.11667273696488
 30
0.0
  0
VERTEX
  5
195
330
193
100
AcDbEntity
  8
Visible (ANSI)
100
AcDbVertex
100
AcDb2dVertex
 10
40.76169113277387
 20
29.11813279263153
 30
0.0
  0
VERTEX
  5
197
330
193
100
AcDbEntity
  8
Visible (ANSI)
100
AcDbVertex
100
AcDb2dVertex
 10
40.75355074574566
 20
29.11959284829817
 30
0.0
  0
VERTEX
  5
198
330
193
100
AcDbEntity
  8
Visible (ANSI)
100
AcDbVertex
100
AcDb2dVertex
 10
40.74548022991027
 20
29.12105289223162
 30
0.0
  0
VERTEX
  5
199
330
193
100
AcDbEntity
  8
Visible (ANSI)
100
AcDbVertex
100
AcDb2dVertex
 10
40.73751413953523
 20
29.12251294789827
 30
0.0
  0
VERTEX
  5
19A
330
193
100
AcDbEntity
  8
Visible (ANSI)
100
AcDbVertex
100
AcDb2dVertex
 10
40.7296865888931
 20
29.12397300356491
 30
0.0
  0
VERTEX
  5
19B
330
193
100
AcDbEntity
  8
Visible (ANSI)
100
AcDbVertex
100
AcDb2dVertex
 10
40.72203109386336
 20
29.12543305923156
 30
0.0
  0
VERTEX
  5
19C
330
193
100
AcDbEntity
  8
Visible (ANSI)
100
AcDbVertex
100
AcDb2dVertex
 10
40.71458043700065
 20
29.12689310316501
 30
0.0
  0
VERTEX
  5
19D
330
193
100
AcDbEntity
  8
Visible (ANSI)
100
AcDbVertex
100
AcDb2dVertex
 10
40.70736652086976
 20
29.12835315883165
 30
0.0
  0
VERTEX
  5
19E
330
193
100
AcDbEntity
  8
Visible (ANSI)
100
AcDbVertex
100
AcDb2dVertex
 10
40.70042024484707
 20
29.12981321449829
 30
0.0
  0
VERTEX
  5
19F
330
193
100
AcDbEntity
  8
Visible (ANSI)
100
AcDbVertex
100
AcDb2dVertex
 10
40.69377134378907
 20
29.13127325843174
 30
0.0
  0
VERTEX
  5
1A0
330
193
100
AcDbEntity
  8
Visible (ANSI)
100
AcDbVertex
100
AcDb2dVertex
 10
40.68744829416681
 20
29.13273331409839
 30
0.0
  0
VERTEX
  5
1A1
330
193
100
AcDbEntity
  8
Visible (ANSI)
100
AcDbVertex
100
AcDb2dVertex
 10
40.6814781732675
 20
29.13419336976503
 30
0.0
  0
VERTEX
  5
1A2
330
193
100
AcDbEntity
  8
Visible (ANSI)
100
AcDbVertex
100
AcDb2dVertex
 10
40.6758865447958
 20
29.13565342543168
 30
0.0
  0
VERTEX
  5
1A3
330
193
100
AcDbEntity
  8
Visible (ANSI)
100
AcDbVertex
100
AcDb2dVertex
 10
40.67069735327511
 20
29.13711346936513
 30
0.0
  0
VERTEX
  5
1A4
330
193
100
AcDbEntity
  8
Visible (ANSI)
100
AcDbVertex
100
AcDb2dVertex
 10
40.66593281991541
 20
29.13857352503177
 30
0.0
  0
VERTEX
  5
1A5
330
193
100
AcDbEntity
  8
Visible (ANSI)
100
AcDbVertex
100
AcDb2dVertex
 10
40.66161334581434
 20
29.14003358069842
 30
0.0
  0
VERTEX
  5
1A6
330
193
100
AcDbEntity
  8
Visible (ANSI)
100
AcDbVertex
100
AcDb2dVertex
 10
40.65775742982488
 20
29.14149363636507
 30
0.0
  0
VERTEX
  5
1A7
330
193
100
AcDbEntity
  8
Visible (ANSI)
100
AcDbVertex
100
AcDb2dVertex
 10
40.65438158055632
 20
29.14295368029852
 30
0.0
  0
VERTEX
  5
1A8
330
193
100
AcDbEntity
  8
Visible (ANSI)
100
AcDbVertex
100
AcDb2dVertex
 10
40.65150025550829
 20
29.14441373596516
 30
0.0
  0
VERTEX
  5
1A9
330
193
100
AcDbEntity
  8
Visible (ANSI)
100
AcDbVertex
100
AcDb2dVertex
 10
40.64912579360495
 20
29.1458737916318
 30
0.0
  0
VERTEX
  5
1AA
330
193
100
AcDbEntity
  8
Visible (ANSI)
100
AcDbVertex
100
AcDb2dVertex
 10
40.64726836184549
 20
29.14733384729845
 30
0.0
  0
VERTEX
  5
1AB
330
193
100
AcDbEntity
  8
Visible (ANSI)
100
AcDbVertex
100
AcDb2dVertex
 10
40.64593591414637
 20
29.1487938912319
 30
0.0
  0
VERTEX
  5
1AC
330
193
100
AcDbEntity
  8
Visible (ANSI)
100
AcDbVertex
100
AcDb2dVertex
 10
40.64513415639376
 20
29.15025394689854
 30
0.0
  0
VERTEX
  5
1AD
330
193
100
AcDbEntity
  8
Visible (ANSI)
100
AcDbVertex
100
AcDb2dVertex
 10
40.64486652180842
 20
29.15171400256519
 30
0.0
  0
SEQEND
  5
196
330
193
100
AcDbEntity
  8
Visible (ANSI)
  0
POLYLINE
  5
1AE
330
6C
100
AcDbEntity
  8
Visible (ANSI)
100
AcDb2dPolyline
 66
     1
 10
0.0
 20
0.0
 30
0.0
 70
   128
  0
VERTEX
  5
1AF
330
1AE
100
AcDbEntity
  8
Visible (ANSI)
100
AcDbVertex
100
AcDb2dVertex
 10
40.64486652180839
 20
106.8316337532369
 30
0.0
  0
VERTEX
  5
1B0
330
1AE
100
AcDbEntity
  8
Visible (ANSI)
100
AcDbVertex
100
AcDb2dVertex
 10
40.64513415639376
 20
106.8330935507731
 30
0.0
  0
VERTEX
  5
1B2
330
1AE
100
AcDbEntity
  8
Visible (ANSI)
100
AcDbVertex
100
AcDb2dVertex
 10
40.64593591414637
 20
106.8345533483094
 30
0.0
  0
VERTEX
  5
1B3
330
1AE
100
AcDbEntity
  8
Visible (ANSI)
100
AcDbVertex
100
AcDb2dVertex
 10
40.64726836184549
 20
106.8360131458457
 30
0.0
  0
VERTEX
  5
1B4
330
1AE
100
AcDbEntity
  8
Visible (ANSI)
100
AcDbVertex
100
AcDb2dVertex
 10
40.64912579360495
 20
106.837472943382
 30
0.0
  0
VERTEX
  5
1B5
330
1AE
100
AcDbEntity
  8
Visible (ANSI)
100
AcDbVertex
100
AcDb2dVertex
 10
40.65150025550829
 20
106.8389327409183
 30
0.0
  0
VERTEX
  5
1B6
330
1AE
100
AcDbEntity
  8
Visible (ANSI)
100
AcDbVertex
100
AcDb2dVertex
 10
40.65438158055632
 20
106.8403925384546
 30
0.0
  0
VERTEX
  5
1B7
330
1AE
100
AcDbEntity
  8
Visible (ANSI)
100
AcDbVertex
100
AcDb2dVertex
 10
40.65775742982488
 20
106.8418523359909
 30
0.0
  0
VERTEX
  5
1B8
330
1AE
100
AcDbEntity
  8
Visible (ANSI)
100
AcDbVertex
100
AcDb2dVertex
 10
40.66161334581434
 20
106.8433121335272
 30
0.0
  0
VERTEX
  5
1B9
330
1AE
100
AcDbEntity
  8
Visible (ANSI)
100
AcDbVertex
100
AcDb2dVertex
 10
40.66593281991541
 20
106.8447719310635
 30
0.0
  0
VERTEX
  5
1BA
330
1AE
100
AcDbEntity
  8
Visible (ANSI)
100
AcDbVertex
100
AcDb2dVertex
 10
40.67069735327511
 20
106.8462317285998
 30
0.0
  0
VERTEX
  5
1BB
330
1AE
100
AcDbEntity
  8
Visible (ANSI)
100
AcDbVertex
100
AcDb2dVertex
 10
40.6758865447958
 20
106.8476915261361
 30
0.0
  0
VERTEX
  5
1BC
330
1AE
100
AcDbEntity
  8
Visible (ANSI)
100
AcDbVertex
100
AcDb2dVertex
 10
40.6814781732675
 20
106.8491513236724
 30
0.0
  0
VERTEX
  5
1BD
330
1AE
100
AcDbEntity
  8
Visible (ANSI)
100
AcDbVertex
100
AcDb2dVertex
 10
40.68744829416681
 20
106.8506111212087
 30
0.0
  0
VERTEX
  5
1BE
330
1AE
100
AcDbEntity
  8
Visible (ANSI)
100
AcDbVertex
100
AcDb2dVertex
 10
40.69377134378907
 20
106.852070918745
 30
0.0
  0
VERTEX
  5
1BF
330
1AE
100
AcDbEntity
  8
Visible (ANSI)
100
AcDbVertex
100
AcDb2dVertex
 10
40.70042024484707
 20
106.8535307162813
 30
0.0
  0
VERTEX
  5
1C0
330
1AE
100
AcDbEntity
  8
Visible (ANSI)
100
AcDbVertex
100
AcDb2dVertex
 10
40.70736652086976
 20
106.8549905138176
 30
0.0
  0
VERTEX
  5
1C1
330
1AE
100
AcDbEntity
  8
Visible (ANSI)
100
AcDbVertex
100
AcDb2dVertex
 10
40.71458043700065
 20
106.8564503113538
 30
0.0
  0
VERTEX
  5
1C2
330
1AE
100
AcDbEntity
  8
Visible (ANSI)
100
AcDbVertex
100
AcDb2dVertex
 10
40.72203109386336
 20
106.8579101088902
 30
0.0
  0
VERTEX
  5
1C3
330
1AE
100
AcDbEntity
  8
Visible (ANSI)
100
AcDbVertex
100
AcDb2dVertex
 10
40.7296865888931
 20
106.8593699064264
 30
0.0
  0
VERTEX
  5
1C4
330
1AE
100
AcDbEntity
  8
Visible (ANSI)
100
AcDbVertex
100
AcDb2dVertex
 10
40.73751413953523
 20
106.8608297039627
 30
0.0
  0
VERTEX
  5
1C5
330
1AE
100
AcDbEntity
  8
Visible (ANSI)
100
AcDbVertex
100
AcDb2dVertex
 10
40.74548022991027
 20
106.8622955088963
 30
0.0
  0
VERTEX
  5
1C6
330
1AE
100
AcDbEntity
  8
Visible (ANSI)
100
AcDbVertex
100
AcDb2dVertex
 10
40.75355074574566
 20
106.8637553064326
 30
0.0
  0
VERTEX
  5
1C7
330
1AE
100
AcDbEntity
  8
Visible (ANSI)
100
AcDbVertex
100
AcDb2dVertex
 10
40.76169113277387
 20
106.8652151039689
 30
0.0
  0
VERTEX
  5
1C8
330
1AE
100
AcDbEntity
  8
Visible (ANSI)
100
AcDbVertex
100
AcDb2dVertex
 10
40.7698665199311
 20
106.8666749015052
 30
0.0
  0
SEQEND
  5
1B1
330
1AE
100
AcDbEntity
  8
Visible (ANSI)
  0
POLYLINE
  5
1C9
330
6C
100
AcDbEntity
  8
Visible (ANSI)
100
AcDb2dPolyline
 66
     1
 10
0.0
 20
0.0
 30
0.0
 70
   128
  0
VERTEX
  5
1CA
330
1C9
100
AcDbEntity
  8
Visible (ANSI)
100
AcDbVertex
100
AcDb2dVertex
 10
71.51986676210431
 20
29.11667273696488
 30
0.0
  0
VERTEX
  5
1CB
330
1C9
100
AcDbEntity
  8
Visible (ANSI)
100
AcDbVertex
100
AcDb2dVertex
 10
71.51840696456801
 20
29.10849734980765
 30
0.0
  0
VERTEX
  5
1CD
330
1C9
100
AcDbEntity
  8
Visible (ANSI)
100
AcDbVertex
100
AcDb2dVertex
 10
71.51694716703173
 20
29.10035696277943
 30
0.0
  0
VERTEX
  5
1CE
330
1C9
100
AcDbEntity
  8
Visible (ANSI)
100
AcDbVertex
100
AcDb2dVertex
 10
71.51548736949543
 20
29.09228644694405
 30
0.0
  0
VERTEX
  5
1CF
330
1C9
100
AcDbEntity
  8
Visible (ANSI)
100
AcDbVertex
100
AcDb2dVertex
 10
71.51402757195914
 20
29.08432035656901
 30
0.0
  0
VERTEX
  5
1D0
330
1C9
100
AcDbEntity
  8
Visible (ANSI)
100
AcDbVertex
100
AcDb2dVertex
 10
71.51256477072419
 20
29.07649280592687
 30
0.0
  0
VERTEX
  5
1D1
330
1C9
100
AcDbEntity
  8
Visible (ANSI)
100
AcDbVertex
100
AcDb2dVertex
 10
71.51110497318791
 20
29.06883731089714
 30
0.0
  0
VERTEX
  5
1D2
330
1C9
100
AcDbEntity
  8
Visible (ANSI)
100
AcDbVertex
100
AcDb2dVertex
 10
71.50964517565163
 20
29.06138665403443
 30
0.0
  0
VERTEX
  5
1D3
330
1C9
100
AcDbEntity
  8
Visible (ANSI)
100
AcDbVertex
100
AcDb2dVertex
 10
71.50818537811533
 20
29.05417273790353
 30
0.0
  0
VERTEX
  5
1D4
330
1C9
100
AcDbEntity
  8
Visible (ANSI)
100
AcDbVertex
100
AcDb2dVertex
 10
71.50672558057903
 20
29.04722646188084
 30
0.0
  0
VERTEX
  5
1D5
330
1C9
100
AcDbEntity
  8
Visible (ANSI)
100
AcDbVertex
100
AcDb2dVertex
 10
71.50526578304273
 20
29.04057756082285
 30
0.0
  0
VERTEX
  5
1D6
330
1C9
100
AcDbEntity
  8
Visible (ANSI)
100
AcDbVertex
100
AcDb2dVertex
 10
71.50380598550644
 20
29.03425451120059
 30
0.0
  0
VERTEX
  5
1D7
330
1C9
100
AcDbEntity
  8
Visible (ANSI)
100
AcDbVertex
100
AcDb2dVertex
 10
71.50234618797014
 20
29.02828439030127
 30
0.0
  0
VERTEX
  5
1D8
330
1C9
100
AcDbEntity
  8
Visible (ANSI)
100
AcDbVertex
100
AcDb2dVertex
 10
71.50088639043385
 20
29.02269276182958
 30
0.0
  0
VERTEX
  5
1D9
330
1C9
100
AcDbEntity
  8
Visible (ANSI)
100
AcDbVertex
100
AcDb2dVertex
 10
71.49942659289755
 20
29.01750357030889
 30
0.0
  0
VERTEX
  5
1DA
330
1C9
100
AcDbEntity
  8
Visible (ANSI)
100
AcDbVertex
100
AcDb2dVertex
 10
71.49796679536127
 20
29.01273903694918
 30
0.0
  0
VERTEX
  5
1DB
330
1C9
100
AcDbEntity
  8
Visible (ANSI)
100
AcDbVertex
100
AcDb2dVertex
 10
71.49650699782497
 20
29.00841956284812
 30
0.0
  0
VERTEX
  5
1DC
330
1C9
100
AcDbEntity
  8
Visible (ANSI)
100
AcDbVertex
100
AcDb2dVertex
 10
71.49504419659004
 20
29.00456364685866
 30
0.0
  0
VERTEX
  5
1DD
330
1C9
100
AcDbEntity
  8
Visible (ANSI)
100
AcDbVertex
100
AcDb2dVertex
 10
71.49358439905374
 20
29.00118779759009
 30
0.0
  0
VERTEX
  5
1DE
330
1C9
100
AcDbEntity
  8
Visible (ANSI)
100
AcDbVertex
100
AcDb2dVertex
 10
71.49212460151744
 20
28.99830647254207
 30
0.0
  0
VERTEX
  5
1DF
330
1C9
100
AcDbEntity
  8
Visible (ANSI)
100
AcDbVertex
100
AcDb2dVertex
 10
71.49066480398116
 20
28.99593201063872
 30
0.0
  0
VERTEX
  5
1E0
330
1C9
100
AcDbEntity
  8
Visible (ANSI)
100
AcDbVertex
100
AcDb2dVertex
 10
71.48920500644486
 20
28.99407457887927
 30
0.0
  0
VERTEX
  5
1E1
330
1C9
100
AcDbEntity
  8
Visible (ANSI)
100
AcDbVertex
100
AcDb2dVertex
 10
71.48774520890857
 20
28.99274213118014
 30
0.0
  0
VERTEX
  5
1E2
330
1C9
100
AcDbEntity
  8
Visible (ANSI)
100
AcDbVertex
100
AcDb2dVertex
 10
71.48628541137227
 20
28.99194037342754
 30
0.0
  0
VERTEX
  5
1E3
330
1C9
100
AcDbEntity
  8
Visible (ANSI)
100
AcDbVertex
100
AcDb2dVertex
 10
71.48482561383598
 20
28.99167273884219
 30
0.0
  0
SEQEND
  5
1CC
330
1C9
100
AcDbEntity
  8
Visible (ANSI)
  0
POLYLINE
  5
1E4
330
6C
100
AcDbEntity
  8
Visible (ANSI)
100
AcDb2dPolyline
 66
     1
 10
0.0
 20
0.0
 30
0.0
 70
   128
  0
VERTEX
  5
1E5
330
1E4
100
AcDbEntity
  8
Visible (ANSI)
100
AcDbVertex
100
AcDb2dVertex
 10
40.80490778553141
 20
28.99167273884219
 30
0.0
  0
VERTEX
  5
1E6
330
1E4
100
AcDbEntity
  8
Visible (ANSI)
100
AcDbVertex
100
AcDb2dVertex
 10
40.80344772986477
 20
28.99194037342754
 30
0.0
  0
VERTEX
  5
1E8
330
1E4
100
AcDbEntity
  8
Visible (ANSI)
100
AcDbVertex
100
AcDb2dVertex
 10
40.80198767419813
 20
28.99274213118014
 30
0.0
  0
VERTEX
  5
1E9
330
1E4
100
AcDbEntity
  8
Visible (ANSI)
100
AcDbVertex
100
AcDb2dVertex
 10
40.80052763026468
 20
28.99407457887927
 30
0.0
  0
VERTEX
  5
1EA
330
1E4
100
AcDbEntity
  8
Visible (ANSI)
100
AcDbVertex
100
AcDb2dVertex
 10
40.79906757459803
 20
28.99593201063872
 30
0.0
  0
VERTEX
  5
1EB
330
1E4
100
AcDbEntity
  8
Visible (ANSI)
100
AcDbVertex
100
AcDb2dVertex
 10
40.79760751893139
 20
28.99830647254207
 30
0.0
  0
VERTEX
  5
1EC
330
1E4
100
AcDbEntity
  8
Visible (ANSI)
100
AcDbVertex
100
AcDb2dVertex
 10
40.79614746326474
 20
29.00118779759009
 30
0.0
  0
VERTEX
  5
1ED
330
1E4
100
AcDbEntity
  8
Visible (ANSI)
100
AcDbVertex
100
AcDb2dVertex
 10
40.79468741933129
 20
29.00456364685866
 30
0.0
  0
VERTEX
  5
1EE
330
1E4
100
AcDbEntity
  8
Visible (ANSI)
100
AcDbVertex
100
AcDb2dVertex
 10
40.79322736366465
 20
29.00841956284812
 30
0.0
  0
VERTEX
  5
1EF
330
1E4
100
AcDbEntity
  8
Visible (ANSI)
100
AcDbVertex
100
AcDb2dVertex
 10
40.791767307998
 20
29.01273903694918
 30
0.0
  0
VERTEX
  5
1F0
330
1E4
100
AcDbEntity
  8
Visible (ANSI)
100
AcDbVertex
100
AcDb2dVertex
 10
40.79030725233136
 20
29.01750357030889
 30
0.0
  0
VERTEX
  5
1F1
330
1E4
100
AcDbEntity
  8
Visible (ANSI)
100
AcDbVertex
100
AcDb2dVertex
 10
40.7888472083979
 20
29.02269276182958
 30
0.0
  0
VERTEX
  5
1F2
330
1E4
100
AcDbEntity
  8
Visible (ANSI)
100
AcDbVertex
100
AcDb2dVertex
 10
40.78738715273126
 20
29.02828439030127
 30
0.0
  0
VERTEX
  5
1F3
330
1E4
100
AcDbEntity
  8
Visible (ANSI)
100
AcDbVertex
100
AcDb2dVertex
 10
40.78592709706462
 20
29.03425451120059
 30
0.0
  0
VERTEX
  5
1F4
330
1E4
100
AcDbEntity
  8
Visible (ANSI)
100
AcDbVertex
100
AcDb2dVertex
 10
40.78446704139797
 20
29.04057756082285
 30
0.0
  0
VERTEX
  5
1F5
330
1E4
100
AcDbEntity
  8
Visible (ANSI)
100
AcDbVertex
100
AcDb2dVertex
 10
40.78300699746452
 20
29.04722646188084
 30
0.0
  0
VERTEX
  5
1F6
330
1E4
100
AcDbEntity
  8
Visible (ANSI)
100
AcDbVertex
100
AcDb2dVertex
 10
40.78154694179787
 20
29.05417273790353
 30
0.0
  0
VERTEX
  5
1F7
330
1E4
100
AcDbEntity
  8
Visible (ANSI)
100
AcDbVertex
100
AcDb2dVertex
 10
40.78008688613123
 20
29.06138665403443
 30
0.0
  0
VERTEX
  5
1F8
330
1E4
100
AcDbEntity
  8
Visible (ANSI)
100
AcDbVertex
100
AcDb2dVertex
 10
40.77862684219779
 20
29.06883731089714
 30
0.0
  0
VERTEX
  5
1F9
330
1E4
100
AcDbEntity
  8
Visible (ANSI)
100
AcDbVertex
100
AcDb2dVertex
 10
40.77716678653113
 20
29.07649280592687
 30
0.0
  0
VERTEX
  5
1FA
330
1E4
100
AcDbEntity
  8
Visible (ANSI)
100
AcDbVertex
100
AcDb2dVertex
 10
40.77570673086449
 20
29.08432035656901
 30
0.0
  0
VERTEX
  5
1FB
330
1E4
100
AcDbEntity
  8
Visible (ANSI)
100
AcDbVertex
100
AcDb2dVertex
 10
40.77424667519784
 20
29.09228644694405
 30
0.0
  0
VERTEX
  5
1FC
330
1E4
100
AcDbEntity
  8
Visible (ANSI)
100
AcDbVertex
100
AcDb2dVertex
 10
40.7727866312644
 20
29.10035696277943
 30
0.0
  0
VERTEX
  5
1FD
330
1E4
100
AcDbEntity
  8
Visible (ANSI)
100
AcDbVertex
100
AcDb2dVertex
 10
40.77132657559775
 20
29.10849734980765
 30
0.0
  0
VERTEX
  5
1FE
330
1E4
100
AcDbEntity
  8
Visible (ANSI)
100
AcDbVertex
100
AcDb2dVertex
 10
40.7698665199311
 20
29.11667273696488
 30
0.0
  0
SEQEND
  5
1E7
330
1E4
100
AcDbEntity
  8
Visible (ANSI)
  0
LINE
  5
1FF
330
6C
100
AcDbEntity
  8
Hidden (ANSI)
 48
0.0136357927694917
100
AcDbLine
 10
71.55111652180842
 20
29.15171399957843
 30
0.0
 11
71.64486652180842
 21
29.15171399957843
 31
0.0
  0
POLYLINE
  5
200
330
6C
100
AcDbEntity
  8
Hidden (ANSI)
 48
0.0087354695424438
100
AcDb2dPolyline
 66
     1
 10
0.0
 20
0.0
 30
0.0
 70
   128
  0
VERTEX
  5
201
330
200
100
AcDbEntity
  8
Hidden (ANSI)
 48
0.0087354695424438
100
AcDbVertex
100
AcDb2dVertex
 10
71.51986676210431
 20
29.11667273696488
 30
0.0
  0
VERTEX
  5
202
330
200
100
AcDbEntity
  8
Hidden (ANSI)
 48
0.0087354695424438
100
AcDbVertex
100
AcDb2dVertex
 10
71.52190927717566
 20
29.11813279263153
 30
0.0
  0
VERTEX
  5
204
330
200
100
AcDbEntity
  8
Hidden (ANSI)
 48
0.0087354695424438
100
AcDbVertex
100
AcDb2dVertex
 10
71.52394578484976
 20
29.11959284829817
 30
0.0
  0
VERTEX
  5
205
330
200
100
AcDbEntity
  8
Hidden (ANSI)
 48
0.0087354695424438
100
AcDbVertex
100
AcDb2dVertex
 10
71.52596427033204
 20
29.12105289223162
 30
0.0
  0
VERTEX
  5
206
330
200
100
AcDbEntity
  8
Hidden (ANSI)
 48
0.0087354695424438
100
AcDbVertex
100
AcDb2dVertex
 10
71.52795572252661
 20
29.12251294789827
 30
0.0
  0
VERTEX
  5
207
330
200
100
AcDbEntity
  8
Hidden (ANSI)
 48
0.0087354695424438
100
AcDbVertex
100
AcDb2dVertex
 10
71.52991113033758
 20
29.12397300356491
 30
0.0
  0
VERTEX
  5
208
330
200
100
AcDbEntity
  8
Hidden (ANSI)
 48
0.0087354695424438
100
AcDbVertex
100
AcDb2dVertex
 10
71.53182448636766
 20
29.12543305923156
 30
0.0
  0
VERTEX
  5
209
330
200
100
AcDbEntity
  8
Hidden (ANSI)
 48
0.0087354695424438
100
AcDbVertex
100
AcDb2dVertex
 10
71.53368677952094
 20
29.12689310316501
 30
0.0
  0
VERTEX
  5
20A
330
200
100
AcDbEntity
  8
Hidden (ANSI)
 48
0.0087354695424438
100
AcDbVertex
100
AcDb2dVertex
 10
71.5354920024002
 20
29.12835315883165
 30
0.0
  0
VERTEX
  5
20B
330
200
100
AcDbEntity
  8
Hidden (ANSI)
 48
0.0087354695424438
100
AcDbVertex
100
AcDb2dVertex
 10
71.53722814021086
 20
29.12981321449829
 30
0.0
  0
VERTEX
  5
20C
330
200
100
AcDbEntity
  8
Hidden (ANSI)
 48
0.0087354695424438
100
AcDbVertex
100
AcDb2dVertex
 10
71.53888918555566
 20
29.13127325843174
 30
0.0
  0
VERTEX
  5
20D
330
200
100
AcDbEntity
  8
Hidden (ANSI)
 48
0.0087354695424438
100
AcDbVertex
100
AcDb2dVertex
 10
71.54047213473596
 20
29.13273331409839
 30
0.0
  0
VERTEX
  5
20E
330
200
100
AcDbEntity
  8
Hidden (ANSI)
 48
0.0087354695424438
100
AcDbVertex
100
AcDb2dVertex
 10
71.54196497295721
 20
29.13419336976503
 30
0.0
  0
VERTEX
  5
20F
330
200
100
AcDbEntity
  8
Hidden (ANSI)
 48
0.0087354695424438
100
AcDbVertex
100
AcDb2dVertex
 10
71.5433616928222
 20
29.13565342543168
 30
0.0
  0
VERTEX
  5
210
330
200
100
AcDbEntity
  8
Hidden (ANSI)
 48
0.0087354695424438
100
AcDbVertex
100
AcDb2dVertex
 10
71.54465929063224
 20
29.13711346936513
 30
0.0
  0
VERTEX
  5
211
330
200
100
AcDbEntity
  8
Hidden (ANSI)
 48
0.0087354695424438
100
AcDbVertex
100
AcDb2dVertex
 10
71.54584875529145
 20
29.13857352503177
 30
0.0
  0
VERTEX
  5
212
330
200
100
AcDbEntity
  8
Hidden (ANSI)
 48
0.0087354695424438
100
AcDbVertex
100
AcDb2dVertex
 10
71.54693008679981
 20
29.14003358069842
 30
0.0
  0
VERTEX
  5
213
330
200
100
AcDbEntity
  8
Hidden (ANSI)
 48
0.0087354695424438
100
AcDbVertex
100
AcDb2dVertex
 10
71.54789427406143
 20
29.14149363636507
 30
0.0
  0
VERTEX
  5
214
330
200
100
AcDbEntity
  8
Hidden (ANSI)
 48
0.0087354695424438
100
AcDbVertex
100
AcDb2dVertex
 10
71.54873831337768
 20
29.14295368029852
 30
0.0
  0
VERTEX
  5
215
330
200
100
AcDbEntity
  8
Hidden (ANSI)
 48
0.0087354695424438
100
AcDbVertex
100
AcDb2dVertex
 10
71.54945920104992
 20
29.14441373596516
 30
0.0
  0
VERTEX
  5
216
330
200
100
AcDbEntity
  8
Hidden (ANSI)
 48
0.0087354695424438
100
AcDbVertex
100
AcDb2dVertex
 10
71.55005092968089
 20
29.1458737916318
 30
0.0
  0
VERTEX
  5
217
330
200
100
AcDbEntity
  8
Hidden (ANSI)
 48
0.0087354695424438
100
AcDbVertex
100
AcDb2dVertex
 10
71.55051650296922
 20
29.14733384729845
 30
0.0
  0
VERTEX
  5
218
330
200
100
AcDbEntity
  8
Hidden (ANSI)
 48
0.0087354695424438
100
AcDbVertex
100
AcDb2dVertex
 10
71.55084991351763
 20
29.1487938912319
 30
0.0
  0
VERTEX
  5
219
330
200
100
AcDbEntity
  8
Hidden (ANSI)
 48
0.0087354695424438
100
AcDbVertex
100
AcDb2dVertex
 10
71.55104815762751
 20
29.15025394689854
 30
0.0
  0
VERTEX
  5
21A
330
200
100
AcDbEntity
  8
Hidden (ANSI)
 48
0.0087354695424438
100
AcDbVertex
100
AcDb2dVertex
 10
71.55111724269609
 20
29.15171400256519
 30
0.0
  0
SEQEND
  5
203
330
200
100
AcDbEntity
  8
Hidden (ANSI)
 48
0.0087354695424438
  0
LINE
  5
21B
330
6C
100
AcDbEntity
  8
Hidden (ANSI)
 48
0.0136357927694917
100
AcDbLine
 10
71.55111652180839
 20
106.8316314781059
 30
0.0
 11
71.64486652180838
 21
106.8316314781059
 31
0.0
  0
POLYLINE
  5
21C
330
6C
100
AcDbEntity
  8
Hidden (ANSI)
 48
0.008735460229218
100
AcDb2dPolyline
 66
     1
 10
0.0
 20
0.0
 30
0.0
 70
   128
  0
VERTEX
  5
21D
330
21C
100
AcDbEntity
  8
Hidden (ANSI)
 48
0.008735460229218
100
AcDbVertex
100
AcDb2dVertex
 10
71.51986676210431
 20
106.8666749015052
 30
0.0
  0
VERTEX
  5
21E
330
21C
100
AcDbEntity
  8
Hidden (ANSI)
 48
0.008735460229218
100
AcDbVertex
100
AcDb2dVertex
 10
71.52190927717566
 20
106.8652151039689
 30
0.0
  0
VERTEX
  5
220
330
21C
100
AcDbEntity
  8
Hidden (ANSI)
 48
0.008735460229218
100
AcDbVertex
100
AcDb2dVertex
 10
71.52394578484976
 20
106.8637553064326
 30
0.0
  0
VERTEX
  5
221
330
21C
100
AcDbEntity
  8
Hidden (ANSI)
 48
0.008735460229218
100
AcDbVertex
100
AcDb2dVertex
 10
71.52596427033204
 20
106.8622955088963
 30
0.0
  0
VERTEX
  5
222
330
21C
100
AcDbEntity
  8
Hidden (ANSI)
 48
0.008735460229218
100
AcDbVertex
100
AcDb2dVertex
 10
71.52795572252661
 20
106.8608297039627
 30
0.0
  0
VERTEX
  5
223
330
21C
100
AcDbEntity
  8
Hidden (ANSI)
 48
0.008735460229218
100
AcDbVertex
100
AcDb2dVertex
 10
71.52991113033758
 20
106.8593699064264
 30
0.0
  0
VERTEX
  5
224
330
21C
100
AcDbEntity
  8
Hidden (ANSI)
 48
0.008735460229218
100
AcDbVertex
100
AcDb2dVertex
 10
71.53182448636766
 20
106.8579101088902
 30
0.0
  0
VERTEX
  5
225
330
21C
100
AcDbEntity
  8
Hidden (ANSI)
 48
0.008735460229218
100
AcDbVertex
100
AcDb2dVertex
 10
71.53368677952094
 20
106.8564503113538
 30
0.0
  0
VERTEX
  5
226
330
21C
100
AcDbEntity
  8
Hidden (ANSI)
 48
0.008735460229218
100
AcDbVertex
100
AcDb2dVertex
 10
71.5354920024002
 20
106.8549905138176
 30
0.0
  0
VERTEX
  5
227
330
21C
100
AcDbEntity
  8
Hidden (ANSI)
 48
0.008735460229218
100
AcDbVertex
100
AcDb2dVertex
 10
71.53722814021086
 20
106.8535307162813
 30
0.0
  0
VERTEX
  5
228
330
21C
100
AcDbEntity
  8
Hidden (ANSI)
 48
0.008735460229218
100
AcDbVertex
100
AcDb2dVertex
 10
71.53888918555566
 20
106.852070918745
 30
0.0
  0
VERTEX
  5
229
330
21C
100
AcDbEntity
  8
Hidden (ANSI)
 48
0.008735460229218
100
AcDbVertex
100
AcDb2dVertex
 10
71.54047213473596
 20
106.8506111212087
 30
0.0
  0
VERTEX
  5
22A
330
21C
100
AcDbEntity
  8
Hidden (ANSI)
 48
0.008735460229218
100
AcDbVertex
100
AcDb2dVertex
 10
71.54196497295721
 20
106.8491513236724
 30
0.0
  0
VERTEX
  5
22B
330
21C
100
AcDbEntity
  8
Hidden (ANSI)
 48
0.008735460229218
100
AcDbVertex
100
AcDb2dVertex
 10
71.5433616928222
 20
106.8476915261361
 30
0.0
  0
VERTEX
  5
22C
330
21C
100
AcDbEntity
  8
Hidden (ANSI)
 48
0.008735460229218
100
AcDbVertex
100
AcDb2dVertex
 10
71.54465929063224
 20
106.8462317285998
 30
0.0
  0
VERTEX
  5
22D
330
21C
100
AcDbEntity
  8
Hidden (ANSI)
 48
0.008735460229218
100
AcDbVertex
100
AcDb2dVertex
 10
71.54584875529145
 20
106.8447719310635
 30
0.0
  0
VERTEX
  5
22E
330
21C
100
AcDbEntity
  8
Hidden (ANSI)
 48
0.008735460229218
100
AcDbVertex
100
AcDb2dVertex
 10
71.54693008679981
 20
106.8433121335272
 30
0.0
  0
VERTEX
  5
22F
330
21C
100
AcDbEntity
  8
Hidden (ANSI)
 48
0.008735460229218
100
AcDbVertex
100
AcDb2dVertex
 10
71.54789427406143
 20
106.8418523359909
 30
0.0
  0
VERTEX
  5
230
330
21C
100
AcDbEntity
  8
Hidden (ANSI)
 48
0.008735460229218
100
AcDbVertex
100
AcDb2dVertex
 10
71.54873831337768
 20
106.8403925384546
 30
0.0
  0
VERTEX
  5
231
330
21C
100
AcDbEntity
  8
Hidden (ANSI)
 48
0.008735460229218
100
AcDbVertex
100
AcDb2dVertex
 10
71.54945920104992
 20
106.8389327409183
 30
0.0
  0
VERTEX
  5
232
330
21C
100
AcDbEntity
  8
Hidden (ANSI)
 48
0.008735460229218
100
AcDbVertex
100
AcDb2dVertex
 10
71.55005092968089
 20
106.837472943382
 30
0.0
  0
VERTEX
  5
233
330
21C
100
AcDbEntity
  8
Hidden (ANSI)
 48
0.008735460229218
100
AcDbVertex
100
AcDb2dVertex
 10
71.55051650296922
 20
106.8360131458457
 30
0.0
  0
VERTEX
  5
234
330
21C
100
AcDbEntity
  8
Hidden (ANSI)
 48
0.008735460229218
100
AcDbVertex
100
AcDb2dVertex
 10
71.55084991351763
 20
106.8345533483094
 30
0.0
  0
VERTEX
  5
235
330
21C
100
AcDbEntity
  8
Hidden (ANSI)
 48
0.008735460229218
100
AcDbVertex
100
AcDb2dVertex
 10
71.55104815762751
 20
106.8330935507731
 30
0.0
  0
VERTEX
  5
236
330
21C
100
AcDbEntity
  8
Hidden (ANSI)
 48
0.008735460229218
100
AcDbVertex
100
AcDb2dVertex
 10
71.55111724269609
 20
106.8316337532369
 30
0.0
  0
SEQEND
  5
21F
330
21C
100
AcDbEntity
  8
Hidden (ANSI)
 48
0.008735460229218
  0
LINE
  5
237
330
6C
100
AcDbEntity
  8
Hidden (ANSI)
 48
0.0136357927694917
100
AcDbLine
 10
71.48482526107216
 20
106.8979227388421
 30
0.0
 11
71.48482526107216
 21
106.9916727388422
 31
0.0
  0
POLYLINE
  5
238
330
6C
100
AcDbEntity
  8
Hidden (ANSI)
 48
0.0087352637201548
100
AcDb2dPolyline
 66
     1
 10
0.0
 20
0.0
 30
0.0
 70
   128
  0
VERTEX
  5
239
330
238
100
AcDbEntity
  8
Hidden (ANSI)
 48
0.0087352637201548
100
AcDbVertex
100
AcDb2dVertex
 10
71.51986676210431
 20
106.8666749015052
 30
0.0
  0
VERTEX
  5
23A
330
238
100
AcDbEntity
  8
Hidden (ANSI)
 48
0.0087352637201548
100
AcDbVertex
100
AcDb2dVertex
 10
71.51840696456801
 20
106.8687174165765
 30
0.0
  0
VERTEX
  5
23C
330
238
100
AcDbEntity
  8
Hidden (ANSI)
 48
0.0087352637201548
100
AcDbVertex
100
AcDb2dVertex
 10
71.51694716703173
 20
106.8707539242506
 30
0.0
  0
VERTEX
  5
23D
330
238
100
AcDbEntity
  8
Hidden (ANSI)
 48
0.0087352637201548
100
AcDbVertex
100
AcDb2dVertex
 10
71.51548736949543
 20
106.8727664023356
 30
0.0
  0
VERTEX
  5
23E
330
238
100
AcDbEntity
  8
Hidden (ANSI)
 48
0.0087352637201548
100
AcDbVertex
100
AcDb2dVertex
 10
71.51402757195914
 20
106.8747608582289
 30
0.0
  0
VERTEX
  5
23F
330
238
100
AcDbEntity
  8
Hidden (ANSI)
 48
0.0087352637201548
100
AcDbVertex
100
AcDb2dVertex
 10
71.51256477072419
 20
106.8767192697384
 30
0.0
  0
VERTEX
  5
240
330
238
100
AcDbEntity
  8
Hidden (ANSI)
 48
0.0087352637201548
100
AcDbVertex
100
AcDb2dVertex
 10
71.51110497318791
 20
106.8786296220699
 30
0.0
  0
VERTEX
  5
241
330
238
100
AcDbEntity
  8
Hidden (ANSI)
 48
0.0087352637201548
100
AcDbVertex
100
AcDb2dVertex
 10
71.50964517565163
 20
106.8804919152232
 30
0.0
  0
VERTEX
  5
242
330
238
100
AcDbEntity
  8
Hidden (ANSI)
 48
0.0087352637201548
100
AcDbVertex
100
AcDb2dVertex
 10
71.50818537811533
 20
106.8823001418011
 30
0.0
  0
VERTEX
  5
243
330
238
100
AcDbEntity
  8
Hidden (ANSI)
 48
0.0087352637201548
100
AcDbVertex
100
AcDb2dVertex
 10
71.50672558057903
 20
106.8840362796117
 30
0.0
  0
VERTEX
  5
244
330
238
100
AcDbEntity
  8
Hidden (ANSI)
 48
0.0087352637201548
100
AcDbVertex
100
AcDb2dVertex
 10
71.50526578304273
 20
106.8856943212579
 30
0.0
  0
VERTEX
  5
245
330
238
100
AcDbEntity
  8
Hidden (ANSI)
 48
0.0087352637201548
100
AcDbVertex
100
AcDb2dVertex
 10
71.50380598550644
 20
106.8872802741368
 30
0.0
  0
VERTEX
  5
246
330
238
100
AcDbEntity
  8
Hidden (ANSI)
 48
0.0087352637201548
100
AcDbVertex
100
AcDb2dVertex
 10
71.50234618797014
 20
106.8887701086595
 30
0.0
  0
VERTEX
  5
247
330
238
100
AcDbEntity
  8
Hidden (ANSI)
 48
0.0087352637201548
100
AcDbVertex
100
AcDb2dVertex
 10
71.50088639043385
 20
106.8901698322231
 30
0.0
  0
VERTEX
  5
248
330
238
100
AcDbEntity
  8
Hidden (ANSI)
 48
0.0087352637201548
100
AcDbVertex
100
AcDb2dVertex
 10
71.49942659289755
 20
106.8914674300331
 30
0.0
  0
VERTEX
  5
249
330
238
100
AcDbEntity
  8
Hidden (ANSI)
 48
0.0087352637201548
100
AcDbVertex
100
AcDb2dVertex
 10
71.49796679536127
 20
106.8926568946923
 30
0.0
  0
VERTEX
  5
24A
330
238
100
AcDbEntity
  8
Hidden (ANSI)
 48
0.0087352637201548
100
AcDbVertex
100
AcDb2dVertex
 10
71.49650699782497
 20
106.8937382262007
 30
0.0
  0
VERTEX
  5
24B
330
238
100
AcDbEntity
  8
Hidden (ANSI)
 48
0.0087352637201548
100
AcDbVertex
100
AcDb2dVertex
 10
71.49504419659004
 20
106.8946994097637
 30
0.0
  0
VERTEX
  5
24C
330
238
100
AcDbEntity
  8
Hidden (ANSI)
 48
0.0087352637201548
100
AcDbVertex
100
AcDb2dVertex
 10
71.49358439905374
 20
106.8955464527785
 30
0.0
  0
VERTEX
  5
24D
330
238
100
AcDbEntity
  8
Hidden (ANSI)
 48
0.0087352637201548
100
AcDbVertex
100
AcDb2dVertex
 10
71.49212460151744
 20
106.8962613330535
 30
0.0
  0
VERTEX
  5
24E
330
238
100
AcDbEntity
  8
Hidden (ANSI)
 48
0.0087352637201548
100
AcDbVertex
100
AcDb2dVertex
 10
71.49066480398116
 20
106.8968560653831
 30
0.0
  0
VERTEX
  5
24F
330
238
100
AcDbEntity
  8
Hidden (ANSI)
 48
0.0087352637201548
100
AcDbVertex
100
AcDb2dVertex
 10
71.48920500644486
 20
106.8973246423701
 30
0.0
  0
VERTEX
  5
250
330
238
100
AcDbEntity
  8
Hidden (ANSI)
 48
0.0087352637201548
100
AcDbVertex
100
AcDb2dVertex
 10
71.48774520890857
 20
106.8976550492199
 30
0.0
  0
VERTEX
  5
251
330
238
100
AcDbEntity
  8
Hidden (ANSI)
 48
0.0087352637201548
100
AcDbVertex
100
AcDb2dVertex
 10
71.48628541137227
 20
106.8978532933297
 30
0.0
  0
VERTEX
  5
252
330
238
100
AcDbEntity
  8
Hidden (ANSI)
 48
0.0087352637201548
100
AcDbVertex
100
AcDb2dVertex
 10
71.48482561383598
 20
106.897925382097
 30
0.0
  0
SEQEND
  5
23B
330
238
100
AcDbEntity
  8
Hidden (ANSI)
 48
0.0087352637201548
  0
LINE
  5
253
330
6C
100
AcDbEntity
  8
Hidden (ANSI)
 48
0.0136357927694917
100
AcDbLine
 10
40.80490778254463
 20
106.8979227388421
 30
0.0
 11
40.80490778254463
 21
106.9916727388422
 31
0.0
  0
POLYLINE
  5
254
330
6C
100
AcDbEntity
  8
Hidden (ANSI)
 48
0.0087352739647031
100
AcDb2dPolyline
 66
     1
 10
0.0
 20
0.0
 30
0.0
 70
   128
  0
VERTEX
  5
255
330
254
100
AcDbEntity
  8
Hidden (ANSI)
 48
0.0087352739647031
100
AcDbVertex
100
AcDb2dVertex
 10
40.7698665199311
 20
106.8666749015052
 30
0.0
  0
VERTEX
  5
256
330
254
100
AcDbEntity
  8
Hidden (ANSI)
 48
0.0087352739647031
100
AcDbVertex
100
AcDb2dVertex
 10
40.77132657559775
 20
106.8687174165765
 30
0.0
  0
VERTEX
  5
258
330
254
100
AcDbEntity
  8
Hidden (ANSI)
 48
0.0087352739647031
100
AcDbVertex
100
AcDb2dVertex
 10
40.7727866312644
 20
106.8707539242506
 30
0.0
  0
VERTEX
  5
259
330
254
100
AcDbEntity
  8
Hidden (ANSI)
 48
0.0087352739647031
100
AcDbVertex
100
AcDb2dVertex
 10
40.77424667519784
 20
106.8727664023356
 30
0.0
  0
VERTEX
  5
25A
330
254
100
AcDbEntity
  8
Hidden (ANSI)
 48
0.0087352739647031
100
AcDbVertex
100
AcDb2dVertex
 10
40.77570673086449
 20
106.8747608582289
 30
0.0
  0
VERTEX
  5
25B
330
254
100
AcDbEntity
  8
Hidden (ANSI)
 48
0.0087352739647031
100
AcDbVertex
100
AcDb2dVertex
 10
40.77716678653113
 20
106.8767192697384
 30
0.0
  0
VERTEX
  5
25C
330
254
100
AcDbEntity
  8
Hidden (ANSI)
 48
0.0087352739647031
100
AcDbVertex
100
AcDb2dVertex
 10
40.77862684219779
 20
106.8786296220699
 30
0.0
  0
VERTEX
  5
25D
330
254
100
AcDbEntity
  8
Hidden (ANSI)
 48
0.0087352739647031
100
AcDbVertex
100
AcDb2dVertex
 10
40.78008688613123
 20
106.8804919152232
 30
0.0
  0
VERTEX
  5
25E
330
254
100
AcDbEntity
  8
Hidden (ANSI)
 48
0.0087352739647031
100
AcDbVertex
100
AcDb2dVertex
 10
40.78154694179787
 20
106.8823001418011
 30
0.0
  0
VERTEX
  5
25F
330
254
100
AcDbEntity
  8
Hidden (ANSI)
 48
0.0087352739647031
100
AcDbVertex
100
AcDb2dVertex
 10
40.78300699746452
 20
106.8840362796117
 30
0.0
  0
VERTEX
  5
260
330
254
100
AcDbEntity
  8
Hidden (ANSI)
 48
0.0087352739647031
100
AcDbVertex
100
AcDb2dVertex
 10
40.78446704139797
 20
106.8856943212579
 30
0.0
  0
VERTEX
  5
261
330
254
100
AcDbEntity
  8
Hidden (ANSI)
 48
0.0087352739647031
100
AcDbVertex
100
AcDb2dVertex
 10
40.78592709706462
 20
106.8872802741368
 30
0.0
  0
VERTEX
  5
262
330
254
100
AcDbEntity
  8
Hidden (ANSI)
 48
0.0087352739647031
100
AcDbVertex
100
AcDb2dVertex
 10
40.78738715273126
 20
106.8887701086595
 30
0.0
  0
VERTEX
  5
263
330
254
100
AcDbEntity
  8
Hidden (ANSI)
 48
0.0087352739647031
100
AcDbVertex
100
AcDb2dVertex
 10
40.7888472083979
 20
106.8901698322231
 30
0.0
  0
VERTEX
  5
264
330
254
100
AcDbEntity
  8
Hidden (ANSI)
 48
0.0087352739647031
100
AcDbVertex
100
AcDb2dVertex
 10
40.79030725233136
 20
106.8914674300331
 30
0.0
  0
VERTEX
  5
265
330
254
100
AcDbEntity
  8
Hidden (ANSI)
 48
0.0087352739647031
100
AcDbVertex
100
AcDb2dVertex
 10
40.791767307998
 20
106.8926568946923
 30
0.0
  0
VERTEX
  5
266
330
254
100
AcDbEntity
  8
Hidden (ANSI)
 48
0.0087352739647031
100
AcDbVertex
100
AcDb2dVertex
 10
40.79322736366465
 20
106.8937382262007
 30
0.0
  0
VERTEX
  5
267
330
254
100
AcDbEntity
  8
Hidden (ANSI)
 48
0.0087352739647031
100
AcDbVertex
100
AcDb2dVertex
 10
40.79468741933129
 20
106.8946994097637
 30
0.0
  0
VERTEX
  5
268
330
254
100
AcDbEntity
  8
Hidden (ANSI)
 48
0.0087352739647031
100
AcDbVertex
100
AcDb2dVertex
 10
40.79614746326474
 20
106.8955464527785
 30
0.0
  0
VERTEX
  5
269
330
254
100
AcDbEntity
  8
Hidden (ANSI)
 48
0.0087352739647031
100
AcDbVertex
100
AcDb2dVertex
 10
40.79760751893139
 20
106.8962613330535
 30
0.0
  0
VERTEX
  5
26A
330
254
100
AcDbEntity
  8
Hidden (ANSI)
 48
0.0087352739647031
100
AcDbVertex
100
AcDb2dVertex
 10
40.79906757459803
 20
106.8968560653831
 30
0.0
  0
VERTEX
  5
26B
330
254
100
AcDbEntity
  8
Hidden (ANSI)
 48
0.0087352739647031
100
AcDbVertex
100
AcDb2dVertex
 10
40.80052763026468
 20
106.8973246423701
 30
0.0
  0
VERTEX
  5
26C
330
254
100
AcDbEntity
  8
Hidden (ANSI)
 48
0.0087352739647031
100
AcDbVertex
100
AcDb2dVertex
 10
40.80198767419813
 20
106.8976550492199
 30
0.0
  0
VERTEX
  5
26D
330
254
100
AcDbEntity
  8
Hidden (ANSI)
 48
0.0087352739647031
100
AcDbVertex
100
AcDb2dVertex
 10
40.80344772986477
 20
106.8978532933297
 30
0.0
  0
VERTEX
  5
26E
330
254
100
AcDbEntity
  8
Hidden (ANSI)
 48
0.0087352739647031
100
AcDbVertex
100
AcDb2dVertex
 10
40.80490778553141
 20
106.897925382097
 30
0.0
  0
SEQEND
  5
257
330
254
100
AcDbEntity
  8
Hidden (ANSI)
 48
0.0087352739647031
  0
LINE
  5
26F
330
6C
100
AcDbEntity
  8
Hidden (ANSI)
 48
0.0136357927694917
100
AcDbLine
 10
40.73861652180839
 20
106.8316314781059
 30
0.0
 11
40.64486652180839
 21
106.8316314781059
 31
0.0
  0
POLYLINE
  5
270
330
6C
100
AcDbEntity
  8
Hidden (ANSI)
 48
0.0087354741990566
100
AcDb2dPolyline
 66
     1
 10
0.0
 20
0.0
 30
0.0
 70
   128
  0
VERTEX
  5
271
330
270
100
AcDbEntity
  8
Hidden (ANSI)
 48
0.0087354741990566
100
AcDbVertex
100
AcDb2dVertex
 10
40.7698665199311
 20
106.8666749015052
 30
0.0
  0
VERTEX
  5
272
330
270
100
AcDbEntity
  8
Hidden (ANSI)
 48
0.0087354741990566
100
AcDbVertex
100
AcDb2dVertex
 10
40.76782267900839
 20
106.8652151039689
 30
0.0
  0
VERTEX
  5
274
330
270
100
AcDbEntity
  8
Hidden (ANSI)
 48
0.0087354741990566
100
AcDbVertex
100
AcDb2dVertex
 10
40.76578757931804
 20
106.8637553064326
 30
0.0
  0
VERTEX
  5
275
330
270
100
AcDbEntity
  8
Hidden (ANSI)
 48
0.0087354741990566
100
AcDbVertex
100
AcDb2dVertex
 10
40.7637699503592
 20
106.8622955088963
 30
0.0
  0
VERTEX
  5
276
330
270
100
AcDbEntity
  8
Hidden (ANSI)
 48
0.0087354741990566
100
AcDbVertex
100
AcDb2dVertex
 10
40.76177842776544
 20
106.8608297039627
 30
0.0
  0
VERTEX
  5
277
330
270
100
AcDbEntity
  8
Hidden (ANSI)
 48
0.0087354741990566
100
AcDbVertex
100
AcDb2dVertex
 10
40.75982154157155
 20
106.8593699064264
 30
0.0
  0
VERTEX
  5
278
330
270
100
AcDbEntity
  8
Hidden (ANSI)
 48
0.0087354741990566
100
AcDbVertex
100
AcDb2dVertex
 10
40.75790766928077
 20
106.8579101088902
 30
0.0
  0
VERTEX
  5
279
330
270
100
AcDbEntity
  8
Hidden (ANSI)
 48
0.0087354741990566
100
AcDbVertex
100
AcDb2dVertex
 10
40.75604500066514
 20
106.8564503113538
 30
0.0
  0
VERTEX
  5
27A
330
270
100
AcDbEntity
  8
Hidden (ANSI)
 48
0.0087354741990566
100
AcDbVertex
100
AcDb2dVertex
 10
40.75424152603236
 20
106.8549905138176
 30
0.0
  0
VERTEX
  5
27B
330
270
100
AcDbEntity
  8
Hidden (ANSI)
 48
0.0087354741990566
100
AcDbVertex
100
AcDb2dVertex
 10
40.75250495409339
 20
106.8535307162813
 30
0.0
  0
VERTEX
  5
27C
330
270
100
AcDbEntity
  8
Hidden (ANSI)
 48
0.0087354741990566
100
AcDbVertex
100
AcDb2dVertex
 10
40.75084272369562
 20
106.852070918745
 30
0.0
  0
VERTEX
  5
27D
330
270
100
AcDbEntity
  8
Hidden (ANSI)
 48
0.0087354741990566
100
AcDbVertex
100
AcDb2dVertex
 10
40.74926196862331
 20
106.8506111212087
 30
0.0
  0
VERTEX
  5
27E
330
270
100
AcDbEntity
  8
Hidden (ANSI)
 48
0.0087354741990566
100
AcDbVertex
100
AcDb2dVertex
 10
40.74776943546518
 20
106.8491513236724
 30
0.0
  0
VERTEX
  5
27F
330
270
100
AcDbEntity
  8
Hidden (ANSI)
 48
0.0087354741990566
100
AcDbVertex
100
AcDb2dVertex
 10
40.74637153054722
 20
106.8476915261361
 30
0.0
  0
VERTEX
  5
280
330
270
100
AcDbEntity
  8
Hidden (ANSI)
 48
0.0087354741990566
100
AcDbVertex
100
AcDb2dVertex
 10
40.74507422606713
 20
106.8462317285998
 30
0.0
  0
VERTEX
  5
281
330
270
100
AcDbEntity
  8
Hidden (ANSI)
 48
0.0087354741990566
100
AcDbVertex
100
AcDb2dVertex
 10
40.74388309529385
 20
106.8447719310635
 30
0.0
  0
VERTEX
  5
282
330
270
100
AcDbEntity
  8
Hidden (ANSI)
 48
0.0087354741990566
100
AcDbVertex
100
AcDb2dVertex
 10
40.7428032304352
 20
106.8433121335272
 30
0.0
  0
VERTEX
  5
283
330
270
100
AcDbEntity
  8
Hidden (ANSI)
 48
0.0087354741990566
100
AcDbVertex
100
AcDb2dVertex
 10
40.74183924850454
 20
106.8418523359909
 30
0.0
  0
VERTEX
  5
284
330
270
100
AcDbEntity
  8
Hidden (ANSI)
 48
0.0087354741990566
100
AcDbVertex
100
AcDb2dVertex
 10
40.74099528545406
 20
106.8403925384546
 30
0.0
  0
VERTEX
  5
285
330
270
100
AcDbEntity
  8
Hidden (ANSI)
 48
0.0087354741990566
100
AcDbVertex
100
AcDb2dVertex
 10
40.74027495510872
 20
106.8389327409183
 30
0.0
  0
VERTEX
  5
286
330
270
100
AcDbEntity
  8
Hidden (ANSI)
 48
0.0087354741990566
100
AcDbVertex
100
AcDb2dVertex
 10
40.73968133743291
 20
106.837472943382
 30
0.0
  0
VERTEX
  5
287
330
270
100
AcDbEntity
  8
Hidden (ANSI)
 48
0.0087354741990566
100
AcDbVertex
100
AcDb2dVertex
 10
40.73921698439716
 20
106.8360131458457
 30
0.0
  0
VERTEX
  5
288
330
270
100
AcDbEntity
  8
Hidden (ANSI)
 48
0.0087354741990566
100
AcDbVertex
100
AcDb2dVertex
 10
40.73888386717868
 20
106.8345533483094
 30
0.0
  0
VERTEX
  5
289
330
270
100
AcDbEntity
  8
Hidden (ANSI)
 48
0.0087354741990566
100
AcDbVertex
100
AcDb2dVertex
 10
40.73868342896083
 20
106.8330935507731
 30
0.0
  0
VERTEX
  5
28A
330
270
100
AcDbEntity
  8
Hidden (ANSI)
 48
0.0087354741990566
100
AcDbVertex
100
AcDb2dVertex
 10
40.73861652040043
 20
106.8316337532369
 30
0.0
  0
SEQEND
  5
273
330
270
100
AcDbEntity
  8
Hidden (ANSI)
 48
0.0087354741990566
  0
LINE
  5
28B
330
6C
100
AcDbEntity
  8
Hidden (ANSI)
 48
0.0136357927694917
100
AcDbLine
 10
40.73861652180841
 20
29.15171399957842
 30
0.0
 11
40.64486652180842
 21
29.15171399957842
 31
0.0
  0
POLYLINE
  5
28C
330
6C
100
AcDbEntity
  8
Hidden (ANSI)
 48
0.0087354835122824
100
AcDb2dPolyline
 66
     1
 10
0.0
 20
0.0
 30
0.0
 70
   128
  0
VERTEX
  5
28D
330
28C
100
AcDbEntity
  8
Hidden (ANSI)
 48
0.0087354835122824
100
AcDbVertex
100
AcDb2dVertex
 10
40.7698665199311
 20
29.11667273696488
 30
0.0
  0
VERTEX
  5
28E
330
28C
100
AcDbEntity
  8
Hidden (ANSI)
 48
0.0087354835122824
100
AcDbVertex
100
AcDb2dVertex
 10
40.76782267900839
 20
29.11813279263153
 30
0.0
  0
VERTEX
  5
290
330
28C
100
AcDbEntity
  8
Hidden (ANSI)
 48
0.0087354835122824
100
AcDbVertex
100
AcDb2dVertex
 10
40.76578757931804
 20
29.11959284829817
 30
0.0
  0
VERTEX
  5
291
330
28C
100
AcDbEntity
  8
Hidden (ANSI)
 48
0.0087354835122824
100
AcDbVertex
100
AcDb2dVertex
 10
40.7637699503592
 20
29.12105289223162
 30
0.0
  0
VERTEX
  5
292
330
28C
100
AcDbEntity
  8
Hidden (ANSI)
 48
0.0087354835122824
100
AcDbVertex
100
AcDb2dVertex
 10
40.76177842776544
 20
29.12251294789827
 30
0.0
  0
VERTEX
  5
293
330
28C
100
AcDbEntity
  8
Hidden (ANSI)
 48
0.0087354835122824
100
AcDbVertex
100
AcDb2dVertex
 10
40.75982154157155
 20
29.12397300356491
 30
0.0
  0
VERTEX
  5
294
330
28C
100
AcDbEntity
  8
Hidden (ANSI)
 48
0.0087354835122824
100
AcDbVertex
100
AcDb2dVertex
 10
40.75790766928077
 20
29.12543305923156
 30
0.0
  0
VERTEX
  5
295
330
28C
100
AcDbEntity
  8
Hidden (ANSI)
 48
0.0087354835122824
100
AcDbVertex
100
AcDb2dVertex
 10
40.75604500066514
 20
29.12689310316501
 30
0.0
  0
VERTEX
  5
296
330
28C
100
AcDbEntity
  8
Hidden (ANSI)
 48
0.0087354835122824
100
AcDbVertex
100
AcDb2dVertex
 10
40.75424152603236
 20
29.12835315883165
 30
0.0
  0
VERTEX
  5
297
330
28C
100
AcDbEntity
  8
Hidden (ANSI)
 48
0.0087354835122824
100
AcDbVertex
100
AcDb2dVertex
 10
40.75250495409339
 20
29.12981321449829
 30
0.0
  0
VERTEX
  5
298
330
28C
100
AcDbEntity
  8
Hidden (ANSI)
 48
0.0087354835122824
100
AcDbVertex
100
AcDb2dVertex
 10
40.75084272369562
 20
29.13127325843174
 30
0.0
  0
VERTEX
  5
299
330
28C
100
AcDbEntity
  8
Hidden (ANSI)
 48
0.0087354835122824
100
AcDbVertex
100
AcDb2dVertex
 10
40.74926196862331
 20
29.13273331409839
 30
0.0
  0
VERTEX
  5
29A
330
28C
100
AcDbEntity
  8
Hidden (ANSI)
 48
0.0087354835122824
100
AcDbVertex
100
AcDb2dVertex
 10
40.74776943546518
 20
29.13419336976503
 30
0.0
  0
VERTEX
  5
29B
330
28C
100
AcDbEntity
  8
Hidden (ANSI)
 48
0.0087354835122824
100
AcDbVertex
100
AcDb2dVertex
 10
40.74637153054722
 20
29.13565342543168
 30
0.0
  0
VERTEX
  5
29C
330
28C
100
AcDbEntity
  8
Hidden (ANSI)
 48
0.0087354835122824
100
AcDbVertex
100
AcDb2dVertex
 10
40.74507422606713
 20
29.13711346936513
 30
0.0
  0
VERTEX
  5
29D
330
28C
100
AcDbEntity
  8
Hidden (ANSI)
 48
0.0087354835122824
100
AcDbVertex
100
AcDb2dVertex
 10
40.74388309529385
 20
29.13857352503177
 30
0.0
  0
VERTEX
  5
29E
330
28C
100
AcDbEntity
  8
Hidden (ANSI)
 48
0.0087354835122824
100
AcDbVertex
100
AcDb2dVertex
 10
40.7428032304352
 20
29.14003358069842
 30
0.0
  0
VERTEX
  5
29F
330
28C
100
AcDbEntity
  8
Hidden (ANSI)
 48
0.0087354835122824
100
AcDbVertex
100
AcDb2dVertex
 10
40.74183924850454
 20
29.14149363636507
 30
0.0
  0
VERTEX
  5
2A0
330
28C
100
AcDbEntity
  8
Hidden (ANSI)
 48
0.0087354835122824
100
AcDbVertex
100
AcDb2dVertex
 10
40.74099528545406
 20
29.14295368029852
 30
0.0
  0
VERTEX
  5
2A1
330
28C
100
AcDbEntity
  8
Hidden (ANSI)
 48
0.0087354835122824
100
AcDbVertex
100
AcDb2dVertex
 10
40.74027495510872
 20
29.14441373596516
 30
0.0
  0
VERTEX
  5
2A2
330
28C
100
AcDbEntity
  8
Hidden (ANSI)
 48
0.0087354835122824
100
AcDbVertex
100
AcDb2dVertex
 10
40.73968133743291
 20
29.1458737916318
 30
0.0
  0
VERTEX
  5
2A3
330
28C
100
AcDbEntity
  8
Hidden (ANSI)
 48
0.0087354835122824
100
AcDbVertex
100
AcDb2dVertex
 10
40.73921698439716
 20
29.14733384729845
 30
0.0
  0
VERTEX
  5
2A4
330
28C
100
AcDbEntity
  8
Hidden (ANSI)
 48
0.0087354835122824
100
AcDbVertex
100
AcDb2dVertex
 10
40.73888386717868
 20
29.1487938912319
 30
0.0
  0
VERTEX
  5
2A5
330
28C
100
AcDbEntity
  8
Hidden (ANSI)
 48
0.0087354835122824
100
AcDbVertex
100
AcDb2dVertex
 10
40.73868342896083
 20
29.15025394689854
 30
0.0
  0
VERTEX
  5
2A6
330
28C
100
AcDbEntity
  8
Hidden (ANSI)
 48
0.0087354835122824
100
AcDbVertex
100
AcDb2dVertex
 10
40.73861652040043
 20
29.15171400256519
 30
0.0
  0
SEQEND
  5
28F
330
28C
100
AcDbEntity
  8
Hidden (ANSI)
 48
0.0087354835122824
  0
LINE
  5
2A7
330
6C
100
AcDbEntity
  8
Hidden (ANSI)
 48
0.0136357927694917
100
AcDbLine
 10
40.80490778254466
 20
29.08542273884219
 30
0.0
 11
40.80490778254466
 21
28.99167273884219
 31
0.0
  0
POLYLINE
  5
2A8
330
6C
100
AcDbEntity
  8
Hidden (ANSI)
 48
0.0087354835122824
100
AcDb2dPolyline
 66
     1
 10
0.0
 20
0.0
 30
0.0
 70
   128
  0
VERTEX
  5
2A9
330
2A8
100
AcDbEntity
  8
Hidden (ANSI)
 48
0.0087354835122824
100
AcDbVertex
100
AcDb2dVertex
 10
40.7698665199311
 20
29.11667273696488
 30
0.0
  0
VERTEX
  5
2AA
330
2A8
100
AcDbEntity
  8
Hidden (ANSI)
 48
0.0087354835122824
100
AcDbVertex
100
AcDb2dVertex
 10
40.77132657559775
 20
29.11462889604217
 30
0.0
  0
VERTEX
  5
2AC
330
2A8
100
AcDbEntity
  8
Hidden (ANSI)
 48
0.0087354835122824
100
AcDbVertex
100
AcDb2dVertex
 10
40.7727866312644
 20
29.11259379635182
 30
0.0
  0
VERTEX
  5
2AD
330
2A8
100
AcDbEntity
  8
Hidden (ANSI)
 48
0.0087354835122824
100
AcDbVertex
100
AcDb2dVertex
 10
40.77424667519784
 20
29.11057616739297
 30
0.0
  0
VERTEX
  5
2AE
330
2A8
100
AcDbEntity
  8
Hidden (ANSI)
 48
0.0087354835122824
100
AcDbVertex
100
AcDb2dVertex
 10
40.77570673086449
 20
29.10858464479921
 30
0.0
  0
VERTEX
  5
2AF
330
2A8
100
AcDbEntity
  8
Hidden (ANSI)
 48
0.0087354835122824
100
AcDbVertex
100
AcDb2dVertex
 10
40.77716678653113
 20
29.10662775860533
 30
0.0
  0
VERTEX
  5
2B0
330
2A8
100
AcDbEntity
  8
Hidden (ANSI)
 48
0.0087354835122824
100
AcDbVertex
100
AcDb2dVertex
 10
40.77862684219779
 20
29.10471388631454
 30
0.0
  0
VERTEX
  5
2B1
330
2A8
100
AcDbEntity
  8
Hidden (ANSI)
 48
0.0087354835122824
100
AcDbVertex
100
AcDb2dVertex
 10
40.78008688613123
 20
29.10285121769892
 30
0.0
  0
VERTEX
  5
2B2
330
2A8
100
AcDbEntity
  8
Hidden (ANSI)
 48
0.0087354835122824
100
AcDbVertex
100
AcDb2dVertex
 10
40.78154694179787
 20
29.10104774306614
 30
0.0
  0
VERTEX
  5
2B3
330
2A8
100
AcDbEntity
  8
Hidden (ANSI)
 48
0.0087354835122824
100
AcDbVertex
100
AcDb2dVertex
 10
40.78300699746452
 20
29.09931117112717
 30
0.0
  0
VERTEX
  5
2B4
330
2A8
100
AcDbEntity
  8
Hidden (ANSI)
 48
0.0087354835122824
100
AcDbVertex
100
AcDb2dVertex
 10
40.78446704139797
 20
29.0976489407294
 30
0.0
  0
VERTEX
  5
2B5
330
2A8
100
AcDbEntity
  8
Hidden (ANSI)
 48
0.0087354835122824
100
AcDbVertex
100
AcDb2dVertex
 10
40.78592709706462
 20
29.09606818565708
 30
0.0
  0
VERTEX
  5
2B6
330
2A8
100
AcDbEntity
  8
Hidden (ANSI)
 48
0.0087354835122824
100
AcDbVertex
100
AcDb2dVertex
 10
40.78738715273126
 20
29.09457565249895
 30
0.0
  0
VERTEX
  5
2B7
330
2A8
100
AcDbEntity
  8
Hidden (ANSI)
 48
0.0087354835122824
100
AcDbVertex
100
AcDb2dVertex
 10
40.7888472083979
 20
29.093177747581
 30
0.0
  0
VERTEX
  5
2B8
330
2A8
100
AcDbEntity
  8
Hidden (ANSI)
 48
0.0087354835122824
100
AcDbVertex
100
AcDb2dVertex
 10
40.79030725233136
 20
29.09188044310091
 30
0.0
  0
VERTEX
  5
2B9
330
2A8
100
AcDbEntity
  8
Hidden (ANSI)
 48
0.0087354835122824
100
AcDbVertex
100
AcDb2dVertex
 10
40.791767307998
 20
29.09068931232761
 30
0.0
  0
VERTEX
  5
2BA
330
2A8
100
AcDbEntity
  8
Hidden (ANSI)
 48
0.0087354835122824
100
AcDbVertex
100
AcDb2dVertex
 10
40.79322736366465
 20
29.08960944746898
 30
0.0
  0
VERTEX
  5
2BB
330
2A8
100
AcDbEntity
  8
Hidden (ANSI)
 48
0.0087354835122824
100
AcDbVertex
100
AcDb2dVertex
 10
40.79468741933129
 20
29.08864546553831
 30
0.0
  0
VERTEX
  5
2BC
330
2A8
100
AcDbEntity
  8
Hidden (ANSI)
 48
0.0087354835122824
100
AcDbVertex
100
AcDb2dVertex
 10
40.79614746326474
 20
29.08780150248784
 30
0.0
  0
VERTEX
  5
2BD
330
2A8
100
AcDbEntity
  8
Hidden (ANSI)
 48
0.0087354835122824
100
AcDbVertex
100
AcDb2dVertex
 10
40.79760751893139
 20
29.0870811721425
 30
0.0
  0
VERTEX
  5
2BE
330
2A8
100
AcDbEntity
  8
Hidden (ANSI)
 48
0.0087354835122824
100
AcDbVertex
100
AcDb2dVertex
 10
40.79906757459803
 20
29.08648755446669
 30
0.0
  0
VERTEX
  5
2BF
330
2A8
100
AcDbEntity
  8
Hidden (ANSI)
 48
0.0087354835122824
100
AcDbVertex
100
AcDb2dVertex
 10
40.80052763026468
 20
29.08602320143093
 30
0.0
  0
VERTEX
  5
2C0
330
2A8
100
AcDbEntity
  8
Hidden (ANSI)
 48
0.0087354835122824
100
AcDbVertex
100
AcDb2dVertex
 10
40.80198767419813
 20
29.08569008421246
 30
0.0
  0
VERTEX
  5
2C1
330
2A8
100
AcDbEntity
  8
Hidden (ANSI)
 48
0.0087354835122824
100
AcDbVertex
100
AcDb2dVertex
 10
40.80344772986477
 20
29.08548964599461
 30
0.0
  0
VERTEX
  5
2C2
330
2A8
100
AcDbEntity
  8
Hidden (ANSI)
 48
0.0087354835122824
100
AcDbVertex
100
AcDb2dVertex
 10
40.80490778553141
 20
29.08542273743421
 30
0.0
  0
SEQEND
  5
2AB
330
2A8
100
AcDbEntity
  8
Hidden (ANSI)
 48
0.0087354835122824
  0
LINE
  5
2C3
330
6C
100
AcDbEntity
  8
Hidden (ANSI)
 48
0.0136357927694917
100
AcDbLine
 10
71.48482526107217
 20
29.08542273884219
 30
0.0
 11
71.48482526107217
 21
28.99167273884219
 31
0.0
  0
POLYLINE
  5
2C4
330
6C
100
AcDbEntity
  8
Hidden (ANSI)
 48
0.0087354732677341
100
AcDb2dPolyline
 66
     1
 10
0.0
 20
0.0
 30
0.0
 70
   128
  0
VERTEX
  5
2C5
330
2C4
100
AcDbEntity
  8
Hidden (ANSI)
 48
0.0087354732677341
100
AcDbVertex
100
AcDb2dVertex
 10
71.51986676210431
 20
29.11667273696488
 30
0.0
  0
VERTEX
  5
2C6
330
2C4
100
AcDbEntity
  8
Hidden (ANSI)
 48
0.0087354732677341
100
AcDbVertex
100
AcDb2dVertex
 10
71.51840696456801
 20
29.11462889604217
 30
0.0
  0
VERTEX
  5
2C8
330
2C4
100
AcDbEntity
  8
Hidden (ANSI)
 48
0.0087354732677341
100
AcDbVertex
100
AcDb2dVertex
 10
71.51694716703173
 20
29.11259379635182
 30
0.0
  0
VERTEX
  5
2C9
330
2C4
100
AcDbEntity
  8
Hidden (ANSI)
 48
0.0087354732677341
100
AcDbVertex
100
AcDb2dVertex
 10
71.51548736949543
 20
29.11057616739297
 30
0.0
  0
VERTEX
  5
2CA
330
2C4
100
AcDbEntity
  8
Hidden (ANSI)
 48
0.0087354732677341
100
AcDbVertex
100
AcDb2dVertex
 10
71.51402757195914
 20
29.10858464479921
 30
0.0
  0
VERTEX
  5
2CB
330
2C4
100
AcDbEntity
  8
Hidden (ANSI)
 48
0.0087354732677341
100
AcDbVertex
100
AcDb2dVertex
 10
71.51256477072419
 20
29.10662775860533
 30
0.0
  0
VERTEX
  5
2CC
330
2C4
100
AcDbEntity
  8
Hidden (ANSI)
 48
0.0087354732677341
100
AcDbVertex
100
AcDb2dVertex
 10
71.51110497318791
 20
29.10471388631454
 30
0.0
  0
VERTEX
  5
2CD
330
2C4
100
AcDbEntity
  8
Hidden (ANSI)
 48
0.0087354732677341
100
AcDbVertex
100
AcDb2dVertex
 10
71.50964517565163
 20
29.10285121769892
 30
0.0
  0
VERTEX
  5
2CE
330
2C4
100
AcDbEntity
  8
Hidden (ANSI)
 48
0.0087354732677341
100
AcDbVertex
100
AcDb2dVertex
 10
71.50818537811533
 20
29.10104774306614
 30
0.0
  0
VERTEX
  5
2CF
330
2C4
100
AcDbEntity
  8
Hidden (ANSI)
 48
0.0087354732677341
100
AcDbVertex
100
AcDb2dVertex
 10
71.50672558057903
 20
29.09931117112717
 30
0.0
  0
VERTEX
  5
2D0
330
2C4
100
AcDbEntity
  8
Hidden (ANSI)
 48
0.0087354732677341
100
AcDbVertex
100
AcDb2dVertex
 10
71.50526578304273
 20
29.0976489407294
 30
0.0
  0
VERTEX
  5
2D1
330
2C4
100
AcDbEntity
  8
Hidden (ANSI)
 48
0.0087354732677341
100
AcDbVertex
100
AcDb2dVertex
 10
71.50380598550644
 20
29.09606818565708
 30
0.0
  0
VERTEX
  5
2D2
330
2C4
100
AcDbEntity
  8
Hidden (ANSI)
 48
0.0087354732677341
100
AcDbVertex
100
AcDb2dVertex
 10
71.50234618797014
 20
29.09457565249895
 30
0.0
  0
VERTEX
  5
2D3
330
2C4
100
AcDbEntity
  8
Hidden (ANSI)
 48
0.0087354732677341
100
AcDbVertex
100
AcDb2dVertex
 10
71.50088639043385
 20
29.093177747581
 30
0.0
  0
VERTEX
  5
2D4
330
2C4
100
AcDbEntity
  8
Hidden (ANSI)
 48
0.0087354732677341
100
AcDbVertex
100
AcDb2dVertex
 10
71.49942659289755
 20
29.09188044310091
 30
0.0
  0
VERTEX
  5
2D5
330
2C4
100
AcDbEntity
  8
Hidden (ANSI)
 48
0.0087354732677341
100
AcDbVertex
100
AcDb2dVertex
 10
71.49796679536127
 20
29.09068931232761
 30
0.0
  0
VERTEX
  5
2D6
330
2C4
100
AcDbEntity
  8
Hidden (ANSI)
 48
0.0087354732677341
100
AcDbVertex
100
AcDb2dVertex
 10
71.49650699782497
 20
29.08960944746898
 30
0.0
  0
VERTEX
  5
2D7
330
2C4
100
AcDbEntity
  8
Hidden (ANSI)
 48
0.0087354732677341
100
AcDbVertex
100
AcDb2dVertex
 10
71.49504419659004
 20
29.08864546553831
 30
0.0
  0
VERTEX
  5
2D8
330
2C4
100
AcDbEntity
  8
Hidden (ANSI)
 48
0.0087354732677341
100
AcDbVertex
100
AcDb2dVertex
 10
71.49358439905374
 20
29.08780150248784
 30
0.0
  0
VERTEX
  5
2D9
330
2C4
100
AcDbEntity
  8
Hidden (ANSI)
 48
0.0087354732677341
100
AcDbVertex
100
AcDb2dVertex
 10
71.49212460151744
 20
29.0870811721425
 30
0.0
  0
VERTEX
  5
2DA
330
2C4
100
AcDbEntity
  8
Hidden (ANSI)
 48
0.0087354732677341
100
AcDbVertex
100
AcDb2dVertex
 10
71.49066480398116
 20
29.08648755446669
 30
0.0
  0
VERTEX
  5
2DB
330
2C4
100
AcDbEntity
  8
Hidden (ANSI)
 48
0.0087354732677341
100
AcDbVertex
100
AcDb2dVertex
 10
71.48920500644486
 20
29.08602320143093
 30
0.0
  0
VERTEX
  5
2DC
330
2C4
100
AcDbEntity
  8
Hidden (ANSI)
 48
0.0087354732677341
100
AcDbVertex
100
AcDb2dVertex
 10
71.48774520890857
 20
29.08569008421246
 30
0.0
  0
VERTEX
  5
2DD
330
2C4
100
AcDbEntity
  8
Hidden (ANSI)
 48
0.0087354732677341
100
AcDbVertex
100
AcDb2dVertex
 10
71.48628541137227
 20
29.08548964599461
 30
0.0
  0
VERTEX
  5
2DE
330
2C4
100
AcDbEntity
  8
Hidden (ANSI)
 48
0.0087354732677341
100
AcDbVertex
100
AcDb2dVertex
 10
71.48482561383598
 20
29.08542273743421
 30
0.0
  0
SEQEND
  5
2C7
330
2C4
100
AcDbEntity
  8
Hidden (ANSI)
 48
0.0087354732677341
  0
MTEXT
  5
2E0
330
6C
100
AcDbEntity
  8
Symbol (ANSI)
100
AcDbMText
 10
51.72546816526406
 20
22.74151169530239
 30
0.0
 40
1.56000001927999
 41
0.0
 71
     7
 72
     1
  1
FRONT VIEW
  7
Text Style153
 73
     1
 44
1.0
  0
LINE
  5
2E2
330
6C
100
AcDbEntity
  8
Symbol (ANSI)
370
    30
100
AcDbLine
 10
51.56946776397504
 20
22.42338040942882
 30
0.0
 11
64.11141281968884
 21
22.42338040942882
 31
0.0
  0
POLYLINE
  5
2E3
330
6C
100
AcDbEntity
  8
Visible (ANSI)
100
AcDb2dPolyline
 66
     1
 10
0.0
 20
0.0
 30
0.0
 70
   128
  0
VERTEX
  5
2E4
330
2E3
100
AcDbEntity
  8
Visible (ANSI)
100
AcDbVertex
100
AcDb2dVertex
 10
109.263739265229
 20
106.8666749015052
 30
0.0
  0
VERTEX
  5
2E5
330
2E3
100
AcDbEntity
  8
Visible (ANSI)
100
AcDbVertex
100
AcDb2dVertex
 10
109.2640068994706
 20
106.8652151039689
 30
0.0
  0
VERTEX
  5
2E7
330
2E3
100
AcDbEntity
  8
Visible (ANSI)
100
AcDbVertex
100
AcDb2dVertex
 10
109.2648086582086
 20
106.8637553064326
 30
0.0
  0
VERTEX
  5
2E8
330
2E3
100
AcDbEntity
  8
Visible (ANSI)
100
AcDbVertex
100
AcDb2dVertex
 10
109.2661411036161
 20
106.8622955088963
 30
0.0
  0
VERTEX
  5
2E9
330
2E3
100
AcDbEntity
  8
Visible (ANSI)
100
AcDbVertex
100
AcDb2dVertex
 10
109.2679985333589
 20
106.8608297039628
 30
0.0
  0
VERTEX
  5
2EA
330
2E3
100
AcDbEntity
  8
Visible (ANSI)
100
AcDbVertex
100
AcDb2dVertex
 10
109.2703729981956
 20
106.8593699064265
 30
0.0
  0
VERTEX
  5
2EB
330
2E3
100
AcDbEntity
  8
Visible (ANSI)
100
AcDbVertex
100
AcDb2dVertex
 10
109.273254319577
 20
106.8579101088902
 30
0.0
  0
VERTEX
  5
2EC
330
2E3
100
AcDbEntity
  8
Visible (ANSI)
100
AcDbVertex
100
AcDb2dVertex
 10
109.2766301717789
 20
106.8564503113539
 30
0.0
  0
VERTEX
  5
2ED
330
2E3
100
AcDbEntity
  8
Visible (ANSI)
100
AcDbVertex
100
AcDb2dVertex
 10
109.2804860877683
 20
106.8549905138176
 30
0.0
  0
VERTEX
  5
2EE
330
2E3
100
AcDbEntity
  8
Visible (ANSI)
100
AcDbVertex
100
AcDb2dVertex
 10
109.2848055648027
 20
106.8535307162813
 30
0.0
  0
VERTEX
  5
2EF
330
2E3
100
AcDbEntity
  8
Visible (ANSI)
100
AcDbVertex
100
AcDb2dVertex
 10
109.2895700937624
 20
106.852070918745
 30
0.0
  0
VERTEX
  5
2F0
330
2E3
100
AcDbEntity
  8
Visible (ANSI)
100
AcDbVertex
100
AcDb2dVertex
 10
109.2947592882164
 20
106.8506111212087
 30
0.0
  0
VERTEX
  5
2F1
330
2E3
100
AcDbEntity
  8
Visible (ANSI)
100
AcDbVertex
100
AcDb2dVertex
 10
109.3003509137548
 20
106.8491513236724
 30
0.0
  0
VERTEX
  5
2F2
330
2E3
100
AcDbEntity
  8
Visible (ANSI)
100
AcDbVertex
100
AcDb2dVertex
 10
109.3063210346542
 20
106.8476915261361
 30
0.0
  0
VERTEX
  5
2F3
330
2E3
100
AcDbEntity
  8
Visible (ANSI)
100
AcDbVertex
100
AcDb2dVertex
 10
109.3126440842764
 20
106.8462317285998
 30
0.0
  0
VERTEX
  5
2F4
330
2E3
100
AcDbEntity
  8
Visible (ANSI)
100
AcDbVertex
100
AcDb2dVertex
 10
109.3192929853344
 20
106.8447719310635
 30
0.0
  0
VERTEX
  5
2F5
330
2E3
100
AcDbEntity
  8
Visible (ANSI)
100
AcDbVertex
100
AcDb2dVertex
 10
109.3262392642904
 20
106.8433121335272
 30
0.0
  0
VERTEX
  5
2F6
330
2E3
100
AcDbEntity
  8
Visible (ANSI)
100
AcDbVertex
100
AcDb2dVertex
 10
109.333453177488
 20
106.8418523359909
 30
0.0
  0
VERTEX
  5
2F7
330
2E3
100
AcDbEntity
  8
Visible (ANSI)
100
AcDbVertex
100
AcDb2dVertex
 10
109.3409038343507
 20
106.8403925384546
 30
0.0
  0
VERTEX
  5
2F8
330
2E3
100
AcDbEntity
  8
Visible (ANSI)
100
AcDbVertex
100
AcDb2dVertex
 10
109.3485593308471
 20
106.8389327409183
 30
0.0
  0
VERTEX
  5
2F9
330
2E3
100
AcDbEntity
  8
Visible (ANSI)
100
AcDbVertex
100
AcDb2dVertex
 10
109.3563868831392
 20
106.837472943382
 30
0.0
  0
VERTEX
  5
2FA
330
2E3
100
AcDbEntity
  8
Visible (ANSI)
100
AcDbVertex
100
AcDb2dVertex
 10
109.3643529733309
 20
106.8360131458457
 30
0.0
  0
VERTEX
  5
2FB
330
2E3
100
AcDbEntity
  8
Visible (ANSI)
100
AcDbVertex
100
AcDb2dVertex
 10
109.3724234891663
 20
106.8345533483094
 30
0.0
  0
VERTEX
  5
2FC
330
2E3
100
AcDbEntity
  8
Visible (ANSI)
100
AcDbVertex
100
AcDb2dVertex
 10
109.3805638732612
 20
106.8330935507732
 30
0.0
  0
VERTEX
  5
2FD
330
2E3
100
AcDbEntity
  8
Visible (ANSI)
100
AcDbVertex
100
AcDb2dVertex
 10
109.3887392633517
 20
106.8316337532369
 30
0.0
  0
SEQEND
  5
2E6
330
2E3
100
AcDbEntity
  8
Visible (ANSI)
  0
POLYLINE
  5
2FE
330
6C
100
AcDbEntity
  8
Visible (ANSI)
100
AcDb2dPolyline
 66
     1
 10
0.0
 20
0.0
 30
0.0
 70
   128
  0
VERTEX
  5
2FF
330
2FE
100
AcDbEntity
  8
Visible (ANSI)
100
AcDbVertex
100
AcDb2dVertex
 10
109.3887392633517
 20
29.1517140025652
 30
0.0
  0
VERTEX
  5
300
330
2FE
100
AcDbEntity
  8
Visible (ANSI)
100
AcDbVertex
100
AcDb2dVertex
 10
109.3805638732612
 20
29.15025394689855
 30
0.0
  0
VERTEX
  5
302
330
2FE
100
AcDbEntity
  8
Visible (ANSI)
100
AcDbVertex
100
AcDb2dVertex
 10
109.3724234891663
 20
29.14879389123191
 30
0.0
  0
VERTEX
  5
303
330
2FE
100
AcDbEntity
  8
Visible (ANSI)
100
AcDbVertex
100
AcDb2dVertex
 10
109.3643529733309
 20
29.14733384729846
 30
0.0
  0
VERTEX
  5
304
330
2FE
100
AcDbEntity
  8
Visible (ANSI)
100
AcDbVertex
100
AcDb2dVertex
 10
109.3563868831392
 20
29.14587379163181
 30
0.0
  0
VERTEX
  5
305
330
2FE
100
AcDbEntity
  8
Visible (ANSI)
100
AcDbVertex
100
AcDb2dVertex
 10
109.3485593308471
 20
29.14441373596517
 30
0.0
  0
VERTEX
  5
306
330
2FE
100
AcDbEntity
  8
Visible (ANSI)
100
AcDbVertex
100
AcDb2dVertex
 10
109.3409038343507
 20
29.14295368029852
 30
0.0
  0
VERTEX
  5
307
330
2FE
100
AcDbEntity
  8
Visible (ANSI)
100
AcDbVertex
100
AcDb2dVertex
 10
109.333453177488
 20
29.14149363636508
 30
0.0
  0
VERTEX
  5
308
330
2FE
100
AcDbEntity
  8
Visible (ANSI)
100
AcDbVertex
100
AcDb2dVertex
 10
109.3262392642904
 20
29.14003358069843
 30
0.0
  0
VERTEX
  5
309
330
2FE
100
AcDbEntity
  8
Visible (ANSI)
100
AcDbVertex
100
AcDb2dVertex
 10
109.3192929853344
 20
29.13857352503179
 30
0.0
  0
VERTEX
  5
30A
330
2FE
100
AcDbEntity
  8
Visible (ANSI)
100
AcDbVertex
100
AcDb2dVertex
 10
109.3126440842764
 20
29.13711346936514
 30
0.0
  0
VERTEX
  5
30B
330
2FE
100
AcDbEntity
  8
Visible (ANSI)
100
AcDbVertex
100
AcDb2dVertex
 10
109.3063210346542
 20
29.13565342543169
 30
0.0
  0
VERTEX
  5
30C
330
2FE
100
AcDbEntity
  8
Visible (ANSI)
100
AcDbVertex
100
AcDb2dVertex
 10
109.3003509137548
 20
29.13419336976505
 30
0.0
  0
VERTEX
  5
30D
330
2FE
100
AcDbEntity
  8
Visible (ANSI)
100
AcDbVertex
100
AcDb2dVertex
 10
109.2947592882164
 20
29.1327333140984
 30
0.0
  0
VERTEX
  5
30E
330
2FE
100
AcDbEntity
  8
Visible (ANSI)
100
AcDbVertex
100
AcDb2dVertex
 10
109.2895700937624
 20
29.13127325843176
 30
0.0
  0
VERTEX
  5
30F
330
2FE
100
AcDbEntity
  8
Visible (ANSI)
100
AcDbVertex
100
AcDb2dVertex
 10
109.2848055648027
 20
29.1298132144983
 30
0.0
  0
VERTEX
  5
310
330
2FE
100
AcDbEntity
  8
Visible (ANSI)
100
AcDbVertex
100
AcDb2dVertex
 10
109.2804860877683
 20
29.12835315883166
 30
0.0
  0
VERTEX
  5
311
330
2FE
100
AcDbEntity
  8
Visible (ANSI)
100
AcDbVertex
100
AcDb2dVertex
 10
109.2766301717789
 20
29.12689310316502
 30
0.0
  0
VERTEX
  5
312
330
2FE
100
AcDbEntity
  8
Visible (ANSI)
100
AcDbVertex
100
AcDb2dVertex
 10
109.273254319577
 20
29.12543305923157
 30
0.0
  0
VERTEX
  5
313
330
2FE
100
AcDbEntity
  8
Visible (ANSI)
100
AcDbVertex
100
AcDb2dVertex
 10
109.2703729981956
 20
29.12397300356492
 30
0.0
  0
VERTEX
  5
314
330
2FE
100
AcDbEntity
  8
Visible (ANSI)
100
AcDbVertex
100
AcDb2dVertex
 10
109.2679985333589
 20
29.12251294789827
 30
0.0
  0
VERTEX
  5
315
330
2FE
100
AcDbEntity
  8
Visible (ANSI)
100
AcDbVertex
100
AcDb2dVertex
 10
109.2661411036161
 20
29.12105289223163
 30
0.0
  0
VERTEX
  5
316
330
2FE
100
AcDbEntity
  8
Visible (ANSI)
100
AcDbVertex
100
AcDb2dVertex
 10
109.2648086582086
 20
29.11959284829818
 30
0.0
  0
VERTEX
  5
317
330
2FE
100
AcDbEntity
  8
Visible (ANSI)
100
AcDbVertex
100
AcDb2dVertex
 10
109.2640068994706
 20
29.11813279263153
 30
0.0
  0
VERTEX
  5
318
330
2FE
100
AcDbEntity
  8
Visible (ANSI)
100
AcDbVertex
100
AcDb2dVertex
 10
109.263739265229
 20
29.11667273696489
 30
0.0
  0
SEQEND
  5
301
330
2FE
100
AcDbEntity
  8
Visible (ANSI)
  0
LINE
  5
319
330
6C
100
AcDbEntity
  8
Visible (ANSI)
100
AcDbLine
 10
110.138739263821
 20
29.15171399957843
 30
0.0
 11
109.3887392638211
 21
29.15171399957844
 31
0.0
  0
LINE
  5
31A
330
6C
100
AcDbEntity
  8
Visible (ANSI)
100
AcDbLine
 10
109.357489263821
 20
29.1166727388422
 30
0.0
 11
109.263739263821
 21
29.1166727388422
 31
0.0
  0
POLYLINE
  5
31B
330
6C
100
AcDbEntity
  8
Visible (ANSI)
100
AcDb2dPolyline
 66
     1
 10
0.0
 20
0.0
 30
0.0
 70
   128
  0
VERTEX
  5
31C
330
31B
100
AcDbEntity
  8
Visible (ANSI)
100
AcDbVertex
100
AcDb2dVertex
 10
109.357489263821
 20
29.11667273696489
 30
0.0
  0
VERTEX
  5
31D
330
31B
100
AcDbEntity
  8
Visible (ANSI)
100
AcDbVertex
100
AcDb2dVertex
 10
109.3575561724674
 20
29.11813279263153
 30
0.0
  0
VERTEX
  5
31F
330
31B
100
AcDbEntity
  8
Visible (ANSI)
100
AcDbVertex
100
AcDb2dVertex
 10
109.3577566119055
 20
29.11959284829818
 30
0.0
  0
VERTEX
  5
320
330
31B
100
AcDbEntity
  8
Visible (ANSI)
100
AcDbVertex
100
AcDb2dVertex
 10
109.3580897238303
 20
29.12105289223163
 30
0.0
  0
VERTEX
  5
321
330
31B
100
AcDbEntity
  8
Visible (ANSI)
100
AcDbVertex
100
AcDb2dVertex
 10
109.3585540817702
 20
29.12251294789827
 30
0.0
  0
VERTEX
  5
322
330
31B
100
AcDbEntity
  8
Visible (ANSI)
100
AcDbVertex
100
AcDb2dVertex
 10
109.359147697246
 20
29.12397300356492
 30
0.0
  0
VERTEX
  5
323
330
31B
100
AcDbEntity
  8
Visible (ANSI)
100
AcDbVertex
100
AcDb2dVertex
 10
109.359868028508
 20
29.12543305923157
 30
0.0
  0
VERTEX
  5
324
330
31B
100
AcDbEntity
  8
Visible (ANSI)
100
AcDbVertex
100
AcDb2dVertex
 10
109.3607119908252
 20
29.12689310316502
 30
0.0
  0
VERTEX
  5
325
330
31B
100
AcDbEntity
  8
Visible (ANSI)
100
AcDbVertex
100
AcDb2dVertex
 10
109.3616759698225
 20
29.12835315883166
 30
0.0
  0
VERTEX
  5
326
330
31B
100
AcDbEntity
  8
Visible (ANSI)
100
AcDbVertex
100
AcDb2dVertex
 10
109.3627558383478
 20
29.1298132144983
 30
0.0
  0
VERTEX
  5
327
330
31B
100
AcDbEntity
  8
Visible (ANSI)
100
AcDbVertex
100
AcDb2dVertex
 10
109.3639469716877
 20
29.13127325843176
 30
0.0
  0
VERTEX
  5
328
330
31B
100
AcDbEntity
  8
Visible (ANSI)
100
AcDbVertex
100
AcDb2dVertex
 10
109.3652442695679
 20
29.1327333140984
 30
0.0
  0
VERTEX
  5
329
330
31B
100
AcDbEntity
  8
Visible (ANSI)
100
AcDbVertex
100
AcDb2dVertex
 10
109.3666421766858
 20
29.13419336976505
 30
0.0
  0
VERTEX
  5
32A
330
31B
100
AcDbEntity
  8
Visible (ANSI)
100
AcDbVertex
100
AcDb2dVertex
 10
109.3681347069107
 20
29.13565342543169
 30
0.0
  0
VERTEX
  5
32B
330
31B
100
AcDbEntity
  8
Visible (ANSI)
100
AcDbVertex
100
AcDb2dVertex
 10
109.3697154693162
 20
29.13711346936514
 30
0.0
  0
VERTEX
  5
32C
330
31B
100
AcDbEntity
  8
Visible (ANSI)
100
AcDbVertex
100
AcDb2dVertex
 10
109.3713776945807
 20
29.13857352503179
 30
0.0
  0
VERTEX
  5
32D
330
31B
100
AcDbEntity
  8
Visible (ANSI)
100
AcDbVertex
100
AcDb2dVertex
 10
109.3731142635864
 20
29.14003358069843
 30
0.0
  0
VERTEX
  5
32E
330
31B
100
AcDbEntity
  8
Visible (ANSI)
100
AcDbVertex
100
AcDb2dVertex
 10
109.3749177426191
 20
29.14149363636508
 30
0.0
  0
VERTEX
  5
32F
330
31B
100
AcDbEntity
  8
Visible (ANSI)
100
AcDbVertex
100
AcDb2dVertex
 10
109.3767804068348
 20
29.14295368029852
 30
0.0
  0
VERTEX
  5
330
330
31B
100
AcDbEntity
  8
Visible (ANSI)
100
AcDbVertex
100
AcDb2dVertex
 10
109.3786942805922
 20
29.14441373596517
 30
0.0
  0
VERTEX
  5
331
330
31B
100
AcDbEntity
  8
Visible (ANSI)
100
AcDbVertex
100
AcDb2dVertex
 10
109.3806511682527
 20
29.14587379163181
 30
0.0
  0
VERTEX
  5
332
330
31B
100
AcDbEntity
  8
Visible (ANSI)
100
AcDbVertex
100
AcDb2dVertex
 10
109.3826426908465
 20
29.14733384729846
 30
0.0
  0
VERTEX
  5
333
330
31B
100
AcDbEntity
  8
Visible (ANSI)
100
AcDbVertex
100
AcDb2dVertex
 10
109.3846603198054
 20
29.14879389123191
 30
0.0
  0
VERTEX
  5
334
330
31B
100
AcDbEntity
  8
Visible (ANSI)
100
AcDbVertex
100
AcDb2dVertex
 10
109.3866954165624
 20
29.15025394689855
 30
0.0
  0
VERTEX
  5
335
330
31B
100
AcDbEntity
  8
Visible (ANSI)
100
AcDbVertex
100
AcDb2dVertex
 10
109.3887392633517
 20
29.1517140025652
 30
0.0
  0
SEQEND
  5
31E
330
31B
100
AcDbEntity
  8
Visible (ANSI)
  0
POLYLINE
  5
336
330
6C
100
AcDbEntity
  8
Visible (ANSI)
100
AcDb2dPolyline
 66
     1
 10
0.0
 20
0.0
 30
0.0
 70
   128
  0
VERTEX
  5
337
330
336
100
AcDbEntity
  8
Visible (ANSI)
100
AcDbVertex
100
AcDb2dVertex
 10
109.357489263821
 20
106.8666749015052
 30
0.0
  0
VERTEX
  5
338
330
336
100
AcDbEntity
  8
Visible (ANSI)
100
AcDbVertex
100
AcDb2dVertex
 10
109.3575561724674
 20
106.8652151039689
 30
0.0
  0
VERTEX
  5
33A
330
336
100
AcDbEntity
  8
Visible (ANSI)
100
AcDbVertex
100
AcDb2dVertex
 10
109.3577566119055
 20
106.8637553064326
 30
0.0
  0
VERTEX
  5
33B
330
336
100
AcDbEntity
  8
Visible (ANSI)
100
AcDbVertex
100
AcDb2dVertex
 10
109.3580897238303
 20
106.8622955088963
 30
0.0
  0
VERTEX
  5
33C
330
336
100
AcDbEntity
  8
Visible (ANSI)
100
AcDbVertex
100
AcDb2dVertex
 10
109.3585540817702
 20
106.8608297039628
 30
0.0
  0
VERTEX
  5
33D
330
336
100
AcDbEntity
  8
Visible (ANSI)
100
AcDbVertex
100
AcDb2dVertex
 10
109.359147697246
 20
106.8593699064265
 30
0.0
  0
VERTEX
  5
33E
330
336
100
AcDbEntity
  8
Visible (ANSI)
100
AcDbVertex
100
AcDb2dVertex
 10
109.359868028508
 20
106.8579101088902
 30
0.0
  0
VERTEX
  5
33F
330
336
100
AcDbEntity
  8
Visible (ANSI)
100
AcDbVertex
100
AcDb2dVertex
 10
109.3607119908252
 20
106.8564503113539
 30
0.0
  0
VERTEX
  5
340
330
336
100
AcDbEntity
  8
Visible (ANSI)
100
AcDbVertex
100
AcDb2dVertex
 10
109.3616759698225
 20
106.8549905138176
 30
0.0
  0
VERTEX
  5
341
330
336
100
AcDbEntity
  8
Visible (ANSI)
100
AcDbVertex
100
AcDb2dVertex
 10
109.3627558383478
 20
106.8535307162813
 30
0.0
  0
VERTEX
  5
342
330
336
100
AcDbEntity
  8
Visible (ANSI)
100
AcDbVertex
100
AcDb2dVertex
 10
109.3639469716877
 20
106.852070918745
 30
0.0
  0
VERTEX
  5
343
330
336
100
AcDbEntity
  8
Visible (ANSI)
100
AcDbVertex
100
AcDb2dVertex
 10
109.3652442695679
 20
106.8506111212087
 30
0.0
  0
VERTEX
  5
344
330
336
100
AcDbEntity
  8
Visible (ANSI)
100
AcDbVertex
100
AcDb2dVertex
 10
109.3666421766858
 20
106.8491513236724
 30
0.0
  0
VERTEX
  5
345
330
336
100
AcDbEntity
  8
Visible (ANSI)
100
AcDbVertex
100
AcDb2dVertex
 10
109.3681347069107
 20
106.8476915261361
 30
0.0
  0
VERTEX
  5
346
330
336
100
AcDbEntity
  8
Visible (ANSI)
100
AcDbVertex
100
AcDb2dVertex
 10
109.3697154693162
 20
106.8462317285998
 30
0.0
  0
VERTEX
  5
347
330
336
100
AcDbEntity
  8
Visible (ANSI)
100
AcDbVertex
100
AcDb2dVertex
 10
109.3713776945807
 20
106.8447719310635
 30
0.0
  0
VERTEX
  5
348
330
336
100
AcDbEntity
  8
Visible (ANSI)
100
AcDbVertex
100
AcDb2dVertex
 10
109.3731142635864
 20
106.8433121335272
 30
0.0
  0
VERTEX
  5
349
330
336
100
AcDbEntity
  8
Visible (ANSI)
100
AcDbVertex
100
AcDb2dVertex
 10
109.3749177426191
 20
106.8418523359909
 30
0.0
  0
VERTEX
  5
34A
330
336
100
AcDbEntity
  8
Visible (ANSI)
100
AcDbVertex
100
AcDb2dVertex
 10
109.3767804068348
 20
106.8403925384546
 30
0.0
  0
VERTEX
  5
34B
330
336
100
AcDbEntity
  8
Visible (ANSI)
100
AcDbVertex
100
AcDb2dVertex
 10
109.3786942805922
 20
106.8389327409183
 30
0.0
  0
VERTEX
  5
34C
330
336
100
AcDbEntity
  8
Visible (ANSI)
100
AcDbVertex
100
AcDb2dVertex
 10
109.3806511682527
 20
106.837472943382
 30
0.0
  0
VERTEX
  5
34D
330
336
100
AcDbEntity
  8
Visible (ANSI)
100
AcDbVertex
100
AcDb2dVertex
 10
109.3826426908465
 20
106.8360131458457
 30
0.0
  0
VERTEX
  5
34E
330
336
100
AcDbEntity
  8
Visible (ANSI)
100
AcDbVertex
100
AcDb2dVertex
 10
109.3846603198054
 20
106.8345533483094
 30
0.0
  0
VERTEX
  5
34F
330
336
100
AcDbEntity
  8
Visible (ANSI)
100
AcDbVertex
100
AcDb2dVertex
 10
109.3866954165624
 20
106.8330935507732
 30
0.0
  0
VERTEX
  5
350
330
336
100
AcDbEntity
  8
Visible (ANSI)
100
AcDbVertex
100
AcDb2dVertex
 10
109.3887392633517
 20
106.8316337532369
 30
0.0
  0
SEQEND
  5
339
330
336
100
AcDbEntity
  8
Visible (ANSI)
  0
LINE
  5
351
330
6C
100
AcDbEntity
  8
Visible (ANSI)
100
AcDbLine
 10
109.357489263821
 20
106.8666727388422
 30
0.0
 11
109.263739263821
 21
106.8666727388422
 31
0.0
  0
LINE
  5
352
330
6C
100
AcDbEntity
  8
Visible (ANSI)
100
AcDbLine
 10
109.3887392638211
 20
106.8316314781059
 30
0.0
 11
110.138739263821
 21
106.8316314781059
 31
0.0
  0
POLYLINE
  5
353
330
6C
100
AcDbEntity
  8
Visible (ANSI)
100
AcDb2dPolyline
 66
     1
 10
0.0
 20
0.0
 30
0.0
 70
   128
  0
VERTEX
  5
354
330
353
100
AcDbEntity
  8
Visible (ANSI)
100
AcDbVertex
100
AcDb2dVertex
 10
109.3887392633517
 20
106.9916708164751
 30
0.0
  0
VERTEX
  5
355
330
353
100
AcDbEntity
  8
Visible (ANSI)
100
AcDbVertex
100
AcDb2dVertex
 10
109.3805638732612
 20
106.9914064909952
 30
0.0
  0
VERTEX
  5
357
330
353
100
AcDbEntity
  8
Visible (ANSI)
100
AcDbVertex
100
AcDb2dVertex
 10
109.3724234891663
 20
106.9906014997612
 30
0.0
  0
VERTEX
  5
358
330
353
100
AcDbEntity
  8
Visible (ANSI)
100
AcDbVertex
100
AcDb2dVertex
 10
109.3643529733309
 20
106.9892738649648
 30
0.0
  0
VERTEX
  5
359
330
353
100
AcDbEntity
  8
Visible (ANSI)
100
AcDbVertex
100
AcDb2dVertex
 10
109.3563868831392
 20
106.9874115718115
 30
0.0
  0
VERTEX
  5
35A
330
353
100
AcDbEntity
  8
Visible (ANSI)
100
AcDbVertex
100
AcDb2dVertex
 10
109.3485593308471
 20
106.9850386498904
 30
0.0
  0
VERTEX
  5
35B
330
353
100
AcDbEntity
  8
Visible (ANSI)
100
AcDbVertex
100
AcDb2dVertex
 10
109.3409038343507
 20
106.9821550992014
 30
0.0
  0
VERTEX
  5
35C
330
353
100
AcDbEntity
  8
Visible (ANSI)
100
AcDbVertex
100
AcDb2dVertex
 10
109.3334531774879
 20
106.9787789419364
 30
0.0
  0
VERTEX
  5
35D
330
353
100
AcDbEntity
  8
Visible (ANSI)
100
AcDbVertex
100
AcDb2dVertex
 10
109.3262392642904
 20
106.9749282002872
 30
0.0
  0
VERTEX
  5
35E
330
353
100
AcDbEntity
  8
Visible (ANSI)
100
AcDbVertex
100
AcDb2dVertex
 10
109.3192929853344
 20
106.970608881651
 30
0.0
  0
VERTEX
  5
35F
330
353
100
AcDbEntity
  8
Visible (ANSI)
100
AcDbVertex
100
AcDb2dVertex
 10
109.3126440842764
 20
106.9658390082196
 30
0.0
  0
VERTEX
  5
360
330
353
100
AcDbEntity
  8
Visible (ANSI)
100
AcDbVertex
100
AcDb2dVertex
 10
109.3063210346541
 20
106.9606546243768
 30
0.0
  0
VERTEX
  5
361
330
353
100
AcDbEntity
  8
Visible (ANSI)
100
AcDbVertex
100
AcDb2dVertex
 10
109.3003509137548
 20
106.9550617375196
 30
0.0
  0
VERTEX
  5
362
330
353
100
AcDbEntity
  8
Visible (ANSI)
100
AcDbVertex
100
AcDb2dVertex
 10
109.2947592882164
 20
106.9490903846345
 30
0.0
  0
VERTEX
  5
363
330
353
100
AcDbEntity
  8
Visible (ANSI)
100
AcDbVertex
100
AcDb2dVertex
 10
109.2895700937624
 20
106.9427706027078
 30
0.0
  0
VERTEX
  5
364
330
353
100
AcDbEntity
  8
Visible (ANSI)
100
AcDbVertex
100
AcDb2dVertex
 10
109.2848055648027
 20
106.9361204139314
 30
0.0
  0
VERTEX
  5
365
330
353
100
AcDbEntity
  8
Visible (ANSI)
100
AcDbVertex
100
AcDb2dVertex
 10
109.2804860877683
 20
106.9291698552915
 30
0.0
  0
VERTEX
  5
366
330
353
100
AcDbEntity
  8
Visible (ANSI)
100
AcDbVertex
100
AcDb2dVertex
 10
109.2766301717788
 20
106.921960978569
 30
0.0
  0
VERTEX
  5
367
330
353
100
AcDbEntity
  8
Visible (ANSI)
100
AcDbVertex
100
AcDb2dVertex
 10
109.2732543195769
 20
106.9145057985586
 30
0.0
  0
VERTEX
  5
368
330
353
100
AcDbEntity
  8
Visible (ANSI)
100
AcDbVertex
100
AcDb2dVertex
 10
109.2703729981955
 20
106.9068523744383
 30
0.0
  0
VERTEX
  5
369
330
353
100
AcDbEntity
  8
Visible (ANSI)
100
AcDbVertex
100
AcDb2dVertex
 10
109.2679985333589
 20
106.8990247357971
 30
0.0
  0
VERTEX
  5
36A
330
353
100
AcDbEntity
  8
Visible (ANSI)
100
AcDbVertex
100
AcDb2dVertex
 10
109.2661411036161
 20
106.8910589270188
 30
0.0
  0
VERTEX
  5
36B
330
353
100
AcDbEntity
  8
Visible (ANSI)
100
AcDbVertex
100
AcDb2dVertex
 10
109.2648086582086
 20
106.882990992487
 30
0.0
  0
VERTEX
  5
36C
330
353
100
AcDbEntity
  8
Visible (ANSI)
100
AcDbVertex
100
AcDb2dVertex
 10
109.2640068994706
 20
106.8748509691879
 30
0.0
  0
VERTEX
  5
36D
330
353
100
AcDbEntity
  8
Visible (ANSI)
100
AcDbVertex
100
AcDb2dVertex
 10
109.263739265229
 20
106.8666749015052
 30
0.0
  0
SEQEND
  5
356
330
353
100
AcDbEntity
  8
Visible (ANSI)
  0
LINE
  5
36E
330
6C
100
AcDbEntity
  8
Visible (ANSI)
100
AcDbLine
 10
109.388739263821
 20
106.8979227388422
 30
0.0
 11
110.138739263821
 21
106.897922738842
 31
0.0
  0
LINE
  5
36F
330
6C
100
AcDbEntity
  8
Visible (ANSI)
100
AcDbLine
 10
110.138739263821
 20
106.991672738842
 30
0.0
 11
109.388739263821
 21
106.9916727388422
 31
0.0
  0
LINE
  5
370
330
6C
100
AcDbEntity
  8
Visible (ANSI)
100
AcDbLine
 10
109.388739263821
 20
106.8979227388422
 30
0.0
 11
109.388739263821
 21
106.9916727388422
 31
0.0
  0
LINE
  5
371
330
6C
100
AcDbEntity
  8
Visible (ANSI)
100
AcDbLine
 10
110.138739263821
 20
106.897922738842
 30
0.0
 11
110.138739263821
 21
106.991672738842
 31
0.0
  0
POLYLINE
  5
372
330
6C
100
AcDbEntity
  8
Visible (ANSI)
100
AcDb2dPolyline
 66
     1
 10
0.0
 20
0.0
 30
0.0
 70
   128
  0
VERTEX
  5
373
330
372
100
AcDbEntity
  8
Visible (ANSI)
100
AcDbVertex
100
AcDb2dVertex
 10
109.357489263821
 20
106.8666749015052
 30
0.0
  0
VERTEX
  5
374
330
372
100
AcDbEntity
  8
Visible (ANSI)
100
AcDbVertex
100
AcDb2dVertex
 10
109.3575561724674
 20
106.8687174165766
 30
0.0
  0
VERTEX
  5
376
330
372
100
AcDbEntity
  8
Visible (ANSI)
100
AcDbVertex
100
AcDb2dVertex
 10
109.3577566119055
 20
106.8707539242506
 30
0.0
  0
VERTEX
  5
377
330
372
100
AcDbEntity
  8
Visible (ANSI)
100
AcDbVertex
100
AcDb2dVertex
 10
109.3580897238303
 20
106.8727664023357
 30
0.0
  0
VERTEX
  5
378
330
372
100
AcDbEntity
  8
Visible (ANSI)
100
AcDbVertex
100
AcDb2dVertex
 10
109.3585540817702
 20
106.8747608582289
 30
0.0
  0
VERTEX
  5
379
330
372
100
AcDbEntity
  8
Visible (ANSI)
100
AcDbVertex
100
AcDb2dVertex
 10
109.359147697246
 20
106.8767192697385
 30
0.0
  0
VERTEX
  5
37A
330
372
100
AcDbEntity
  8
Visible (ANSI)
100
AcDbVertex
100
AcDb2dVertex
 10
109.359868028508
 20
106.8786296220699
 30
0.0
  0
VERTEX
  5
37B
330
372
100
AcDbEntity
  8
Visible (ANSI)
100
AcDbVertex
100
AcDb2dVertex
 10
109.3607119908251
 20
106.8804919152232
 30
0.0
  0
VERTEX
  5
37C
330
372
100
AcDbEntity
  8
Visible (ANSI)
100
AcDbVertex
100
AcDb2dVertex
 10
109.3616759698225
 20
106.8823001418011
 30
0.0
  0
VERTEX
  5
37D
330
372
100
AcDbEntity
  8
Visible (ANSI)
100
AcDbVertex
100
AcDb2dVertex
 10
109.3627558383478
 20
106.8840362796117
 30
0.0
  0
VERTEX
  5
37E
330
372
100
AcDbEntity
  8
Visible (ANSI)
100
AcDbVertex
100
AcDb2dVertex
 10
109.3639469716877
 20
106.8856943212579
 30
0.0
  0
VERTEX
  5
37F
330
372
100
AcDbEntity
  8
Visible (ANSI)
100
AcDbVertex
100
AcDb2dVertex
 10
109.3652442695679
 20
106.8872802741368
 30
0.0
  0
VERTEX
  5
380
330
372
100
AcDbEntity
  8
Visible (ANSI)
100
AcDbVertex
100
AcDb2dVertex
 10
109.3666421766858
 20
106.8887701086595
 30
0.0
  0
VERTEX
  5
381
330
372
100
AcDbEntity
  8
Visible (ANSI)
100
AcDbVertex
100
AcDb2dVertex
 10
109.3681347069106
 20
106.8901698322231
 30
0.0
  0
VERTEX
  5
382
330
372
100
AcDbEntity
  8
Visible (ANSI)
100
AcDbVertex
100
AcDb2dVertex
 10
109.3697154693162
 20
106.8914674300331
 30
0.0
  0
VERTEX
  5
383
330
372
100
AcDbEntity
  8
Visible (ANSI)
100
AcDbVertex
100
AcDb2dVertex
 10
109.3713776945807
 20
106.8926568946923
 30
0.0
  0
VERTEX
  5
384
330
372
100
AcDbEntity
  8
Visible (ANSI)
100
AcDbVertex
100
AcDb2dVertex
 10
109.3731142635864
 20
106.8937382262007
 30
0.0
  0
VERTEX
  5
385
330
372
100
AcDbEntity
  8
Visible (ANSI)
100
AcDbVertex
100
AcDb2dVertex
 10
109.3749177426191
 20
106.8946994097637
 30
0.0
  0
VERTEX
  5
386
330
372
100
AcDbEntity
  8
Visible (ANSI)
100
AcDbVertex
100
AcDb2dVertex
 10
109.3767804068348
 20
106.8955464527785
 30
0.0
  0
VERTEX
  5
387
330
372
100
AcDbEntity
  8
Visible (ANSI)
100
AcDbVertex
100
AcDb2dVertex
 10
109.3786942805922
 20
106.8962613330535
 30
0.0
  0
VERTEX
  5
388
330
372
100
AcDbEntity
  8
Visible (ANSI)
100
AcDbVertex
100
AcDb2dVertex
 10
109.3806511682527
 20
106.8968560653831
 30
0.0
  0
VERTEX
  5
389
330
372
100
AcDbEntity
  8
Visible (ANSI)
100
AcDbVertex
100
AcDb2dVertex
 10
109.3826426908465
 20
106.8973246423701
 30
0.0
  0
VERTEX
  5
38A
330
372
100
AcDbEntity
  8
Visible (ANSI)
100
AcDbVertex
100
AcDb2dVertex
 10
109.3846603198053
 20
106.8976550492199
 30
0.0
  0
VERTEX
  5
38B
330
372
100
AcDbEntity
  8
Visible (ANSI)
100
AcDbVertex
100
AcDb2dVertex
 10
109.3866954165624
 20
106.8978532933297
 30
0.0
  0
VERTEX
  5
38C
330
372
100
AcDbEntity
  8
Visible (ANSI)
100
AcDbVertex
100
AcDb2dVertex
 10
109.3887392633517
 20
106.897925382097
 30
0.0
  0
SEQEND
  5
375
330
372
100
AcDbEntity
  8
Visible (ANSI)
  0
POLYLINE
  5
38D
330
6C
100
AcDbEntity
  8
Visible (ANSI)
100
AcDb2dPolyline
 66
     1
 10
0.0
 20
0.0
 30
0.0
 70
   128
  0
VERTEX
  5
38E
330
38D
100
AcDbEntity
  8
Visible (ANSI)
100
AcDbVertex
100
AcDb2dVertex
 10
109.263739265229
 20
29.11667273696489
 30
0.0
  0
VERTEX
  5
38F
330
38D
100
AcDbEntity
  8
Visible (ANSI)
100
AcDbVertex
100
AcDb2dVertex
 10
109.2640068994706
 20
29.10849734980766
 30
0.0
  0
VERTEX
  5
391
330
38D
100
AcDbEntity
  8
Visible (ANSI)
100
AcDbVertex
100
AcDb2dVertex
 10
109.2648086582086
 20
29.10035696277944
 30
0.0
  0
VERTEX
  5
392
330
38D
100
AcDbEntity
  8
Visible (ANSI)
100
AcDbVertex
100
AcDb2dVertex
 10
109.2661411036161
 20
29.09228644694406
 30
0.0
  0
VERTEX
  5
393
330
38D
100
AcDbEntity
  8
Visible (ANSI)
100
AcDbVertex
100
AcDb2dVertex
 10
109.2679985333589
 20
29.08432035656901
 30
0.0
  0
VERTEX
  5
394
330
38D
100
AcDbEntity
  8
Visible (ANSI)
100
AcDbVertex
100
AcDb2dVertex
 10
109.2703729981955
 20
29.07649280592688
 30
0.0
  0
VERTEX
  5
395
330
38D
100
AcDbEntity
  8
Visible (ANSI)
100
AcDbVertex
100
AcDb2dVertex
 10
109.2732543195769
 20
29.06883731089715
 30
0.0
  0
VERTEX
  5
396
330
38D
100
AcDbEntity
  8
Visible (ANSI)
100
AcDbVertex
100
AcDb2dVertex
 10
109.2766301717788
 20
29.06138665403444
 30
0.0
  0
VERTEX
  5
397
330
38D
100
AcDbEntity
  8
Visible (ANSI)
100
AcDbVertex
100
AcDb2dVertex
 10
109.2804860877683
 20
29.05417273790354
 30
0.0
  0
VERTEX
  5
398
330
38D
100
AcDbEntity
  8
Visible (ANSI)
100
AcDbVertex
100
AcDb2dVertex
 10
109.2848055648027
 20
29.04722646188086
 30
0.0
  0
VERTEX
  5
399
330
38D
100
AcDbEntity
  8
Visible (ANSI)
100
AcDbVertex
100
AcDb2dVertex
 10
109.2895700937624
 20
29.04057756082286
 30
0.0
  0
VERTEX
  5
39A
330
38D
100
AcDbEntity
  8
Visible (ANSI)
100
AcDbVertex
100
AcDb2dVertex
 10
109.2947592882164
 20
29.0342545112006
 30
0.0
  0
VERTEX
  5
39B
330
38D
100
AcDbEntity
  8
Visible (ANSI)
100
AcDbVertex
100
AcDb2dVertex
 10
109.3003509137548
 20
29.02828439030128
 30
0.0
  0
VERTEX
  5
39C
330
38D
100
AcDbEntity
  8
Visible (ANSI)
100
AcDbVertex
100
AcDb2dVertex
 10
109.3063210346541
 20
29.02269276182958
 30
0.0
  0
VERTEX
  5
39D
330
38D
100
AcDbEntity
  8
Visible (ANSI)
100
AcDbVertex
100
AcDb2dVertex
 10
109.3126440842764
 20
29.0175035703089
 30
0.0
  0
VERTEX
  5
39E
330
38D
100
AcDbEntity
  8
Visible (ANSI)
100
AcDbVertex
100
AcDb2dVertex
 10
109.3192929853344
 20
29.01273903694919
 30
0.0
  0
VERTEX
  5
39F
330
38D
100
AcDbEntity
  8
Visible (ANSI)
100
AcDbVertex
100
AcDb2dVertex
 10
109.3262392642904
 20
29.00841956284813
 30
0.0
  0
VERTEX
  5
3A0
330
38D
100
AcDbEntity
  8
Visible (ANSI)
100
AcDbVertex
100
AcDb2dVertex
 10
109.3334531774879
 20
29.00456364685867
 30
0.0
  0
VERTEX
  5
3A1
330
38D
100
AcDbEntity
  8
Visible (ANSI)
100
AcDbVertex
100
AcDb2dVertex
 10
109.3409038343507
 20
29.0011877975901
 30
0.0
  0
VERTEX
  5
3A2
330
38D
100
AcDbEntity
  8
Visible (ANSI)
100
AcDbVertex
100
AcDb2dVertex
 10
109.3485593308471
 20
28.99830647254208
 30
0.0
  0
VERTEX
  5
3A3
330
38D
100
AcDbEntity
  8
Visible (ANSI)
100
AcDbVertex
100
AcDb2dVertex
 10
109.3563868831392
 20
28.99593201063873
 30
0.0
  0
VERTEX
  5
3A4
330
38D
100
AcDbEntity
  8
Visible (ANSI)
100
AcDbVertex
100
AcDb2dVertex
 10
109.3643529733309
 20
28.99407457887928
 30
0.0
  0
VERTEX
  5
3A5
330
38D
100
AcDbEntity
  8
Visible (ANSI)
100
AcDbVertex
100
AcDb2dVertex
 10
109.3724234891663
 20
28.99274213118016
 30
0.0
  0
VERTEX
  5
3A6
330
38D
100
AcDbEntity
  8
Visible (ANSI)
100
AcDbVertex
100
AcDb2dVertex
 10
109.3805638732612
 20
28.99194037342755
 30
0.0
  0
VERTEX
  5
3A7
330
38D
100
AcDbEntity
  8
Visible (ANSI)
100
AcDbVertex
100
AcDb2dVertex
 10
109.3887392633517
 20
28.9916727388422
 30
0.0
  0
SEQEND
  5
390
330
38D
100
AcDbEntity
  8
Visible (ANSI)
  0
LINE
  5
3A8
330
6C
100
AcDbEntity
  8
Visible (ANSI)
100
AcDbLine
 10
109.388739263821
 20
29.0854227388422
 30
0.0
 11
110.138739263821
 21
29.0854227388422
 31
0.0
  0
LINE
  5
3A9
330
6C
100
AcDbEntity
  8
Visible (ANSI)
100
AcDbLine
 10
109.388739263821
 20
29.0854227388422
 30
0.0
 11
109.388739263821
 21
28.9916727388422
 31
0.0
  0
POLYLINE
  5
3AA
330
6C
100
AcDbEntity
  8
Visible (ANSI)
100
AcDb2dPolyline
 66
     1
 10
0.0
 20
0.0
 30
0.0
 70
   128
  0
VERTEX
  5
3AB
330
3AA
100
AcDbEntity
  8
Visible (ANSI)
100
AcDbVertex
100
AcDb2dVertex
 10
109.357489263821
 20
29.11667273696489
 30
0.0
  0
VERTEX
  5
3AC
330
3AA
100
AcDbEntity
  8
Visible (ANSI)
100
AcDbVertex
100
AcDb2dVertex
 10
109.3575561724674
 20
29.11462889604218
 30
0.0
  0
VERTEX
  5
3AE
330
3AA
100
AcDbEntity
  8
Visible (ANSI)
100
AcDbVertex
100
AcDb2dVertex
 10
109.3577566119055
 20
29.11259379635183
 30
0.0
  0
VERTEX
  5
3AF
330
3AA
100
AcDbEntity
  8
Visible (ANSI)
100
AcDbVertex
100
AcDb2dVertex
 10
109.3580897238303
 20
29.11057616739298
 30
0.0
  0
VERTEX
  5
3B0
330
3AA
100
AcDbEntity
  8
Visible (ANSI)
100
AcDbVertex
100
AcDb2dVertex
 10
109.3585540817702
 20
29.10858464479922
 30
0.0
  0
VERTEX
  5
3B1
330
3AA
100
AcDbEntity
  8
Visible (ANSI)
100
AcDbVertex
100
AcDb2dVertex
 10
109.359147697246
 20
29.10662775860534
 30
0.0
  0
VERTEX
  5
3B2
330
3AA
100
AcDbEntity
  8
Visible (ANSI)
100
AcDbVertex
100
AcDb2dVertex
 10
109.359868028508
 20
29.10471388631455
 30
0.0
  0
VERTEX
  5
3B3
330
3AA
100
AcDbEntity
  8
Visible (ANSI)
100
AcDbVertex
100
AcDb2dVertex
 10
109.3607119908251
 20
29.10285121769893
 30
0.0
  0
VERTEX
  5
3B4
330
3AA
100
AcDbEntity
  8
Visible (ANSI)
100
AcDbVertex
100
AcDb2dVertex
 10
109.3616759698225
 20
29.10104774306615
 30
0.0
  0
VERTEX
  5
3B5
330
3AA
100
AcDbEntity
  8
Visible (ANSI)
100
AcDbVertex
100
AcDb2dVertex
 10
109.3627558383478
 20
29.09931117112718
 30
0.0
  0
VERTEX
  5
3B6
330
3AA
100
AcDbEntity
  8
Visible (ANSI)
100
AcDbVertex
100
AcDb2dVertex
 10
109.3639469716877
 20
29.09764894072941
 30
0.0
  0
VERTEX
  5
3B7
330
3AA
100
AcDbEntity
  8
Visible (ANSI)
100
AcDbVertex
100
AcDb2dVertex
 10
109.3652442695679
 20
29.09606818565709
 30
0.0
  0
VERTEX
  5
3B8
330
3AA
100
AcDbEntity
  8
Visible (ANSI)
100
AcDbVertex
100
AcDb2dVertex
 10
109.3666421766858
 20
29.09457565249896
 30
0.0
  0
VERTEX
  5
3B9
330
3AA
100
AcDbEntity
  8
Visible (ANSI)
100
AcDbVertex
100
AcDb2dVertex
 10
109.3681347069106
 20
29.09317774758101
 30
0.0
  0
VERTEX
  5
3BA
330
3AA
100
AcDbEntity
  8
Visible (ANSI)
100
AcDbVertex
100
AcDb2dVertex
 10
109.3697154693162
 20
29.09188044310092
 30
0.0
  0
VERTEX
  5
3BB
330
3AA
100
AcDbEntity
  8
Visible (ANSI)
100
AcDbVertex
100
AcDb2dVertex
 10
109.3713776945807
 20
29.09068931232763
 30
0.0
  0
VERTEX
  5
3BC
330
3AA
100
AcDbEntity
  8
Visible (ANSI)
100
AcDbVertex
100
AcDb2dVertex
 10
109.3731142635864
 20
29.08960944746898
 30
0.0
  0
VERTEX
  5
3BD
330
3AA
100
AcDbEntity
  8
Visible (ANSI)
100
AcDbVertex
100
AcDb2dVertex
 10
109.3749177426191
 20
29.08864546553832
 30
0.0
  0
VERTEX
  5
3BE
330
3AA
100
AcDbEntity
  8
Visible (ANSI)
100
AcDbVertex
100
AcDb2dVertex
 10
109.3767804068348
 20
29.08780150248786
 30
0.0
  0
VERTEX
  5
3BF
330
3AA
100
AcDbEntity
  8
Visible (ANSI)
100
AcDbVertex
100
AcDb2dVertex
 10
109.3786942805922
 20
29.08708117214251
 30
0.0
  0
VERTEX
  5
3C0
330
3AA
100
AcDbEntity
  8
Visible (ANSI)
100
AcDbVertex
100
AcDb2dVertex
 10
109.3806511682527
 20
29.0864875544667
 30
0.0
  0
VERTEX
  5
3C1
330
3AA
100
AcDbEntity
  8
Visible (ANSI)
100
AcDbVertex
100
AcDb2dVertex
 10
109.3826426908465
 20
29.08602320143094
 30
0.0
  0
VERTEX
  5
3C2
330
3AA
100
AcDbEntity
  8
Visible (ANSI)
100
AcDbVertex
100
AcDb2dVertex
 10
109.3846603198053
 20
29.08569008421247
 30
0.0
  0
VERTEX
  5
3C3
330
3AA
100
AcDbEntity
  8
Visible (ANSI)
100
AcDbVertex
100
AcDb2dVertex
 10
109.3866954165624
 20
29.08548964599462
 30
0.0
  0
VERTEX
  5
3C4
330
3AA
100
AcDbEntity
  8
Visible (ANSI)
100
AcDbVertex
100
AcDb2dVertex
 10
109.3887392633517
 20
29.08542273743422
 30
0.0
  0
SEQEND
  5
3AD
330
3AA
100
AcDbEntity
  8
Visible (ANSI)
  0
LINE
  5
3C5
330
6C
100
AcDbEntity
  8
Visible (ANSI)
100
AcDbLine
 10
109.388739263821
 20
28.9916727388422
 30
0.0
 11
110.138739263821
 21
28.9916727388422
 31
0.0
  0
LINE
  5
3C6
330
6C
100
AcDbEntity
  8
Visible (ANSI)
100
AcDbLine
 10
110.138739263821
 20
29.0854227388422
 30
0.0
 11
110.138739263821
 21
28.9916727388422
 31
0.0
  0
LINE
  5
3C7
330
6C
100
AcDbEntity
  8
Visible (ANSI)
100
AcDbLine
 10
109.263739263821
 20
29.1166727388422
 30
0.0
 11
109.263739263821
 21
106.8666727388422
 31
0.0
  0
LINE
  5
3C8
330
6C
100
AcDbEntity
  8
Hidden (ANSI)
 48
1.071649551391601
100
AcDbLine
 10
109.357489263821
 20
106.8666727388422
 30
0.0
 11
109.357489263821
 21
29.1166727388422
 31
0.0
  0
LINE
  5
3C9
330
6C
100
AcDbEntity
  8
Visible (ANSI)
100
AcDbLine
 10
110.138739263821
 20
106.8316314781059
 30
0.0
 11
110.138739263821
 21
29.15171399957842
 31
0.0
  0
LINE
  5
3CA
330
6C
100
AcDbEntity
  8
Hidden (ANSI)
 48
0.0136357927694917
100
AcDbLine
 10
109.3574892638208
 20
29.5851727388422
 30
0.0
 11
109.2637392638208
 21
29.5851727388422
 31
0.0
  0
LINE
  5
3CB
330
6C
100
AcDbEntity
  8
Hidden (ANSI)
 48
0.0136357927694917
100
AcDbLine
 10
109.3574892638208
 20
30.1481727388422
 30
0.0
 11
109.2637392638208
 21
30.1481727388422
 31
0.0
  0
LINE
  5
3CC
330
6C
100
AcDbEntity
  8
Hidden (ANSI)
 48
0.0136357927694917
100
AcDbLine
 10
109.3574892638208
 20
105.8351727388422
 30
0.0
 11
109.2637392638208
 21
105.8351727388422
 31
0.0
  0
LINE
  5
3CD
330
6C
100
AcDbEntity
  8
Hidden (ANSI)
 48
0.0136357927694917
100
AcDbLine
 10
109.3574892638208
 20
106.3981727388422
 30
0.0
 11
109.2637392638208
 21
106.3981727388422
 31
0.0
  0
MTEXT
  5
3CE
330
6C
100
AcDbEntity
  8
Symbol (ANSI)
100
AcDbMText
 10
104.6121957628884
 20
22.59227668546552
 30
0.0
 40
1.56000001927999
 41
0.0
 71
     7
 72
     1
  1
SIDE VIEW
  7
Text Style153
 73
     1
 44
1.0
  0
LINE
  5
3CF
330
6C
100
AcDbEntity
  8
Symbol (ANSI)
370
    30
100
AcDbLine
 10
104.5323235574284
 20
22.26908867532432
 30
0.0
 11
115.0743332226999
 21
22.26908867532432
 31
0.0
  0
ELLIPSE
  5
3D0
330
6C
100
AcDbEntity
  8
Visible (ANSI)
100
AcDbEllipse
 10
179.0209510750008
 20
27.58080074558387
 30
0.0
 11
-0.1521840315244276
 21
0.2642718403811053
 31
0.0
210
0.0
220
0.0
230
1.0
 40
0.578093115915809
 41
0.0
 42
6.283185307179586
  0
ELLIPSE
  5
3D1
330
6C
100
AcDbEntity
  8
Visible (ANSI)
100
AcDbEllipse
 10
179.092766607465
 20
27.62215656026591
 30
0.0
 11
-0.1521840315244281
 21
0.2642718403811062
 31
0.0
210
0.0
220
0.0
230
0.9999999999999998
 40
0.578093115915809
 41
0.2372585647783909
 42
2.904334088811481
  0
ELLIPSE
  5
3D2
330
6C
100
AcDbEntity
  8
Visible (ANSI)
100
AcDbEllipse
 10
179.0209510750009
 20
95.11359970393092
 30
0.0
 11
-0.1521840315244276
 21
0.2642718403811053
 31
0.0
210
0.0
220
0.0
230
1.0
 40
0.578093115915809
 41
0.0
 42
6.283185307179586
  0
ELLIPSE
  5
3D3
330
6C
100
AcDbEntity
  8
Visible (ANSI)
100
AcDbEllipse
 10
179.0927666074652
 20
95.15495551861297
 30
0.0
 11
-0.1521840315244302
 21
0.2642718403811097
 31
0.0
210
0.0
220
0.0
230
0.9999999999999998
 40
0.578093115915809
 41
0.2372585647783287
 42
2.904334088811472
  0
ELLIPSE
  5
3D4
330
6C
100
AcDbEntity
  8
Visible (ANSI)
100
AcDbEllipse
 10
156.6145049461487
 20
40.48381492637666
 30
0.0
 11
-0.1521840315244276
 21
0.2642718403811053
 31
0.0
210
0.0
220
0.0
230
1.0
 40
0.578093115915809
 41
0.0
 42
6.283185307179586
  0
ELLIPSE
  5
3D5
330
6C
100
AcDbEntity
  8
Visible (ANSI)
100
AcDbEllipse
 10
156.686320478613
 20
40.5251707410587
 30
0.0
 11
-0.1521840315244276
 21
0.2642718403811052
 31
0.0
210
0.0
220
0.0
230
0.9999999999999998
 40
0.578093115915809
 41
0.2372585647784246
 42
2.904334088811388
  0
ELLIPSE
  5
3D6
330
6C
100
AcDbEntity
  8
Visible (ANSI)
100
AcDbEllipse
 10
156.6145049461489
 20
108.0166138847237
 30
0.0
 11
-0.1521840315244276
 21
0.2642718403811053
 31
0.0
210
0.0
220
0.0
230
1.0
 40
0.578093115915809
 41
0.0
 42
6.283185307179586
  0
ELLIPSE
  5
3D7
330
6C
100
AcDbEntity
  8
Visible (ANSI)
100
AcDbEllipse
 10
156.6863204786131
 20
108.0579696994057
 30
0.0
 11
-0.1521840315244283
 21
0.2642718403811064
 31
0.0
210
0.0
220
0.0
230
1.0
 40
0.578093115915809
 41
0.2372585647784087
 42
2.904334088811378
  0
LINE
  5
3D8
330
6C
100
AcDbEntity
  8
Visible Narrow (ANSI)
100
AcDbLine
 10
179.7869834212864
 20
95.41597501994633
 30
0.0
 11
179.7869834212862
 21
26.61673239465599
 31
0.0
  0
LINE
  5
3D9
330
6C
100
AcDbEntity
  8
Visible Narrow (ANSI)
100
AcDbLine
 10
179.5954753347149
 20
26.58569718919307
 30
0.0
 11
179.595475334715
 21
95.44701022540925
 31
0.0
  0
LINE
  5
3DA
330
6C
100
AcDbEntity
  8
Visible Narrow (ANSI)
100
AcDbLine
 10
156.162577468899
 20
109.1621103284038
 30
0.0
 11
179.6643866388222
 21
95.62831852358355
 31
0.0
  0
LINE
  5
3DB
330
6C
100
AcDbEntity
  8
Visible Narrow (ANSI)
100
AcDbLine
 10
179.595475334715
 20
95.44701022540925
 30
0.0
 11
156.0399806864348
 21
109.0117174411145
 31
0.0
  0
LINE
  5
3DC
330
6C
100
AcDbEntity
  8
Visible Narrow (ANSI)
100
AcDbLine
 10
156.0399806864348
 20
109.0117174411145
 30
0.0
 11
156.0399806864346
 21
40.15040440489832
 31
0.0
  0
LINE
  5
3DD
330
6C
100
AcDbEntity
  8
Visible Narrow (ANSI)
100
AcDbLine
 10
156.0399806864346
 20
40.15040440489832
 30
0.0
 11
179.5954753347149
 21
26.58569718919307
 31
0.0
  0
LINE
  5
3DE
330
6C
100
AcDbEntity
  8
Visible (ANSI)
100
AcDbLine
 10
156.0003180630537
 20
109.0513409246258
 30
0.0
 11
156.0003180630536
 21
40.2210630938725
 31
0.0
  0
LINE
  5
3DF
330
6C
100
AcDbEntity
  8
Visible (ANSI)
100
AcDbLine
 10
156.081611865063
 20
40.08044776910088
 30
0.0
 11
179.6101976853537
 21
26.53123631685327
 31
0.0
  0
POLYLINE
  5
3E0
330
6C
100
AcDbEntity
  8
Visible (ANSI)
100
AcDb2dPolyline
 66
     1
 10
0.0
 20
0.0
 30
0.0
 70
   128
  0
VERTEX
  5
3E1
330
3E0
100
AcDbEntity
  8
Visible (ANSI)
100
AcDbVertex
100
AcDb2dVertex
 10
179.5954755198681
 20
95.44701203544777
 30
0.0
  0
VERTEX
  5
3E2
330
3E0
100
AcDbEntity
  8
Visible (ANSI)
100
AcDbVertex
100
AcDb2dVertex
 10
179.6019436686645
 20
95.44223049084587
 30
0.0
  0
VERTEX
  5
3E4
330
3E0
100
AcDbEntity
  8
Visible (ANSI)
100
AcDbVertex
100
AcDb2dVertex
 10
179.6087933629384
 20
95.43770046409507
 30
0.0
  0
VERTEX
  5
3E5
330
3E0
100
AcDbEntity
  8
Visible (ANSI)
100
AcDbVertex
100
AcDb2dVertex
 10
179.6159966589696
 20
95.43343501386534
 30
0.0
  0
VERTEX
  5
3E6
330
3E0
100
AcDbEntity
  8
Visible (ANSI)
100
AcDbVertex
100
AcDb2dVertex
 10
179.623521577422
 20
95.42944220429731
 30
0.0
  0
VERTEX
  5
3E7
330
3E0
100
AcDbEntity
  8
Visible (ANSI)
100
AcDbVertex
100
AcDb2dVertex
 10
179.6313367186861
 20
95.42574374516236
 30
0.0
  0
VERTEX
  5
3E8
330
3E0
100
AcDbEntity
  8
Visible (ANSI)
100
AcDbVertex
100
AcDb2dVertex
 10
179.6394066745003
 20
95.42234572601437
 30
0.0
  0
VERTEX
  5
3E9
330
3E0
100
AcDbEntity
  8
Visible (ANSI)
100
AcDbVertex
100
AcDb2dVertex
 10
179.6477012945883
 20
95.41925463478142
 30
0.0
  0
VERTEX
  5
3EA
330
3E0
100
AcDbEntity
  8
Visible (ANSI)
100
AcDbVertex
100
AcDb2dVertex
 10
179.6561818855712
 20
95.41647998985203
 30
0.0
  0
VERTEX
  5
3EB
330
3E0
100
AcDbEntity
  8
Visible (ANSI)
100
AcDbVertex
100
AcDb2dVertex
 10
179.6648104955809
 20
95.41402908658701
 30
0.0
  0
VERTEX
  5
3EC
330
3E0
100
AcDbEntity
  8
Visible (ANSI)
100
AcDbVertex
100
AcDb2dVertex
 10
179.6735545385905
 20
95.41190436022386
 30
0.0
  0
VERTEX
  5
3ED
330
3E0
100
AcDbEntity
  8
Visible (ANSI)
100
AcDbVertex
100
AcDb2dVertex
 10
179.6823730877011
 20
95.41011139291699
 30
0.0
  0
VERTEX
  5
3EE
330
3E0
100
AcDbEntity
  8
Visible (ANSI)
100
AcDbVertex
100
AcDb2dVertex
 10
179.6912284022625
 20
95.4086523015891
 30
0.0
  0
VERTEX
  5
3EF
330
3E0
100
AcDbEntity
  8
Visible (ANSI)
100
AcDbVertex
100
AcDb2dVertex
 10
179.7000860402243
 20
95.40752580262941
 30
0.0
  0
VERTEX
  5
3F0
330
3E0
100
AcDbEntity
  8
Visible (ANSI)
100
AcDbVertex
100
AcDb2dVertex
 10
179.708905708342
 20
95.40673254301912
 30
0.0
  0
VERTEX
  5
3F1
330
3E0
100
AcDbEntity
  8
Visible (ANSI)
100
AcDbVertex
100
AcDb2dVertex
 10
179.7176482570951
 20
95.40627117833114
 30
0.0
  0
VERTEX
  5
3F2
330
3E0
100
AcDbEntity
  8
Visible (ANSI)
100
AcDbVertex
100
AcDb2dVertex
 10
179.726278069251
 20
95.40613709817703
 30
0.0
  0
VERTEX
  5
3F3
330
3E0
100
AcDbEntity
  8
Visible (ANSI)
100
AcDbVertex
100
AcDb2dVertex
 10
179.7347585546248
 20
95.40632513188235
 30
0.0
  0
VERTEX
  5
3F4
330
3E0
100
AcDbEntity
  8
Visible (ANSI)
100
AcDbVertex
100
AcDb2dVertex
 10
179.7430499435235
 20
95.40683092785119
 30
0.0
  0
VERTEX
  5
3F5
330
3E0
100
AcDbEntity
  8
Visible (ANSI)
100
AcDbVertex
100
AcDb2dVertex
 10
179.7511231945665
 20
95.40764306233516
 30
0.0
  0
VERTEX
  5
3F6
330
3E0
100
AcDbEntity
  8
Visible (ANSI)
100
AcDbVertex
100
AcDb2dVertex
 10
179.7589370877613
 20
95.40875634856629
 30
0.0
  0
VERTEX
  5
3F7
330
3E0
100
AcDbEntity
  8
Visible (ANSI)
100
AcDbVertex
100
AcDb2dVertex
 10
179.766463646385
 20
95.41015732585661
 30
0.0
  0
VERTEX
  5
3F8
330
3E0
100
AcDbEntity
  8
Visible (ANSI)
100
AcDbVertex
100
AcDb2dVertex
 10
179.7736652346945
 20
95.41183757139959
 30
0.0
  0
VERTEX
  5
3F9
330
3E0
100
AcDbEntity
  8
Visible (ANSI)
100
AcDbVertex
100
AcDb2dVertex
 10
179.7805153806158
 20
95.41378184094163
 30
0.0
  0
VERTEX
  5
3FA
330
3E0
100
AcDbEntity
  8
Visible (ANSI)
100
AcDbVertex
100
AcDb2dVertex
 10
179.7869827766664
 20
95.41597740577321
 30
0.0
  0
SEQEND
  5
3E3
330
3E0
100
AcDbEntity
  8
Visible (ANSI)
  0
POLYLINE
  5
3FB
330
6C
100
AcDbEntity
  8
Visible (ANSI)
100
AcDb2dPolyline
 66
     1
 10
0.0
 20
0.0
 30
0.0
 70
   128
  0
VERTEX
  5
3FC
330
3FB
100
AcDbEntity
  8
Visible (ANSI)
100
AcDbVertex
100
AcDb2dVertex
 10
179.7869827766663
 20
26.61673276809921
 30
0.0
  0
VERTEX
  5
3FD
330
3FB
100
AcDbEntity
  8
Visible (ANSI)
100
AcDbVertex
100
AcDb2dVertex
 10
179.7805153806156
 20
26.61195115921068
 30
0.0
  0
VERTEX
  5
3FF
330
3FB
100
AcDbEntity
  8
Visible (ANSI)
100
AcDbVertex
100
AcDb2dVertex
 10
179.7736652346943
 20
26.60742084561168
 30
0.0
  0
VERTEX
  5
400
330
3FB
100
AcDbEntity
  8
Visible (ANSI)
100
AcDbVertex
100
AcDb2dVertex
 10
179.7664636463848
 20
26.60315456640356
 30
0.0
  0
VERTEX
  5
401
330
3FB
100
AcDbEntity
  8
Visible (ANSI)
100
AcDbVertex
100
AcDb2dVertex
 10
179.7589370877612
 20
26.59916754505629
 30
0.0
  0
VERTEX
  5
402
330
3FB
100
AcDbEntity
  8
Visible (ANSI)
100
AcDbVertex
100
AcDb2dVertex
 10
179.7511231945663
 20
26.59546821476821
 30
0.0
  0
VERTEX
  5
403
330
3FB
100
AcDbEntity
  8
Visible (ANSI)
100
AcDbVertex
100
AcDb2dVertex
 10
179.7430499435233
 20
26.59207003622731
 30
0.0
  0
VERTEX
  5
404
330
3FB
100
AcDbEntity
  8
Visible (ANSI)
100
AcDbVertex
100
AcDb2dVertex
 10
179.7347585546246
 20
26.58897820659337
 30
0.0
  0
VERTEX
  5
405
330
3FB
100
AcDbEntity
  8
Visible (ANSI)
100
AcDbVertex
100
AcDb2dVertex
 10
179.7262780692508
 20
26.58620412883108
 30
0.0
  0
VERTEX
  5
406
330
3FB
100
AcDbEntity
  8
Visible (ANSI)
100
AcDbVertex
100
AcDb2dVertex
 10
179.717648257095
 20
26.58375216492827
 30
0.0
  0
VERTEX
  5
407
330
3FB
100
AcDbEntity
  8
Visible (ANSI)
100
AcDbVertex
100
AcDb2dVertex
 10
179.7089057083418
 20
26.58162748555926
 30
0.0
  0
VERTEX
  5
408
330
3FB
100
AcDbEntity
  8
Visible (ANSI)
100
AcDbVertex
100
AcDb2dVertex
 10
179.7000860402242
 20
26.57983471150442
 30
0.0
  0
VERTEX
  5
409
330
3FB
100
AcDbEntity
  8
Visible (ANSI)
100
AcDbVertex
100
AcDb2dVertex
 10
179.6912284022623
 20
26.57837516640719
 30
0.0
  0
VERTEX
  5
40A
330
3FB
100
AcDbEntity
  8
Visible (ANSI)
100
AcDbVertex
100
AcDb2dVertex
 10
179.6823730877008
 20
26.57724821367812
 30
0.0
  0
VERTEX
  5
40B
330
3FB
100
AcDbEntity
  8
Visible (ANSI)
100
AcDbVertex
100
AcDb2dVertex
 10
179.6735545385903
 20
26.57645513692805
 30
0.0
  0
VERTEX
  5
40C
330
3FB
100
AcDbEntity
  8
Visible (ANSI)
100
AcDbVertex
100
AcDb2dVertex
 10
179.6648104955807
 20
26.57599382962607
 30
0.0
  0
VERTEX
  5
40D
330
3FB
100
AcDbEntity
  8
Visible (ANSI)
100
AcDbVertex
100
AcDb2dVertex
 10
179.6561818855711
 20
26.57585868883415
 30
0.0
  0
VERTEX
  5
40E
330
3FB
100
AcDbEntity
  8
Visible (ANSI)
100
AcDbVertex
100
AcDb2dVertex
 10
179.6477012945881
 20
26.57604728970659
 30
0.0
  0
VERTEX
  5
40F
330
3FB
100
AcDbEntity
  8
Visible (ANSI)
100
AcDbVertex
100
AcDb2dVertex
 10
179.6394066745001
 20
26.57655234727439
 30
0.0
  0
VERTEX
  5
410
330
3FB
100
AcDbEntity
  8
Visible (ANSI)
100
AcDbVertex
100
AcDb2dVertex
 10
179.6313367186859
 20
26.57736432236548
 30
0.0
  0
VERTEX
  5
411
330
3FB
100
AcDbEntity
  8
Visible (ANSI)
100
AcDbVertex
100
AcDb2dVertex
 10
179.6235215774218
 20
26.57847673744346
 30
0.0
  0
VERTEX
  5
412
330
3FB
100
AcDbEntity
  8
Visible (ANSI)
100
AcDbVertex
100
AcDb2dVertex
 10
179.6159966589694
 20
26.57987818234664
 30
0.0
  0
VERTEX
  5
413
330
3FB
100
AcDbEntity
  8
Visible (ANSI)
100
AcDbVertex
100
AcDb2dVertex
 10
179.6087933629381
 20
26.58155759891125
 30
0.0
  0
VERTEX
  5
414
330
3FB
100
AcDbEntity
  8
Visible (ANSI)
100
AcDbVertex
100
AcDb2dVertex
 10
179.6019436686643
 20
26.58350158160511
 30
0.0
  0
VERTEX
  5
415
330
3FB
100
AcDbEntity
  8
Visible (ANSI)
100
AcDbVertex
100
AcDb2dVertex
 10
179.5954755198679
 20
26.58569708215007
 30
0.0
  0
SEQEND
  5
3FE
330
3FB
100
AcDbEntity
  8
Visible (ANSI)
  0
LINE
  5
416
330
6C
100
AcDbEntity
  8
Visible (ANSI)
100
AcDbLine
 10
179.7151678888222
 20
95.45733083462838
 30
0.0
 11
180.2896921485362
 21
95.78817735208467
 31
0.0
  0
LINE
  5
417
330
6C
100
AcDbEntity
  8
Visible (ANSI)
100
AcDbLine
 10
180.3615076810003
 20
26.94757891211228
 30
0.0
 11
179.7869834212862
 21
26.61673239465599
 31
0.0
  0
LINE
  5
418
330
6C
100
AcDbEntity
  8
Visible (ANSI)
100
AcDbLine
 10
179.7151678888222
 20
95.45733083462838
 30
0.0
 11
179.7869834212864
 21
95.41597501994633
 31
0.0
  0
POLYLINE
  5
419
330
6C
100
AcDbEntity
  8
Visible (ANSI)
100
AcDb2dPolyline
 66
     1
 10
0.0
 20
0.0
 30
0.0
 70
   128
  0
VERTEX
  5
41A
330
419
100
AcDbEntity
  8
Visible (ANSI)
100
AcDbVertex
100
AcDb2dVertex
 10
179.6672910512538
 20
95.48836784950871
 30
0.0
  0
VERTEX
  5
41B
330
419
100
AcDbEntity
  8
Visible (ANSI)
100
AcDbVertex
100
AcDb2dVertex
 10
179.6689069380535
 20
95.48620344511608
 30
0.0
  0
VERTEX
  5
41D
330
419
100
AcDbEntity
  8
Visible (ANSI)
100
AcDbVertex
100
AcDb2dVertex
 10
179.6706205118985
 20
95.48410059502197
 30
0.0
  0
VERTEX
  5
41E
330
419
100
AcDbEntity
  8
Visible (ANSI)
100
AcDbVertex
100
AcDb2dVertex
 10
179.6724219115777
 20
95.48206422067396
 30
0.0
  0
VERTEX
  5
41F
330
419
100
AcDbEntity
  8
Visible (ANSI)
100
AcDbVertex
100
AcDb2dVertex
 10
179.674303141577
 20
95.48009234725952
 30
0.0
  0
VERTEX
  5
420
330
419
100
AcDbEntity
  8
Visible (ANSI)
100
AcDbVertex
100
AcDb2dVertex
 10
179.6762557758662
 20
95.4781987138722
 30
0.0
  0
VERTEX
  5
421
330
419
100
AcDbEntity
  8
Visible (ANSI)
100
AcDbVertex
100
AcDb2dVertex
 10
179.6782732655219
 20
95.47637952870067
 30
0.0
  0
VERTEX
  5
422
330
419
100
AcDbEntity
  8
Visible (ANSI)
100
AcDbVertex
100
AcDb2dVertex
 10
179.6803463447495
 20
95.47463740603445
 30
0.0
  0
VERTEX
  5
423
330
419
100
AcDbEntity
  8
Visible (ANSI)
100
AcDbVertex
100
AcDb2dVertex
 10
179.6824676429604
 20
95.47297340150436
 30
0.0
  0
VERTEX
  5
424
330
419
100
AcDbEntity
  8
Visible (ANSI)
100
AcDbVertex
100
AcDb2dVertex
 10
179.6846247949011
 20
95.47139099457574
 30
0.0
  0
VERTEX
  5
425
330
419
100
AcDbEntity
  8
Visible (ANSI)
100
AcDbVertex
100
AcDb2dVertex
 10
179.686809656031
 20
95.46989079519008
 30
0.0
  0
VERTEX
  5
426
330
419
100
AcDbEntity
  8
Visible (ANSI)
100
AcDbVertex
100
AcDb2dVertex
 10
179.6890160184446
 20
95.46847187848776
 30
0.0
  0
VERTEX
  5
427
330
419
100
AcDbEntity
  8
Visible (ANSI)
100
AcDbVertex
100
AcDb2dVertex
 10
179.6912304228793
 20
95.46713709393598
 30
0.0
  0
VERTEX
  5
428
330
419
100
AcDbEntity
  8
Visible (ANSI)
100
AcDbVertex
100
AcDb2dVertex
 10
179.6934436819046
 20
95.46588645091595
 30
0.0
  0
VERTEX
  5
429
330
419
100
AcDbEntity
  8
Visible (ANSI)
100
AcDbVertex
100
AcDb2dVertex
 10
179.695648598934
 20
95.46471845522447
 30
0.0
  0
VERTEX
  5
42A
330
419
100
AcDbEntity
  8
Visible (ANSI)
100
AcDbVertex
100
AcDb2dVertex
 10
179.6978330856571
 20
95.46363409577239
 30
0.0
  0
VERTEX
  5
42B
330
419
100
AcDbEntity
  8
Visible (ANSI)
100
AcDbVertex
100
AcDb2dVertex
 10
179.6999916885995
 20
95.46263023211267
 30
0.0
  0
VERTEX
  5
42C
330
419
100
AcDbEntity
  8
Visible (ANSI)
100
AcDbVertex
100
AcDb2dVertex
 10
179.7021118105047
 20
95.46170756007359
 30
0.0
  0
VERTEX
  5
42D
330
419
100
AcDbEntity
  8
Visible (ANSI)
100
AcDbVertex
100
AcDb2dVertex
 10
179.7041852329619
 20
95.46086399702248
 30
0.0
  0
VERTEX
  5
42E
330
419
100
AcDbEntity
  8
Visible (ANSI)
100
AcDbVertex
100
AcDb2dVertex
 10
179.7062035454418
 20
95.46009734969283
 30
0.0
  0
VERTEX
  5
42F
330
419
100
AcDbEntity
  8
Visible (ANSI)
100
AcDbVertex
100
AcDb2dVertex
 10
179.7081558679594
 20
95.45940665278857
 30
0.0
  0
VERTEX
  5
430
330
419
100
AcDbEntity
  8
Visible (ANSI)
100
AcDbVertex
100
AcDb2dVertex
 10
179.710038082883
 20
95.45878688508805
 30
0.0
  0
VERTEX
  5
431
330
419
100
AcDbEntity
  8
Visible (ANSI)
100
AcDbVertex
100
AcDb2dVertex
 10
179.7118390551929
 20
95.45823693443047
 30
0.0
  0
VERTEX
  5
432
330
419
100
AcDbEntity
  8
Visible (ANSI)
100
AcDbVertex
100
AcDb2dVertex
 10
179.7135498665373
 20
95.45775431511382
 30
0.0
  0
VERTEX
  5
433
330
419
100
AcDbEntity
  8
Visible (ANSI)
100
AcDbVertex
100
AcDb2dVertex
 10
179.7151684406859
 20
95.45733253144609
 30
0.0
  0
SEQEND
  5
41C
330
419
100
AcDbEntity
  8
Visible (ANSI)
  0
LINE
  5
434
330
6C
100
AcDbEntity
  8
Visible (ANSI)
100
AcDbLine
 10
179.6672908671793
 20
95.4883660400913
 30
0.0
 11
179.595475334715
 21
95.44701022540925
 31
0.0
  0
LINE
  5
435
330
6C
100
AcDbEntity
  8
Visible (ANSI)
100
AcDbLine
 10
179.7869834212864
 20
95.41597501994633
 30
0.0
 11
180.3615076810004
 21
95.74682153740262
 31
0.0
  0
LINE
  5
436
330
6C
100
AcDbEntity
  8
Visible (ANSI)
100
AcDbLine
 10
180.2896921485362
 20
95.78817735208467
 30
0.0
 11
180.3615076810004
 21
95.74682153740262
 31
0.0
  0
POLYLINE
  5
437
330
6C
100
AcDbEntity
  8
Visible (ANSI)
100
AcDb2dPolyline
 66
     1
 10
0.0
 20
0.0
 30
0.0
 70
   128
  0
VERTEX
  5
438
330
437
100
AcDbEntity
  8
Visible (ANSI)
100
AcDbVertex
100
AcDb2dVertex
 10
156.0399806860752
 20
109.0117193579825
 30
0.0
  0
VERTEX
  5
439
330
437
100
AcDbEntity
  8
Visible (ANSI)
100
AcDbVertex
100
AcDb2dVertex
 10
156.0413041524293
 20
109.0184346940269
 30
0.0
  0
VERTEX
  5
43B
330
437
100
AcDbEntity
  8
Visible (ANSI)
100
AcDbVertex
100
AcDb2dVertex
 10
156.0430367754246
 20
109.0253537240632
 30
0.0
  0
VERTEX
  5
43C
330
437
100
AcDbEntity
  8
Visible (ANSI)
100
AcDbVertex
100
AcDb2dVertex
 10
156.0451759125864
 20
109.0324430130958
 30
0.0
  0
VERTEX
  5
43D
330
437
100
AcDbEntity
  8
Visible (ANSI)
100
AcDbVertex
100
AcDb2dVertex
 10
156.0477172137183
 20
109.0396734322705
 30
0.0
  0
VERTEX
  5
43E
330
437
100
AcDbEntity
  8
Visible (ANSI)
100
AcDbVertex
100
AcDb2dVertex
 10
156.0506545804564
 20
109.0470095564772
 30
0.0
  0
VERTEX
  5
43F
330
437
100
AcDbEntity
  8
Visible (ANSI)
100
AcDbVertex
100
AcDb2dVertex
 10
156.0539802157026
 20
109.0544149720185
 30
0.0
  0
VERTEX
  5
440
330
437
100
AcDbEntity
  8
Visible (ANSI)
100
AcDbVertex
100
AcDb2dVertex
 10
156.0576846685655
 20
109.0618629644081
 30
0.0
  0
VERTEX
  5
441
330
437
100
AcDbEntity
  8
Visible (ANSI)
100
AcDbVertex
100
AcDb2dVertex
 10
156.061756874806
 20
109.0693045766079
 30
0.0
  0
VERTEX
  5
442
330
437
100
AcDbEntity
  8
Visible (ANSI)
100
AcDbVertex
100
AcDb2dVertex
 10
156.0661841838014
 20
109.0767218927446
 30
0.0
  0
VERTEX
  5
443
330
437
100
AcDbEntity
  8
Visible (ANSI)
100
AcDbVertex
100
AcDb2dVertex
 10
156.0709524079794
 20
109.0840695088352
 30
0.0
  0
VERTEX
  5
444
330
437
100
AcDbEntity
  8
Visible (ANSI)
100
AcDbVertex
100
AcDb2dVertex
 10
156.0760459486504
 20
109.0913118184488
 30
0.0
  0
VERTEX
  5
445
330
437
100
AcDbEntity
  8
Visible (ANSI)
100
AcDbVertex
100
AcDb2dVertex
 10
156.0814477645491
 20
109.0984230567016
 30
0.0
  0
VERTEX
  5
446
330
437
100
AcDbEntity
  8
Visible (ANSI)
100
AcDbVertex
100
AcDb2dVertex
 10
156.0871395201372
 20
109.1053660618196
 30
0.0
  0
VERTEX
  5
447
330
437
100
AcDbEntity
  8
Visible (ANSI)
100
AcDbVertex
100
AcDb2dVertex
 10
156.0931016215551
 20
109.1121029577619
 30
0.0
  0
VERTEX
  5
448
330
437
100
AcDbEntity
  8
Visible (ANSI)
100
AcDbVertex
100
AcDb2dVertex
 10
156.0993133447008
 20
109.1186164690005
 30
0.0
  0
VERTEX
  5
449
330
437
100
AcDbEntity
  8
Visible (ANSI)
100
AcDbVertex
100
AcDb2dVertex
 10
156.1057528689354
 20
109.1248621165695
 30
0.0
  0
VERTEX
  5
44A
330
437
100
AcDbEntity
  8
Visible (ANSI)
100
AcDbVertex
100
AcDb2dVertex
 10
156.1123974096561
 20
109.1308108178651
 30
0.0
  0
VERTEX
  5
44B
330
437
100
AcDbEntity
  8
Visible (ANSI)
100
AcDbVertex
100
AcDb2dVertex
 10
156.119223294694
 20
109.1364436307356
 30
0.0
  0
VERTEX
  5
44C
330
437
100
AcDbEntity
  8
Visible (ANSI)
100
AcDbVertex
100
AcDb2dVertex
 10
156.1262061025052
 20
109.1417305092222
 30
0.0
  0
VERTEX
  5
44D
330
437
100
AcDbEntity
  8
Visible (ANSI)
100
AcDbVertex
100
AcDb2dVertex
 10
156.1333207106212
 20
109.1466410347854
 30
0.0
  0
VERTEX
  5
44E
330
437
100
AcDbEntity
  8
Visible (ANSI)
100
AcDbVertex
100
AcDb2dVertex
 10
156.1405414432495
 20
109.1511604217196
 30
0.0
  0
VERTEX
  5
44F
330
437
100
AcDbEntity
  8
Visible (ANSI)
100
AcDbVertex
100
AcDb2dVertex
 10
156.1478421603106
 20
109.1552523448745
 30
0.0
  0
VERTEX
  5
450
330
437
100
AcDbEntity
  8
Visible (ANSI)
100
AcDbVertex
100
AcDb2dVertex
 10
156.1551964077065
 20
109.1589121908604
 30
0.0
  0
VERTEX
  5
451
330
437
100
AcDbEntity
  8
Visible (ANSI)
100
AcDbVertex
100
AcDb2dVertex
 10
156.1625774708274
 20
109.1621086242847
 30
0.0
  0
SEQEND
  5
43A
330
437
100
AcDbEntity
  8
Visible (ANSI)
  0
POLYLINE
  5
452
330
6C
100
AcDbEntity
  8
Visible (ANSI)
100
AcDb2dPolyline
 66
     1
 10
0.0
 20
0.0
 30
0.0
 70
   128
  0
VERTEX
  5
453
330
452
100
AcDbEntity
  8
Visible (ANSI)
100
AcDbVertex
100
AcDb2dVertex
 10
179.6643869086911
 20
95.62831666516776
 30
0.0
  0
VERTEX
  5
454
330
452
100
AcDbEntity
  8
Visible (ANSI)
100
AcDbVertex
100
AcDb2dVertex
 10
179.6592425475701
 20
95.62383220072518
 30
0.0
  0
VERTEX
  5
456
330
452
100
AcDbEntity
  8
Visible (ANSI)
100
AcDbVertex
100
AcDb2dVertex
 10
179.6541250021741
 20
95.61888432372107
 30
0.0
  0
VERTEX
  5
457
330
452
100
AcDbEntity
  8
Visible (ANSI)
100
AcDbVertex
100
AcDb2dVertex
 10
179.6490609781248
 20
95.61350437472382
 30
0.0
  0
VERTEX
  5
458
330
452
100
AcDbEntity
  8
Visible (ANSI)
100
AcDbVertex
100
AcDb2dVertex
 10
179.6440769474963
 20
95.6076969567713
 30
0.0
  0
VERTEX
  5
459
330
452
100
AcDbEntity
  8
Visible (ANSI)
100
AcDbVertex
100
AcDb2dVertex
 10
179.6391990413801
 20
95.6014984001899
 30
0.0
  0
VERTEX
  5
45A
330
452
100
AcDbEntity
  8
Visible (ANSI)
100
AcDbVertex
100
AcDb2dVertex
 10
179.6344529355689
 20
95.59492349068511
 30
0.0
  0
VERTEX
  5
45B
330
452
100
AcDbEntity
  8
Visible (ANSI)
100
AcDbVertex
100
AcDb2dVertex
 10
179.6298637435428
 20
95.58800265197218
 30
0.0
  0
VERTEX
  5
45C
330
452
100
AcDbEntity
  8
Visible (ANSI)
100
AcDbVertex
100
AcDb2dVertex
 10
179.6254582057523
 20
95.58076459464073
 30
0.0
  0
VERTEX
  5
45D
330
452
100
AcDbEntity
  8
Visible (ANSI)
100
AcDbVertex
100
AcDb2dVertex
 10
179.6212553835175
 20
95.57323091605347
 30
0.0
  0
VERTEX
  5
45E
330
452
100
AcDbEntity
  8
Visible (ANSI)
100
AcDbVertex
100
AcDb2dVertex
 10
179.6172803623717
 20
95.56542937379665
 30
0.0
  0
VERTEX
  5
45F
330
452
100
AcDbEntity
  8
Visible (ANSI)
100
AcDbVertex
100
AcDb2dVertex
 10
179.6135549539657
 20
95.557404452012
 30
0.0
  0
VERTEX
  5
460
330
452
100
AcDbEntity
  8
Visible (ANSI)
100
AcDbVertex
100
AcDb2dVertex
 10
179.6100999003774
 20
95.54917341587566
 30
0.0
  0
VERTEX
  5
461
330
452
100
AcDbEntity
  8
Visible (ANSI)
100
AcDbVertex
100
AcDb2dVertex
 10
179.6069347864785
 20
95.54077414660467
 30
0.0
  0
VERTEX
  5
462
330
452
100
AcDbEntity
  8
Visible (ANSI)
100
AcDbVertex
100
AcDb2dVertex
 10
179.6040779478074
 20
95.53224380597281
 30
0.0
  0
VERTEX
  5
463
330
452
100
AcDbEntity
  8
Visible (ANSI)
100
AcDbVertex
100
AcDb2dVertex
 10
179.6015464166413
 20
95.52360816403982
 30
0.0
  0
VERTEX
  5
464
330
452
100
AcDbEntity
  8
Visible (ANSI)
100
AcDbVertex
100
AcDb2dVertex
 10
179.5993558096457
 20
95.51490281688492
 30
0.0
  0
VERTEX
  5
465
330
452
100
AcDbEntity
  8
Visible (ANSI)
100
AcDbVertex
100
AcDb2dVertex
 10
179.5975203054051
 20
95.50617317366693
 30
0.0
  0
VERTEX
  5
466
330
452
100
AcDbEntity
  8
Visible (ANSI)
100
AcDbVertex
100
AcDb2dVertex
 10
179.596052545554
 20
95.49743715543495
 30
0.0
  0
VERTEX
  5
467
330
452
100
AcDbEntity
  8
Visible (ANSI)
100
AcDbVertex
100
AcDb2dVertex
 10
179.5949636123076
 20
95.4887437088754
 30
0.0
  0
VERTEX
  5
468
330
452
100
AcDbEntity
  8
Visible (ANSI)
100
AcDbVertex
100
AcDb2dVertex
 10
179.5942652484998
 20
95.48011822863283
 30
0.0
  0
VERTEX
  5
469
330
452
100
AcDbEntity
  8
Visible (ANSI)
100
AcDbVertex
100
AcDb2dVertex
 10
179.5939606493677
 20
95.47159977843989
 30
0.0
  0
VERTEX
  5
46A
330
452
100
AcDbEntity
  8
Visible (ANSI)
100
AcDbVertex
100
AcDb2dVertex
 10
179.5940582052177
 20
95.46322246356485
 30
0.0
  0
VERTEX
  5
46B
330
452
100
AcDbEntity
  8
Visible (ANSI)
100
AcDbVertex
100
AcDb2dVertex
 10
179.5945622842223
 20
95.45501540251029
 30
0.0
  0
VERTEX
  5
46C
330
452
100
AcDbEntity
  8
Visible (ANSI)
100
AcDbVertex
100
AcDb2dVertex
 10
179.5954755198681
 20
95.44701203544777
 30
0.0
  0
SEQEND
  5
455
330
452
100
AcDbEntity
  8
Visible (ANSI)
  0
LINE
  5
46D
330
6C
100
AcDbEntity
  8
Visible (ANSI)
100
AcDbLine
 10
179.6643866388221
 20
95.54528639371673
 30
0.0
 11
180.2389108985362
 21
95.87613291117291
 31
0.0
  0
LINE
  5
46E
330
6C
100
AcDbEntity
  8
Visible (ANSI)
100
AcDbLine
 10
180.2389108985362
 20
95.95916504103977
 30
0.0
 11
179.6643866388222
 21
95.62831852358355
 31
0.0
  0
LINE
  5
46F
330
6C
100
AcDbEntity
  8
Visible (ANSI)
100
AcDbLine
 10
179.6643866388221
 20
95.54528639371673
 30
0.0
 11
179.6643866388222
 21
95.62831852358355
 31
0.0
  0
LINE
  5
470
330
6C
100
AcDbEntity
  8
Visible (ANSI)
100
AcDbLine
 10
180.2389108985362
 20
95.87613291117291
 30
0.0
 11
180.2389108985362
 21
95.95916504103977
 31
0.0
  0
POLYLINE
  5
471
330
6C
100
AcDbEntity
  8
Visible (ANSI)
100
AcDb2dPolyline
 66
     1
 10
0.0
 20
0.0
 30
0.0
 70
   128
  0
VERTEX
  5
472
330
471
100
AcDbEntity
  8
Visible (ANSI)
100
AcDbVertex
100
AcDb2dVertex
 10
179.6672910512538
 20
95.48836784950871
 30
0.0
  0
VERTEX
  5
473
330
471
100
AcDbEntity
  8
Visible (ANSI)
100
AcDbVertex
100
AcDb2dVertex
 10
179.6662240533093
 20
95.49085033009136
 30
0.0
  0
VERTEX
  5
475
330
471
100
AcDbEntity
  8
Visible (ANSI)
100
AcDbVertex
100
AcDb2dVertex
 10
179.6652593442706
 20
95.49338639432937
 30
0.0
  0
VERTEX
  5
476
330
471
100
AcDbEntity
  8
Visible (ANSI)
100
AcDbVertex
100
AcDb2dVertex
 10
179.664396266648
 20
95.49595970177602
 30
0.0
  0
VERTEX
  5
477
330
471
100
AcDbEntity
  8
Visible (ANSI)
100
AcDbVertex
100
AcDb2dVertex
 10
179.6636337277184
 20
95.49857494378167
 30
0.0
  0
VERTEX
  5
478
330
471
100
AcDbEntity
  8
Visible (ANSI)
100
AcDbVertex
100
AcDb2dVertex
 10
179.662967903312
 20
95.50121660636509
 30
0.0
  0
VERTEX
  5
479
330
471
100
AcDbEntity
  8
Visible (ANSI)
100
AcDbVertex
100
AcDb2dVertex
 10
179.6624014482269
 20
95.50387027703648
 30
0.0
  0
VERTEX
  5
47A
330
471
100
AcDbEntity
  8
Visible (ANSI)
100
AcDbVertex
100
AcDb2dVertex
 10
179.6619296985291
 20
95.50653592005009
 30
0.0
  0
VERTEX
  5
47B
330
471
100
AcDbEntity
  8
Visible (ANSI)
100
AcDbVertex
100
AcDb2dVertex
 10
179.6615498854903
 20
95.50920662039354
 30
0.0
  0
VERTEX
  5
47C
330
471
100
AcDbEntity
  8
Visible (ANSI)
100
AcDbVertex
100
AcDb2dVertex
 10
179.6612588475786
 20
95.51186459563789
 30
0.0
  0
VERTEX
  5
47D
330
471
100
AcDbEntity
  8
Visible (ANSI)
100
AcDbVertex
100
AcDb2dVertex
 10
179.6610530421139
 20
95.51450248508151
 30
0.0
  0
VERTEX
  5
47E
330
471
100
AcDbEntity
  8
Visible (ANSI)
100
AcDbVertex
100
AcDb2dVertex
 10
179.660928562121
 20
95.51712335945497
 30
0.0
  0
VERTEX
  5
47F
330
471
100
AcDbEntity
  8
Visible (ANSI)
100
AcDbVertex
100
AcDb2dVertex
 10
179.6608811520587
 20
95.51970348572334
 30
0.0
  0
VERTEX
  5
480
330
471
100
AcDbEntity
  8
Visible (ANSI)
100
AcDbVertex
100
AcDb2dVertex
 10
179.6609062263568
 20
95.52224554384046
 30
0.0
  0
VERTEX
  5
481
330
471
100
AcDbEntity
  8
Visible (ANSI)
100
AcDbVertex
100
AcDb2dVertex
 10
179.6609988893595
 20
95.52473607336967
 30
0.0
  0
VERTEX
  5
482
330
471
100
AcDbEntity
  8
Visible (ANSI)
100
AcDbVertex
100
AcDb2dVertex
 10
179.6611539555471
 20
95.52716676756102
 30
0.0
  0
VERTEX
  5
483
330
471
100
AcDbEntity
  8
Visible (ANSI)
100
AcDbVertex
100
AcDb2dVertex
 10
179.6613659714451
 20
95.52953448596737
 30
0.0
  0
VERTEX
  5
484
330
471
100
AcDbEntity
  8
Visible (ANSI)
100
AcDbVertex
100
AcDb2dVertex
 10
179.6616269416579
 20
95.53182663316604
 30
0.0
  0
VERTEX
  5
485
330
471
100
AcDbEntity
  8
Visible (ANSI)
100
AcDbVertex
100
AcDb2dVertex
 10
179.6619355505655
 20
95.53404247207934
 30
0.0
  0
VERTEX
  5
486
330
471
100
AcDbEntity
  8
Visible (ANSI)
100
AcDbVertex
100
AcDb2dVertex
 10
179.6622833876386
 20
95.53616384761696
 30
0.0
  0
VERTEX
  5
487
330
471
100
AcDbEntity
  8
Visible (ANSI)
100
AcDbVertex
100
AcDb2dVertex
 10
179.6626641747528
 20
95.53819778566339
 30
0.0
  0
VERTEX
  5
488
330
471
100
AcDbEntity
  8
Visible (ANSI)
100
AcDbVertex
100
AcDb2dVertex
 10
179.6630714933461
 20
95.54013526940677
 30
0.0
  0
VERTEX
  5
489
330
471
100
AcDbEntity
  8
Visible (ANSI)
100
AcDbVertex
100
AcDb2dVertex
 10
179.6634988102596
 20
95.54196189543517
 30
0.0
  0
VERTEX
  5
48A
330
471
100
AcDbEntity
  8
Visible (ANSI)
100
AcDbVertex
100
AcDb2dVertex
 10
179.6639395080715
 20
95.54367917363682
 30
0.0
  0
VERTEX
  5
48B
330
471
100
AcDbEntity
  8
Visible (ANSI)
100
AcDbVertex
100
AcDb2dVertex
 10
179.6643869086911
 20
95.54528857896292
 30
0.0
  0
SEQEND
  5
474
330
471
100
AcDbEntity
  8
Visible (ANSI)
  0
LINE
  5
48C
330
6C
100
AcDbEntity
  8
Visible (ANSI)
100
AcDbLine
 10
156.162577468899
 20
109.1621103284038
 30
0.0
 11
156.737101728613
 21
109.49295684586
 31
0.0
  0
POLYLINE
  5
48D
330
6C
100
AcDbEntity
  8
Visible (ANSI)
100
AcDb2dPolyline
 66
     1
 10
0.0
 20
0.0
 30
0.0
 70
   128
  0
VERTEX
  5
48E
330
48D
100
AcDbEntity
  8
Visible (ANSI)
100
AcDbVertex
100
AcDb2dVertex
 10
156.039980686075
 20
40.15040440468488
 30
0.0
  0
VERTEX
  5
48F
330
48D
100
AcDbEntity
  8
Visible (ANSI)
100
AcDbVertex
100
AcDb2dVertex
 10
156.036898967418
 20
40.15288466270065
 30
0.0
  0
VERTEX
  5
491
330
48D
100
AcDbEntity
  8
Visible (ANSI)
100
AcDbVertex
100
AcDb2dVertex
 10
156.0339230915552
 20
40.1554219999921
 30
0.0
  0
VERTEX
  5
492
330
48D
100
AcDbEntity
  8
Visible (ANSI)
100
AcDbVertex
100
AcDb2dVertex
 10
156.0310562267601
 20
40.15801440056558
 30
0.0
  0
VERTEX
  5
493
330
48D
100
AcDbEntity
  8
Visible (ANSI)
100
AcDbVertex
100
AcDb2dVertex
 10
156.0283014649076
 20
40.16065977337762
 30
0.0
  0
VERTEX
  5
494
330
48D
100
AcDbEntity
  8
Visible (ANSI)
100
AcDbVertex
100
AcDb2dVertex
 10
156.0256617405827
 20
40.16335596782239
 30
0.0
  0
VERTEX
  5
495
330
48D
100
AcDbEntity
  8
Visible (ANSI)
100
AcDbVertex
100
AcDb2dVertex
 10
156.0231398850083
 20
40.16610081529885
 30
0.0
  0
VERTEX
  5
496
330
48D
100
AcDbEntity
  8
Visible (ANSI)
100
AcDbVertex
100
AcDb2dVertex
 10
156.020738603575
 20
40.1688920539204
 30
0.0
  0
VERTEX
  5
497
330
48D
100
AcDbEntity
  8
Visible (ANSI)
100
AcDbVertex
100
AcDb2dVertex
 10
156.0184604533715
 20
40.17172738819748
 30
0.0
  0
VERTEX
  5
498
330
48D
100
AcDbEntity
  8
Visible (ANSI)
100
AcDbVertex
100
AcDb2dVertex
 10
156.0163078926182
 20
40.17460447605786
 30
0.0
  0
VERTEX
  5
499
330
48D
100
AcDbEntity
  8
Visible (ANSI)
100
AcDbVertex
100
AcDb2dVertex
 10
156.0142832132574
 20
40.1775209262588
 30
0.0
  0
VERTEX
  5
49A
330
48D
100
AcDbEntity
  8
Visible (ANSI)
100
AcDbVertex
100
AcDb2dVertex
 10
156.0123885858933
 20
40.18047430873862
 30
0.0
  0
VERTEX
  5
49B
330
48D
100
AcDbEntity
  8
Visible (ANSI)
100
AcDbVertex
100
AcDb2dVertex
 10
156.010626041816
 20
40.1834621546168
 30
0.0
  0
VERTEX
  5
49C
330
48D
100
AcDbEntity
  8
Visible (ANSI)
100
AcDbVertex
100
AcDb2dVertex
 10
156.0089974685073
 20
40.18648194839005
 30
0.0
  0
VERTEX
  5
49D
330
48D
100
AcDbEntity
  8
Visible (ANSI)
100
AcDbVertex
100
AcDb2dVertex
 10
156.007504609641
 20
40.1895311643237
 30
0.0
  0
VERTEX
  5
49E
330
48D
100
AcDbEntity
  8
Visible (ANSI)
100
AcDbVertex
100
AcDb2dVertex
 10
156.0061490605887
 20
40.19260722221633
 30
0.0
  0
VERTEX
  5
49F
330
48D
100
AcDbEntity
  8
Visible (ANSI)
100
AcDbVertex
100
AcDb2dVertex
 10
156.0049322729138
 20
40.19570752120323
 30
0.0
  0
VERTEX
  5
4A0
330
48D
100
AcDbEntity
  8
Visible (ANSI)
100
AcDbVertex
100
AcDb2dVertex
 10
156.0038555588658
 20
40.19882943195251
 30
0.0
  0
VERTEX
  5
4A1
330
48D
100
AcDbEntity
  8
Visible (ANSI)
100
AcDbVertex
100
AcDb2dVertex
 10
156.0029200599216
 20
40.2019703044289
 30
0.0
  0
VERTEX
  5
4A2
330
48D
100
AcDbEntity
  8
Visible (ANSI)
100
AcDbVertex
100
AcDb2dVertex
 10
156.0021267782443
 20
40.20512746530577
 30
0.0
  0
VERTEX
  5
4A3
330
48D
100
AcDbEntity
  8
Visible (ANSI)
100
AcDbVertex
100
AcDb2dVertex
 10
156.0014765699419
 20
40.20829822180696
 30
0.0
  0
VERTEX
  5
4A4
330
48D
100
AcDbEntity
  8
Visible (ANSI)
100
AcDbVertex
100
AcDb2dVertex
 10
156.0009701338319
 20
40.21147988904044
 30
0.0
  0
VERTEX
  5
4A5
330
48D
100
AcDbEntity
  8
Visible (ANSI)
100
AcDbVertex
100
AcDb2dVertex
 10
156.000608000207
 20
40.21466973929302
 30
0.0
  0
VERTEX
  5
4A6
330
48D
100
AcDbEntity
  8
Visible (ANSI)
100
AcDbVertex
100
AcDb2dVertex
 10
156.0003905645395
 20
40.21786505006753
 30
0.0
  0
VERTEX
  5
4A7
330
48D
100
AcDbEntity
  8
Visible (ANSI)
100
AcDbVertex
100
AcDb2dVertex
 10
156.0003180605176
 20
40.22106309369093
 30
0.0
  0
SEQEND
  5
490
330
48D
100
AcDbEntity
  8
Visible (ANSI)
  0
POLYLINE
  5
4A8
330
6C
100
AcDbEntity
  8
Visible (ANSI)
100
AcDb2dPolyline
 66
     1
 10
0.0
 20
0.0
 30
0.0
 70
   128
  0
VERTEX
  5
4A9
330
4A8
100
AcDbEntity
  8
Visible (ANSI)
100
AcDbVertex
100
AcDb2dVertex
 10
156.0399806860752
 20
109.0909664229589
 30
0.0
  0
VERTEX
  5
4AA
330
4A8
100
AcDbEntity
  8
Visible (ANSI)
100
AcDbVertex
100
AcDb2dVertex
 10
156.0339230895717
 20
109.088534870263
 30
0.0
  0
VERTEX
  5
4AC
330
4A8
100
AcDbEntity
  8
Visible (ANSI)
100
AcDbVertex
100
AcDb2dVertex
 10
156.0283014644162
 20
109.0858831426631
 30
0.0
  0
VERTEX
  5
4AD
330
4A8
100
AcDbEntity
  8
Visible (ANSI)
100
AcDbVertex
100
AcDb2dVertex
 10
156.0231398862724
 20
109.0830281333961
 30
0.0
  0
VERTEX
  5
4AE
330
4A8
100
AcDbEntity
  8
Visible (ANSI)
100
AcDbVertex
100
AcDb2dVertex
 10
156.0184604563208
 20
109.0799876037457
 30
0.0
  0
VERTEX
  5
4AF
330
4A8
100
AcDbEntity
  8
Visible (ANSI)
100
AcDbVertex
100
AcDb2dVertex
 10
156.0142832126958
 20
109.0767801103075
 30
0.0
  0
VERTEX
  5
4B0
330
4A8
100
AcDbEntity
  8
Visible (ANSI)
100
AcDbVertex
100
AcDb2dVertex
 10
156.0106260429397
 20
109.073424923742
 30
0.0
  0
VERTEX
  5
4B1
330
4A8
100
AcDbEntity
  8
Visible (ANSI)
100
AcDbVertex
100
AcDb2dVertex
 10
156.0075046085177
 20
109.0699419489941
 30
0.0
  0
VERTEX
  5
4B2
330
4A8
100
AcDbEntity
  8
Visible (ANSI)
100
AcDbVertex
100
AcDb2dVertex
 10
156.0049322740375
 20
109.0663516374655
 30
0.0
  0
VERTEX
  5
4B3
330
4A8
100
AcDbEntity
  8
Visible (ANSI)
100
AcDbVertex
100
AcDb2dVertex
 10
156.0029200565512
 20
109.0626748982968
 30
0.0
  0
VERTEX
  5
4B4
330
4A8
100
AcDbEntity
  8
Visible (ANSI)
100
AcDbVertex
100
AcDb2dVertex
 10
156.0014765699421
 20
109.0589330126429
 30
0.0
  0
VERTEX
  5
4B5
330
4A8
100
AcDbEntity
  8
Visible (ANSI)
100
AcDbVertex
100
AcDb2dVertex
 10
156.0006079979602
 20
109.0551475405078
 30
0.0
  0
VERTEX
  5
4B6
330
4A8
100
AcDbEntity
  8
Visible (ANSI)
100
AcDbVertex
100
AcDb2dVertex
 10
156.0003180605178
 20
109.0513402288728
 30
0.0
  0
VERTEX
  5
4B7
330
4A8
100
AcDbEntity
  8
Visible (ANSI)
100
AcDbVertex
100
AcDb2dVertex
 10
156.0006080002072
 20
109.0475329185319
 30
0.0
  0
VERTEX
  5
4B8
330
4A8
100
AcDbEntity
  8
Visible (ANSI)
100
AcDbVertex
100
AcDb2dVertex
 10
156.0014765699421
 20
109.0437474451027
 30
0.0
  0
VERTEX
  5
4B9
330
4A8
100
AcDbEntity
  8
Visible (ANSI)
100
AcDbVertex
100
AcDb2dVertex
 10
156.0029200599218
 20
109.0400055613898
 30
0.0
  0
VERTEX
  5
4BA
330
4A8
100
AcDbEntity
  8
Visible (ANSI)
100
AcDbVertex
100
AcDb2dVertex
 10
156.004932272914
 20
109.0363288222211
 30
0.0
  0
VERTEX
  5
4BB
330
4A8
100
AcDbEntity
  8
Visible (ANSI)
100
AcDbVertex
100
AcDb2dVertex
 10
156.0075046096412
 20
109.0327385093985
 30
0.0
  0
VERTEX
  5
4BC
330
4A8
100
AcDbEntity
  8
Visible (ANSI)
100
AcDbVertex
100
AcDb2dVertex
 10
156.0106260418162
 20
109.0292555333567
 30
0.0
  0
VERTEX
  5
4BD
330
4A8
100
AcDbEntity
  8
Visible (ANSI)
100
AcDbVertex
100
AcDb2dVertex
 10
156.0142832132576
 20
109.0259003490557
 30
0.0
  0
VERTEX
  5
4BE
330
4A8
100
AcDbEntity
  8
Visible (ANSI)
100
AcDbVertex
100
AcDb2dVertex
 10
156.0184604533717
 20
109.0226928550513
 30
0.0
  0
VERTEX
  5
4BF
330
4A8
100
AcDbEntity
  8
Visible (ANSI)
100
AcDbVertex
100
AcDb2dVertex
 10
156.0231398850085
 20
109.0196576468175
 30
0.0
  0
VERTEX
  5
4C0
330
4A8
100
AcDbEntity
  8
Visible (ANSI)
100
AcDbVertex
100
AcDb2dVertex
 10
156.0283014649078
 20
109.0168026385614
 30
0.0
  0
VERTEX
  5
4C1
330
4A8
100
AcDbEntity
  8
Visible (ANSI)
100
AcDbVertex
100
AcDb2dVertex
 10
156.0339230915554
 20
109.0141509092328
 30
0.0
  0
VERTEX
  5
4C2
330
4A8
100
AcDbEntity
  8
Visible (ANSI)
100
AcDbVertex
100
AcDb2dVertex
 10
156.0399806860752
 20
109.0117193579825
 30
0.0
  0
SEQEND
  5
4AB
330
4A8
100
AcDbEntity
  8
Visible (ANSI)
  0
LINE
  5
4C3
330
6C
100
AcDbEntity
  8
Visible (ANSI)
100
AcDbLine
 10
156.5112609968462
 20
40.48040243467721
 30
0.0
 11
156.6863204786128
 21
40.58121248562096
 31
0.0
  0
LINE
  5
4C4
330
6C
100
AcDbEntity
  8
Visible (ANSI)
100
AcDbLine
 10
156.119938946836
 20
109.1370093079795
 30
0.0
 11
156.0399806864347
 21
109.090964408137
 31
0.0
  0
LINE
  5
4C5
330
6C
100
AcDbEntity
  8
Visible (ANSI)
100
AcDbLine
 10
156.0657974258556
 20
109.0760975366602
 30
0.0
 11
156.0399806864347
 21
109.090964408137
 31
0.0
  0
POLYLINE
  5
4C6
330
6C
100
AcDbEntity
  8
Visible (ANSI)
100
AcDb2dPolyline
 66
     1
 10
0.0
 20
0.0
 30
0.0
 70
   128
  0
VERTEX
  5
4C7
330
4C6
100
AcDbEntity
  8
Visible (ANSI)
100
AcDbVertex
100
AcDb2dVertex
 10
179.5954755198679
 20
26.58569708215007
 30
0.0
  0
VERTEX
  5
4C8
330
4C6
100
AcDbEntity
  8
Visible (ANSI)
100
AcDbVertex
100
AcDb2dVertex
 10
179.5945622842221
 20
26.57921835724694
 30
0.0
  0
VERTEX
  5
4CA
330
4C6
100
AcDbEntity
  8
Visible (ANSI)
100
AcDbVertex
100
AcDb2dVertex
 10
179.5940582052175
 20
26.57300624875926
 30
0.0
  0
VERTEX
  5
4CB
330
4C6
100
AcDbEntity
  8
Visible (ANSI)
100
AcDbVertex
100
AcDb2dVertex
 10
179.5939606493675
 20
26.56709012462907
 30
0.0
  0
VERTEX
  5
4CC
330
4C6
100
AcDbEntity
  8
Visible (ANSI)
100
AcDbVertex
100
AcDb2dVertex
 10
179.5942652484996
 20
26.56149807328039
 30
0.0
  0
VERTEX
  5
4CD
330
4C6
100
AcDbEntity
  8
Visible (ANSI)
100
AcDbVertex
100
AcDb2dVertex
 10
179.5949636123074
 20
26.55625812728663
 30
0.0
  0
VERTEX
  5
4CE
330
4C6
100
AcDbEntity
  8
Visible (ANSI)
100
AcDbVertex
100
AcDb2dVertex
 10
179.5960525455538
 20
26.5513928307743
 30
0.0
  0
VERTEX
  5
4CF
330
4C6
100
AcDbEntity
  8
Visible (ANSI)
100
AcDbVertex
100
AcDb2dVertex
 10
179.5975203054049
 20
26.54692710625399
 30
0.0
  0
VERTEX
  5
4D0
330
4C6
100
AcDbEntity
  8
Visible (ANSI)
100
AcDbVertex
100
AcDb2dVertex
 10
179.5993558096455
 20
26.54288282724007
 30
0.0
  0
VERTEX
  5
4D1
330
4C6
100
AcDbEntity
  8
Visible (ANSI)
100
AcDbVertex
100
AcDb2dVertex
 10
179.6015464166411
 20
26.53928008073697
 30
0.0
  0
VERTEX
  5
4D2
330
4C6
100
AcDbEntity
  8
Visible (ANSI)
100
AcDbVertex
100
AcDb2dVertex
 10
179.6040779478072
 20
26.53613703729134
 30
0.0
  0
VERTEX
  5
4D3
330
4C6
100
AcDbEntity
  8
Visible (ANSI)
100
AcDbVertex
100
AcDb2dVertex
 10
179.6069347864783
 20
26.53346992479195
 30
0.0
  0
VERTEX
  5
4D4
330
4C6
100
AcDbEntity
  8
Visible (ANSI)
100
AcDbVertex
100
AcDb2dVertex
 10
179.6100999003772
 20
26.53129291670756
 30
0.0
  0
VERTEX
  5
4D5
330
4C6
100
AcDbEntity
  8
Visible (ANSI)
100
AcDbVertex
100
AcDb2dVertex
 10
179.6135549539655
 20
26.52961809546486
 30
0.0
  0
VERTEX
  5
4D6
330
4C6
100
AcDbEntity
  8
Visible (ANSI)
100
AcDbVertex
100
AcDb2dVertex
 10
179.6172803623715
 20
26.52845538997727
 30
0.0
  0
VERTEX
  5
4D7
330
4C6
100
AcDbEntity
  8
Visible (ANSI)
100
AcDbVertex
100
AcDb2dVertex
 10
179.6212553835173
 20
26.52781253647008
 30
0.0
  0
VERTEX
  5
4D8
330
4C6
100
AcDbEntity
  8
Visible (ANSI)
100
AcDbVertex
100
AcDb2dVertex
 10
179.6254582057521
 20
26.52769504321249
 30
0.0
  0
VERTEX
  5
4D9
330
4C6
100
AcDbEntity
  8
Visible (ANSI)
100
AcDbVertex
100
AcDb2dVertex
 10
179.6298637435426
 20
26.52810749843306
 30
0.0
  0
VERTEX
  5
4DA
330
4C6
100
AcDbEntity
  8
Visible (ANSI)
100
AcDbVertex
100
AcDb2dVertex
 10
179.6344529355687
 20
26.52904824665684
 30
0.0
  0
VERTEX
  5
4DB
330
4C6
100
AcDbEntity
  8
Visible (ANSI)
100
AcDbVertex
100
AcDb2dVertex
 10
179.63919904138
 20
26.5305173437791
 30
0.0
  0
VERTEX
  5
4DC
330
4C6
100
AcDbEntity
  8
Visible (ANSI)
100
AcDbVertex
100
AcDb2dVertex
 10
179.6440769474961
 20
26.53251125619796
 30
0.0
  0
VERTEX
  5
4DD
330
4C6
100
AcDbEntity
  8
Visible (ANSI)
100
AcDbVertex
100
AcDb2dVertex
 10
179.6490609781246
 20
26.53502420287554
 30
0.0
  0
VERTEX
  5
4DE
330
4C6
100
AcDbEntity
  8
Visible (ANSI)
100
AcDbVertex
100
AcDb2dVertex
 10
179.6541250021738
 20
26.53804818051039
 30
0.0
  0
VERTEX
  5
4DF
330
4C6
100
AcDbEntity
  8
Visible (ANSI)
100
AcDbVertex
100
AcDb2dVertex
 10
179.6592425475699
 20
26.54157299841565
 30
0.0
  0
VERTEX
  5
4E0
330
4C6
100
AcDbEntity
  8
Visible (ANSI)
100
AcDbVertex
100
AcDb2dVertex
 10
179.6643869086909
 20
26.54558631856791
 30
0.0
  0
SEQEND
  5
4C9
330
4C6
100
AcDbEntity
  8
Visible (ANSI)
  0
POLYLINE
  5
4E1
330
6C
100
AcDbEntity
  8
Visible (ANSI)
100
AcDb2dPolyline
 66
     1
 10
0.0
 20
0.0
 30
0.0
 70
   128
  0
VERTEX
  5
4E2
330
4E1
100
AcDbEntity
  8
Visible (ANSI)
100
AcDbVertex
100
AcDb2dVertex
 10
156.0816118631239
 20
40.0804477733211
 30
0.0
  0
VERTEX
  5
4E3
330
4E1
100
AcDbEntity
  8
Visible (ANSI)
100
AcDbVertex
100
AcDb2dVertex
 10
156.0788625255348
 20
40.08211508875652
 30
0.0
  0
VERTEX
  5
4E5
330
4E1
100
AcDbEntity
  8
Visible (ANSI)
100
AcDbVertex
100
AcDb2dVertex
 10
156.0761882602912
 20
40.08390723718652
 30
0.0
  0
VERTEX
  5
4E6
330
4E1
100
AcDbEntity
  8
Visible (ANSI)
100
AcDbVertex
100
AcDb2dVertex
 10
156.0735913503473
 20
40.08582264175529
 30
0.0
  0
VERTEX
  5
4E7
330
4E1
100
AcDbEntity
  8
Visible (ANSI)
100
AcDbVertex
100
AcDb2dVertex
 10
156.0710739797894
 20
40.08785958294019
 30
0.0
  0
VERTEX
  5
4E8
330
4E1
100
AcDbEntity
  8
Visible (ANSI)
100
AcDbVertex
100
AcDb2dVertex
 10
156.0686382563055
 20
40.09001622188324
 30
0.0
  0
VERTEX
  5
4E9
330
4E1
100
AcDbEntity
  8
Visible (ANSI)
100
AcDbVertex
100
AcDb2dVertex
 10
156.0662861977038
 20
40.09229057963753
 30
0.0
  0
VERTEX
  5
4EA
330
4E1
100
AcDbEntity
  8
Visible (ANSI)
100
AcDbVertex
100
AcDb2dVertex
 10
156.064019731912
 20
40.09468055795085
 30
0.0
  0
VERTEX
  5
4EB
330
4E1
100
AcDbEntity
  8
Visible (ANSI)
100
AcDbVertex
100
AcDb2dVertex
 10
156.0618406924841
 20
40.097183928884
 30
0.0
  0
VERTEX
  5
4EC
330
4E1
100
AcDbEntity
  8
Visible (ANSI)
100
AcDbVertex
100
AcDb2dVertex
 10
156.0597508275878
 20
40.09979835817214
 30
0.0
  0
VERTEX
  5
4ED
330
4E1
100
AcDbEntity
  8
Visible (ANSI)
100
AcDbVertex
100
AcDb2dVertex
 10
156.0577517730408
 20
40.10252136371786
 30
0.0
  0
VERTEX
  5
4EE
330
4E1
100
AcDbEntity
  8
Visible (ANSI)
100
AcDbVertex
100
AcDb2dVertex
 10
156.0558450837686
 20
40.10535037527385
 30
0.0
  0
VERTEX
  5
4EF
330
4E1
100
AcDbEntity
  8
Visible (ANSI)
100
AcDbVertex
100
AcDb2dVertex
 10
156.0540322068407
 20
40.1082826877399
 30
0.0
  0
VERTEX
  5
4F0
330
4E1
100
AcDbEntity
  8
Visible (ANSI)
100
AcDbVertex
100
AcDb2dVertex
 10
156.0523144904584
 20
40.11131549751419
 30
0.0
  0
VERTEX
  5
4F1
330
4E1
100
AcDbEntity
  8
Visible (ANSI)
100
AcDbVertex
100
AcDb2dVertex
 10
156.050693179461
 20
40.11444588951357
 30
0.0
  0
VERTEX
  5
4F2
330
4E1
100
AcDbEntity
  8
Visible (ANSI)
100
AcDbVertex
100
AcDb2dVertex
 10
156.0491694108316
 20
40.11767083458564
 30
0.0
  0
VERTEX
  5
4F3
330
4E1
100
AcDbEntity
  8
Visible (ANSI)
100
AcDbVertex
100
AcDb2dVertex
 10
156.0477442271793
 20
40.12098722325203
 30
0.0
  0
VERTEX
  5
4F4
330
4E1
100
AcDbEntity
  8
Visible (ANSI)
100
AcDbVertex
100
AcDb2dVertex
 10
156.046418558763
 20
40.12439181898535
 30
0.0
  0
VERTEX
  5
4F5
330
4E1
100
AcDbEntity
  8
Visible (ANSI)
100
AcDbVertex
100
AcDb2dVertex
 10
156.0451932145036
 20
40.12788132054008
 30
0.0
  0
VERTEX
  5
4F6
330
4E1
100
AcDbEntity
  8
Visible (ANSI)
100
AcDbVertex
100
AcDb2dVertex
 10
156.0440689314177
 20
40.13145231264148
 30
0.0
  0
VERTEX
  5
4F7
330
4E1
100
AcDbEntity
  8
Visible (ANSI)
100
AcDbVertex
100
AcDb2dVertex
 10
156.043046307208
 20
40.13510128927704
 30
0.0
  0
VERTEX
  5
4F8
330
4E1
100
AcDbEntity
  8
Visible (ANSI)
100
AcDbVertex
100
AcDb2dVertex
 10
156.0421258407089
 20
40.13882469273588
 30
0.0
  0
VERTEX
  5
4F9
330
4E1
100
AcDbEntity
  8
Visible (ANSI)
100
AcDbVertex
100
AcDb2dVertex
 10
156.0413079139109
 20
40.14261884606204
 30
0.0
  0
VERTEX
  5
4FA
330
4E1
100
AcDbEntity
  8
Visible (ANSI)
100
AcDbVertex
100
AcDb2dVertex
 10
156.0405928054422
 20
40.14648001277725
 30
0.0
  0
VERTEX
  5
4FB
330
4E1
100
AcDbEntity
  8
Visible (ANSI)
100
AcDbVertex
100
AcDb2dVertex
 10
156.039980686075
 20
40.15040440468488
 30
0.0
  0
SEQEND
  5
4E4
330
4E1
100
AcDbEntity
  8
Visible (ANSI)
  0
LINE
  5
4FC
330
6C
100
AcDbEntity
  8
Visible (ANSI)
100
AcDbLine
 10
156.56231887603
 20
40.39260617574115
 30
0.0
 11
156.7371017286128
 21
40.49325692653261
 31
0.0
  0
LINE
  5
4FD
330
6C
100
AcDbEntity
  8
Visible (ANSI)
100
AcDbLine
 10
179.664386638822
 20
26.57597946356623
 30
0.0
 11
179.664386638822
 21
26.54558647438918
 31
0.0
  0
LINE
  5
4FE
330
6C
100
AcDbEntity
  8
Visible (ANSI)
100
AcDbLine
 10
179.664386638822
 20
26.54558647438918
 30
0.0
 11
179.7506191538022
 21
26.59524447714595
 31
0.0
  0
LINE
  5
4FF
330
6C
100
AcDbEntity
  8
Visible (ANSI)
100
AcDbLine
 10
179.7840440118323
 20
26.61449257274635
 30
0.0
 11
180.238910898536
 21
26.8764329918455
 31
0.0
  0
LINE
  5
500
330
6C
100
AcDbEntity
  8
Visible (ANSI)
100
AcDbLine
 10
180.238910898536
 20
26.87698012042706
 30
0.0
 11
180.238910898536
 21
26.8764329918455
 31
0.0
  0
LINE
  5
501
330
6C
100
AcDbEntity
  8
Visible (ANSI)
100
AcDbLine
 10
180.3615076810004
 20
95.74682153740262
 30
0.0
 11
180.3615076810003
 21
26.94757891211228
 31
0.0
  0
LINE
  5
502
330
6C
100
AcDbEntity
  8
Visible (ANSI)
100
AcDbLine
 10
156.737101728613
 20
109.49295684586
 30
0.0
 11
180.2389108985362
 21
95.95916504103977
 31
0.0
  0
LINE
  5
503
330
6C
100
AcDbEntity
  8
Visible (ANSI)
100
AcDbLine
 10
156.6863204786128
 20
40.58121248562096
 30
0.0
 11
156.6863204786128
 21
40.67754427732972
 31
0.0
  0
LINE
  5
504
330
6C
100
AcDbEntity
  8
Visible (ANSI)
100
AcDbLine
 10
156.686320478613
 20
107.8086518907924
 30
0.0
 11
156.686320478613
 21
108.2103432356768
 31
0.0
  0
LINE
  5
505
330
6C
100
AcDbEntity
  8
Visible (ANSI)
100
AcDbLine
 10
179.2251745723429
 20
27.54323704686429
 30
0.0
 11
178.8771408755923
 21
27.74365632347523
 31
0.0
  0
LINE
  5
506
330
6C
100
AcDbEntity
  8
Visible (ANSI)
100
AcDbLine
 10
156.8187284434909
 20
40.44625122765708
 30
0.0
 11
156.7371017286128
 21
40.49325692653261
 31
0.0
  0
SPLINE
  5
507
330
6C
100
AcDbEntity
  8
Visible (ANSI)
100
AcDbSpline
210
0.0
220
0.0
230
1.0
 70
     8
 71
     3
 72
    11
 73
     7
 74
     0
 42
0.0000000001
 43
0.0000000001
 40
0.0
 40
0.0
 40
0.0
 40
0.0
 40
1.048975082050535
 40
1.048975082050535
 40
1.048975082050535
 40
1.570796326794735
 40
1.570796326794735
 40
1.570796326794735
 40
1.570796326794735
 10
71.51986652182596
 20
124.1746506679838
 30
0.0
 10
71.56357381691138
 20
124.1746506679838
 30
0.0
 10
71.60644429128251
 20
124.1994527763912
 30
0.0
 10
71.62823062189969
 20
124.2373431899799
 30
0.0
 10
71.63906841047598
 20
124.2561920865086
 30
0.0
 10
71.64486652182595
 20
124.2779081161194
 30
0.0
 10
71.64486652182595
 20
124.2996506679838
 30
0.0
  0
LINE
  5
508
330
6C
100
AcDbEntity
  8
Visible (ANSI)
100
AcDbLine
 10
71.55111652182593
 20
124.2996506679838
 30
0.0
 11
71.55111652182599
 21
125.0496506679838
 31
0.0
  0
LINE
  5
509
330
6C
100
AcDbEntity
  8
Visible (ANSI)
100
AcDbLine
 10
71.55111652182593
 20
124.2996506679838
 30
0.0
 11
71.64486652182595
 21
124.2996506679838
 31
0.0
  0
SPLINE
  5
50A
330
6C
100
AcDbEntity
  8
Visible (ANSI)
100
AcDbSpline
210
0.0
220
0.0
230
1.0
 70
     8
 71
     3
 72
    11
 73
     7
 74
     0
 42
0.0000000001
 43
0.0000000001
 40
0.0
 40
0.0
 40
0.0
 40
0.0
 40
1.483474787626141
 40
1.483474787626141
 40
1.483474787626141
 40
1.570796326794735
 40
1.570796326794735
 40
1.570796326794735
 40
1.570796326794735
 10
71.51986652182596
 20
124.2684006679838
 30
0.0
 10
71.53531938419707
 20
124.2684006679838
 30
0.0
 10
71.54964980253915
 20
124.2815313510701
 30
0.0
 10
71.55099745608663
 20
124.2969253364337
 30
0.0
 10
71.55107678280185
 20
124.2978314701322
 30
0.0
 10
71.55111652182596
 20
124.2987410686174
 30
0.0
 10
71.55111652182596
 20
124.2996506679838
 30
0.0
  0
LINE
  5
50B
330
6C
100
AcDbEntity
  8
Visible (ANSI)
100
AcDbLine
 10
71.51986652182596
 20
124.2684006679838
 30
0.0
 11
71.51986652182596
 21
124.1746506679838
 31
0.0
  0
LINE
  5
50C
330
6C
100
AcDbEntity
  8
Visible (ANSI)
100
AcDbLine
 10
71.64486652182595
 20
124.2996506679838
 30
0.0
 11
71.64486652182599
 21
125.0496506679838
 31
0.0
  0
LINE
  5
50D
330
6C
100
AcDbEntity
  8
Visible (ANSI)
100
AcDbLine
 10
71.55111652182599
 20
125.0496506679838
 30
0.0
 11
71.64486652182599
 21
125.0496506679838
 31
0.0
  0
SPLINE
  5
50E
330
6C
100
AcDbEntity
  8
Visible (ANSI)
100
AcDbSpline
210
0.0
220
0.0
230
1.0
 70
     8
 71
     3
 72
    11
 73
     7
 74
     0
 42
0.0000000001
 43
0.0000000001
 40
0.0
 40
0.0
 40
0.0
 40
0.0
 40
1.048975082049782
 40
1.048975082049782
 40
1.048975082049782
 40
1.570796326794967
 40
1.570796326794967
 40
1.570796326794967
 40
1.570796326794967
 10
40.76986652182595
 20
124.1746506679838
 30
0.0
 10
40.77766668635161
 20
124.1746506679838
 30
0.0
 10
40.78546685087728
 20
124.1994527763911
 30
0.0
 10
40.79326701540294
 20
124.2373431899798
 30
0.0
 10
40.79714727112269
 20
124.2561920865086
 30
0.0
 10
40.80102752684243
 20
124.2779081161195
 30
0.0
 10
40.80490778256219
 20
124.2996506679838
 30
0.0
  0
SPLINE
  5
50F
330
6C
100
AcDbEntity
  8
Visible (ANSI)
100
AcDbSpline
210
0.0
220
0.0
230
1.0
 70
     8
 71
     3
 72
    11
 73
     7
 74
     0
 42
0.0000000001
 43
0.0000000001
 40
0.0
 40
0.0
 40
0.0
 40
0.0
 40
1.048975082050352
 40
1.048975082050352
 40
1.048975082050352
 40
1.570796326794967
 40
1.570796326794967
 40
1.570796326794967
 40
1.570796326794967
 10
71.48482526108972
 20
124.2996506679839
 30
0.0
 10
71.49262542561539
 20
124.2559433728984
 30
0.0
 10
71.50042559014107
 20
124.2130728985273
 30
0.0
 10
71.50822575466673
 20
124.1912865679101
 30
0.0
 10
71.51210601038646
 20
124.1804487793338
 30
0.0
 10
71.51598626610621
 20
124.1746506679838
 30
0.0
 10
71.51986652182596
 20
124.1746506679838
 30
0.0
  0
LINE
  5
510
330
6C
100
AcDbEntity
  8
Visible (ANSI)
100
AcDbLine
 10
71.48482526108972
 20
125.0496506679839
 30
0.0
 11
71.48482526108972
 21
124.2996506679838
 31
0.0
  0
SPLINE
  5
511
330
6C
100
AcDbEntity
  8
Visible (ANSI)
100
AcDbSpline
210
0.0
220
0.0
230
1.0
 70
     8
 71
     3
 72
    11
 73
     7
 74
     0
 42
0.0000000001
 43
0.0000000001
 40
0.0
 40
0.0
 40
0.0
 40
0.0
 40
1.483474787630861
 40
1.483474787630861
 40
1.483474787630861
 40
1.570796326794967
 40
1.570796326794967
 40
1.570796326794967
 40
1.570796326794967
 10
71.51986652182596
 20
124.2684006679838
 30
0.0
 10
71.50883542336498
 20
124.2684006679838
 30
0.0
 10
71.49780432490401
 20
124.2815313510702
 30
0.0
 10
71.48677322644305
 20
124.2969253364339
 30
0.0
 10
71.48612390465861
 20
124.2978314701323
 30
0.0
 10
71.48547458287416
 20
124.2987410686175
 30
0.0
 10
71.48482526108972
 20
124.2996506679838
 30
0.0
  0
SPLINE
  5
512
330
6C
100
AcDbEntity
  8
Visible (ANSI)
100
AcDbSpline
210
0.0
220
0.0
230
1.0
 70
     8
 71
     3
 72
    11
 73
     7
 74
     0
 42
0.0000000001
 43
0.0000000001
 40
0.0
 40
0.0
 40
0.0
 40
0.0
 40
1.483474787630861
 40
1.483474787630861
 40
1.483474787630861
 40
1.570796326794967
 40
1.570796326794967
 40
1.570796326794967
 40
1.570796326794967
 10
40.76986652182595
 20
124.2684006679838
 30
0.0
 10
40.78089762028692
 20
124.2684006679838
 30
0.0
 10
40.79192871874789
 20
124.2815313510702
 30
0.0
 10
40.80295981720886
 20
124.2969253364339
 30
0.0
 10
40.80360913899331
 20
124.2978314701323
 30
0.0
 10
40.80425846077774
 20
124.2987410686175
 30
0.0
 10
40.80490778256219
 20
124.2996506679838
 30
0.0
  0
LINE
  5
513
330
6C
100
AcDbEntity
  8
Visible (ANSI)
100
AcDbLine
 10
40.76986652182595
 20
124.2684006679838
 30
0.0
 11
40.76986652182595
 21
124.1746506679838
 31
0.0
  0
LINE
  5
514
330
6C
100
AcDbEntity
  8
Visible (ANSI)
100
AcDbLine
 10
40.80490778256219
 20
124.2996506679838
 30
0.0
 11
40.80490778256219
 21
125.0496506679839
 31
0.0
  0
SPLINE
  5
515
330
6C
100
AcDbEntity
  8
Visible (ANSI)
100
AcDbSpline
210
0.0
220
0.0
230
1.0
 70
     8
 71
     3
 72
    11
 73
     7
 74
     0
 42
0.0000000001
 43
0.0000000001
 40
0.0
 40
0.0
 40
0.0
 40
0.0
 40
1.048975082050298
 40
1.048975082050298
 40
1.048975082050298
 40
1.570796326794933
 40
1.570796326794933
 40
1.570796326794933
 40
1.570796326794933
 10
40.64486652182595
 20
124.2996506679838
 30
0.0
 10
40.64486652182594
 20
124.2559433728984
 30
0.0
 10
40.66966863023329
 20
124.2130728985273
 30
0.0
 10
40.707559043822
 20
124.1912865679101
 30
0.0
 10
40.7264079403507
 20
124.1804487793338
 30
0.0
 10
40.74812396996159
 20
124.1746506679838
 30
0.0
 10
40.76986652182595
 20
124.1746506679838
 30
0.0
  0
LINE
  5
516
330
6C
100
AcDbEntity
  8
Visible (ANSI)
100
AcDbLine
 10
40.73861652182595
 20
124.2996506679838
 30
0.0
 11
40.73861652182595
 21
125.0496506679838
 31
0.0
  0
LINE
  5
517
330
6C
100
AcDbEntity
  8
Visible (ANSI)
100
AcDbLine
 10
40.64486652182595
 20
125.0496506679838
 30
0.0
 11
40.64486652182595
 21
124.2996506679838
 31
0.0
  0
LINE
  5
518
330
6C
100
AcDbEntity
  8
Visible (ANSI)
100
AcDbLine
 10
40.73861652182595
 20
124.2996506679838
 30
0.0
 11
40.64486652182595
 21
124.2996506679838
 31
0.0
  0
LINE
  5
519
330
6C
100
AcDbEntity
  8
Visible (ANSI)
100
AcDbLine
 10
40.73861652182595
 20
125.0496506679838
 30
0.0
 11
40.64486652182595
 21
125.0496506679838
 31
0.0
  0
SPLINE
  5
51A
330
6C
100
AcDbEntity
  8
Visible (ANSI)
100
AcDbSpline
210
0.0
220
0.0
230
1.0
 70
     8
 71
     3
 72
    11
 73
     7
 74
     0
 42
0.0000000001
 43
0.0000000001
 40
0.0
 40
0.0
 40
0.0
 40
0.0
 40
1.483474787626956
 40
1.483474787626956
 40
1.483474787626956
 40
1.570796326794933
 40
1.570796326794933
 40
1.570796326794933
 40
1.570796326794933
 10
40.76986652182595
 20
124.2684006679838
 30
0.0
 10
40.75441365945484
 20
124.2684006679838
 30
0.0
 10
40.74008324111273
 20
124.2815313510701
 30
0.0
 10
40.73873558756528
 20
124.2969253364338
 30
0.0
 10
40.73865626085004
 20
124.2978314701322
 30
0.0
 10
40.73861652182595
 20
124.2987410686175
 30
0.0
 10
40.73861652182595
 20
124.2996506679838
 30
0.0
  0
LINE
  5
51B
330
6C
100
AcDbEntity
  8
Visible (ANSI)
100
AcDbLine
 10
71.51986652182596
 20
124.1746506679838
 30
0.0
 11
40.76986652182595
 21
124.1746506679838
 31
0.0
  0
LINE
  5
51C
330
6C
100
AcDbEntity
  8
Hidden (ANSI)
 48
1.040323972702026
100
AcDbLine
 10
40.76986652182595
 20
124.2684006679838
 30
0.0
 11
71.51986652182596
 21
124.2684006679838
 31
0.0
  0
LINE
  5
51D
330
6C
100
AcDbEntity
  8
Visible (ANSI)
100
AcDbLine
 10
40.80490778256219
 20
125.0496506679839
 30
0.0
 11
71.48482526108972
 21
125.0496506679839
 31
0.0
  0
LINE
  5
51E
330
6C
100
AcDbEntity
  8
Hidden (ANSI)
 48
0.0136357927694917
100
AcDbLine
 10
71.05136652182594
 20
124.2684006679836
 30
0.0
 11
71.05136652182594
 21
124.1746506679836
 31
0.0
  0
LINE
  5
51F
330
6C
100
AcDbEntity
  8
Hidden (ANSI)
 48
0.0136357927694917
100
AcDbLine
 10
70.48836652182593
 20
124.2684006679836
 30
0.0
 11
70.48836652182593
 21
124.1746506679836
 31
0.0
  0
LINE
  5
520
330
6C
100
AcDbEntity
  8
Hidden (ANSI)
 48
0.0136357927694917
100
AcDbLine
 10
41.80136652182596
 20
124.2684006679836
 30
0.0
 11
41.80136652182596
 21
124.1746506679836
 31
0.0
  0
LINE
  5
521
330
6C
100
AcDbEntity
  8
Hidden (ANSI)
 48
0.0136357927694917
100
AcDbLine
 10
41.23836652182595
 20
124.2684006679836
 30
0.0
 11
41.23836652182595
 21
124.1746506679836
 31
0.0
  0
MTEXT
  5
522
330
6C
100
AcDbEntity
  8
Symbol (ANSI)
100
AcDbMText
 10
51.09963008662222
 20
119.1707559120053
 30
0.0
 40
1.56000001927999
 41
0.0
 71
     7
 72
     1
  1
TOP VIEW
  7
Text Style153
 73
     1
 44
1.0
  0
LINE
  5
523
330
6C
100
AcDbEntity
  8
Symbol (ANSI)
370
    30
100
AcDbLine
 10
51.10087808983252
 20
118.8526246261317
 30
0.0
 11
60.94379529561304
 21
118.8526246261317
 31
0.0
  0
DIMENSION
  5
524
330
6C
100
AcDbEntity
  8
Dimension (ANSI)
100
AcDbDimension
  2
*D4
 10
109.263739263821
 20
91.88730630220025
 30
0.0
 11
115.8882906506355
 21
91.88730630220025
 31
0.0
 70
   160
  1
<>{\PTYP.}
 71
     4
 42
0.8750000000000142
  3
Default (ANSI)
100
AcDbAlignedDimension
 13
110.138739263821
 23
103.1680856262543
 33
0.0
 14
109.263739263821
 24
106.8666727388422
 34
0.0
 50
180.0
100
AcDbRotatedDimension
1001
ACAD
1000
DSTYLE
1002
{
1070
   289
1070
     1
1070
    73
1070
     0
1070
    74
1070
     0
1070
   271
1070
     2
1070
    76
1070
     1
1070
    75
1070
     1
1070
   272
1070
     2
1070
    48
1040
0.0
1070
    47
1040
0.0
1002
}
  0
DIMENSION
  5
615
330
6C
100
AcDbEntity
  8
Dimension (ANSI)
100
AcDbDimension
  2
*D5
 10
28.18100553475086
 20
28.9916727388422
 30
0.0
 11
28.18100553475085
 21
67.99167273884219
 31
0.0
 70
   160
  1
<>
 42
78.00000000000001
  3
Default (ANSI)
100
AcDbAlignedDimension
 13
40.80490778254463
 23
106.9916727388422
 33
0.0
 14
40.80490778254466
 24
28.99167273884219
 34
0.0
 50
90.0
100
AcDbRotatedDimension
1001
ACAD
1000
DSTYLE
1002
{
1070
   289
1070
     1
1070
   271
1070
     2
1070
   272
1070
     2
1070
    48
1040
0.0
1070
    47
1040
0.0
1002
}
  0
DIMENSION
  5
6FF
330
6C
100
AcDbEntity
  8
Dimension (ANSI)
100
AcDbDimension
  2
*D6
 10
70.76986652180839
 20
110.4189053032629
 30
0.0
 11
56.1448665218084
 21
110.4189053032629
 31
0.0
 70
   160
  1
<>
 42
29.25
  3
Default (ANSI)
100
AcDbAlignedDimension
 13
41.51986652180839
 23
106.1166727388422
 33
0.0
 14
70.76986652180839
 24
106.1166727388422
 34
0.0
 50
180.0
100
AcDbRotatedDimension
1001
ACAD
1000
DSTYLE
1002
{
1070
   289
1070
     1
1070
    73
1070
     0
1070
    74
1070
     0
1070
   271
1070
     2
1070
   272
1070
     2
1070
    48
1040
0.0
1070
    47
1040
0.0
1002
}
  0
DIMENSION
  5
7E9
330
6C
100
AcDbEntity
  8
Dimension (ANSI)
100
AcDbDimension
  2
*D7
 10
70.5708159629043
 20
29.66762217993818
 30
0.0
 11
81.76247794822854
 21
35.37413146474079
 31
0.0
 70
   163
  1
<>{\P(4 PL.)}
 71
     5
 42
0.5629999999999999
  3
Default (ANSI)
100
AcDbDiametricDimension
 15
70.9689170807124
 25
30.06572329774613
 35
0.0
 40
0.0
1001
ACAD
1000
DSTYLE
1002
{
1070
   144
1040
1.00000000000002
1070
   271
1070
     3
1070
   272
1070
     2
1070
    48
1040
0.0
1070
    47
1040
0.0
1002
}
1001
ACAD_DSTYLE_DIMRADIAL_EXTENSION
1070
   387
1070
     1
1070
   388
1040
0.0
1070
   390
1040
0.0
  0
LINE
  5
8A4
330
6C
100
AcDbEntity
  8
Center Mark (ANSI)
  6
CHAIN
 48
0.1628398448228836
100
AcDbLine
 10
41.51986652180839
 20
108.0231727388422
 30
0.0
 11
41.51986652180839
 21
104.2101727388422
 31
0.0
  0
LINE
  5
8A5
330
6C
100
AcDbEntity
  8
Center Mark (ANSI)
  6
CHAIN
 48
0.1628398448228836
100
AcDbLine
 10
70.76986652180839
 20
108.0231727388422
 30
0.0
 11
70.76986652180839
 21
104.2101727388422
 31
0.0
  0
LINE
  5
8A6
330
6C
100
AcDbEntity
  8
Centerline (ANSI)
  6
CHAIN
 48
0.9524481296539306
100
AcDbLine
 10
39.6133665218084
 20
106.1166727388422
 30
0.0
 11
72.67636652180839
 21
106.1166727388422
 31
0.0
  0
LINE
  5
8A7
330
6C
100
AcDbEntity
  8
Center Mark (ANSI)
  6
CHAIN
 48
0.1628398448228836
100
AcDbLine
 10
72.67636652180839
 20
106.1166727388422
 30
0.0
 11
68.8633665218084
 21
106.1166727388422
 31
0.0
  0
LINE
  5
8A8
330
6C
100
AcDbEntity
  8
Center Mark (ANSI)
  6
CHAIN
 48
0.1628398448228836
100
AcDbLine
 10
72.67636652180839
 20
29.86667273884219
 30
0.0
 11
68.8633665218084
 21
29.86667273884219
 31
0.0
  0
LINE
  5
8A9
330
6C
100
AcDbEntity
  8
Centerline (ANSI)
  6
CHAIN
 48
0.9524481296539306
100
AcDbLine
 10
70.76986652180839
 20
108.0231727388422
 30
0.0
 11
70.76986652180839
 21
27.96017273884219
 31
0.0
  0
LINE
  5
8AA
330
6C
100
AcDbEntity
  8
Center Mark (ANSI)
  6
CHAIN
 48
0.1628398448228836
100
AcDbLine
 10
70.76986652180839
 20
27.96017273884219
 30
0.0
 11
70.76986652180839
 21
31.77317273884219
 31
0.0
  0
LINE
  5
8AB
330
6C
100
AcDbEntity
  8
Center Mark (ANSI)
  6
CHAIN
 48
0.1628398448228836
100
AcDbLine
 10
41.5198665218084
 20
27.96017273884219
 30
0.0
 11
41.5198665218084
 21
31.77317273884219
 31
0.0
  0
LINE
  5
8AC
330
6C
100
AcDbEntity
  8
Centerline (ANSI)
  6
CHAIN
 48
0.9524481296539306
100
AcDbLine
 10
72.67636652180839
 20
29.86667273884219
 30
0.0
 11
39.61336652180841
 21
29.86667273884219
 31
0.0
  0
LINE
  5
8AD
330
6C
100
AcDbEntity
  8
Center Mark (ANSI)
  6
CHAIN
 48
0.1628398448228836
100
AcDbLine
 10
39.61336652180841
 20
29.86667273884219
 30
0.0
 11
43.4263665218084
 21
29.86667273884219
 31
0.0
  0
LINE
  5
8AE
330
6C
100
AcDbEntity
  8
Center Mark (ANSI)
  6
CHAIN
 48
0.1628398448228836
100
AcDbLine
 10
39.6133665218084
 20
106.1166727388422
 30
0.0
 11
43.42636652180839
 21
106.1166727388422
 31
0.0
  0
LINE
  5
8AF
330
6C
100
AcDbEntity
  8
Centerline (ANSI)
  6
CHAIN
 48
0.9524481296539306
100
AcDbLine
 10
41.5198665218084
 20
27.96017273884219
 30
0.0
 11
41.51986652180839
 21
108.0231727388422
 31
0.0
  0
DIMENSION
  5
8B0
330
6C
100
AcDbEntity
  8
Dimension (ANSI)
100
AcDbDimension
  2
*D8
 10
35.28265786039108
 20
29.86667273884219
 30
0.0
 11
35.28265786039108
 21
67.99167273884221
 31
0.0
 70
   160
  1
<>
 42
76.25000000000003
  3
Default (ANSI)
100
AcDbAlignedDimension
 13
39.6133665218084
 23
106.1166727388422
 33
0.0
 14
39.61336652180841
 24
29.86667273884219
 34
0.0
 50
270.0
100
AcDbRotatedDimension
1001
ACAD
1000
DSTYLE
1002
{
1070
   289
1070
     1
1070
   271
1070
     2
1070
   272
1070
     2
1070
    48
1040
0.0
1070
    47
1040
0.0
1002
}
  0
DIMENSION
  5
99A
330
6C
100
AcDbEntity
  8
Dimension (ANSI)
100
AcDbDimension
  2
*D9
 10
38.97113729805959
 20
29.86667273884219
 30
0.0
 11
35.28265786039108
 21
25.26070308237437
 31
0.0
 70
   160
  1
<>
 42
0.8749999999999964
  3
Default (ANSI)
100
AcDbAlignedDimension
 13
40.80490778254466
 23
28.99167273884219
 33
0.0
 14
39.61336652180841
 24
29.86667273884219
 34
0.0
 50
90.0
100
AcDbRotatedDimension
1001
ACAD
1000
DSTYLE
1002
{
1070
   289
1070
     1
1070
   271
1070
     2
1070
   272
1070
     2
1070
    48
1040
0.0
1070
    47
1040
0.0
1002
}
  0
DIMENSION
  5
A9A
330
6C
100
AcDbEntity
  8
Dimension (ANSI)
100
AcDbDimension
  2
*D10
 10
71.64486652180838
 20
114.4066595184663
 30
0.0
 11
56.1448665218084
 21
114.4066595184663
 31
0.0
 70
   160
  1
<>
 42
30.99999999999999
  3
Default (ANSI)
100
AcDbAlignedDimension
 13
40.64486652180839
 23
106.8316314781059
 33
0.0
 14
71.64486652180838
 24
106.8316314781059
 34
0.0
100
AcDbRotatedDimension
1001
ACAD
1000
DSTYLE
1002
{
1070
   289
1070
     1
1070
    73
1070
     0
1070
    74
1070
     0
1070
   271
1070
     2
1070
   272
1070
     2
1070
    48
1040
0.0
1070
    47
1040
0.0
1002
}
  0
DIMENSION
  5
B84
330
6C
100
AcDbEntity
  8
Dimension (ANSI)
100
AcDbDimension
  2
*D11
 10
40.64486652180839
 20
110.4189053032629
 30
0.0
 11
34.48479674110405
 21
110.4189053032629
 31
0.0
 70
   160
  1
<>
 42
0.875
  3
Default (ANSI)
100
AcDbAlignedDimension
 13
41.51986652180839
 23
108.0231727388422
 33
0.0
 14
40.64486652180839
 24
106.8316314781059
 34
0.0
 50
180.0
100
AcDbRotatedDimension
1001
ACAD
1000
DSTYLE
1002
{
1070
   289
1070
     1
1070
    73
1070
     0
1070
    74
1070
     0
1070
   271
1070
     2
1070
   272
1070
     2
1070
    48
1040
0.0
1070
    47
1040
0.0
1002
}
  0
DIMENSION
  5
C6E
330
6C
100
AcDbEntity
  8
Dimension (ANSI)
100
AcDbDimension
  2
*D12
 10
64.68223728948586
 20
124.1746506679838
 30
0.0
 11
68.43200618520453
 21
131.7337195322321
 31
0.0
 70
   160
  1
<>{\PTYP.}
 42
0.8750000000000426
  3
Default (ANSI)
100
AcDbAlignedDimension
 13
68.43200618520453
 23
125.0496506679839
 33
0.0
 14
68.43200618520454
 24
124.1746506679838
 34
0.0
 50
270.0
100
AcDbRotatedDimension
1001
ACAD
1000
DSTYLE
1002
{
1070
   289
1070
     1
1070
   145
1040
-0.25
1070
   271
1070
     2
1070
    76
1070
     1
1070
    75
1070
     1
1070
   272
1070
     2
1070
    48
1040
0.0
1070
    47
1040
0.0
1002
}
  0
MTEXT
  5
D77
102
{ACAD_XDICTIONARY
360
D85
102
}
330
6C
100
AcDbEntity
  8
Symbol (ANSI)
100
AcDbMText
 10
123.5665744189323
 20
10.45146521848674
 30
0.0
 40
1.300000041488587
 41
95.98403239813379
 71
     4
 72
     1
  3
{\fRomanS|b0|i0|c0|p2;\H2x;PART#: WA90SP36F3G\P(DATA SUBJECT TO CHANGE WITHOUT NOTICE)\H1.6157x; \H0.61894x;\P \H1.352x; \H0.73963x;\P\H0.6x;THIS DRAWING IS PROPERTY OF HUBBELL INC. WIEGMANN\H1.5633x; \H0.63966x;\PALL INFORMATION IS PROPRIETARY AND N
  1
OT TO BE DUPLICATED\H1.234x; \H0.81039x;\P\H1.2571x; }
  7
Note Text (ANSI)
 73
     1
 44
0.8026435375213623
  0
MTEXT
  5
D79
102
{ACAD_REACTORS
330
D7A
102
}
330
6C
100
AcDbEntity
  8
Symbol (ANSI)
100
AcDbMText
 10
104.2831619064845
 20
71.68849803091923
 30
0.0
 40
1.56000001927999
 41
12.09695311043206
 71
     6
 72
     1
  1
{12GA. GALV.\P(0.094)\P }
  7
Note Text (ANSI)
 73
     2
 44
0.9878841638565063
  0
LEADER
  5
D7A
330
6C
100
AcDbEntity
  8
Symbol (ANSI)
100
AcDbLeader
  3
Default (ANSI)$7
 73
     0
 75
     1
 40
7.216997741248477
 41
11.66071195594652
 76
     3
 10
109.263739263821
 20
67.12283661450739
 30
0.0
 10
105.9721382554563
 20
71.68849803091923
 30
0.0
 10
104.6926107253822
 20
71.68849803091923
 30
0.0
340
D79
1001
ACAD
1000
DSTYLE
1002
{
1070
    77
1070
     0
1002
}
  0
ENDSEC
  0
SECTION
  2
OBJECTS
  0
DICTIONARY
  5
C
330
0
100
AcDbDictionary
281
     1
  3
ACAD_CIP_PREVIOUS_PRODUCT_INFO
350
D7B
  3
ACAD_COLOR
350
63
  3
ACAD_GROUP
350
D
  3
ACAD_LAYOUT
350
62
  3
ACAD_MATERIAL
350
10
  3
ACAD_MLEADERSTYLE
350
66
  3
ACAD_MLINESTYLE
350
5F
  3
ACAD_PLOTSETTINGS
350
61
  3
ACAD_PLOTSTYLENAME
350
E
  3
ACAD_SCALELIST
350
42
  3
ACAD_TABLESTYLE
350
64
  3
ACAD_VISUALSTYLE
350
29
  3
ACDB_RECOMPOSE_DATA
350
D87
  3
AcDbVariableDictionary
350
76
  0
DICTIONARY
  5
DBD
330
89E
100
AcDbDictionary
280
     1
281
     1
  3
ACAD_MTEXT_2008_RT
360
DBE
  0
DICTIONARY
  5
D85
330
D77
100
AcDbDictionary
280
     1
281
     1
  3
ACAD_MTEXT_2008_RT
360
D86
  0
XRECORD
  5
D7B
102
{ACAD_REACTORS
330
C
102
}
330
C
100
AcDbXrecord
280
     1
300
INVNTOR
300
2012
300
PDSP_F_S_TL
  0
DICTIONARY
  5
63
102
{ACAD_REACTORS
330
C
102
}
330
C
100
AcDbDictionary
281
     1
  0
DICTIONARY
  5
D
102
{ACAD_REACTORS
330
C
102
}
330
C
100
AcDbDictionary
281
     1
  0
DICTIONARY
  5
62
102
{ACAD_REACTORS
330
C
102
}
330
C
100
AcDbDictionary
281
     1
  3
Layout1
350
6B
  3
Layout2
350
73
  3
Model
350
6F
  0
DICTIONARY
  5
10
102
{ACAD_REACTORS
330
C
102
}
330
C
100
AcDbDictionary
281
     1
  3
ByBlock
350
19
  3
ByLayer
350
11
  3
Global
350
21
  0
DICTIONARY
  5
66
102
{ACAD_REACTORS
330
C
102
}
330
C
100
AcDbDictionary
281
     1
  3
Standard
350
67
  0
DICTIONARY
  5
5F
102
{ACAD_REACTORS
330
C
102
}
330
C
100
AcDbDictionary
281
     1
  3
Standard
350
60
  0
DICTIONARY
  5
61
102
{ACAD_REACTORS
330
C
102
}
330
C
100
AcDbDictionary
281
     1
  0
ACDBDICTIONARYWDFLT
  5
E
102
{ACAD_REACTORS
330
C
102
}
330
C
100
AcDbDictionary
281
     1
  3
Normal
350
F
100
AcDbDictionaryWithDefault
340
F
  0
DICTIONARY
  5
42
102
{ACAD_REACTORS
330
C
102
}
330
C
100
AcDbDictionary
281
     1
  3
A0
350
43
  3
A1
350
44
  3
A2
350
45
  3
A3
350
46
  3
A4
350
47
  3
A5
350
48
  3
A6
350
49
  3
A7
350
4A
  3
A8
350
4B
  3
A9
350
4C
  3
B0
350
4D
  3
B1
350
4E
  3
B2
350
4F
  3
B3
350
50
  3
B4
350
51
  3
B5
350
52
  3
B6
350
53
  0
DICTIONARY
  5
64
102
{ACAD_REACTORS
330
C
102
}
330
C
100
AcDbDictionary
281
     1
  3
Standard
350
65
  0
DICTIONARY
  5
29
102
{ACAD_REACTORS
330
C
102
}
330
C
100
AcDbDictionary
281
     1
  3
2dWireframe
350
2F
  3
Basic
350
2E
  3
Brighten
350
35
  3
ColorChange
350
39
  3
Conceptual
350
32
  3
Dim
350
34
  3
EdgeColorOff
350
41
  3
Facepattern
350
38
  3
Flat
350
2A
  3
FlatWithEdges
350
2B
  3
Gouraud
350
2C
  3
GouraudWithEdges
350
2D
  3
Hidden
350
31
  3
JitterOff
350
3F
  3
Linepattern
350
37
  3
OverhangOff
350
40
  3
Realistic
350
33
  3
Shaded
350
3E
  3
Shaded with edges
350
3D
  3
Shades of Gray
350
3A
  3
Sketchy
350
3B
  3
Thicken
350
36
  3
Wireframe
350
30
  3
X-Ray
350
3C
  0
XRECORD
  5
D87
102
{ACAD_REACTORS
330
C
102
}
330
C
100
AcDbXrecord
280
     1
 90
        1
330
65
330
D77
  0
DICTIONARY
  5
76
102
{ACAD_REACTORS
330
C
102
}
330
C
100
AcDbDictionary
281
     1
  3
CANNOSCALE
350
79
  3
CMLEADERSTYLE
350
78
  3
CTABLESTYLE
350
77
  3
LAYEREVAL
350
D7E
  3
LAYERNOTIFY
350
D7F
  3
LIGHTINGUNITS
350
D7D
  3
MSLTSCALE
350
D7C
  3
XCLIPFRAME
350
D80
  0
XRECORD
  5
DBE
102
{ACAD_REACTORS
330
DBD
102
}
330
DBD
100
AcDbXrecord
280
     1
 40
24449.0
  1
\A1;\U+22050.563{\P(4 PL.)}
  0
XRECORD
  5
D86
102
{ACAD_REACTORS
330
D85
102
}
330
D85
100
AcDbXrecord
280
     1
 40
3130348.0
  1
\pxsm0.94;{\fRomanS|b0|i0;\H2.6000;PART#: WA90SP36F3G\P(DATA SUBJECT TO CHANGE WITHOUT NOTICE)\P \P\fRomanS|b0|i0;\H1.5600;THIS DRAWING IS PROPERTY OF HUBBELL INC. WIEGMANN\PALL INFORMATION IS PROPRIETARY AND NOT TO BE DUPLICATED\P}
  0
LAYOUT
  5
6B
102
{ACAD_REACTORS
330
62
102
}
330
62
100
AcDbPlotSettings
  1

  2

  4

  6

 40
0.0
 41
0.0
 42
0.0
 43
0.0
 44
0.0
 45
0.0
 46
0.0
 47
0.0
 48
0.0
 49
0.0
140
0.0
141
0.0
142
1.0
143
1.0
 70
   688
 72
     0
 73
     0
 74
     5
  7

 75
    16
147
1.0
 76
     0
 77
     2
 78
   300
148
0.0
149
0.0
100
AcDbLayout
  1
Layout1
 70
     1
 71
     1
 10
0.0
 20
0.0
 11
12.0
 21
9.0
 12
0.0
 22
0.0
 32
0.0
 14
0.0
 24
0.0
 34
0.0
 15
0.0
 25
0.0
 35
0.0
146
0.0
 13
0.0
 23
0.0
 33
0.0
 16
1.0
 26
0.0
 36
0.0
 17
0.0
 27
1.0
 37
0.0
 76
     0
330
68
  0
LAYOUT
  5
73
102
{ACAD_REACTORS
330
62
102
}
330
62
100
AcDbPlotSettings
  1

  2

  4

  6

 40
0.0
 41
0.0
 42
0.0
 43
0.0
 44
0.0
 45
0.0
 46
0.0
 47
0.0
 48
0.0
 49
0.0
140
0.0
141
0.0
142
1.0
143
1.0
 70
   688
 72
     0
 73
     0
 74
     5
  7

 75
    16
147
1.0
 76
     0
 77
     2
 78
   300
148
0.0
149
0.0
100
AcDbLayout
  1
Layout2
 70
     1
 71
     2
 10
0.0
 20
0.0
 11
12.0
 21
9.0
 12
0.0
 22
0.0
 32
0.0
 14
0.0
 24
0.0
 34
0.0
 15
0.0
 25
0.0
 35
0.0
146
0.0
 13
0.0
 23
0.0
 33
0.0
 16
1.0
 26
0.0
 36
0.0
 17
0.0
 27
1.0
 37
0.0
 76
     0
330
70
  0
LAYOUT
  5
6F
102
{ACAD_REACTORS
330
62
102
}
330
62
100
AcDbPlotSettings
  1

  2

  4

  6

 40
0.0
 41
0.0
 42
0.0
 43
0.0
 44
0.0
 45
0.0
 46
0.0
 47
0.0
 48
0.0
 49
0.0
140
0.0
141
0.0
142
1.0
143
1.0
 70
  1712
 72
     0
 73
     0
 74
     0
  7

 75
     0
147
1.0
 76
     0
 77
     2
 78
   300
148
0.0
149
0.0
100
AcDbLayout
  1
Model
 70
     1
 71
     0
 10
0.0
 20
0.0
 11
12.0
 21
9.0
 12
0.0
 22
0.0
 32
0.0
 14
0.0
 24
0.0
 34
0.0
 15
0.0
 25
0.0
 35
0.0
146
0.0
 13
0.0
 23
0.0
 33
0.0
 16
1.0
 26
0.0
 36
0.0
 17
0.0
 27
1.0
 37
0.0
 76
     0
330
6C
  0
MATERIAL
  5
19
102
{ACAD_XDICTIONARY
360
1A
102
}
102
{ACAD_REACTORS
330
10
102
}
330
10
100
AcDbMaterial
  1
ByBlock
 72
     0
 43
0.0208333333333333
 43
0.0
 43
0.0
 43
0.0
 43
0.0
 43
0.0208333333333333
 43
0.0
 43
0.0
 43
0.0
 43
0.0
 43
1.0
 43
0.0
 43
0.0
 43
0.0
 43
0.0
 43
1.0
 77
     0
 47
0.0208333333333333
 47
0.0
 47
0.0
 47
0.0
 47
0.0
 47
0.0208333333333333
 47
0.0
 47
0.0
 47
0.0
 47
0.0
 47
1.0
 47
0.0
 47
0.0
 47
0.0
 47
0.0
 47
1.0
171
     0
 49
0.0208333333333333
 49
0.0
 49
0.0
 49
0.0
 49
0.0
 49
0.0208333333333333
 49
0.0
 49
0.0
 49
0.0
 49
0.0
 49
1.0
 49
0.0
 49
0.0
 49
0.0
 49
0.0
 49
1.0
175
     0
142
0.0208333333333333
142
0.0
142
0.0
142
0.0
142
0.0
142
0.0208333333333333
142
0.0
142
0.0
142
0.0
142
0.0
142
1.0
142
0.0
142
0.0
142
0.0
142
0.0
142
1.0
179
     0
144
0.0208333333333333
144
0.0
144
0.0
144
0.0
144
0.0
144
0.0208333333333333
144
0.0
144
0.0
144
0.0
144
0.0
144
1.0
144
0.0
144
0.0
144
0.0
144
0.0
144
1.0
147
0.0208333333333333
147
0.0
147
0.0
147
0.0
147
0.0
147
0.0208333333333333
147
0.0
147
0.0
147
0.0
147
0.0
147
1.0
147
0.0
147
0.0
147
0.0
147
0.0
147
1.0
  0
MATERIAL
  5
11
102
{ACAD_XDICTIONARY
360
12
102
}
102
{ACAD_REACTORS
330
10
102
}
330
10
100
AcDbMaterial
  1
ByLayer
 72
     0
 43
0.0208333333333333
 43
0.0
 43
0.0
 43
0.0
 43
0.0
 43
0.0208333333333333
 43
0.0
 43
0.0
 43
0.0
 43
0.0
 43
1.0
 43
0.0
 43
0.0
 43
0.0
 43
0.0
 43
1.0
 77
     0
 47
0.0208333333333333
 47
0.0
 47
0.0
 47
0.0
 47
0.0
 47
0.0208333333333333
 47
0.0
 47
0.0
 47
0.0
 47
0.0
 47
1.0
 47
0.0
 47
0.0
 47
0.0
 47
0.0
 47
1.0
171
     0
 49
0.0208333333333333
 49
0.0
 49
0.0
 49
0.0
 49
0.0
 49
0.0208333333333333
 49
0.0
 49
0.0
 49
0.0
 49
0.0
 49
1.0
 49
0.0
 49
0.0
 49
0.0
 49
0.0
 49
1.0
175
     0
142
0.0208333333333333
142
0.0
142
0.0
142
0.0
142
0.0
142
0.0208333333333333
142
0.0
142
0.0
142
0.0
142
0.0
142
1.0
142
0.0
142
0.0
142
0.0
142
0.0
142
1.0
179
     0
144
0.0208333333333333
144
0.0
144
0.0
144
0.0
144
0.0
144
0.0208333333333333
144
0.0
144
0.0
144
0.0
144
0.0
144
1.0
144
0.0
144
0.0
144
0.0
144
0.0
144
1.0
147
0.0208333333333333
147
0.0
147
0.0
147
0.0
147
0.0
147
0.0208333333333333
147
0.0
147
0.0
147
0.0
147
0.0
147
1.0
147
0.0
147
0.0
147
0.0
147
0.0
147
1.0
  0
MATERIAL
  5
21
102
{ACAD_XDICTIONARY
360
22
102
}
102
{ACAD_REACTORS
330
10
102
}
330
10
100
AcDbMaterial
  1
Global
 72
     0
 43
0.0208333333333333
 43
0.0
 43
0.0
 43
0.0
 43
0.0
 43
0.0208333333333333
 43
0.0
 43
0.0
 43
0.0
 43
0.0
 43
1.0
 43
0.0
 43
0.0
 43
0.0
 43
0.0
 43
1.0
 77
     0
 47
0.0208333333333333
 47
0.0
 47
0.0
 47
0.0
 47
0.0
 47
0.0208333333333333
 47
0.0
 47
0.0
 47
0.0
 47
0.0
 47
1.0
 47
0.0
 47
0.0
 47
0.0
 47
0.0
 47
1.0
171
     0
 49
0.0208333333333333
 49
0.0
 49
0.0
 49
0.0
 49
0.0
 49
0.0208333333333333
 49
0.0
 49
0.0
 49
0.0
 49
0.0
 49
1.0
 49
0.0
 49
0.0
 49
0.0
 49
0.0
 49
1.0
175
     0
142
0.0208333333333333
142
0.0
142
0.0
142
0.0
142
0.0
142
0.0208333333333333
142
0.0
142
0.0
142
0.0
142
0.0
142
1.0
142
0.0
142
0.0
142
0.0
142
0.0
142
1.0
179
     0
144
0.0208333333333333
144
0.0
144
0.0
144
0.0
144
0.0
144
0.0208333333333333
144
0.0
144
0.0
144
0.0
144
0.0
144
1.0
144
0.0
144
0.0
144
0.0
144
0.0
144
1.0
147
0.0208333333333333
147
0.0
147
0.0
147
0.0
147
0.0
147
0.0208333333333333
147
0.0
147
0.0
147
0.0
147
0.0
147
1.0
147
0.0
147
0.0
147
0.0
147
0.0
147
1.0
  0
MLEADERSTYLE
  5
67
102
{ACAD_XDICTIONARY
360
D83
102
}
102
{ACAD_REACTORS
330
66
102
}
330
66
100
AcDbMLeaderStyle
170
     2
171
     1
172
     0
 90
        2
 40
0.0
 41
0.0
173
     1
 91
-1056964608
340
5B
 92
       -2
290
     1
 42
0.09
291
     1
 43
0.36
  3
Standard
 44
0.18
300

342
55
174
     1
178
     6
175
     1
176
     0
 93
-1056964608
 45
0.18
292
     0
297
     0
 46
0.18
 94
-1056964608
 47
1.0
 49
1.0
140
1.0
293
     1
141
0.0
294
     1
177
     0
142
1.0
295
     0
296
     0
143
0.125
1001
ACAD_MLEADERVER
1070
     2
  0
MLINESTYLE
  5
60
102
{ACAD_REACTORS
330
5F
102
}
330
5F
100
AcDbMlineStyle
  2
STANDARD
 70
     0
  3

 62
   256
 51
90.0
 52
90.0
 71
     2
 49
0.5
 62
   256
  6
BYLAYER
 49
-0.5
 62
   256
  6
BYLAYER
  0
ACDBPLACEHOLDER
  5
F
102
{ACAD_REACTORS
330
E
102
}
330
E
  0
SCALE
  5
43
102
{ACAD_REACTORS
330
42
102
}
330
42
100
AcDbScale
 70
     0
300
1:1
140
1.0
141
1.0
290
     1
  0
SCALE
  5
44
102
{ACAD_REACTORS
330
42
102
}
330
42
100
AcDbScale
 70
     0
300
1/128" = 1'-0"
140
0.0078125
141
12.0
290
     0
  0
SCALE
  5
45
102
{ACAD_REACTORS
330
42
102
}
330
42
100
AcDbScale
 70
     0
300
1/64" = 1'-0"
140
0.015625
141
12.0
290
     0
  0
SCALE
  5
46
102
{ACAD_REACTORS
330
42
102
}
330
42
100
AcDbScale
 70
     0
300
1/32" = 1'-0"
140
0.03125
141
12.0
290
     0
  0
SCALE
  5
47
102
{ACAD_REACTORS
330
42
102
}
330
42
100
AcDbScale
 70
     0
300
1/16" = 1'-0"
140
0.0625
141
12.0
290
     0
  0
SCALE
  5
48
102
{ACAD_REACTORS
330
42
102
}
330
42
100
AcDbScale
 70
     0
300
3/32" = 1'-0"
140
0.09375
141
12.0
290
     0
  0
SCALE
  5
49
102
{ACAD_REACTORS
330
42
102
}
330
42
100
AcDbScale
 70
     0
300
1/8" = 1'-0"
140
0.125
141
12.0
290
     0
  0
SCALE
  5
4A
102
{ACAD_REACTORS
330
42
102
}
330
42
100
AcDbScale
 70
     0
300
3/16" = 1'-0"
140
0.1875
141
12.0
290
     0
  0
SCALE
  5
4B
102
{ACAD_REACTORS
330
42
102
}
330
42
100
AcDbScale
 70
     0
300
1/4" = 1'-0"
140
0.25
141
12.0
290
     0
  0
SCALE
  5
4C
102
{ACAD_REACTORS
330
42
102
}
330
42
100
AcDbScale
 70
     0
300
3/8" = 1'-0"
140
0.375
141
12.0
290
     0
  0
SCALE
  5
4D
102
{ACAD_REACTORS
330
42
102
}
330
42
100
AcDbScale
 70
     0
300
1/2" = 1'-0"
140
0.5
141
12.0
290
     0
  0
SCALE
  5
4E
102
{ACAD_REACTORS
330
42
102
}
330
42
100
AcDbScale
 70
     0
300
3/4" = 1'-0"
140
0.75
141
12.0
290
     0
  0
SCALE
  5
4F
102
{ACAD_REACTORS
330
42
102
}
330
42
100
AcDbScale
 70
     0
300
1" = 1'-0"
140
1.0
141
12.0
290
     0
  0
SCALE
  5
50
102
{ACAD_REACTORS
330
42
102
}
330
42
100
AcDbScale
 70
     0
300
1-1/2" = 1'-0"
140
1.5
141
12.0
290
     0
  0
SCALE
  5
51
102
{ACAD_REACTORS
330
42
102
}
330
42
100
AcDbScale
 70
     0
300
3" = 1'-0"
140
3.0
141
12.0
290
     0
  0
SCALE
  5
52
102
{ACAD_REACTORS
330
42
102
}
330
42
100
AcDbScale
 70
     0
300
6" = 1'-0"
140
6.0
141
12.0
290
     0
  0
SCALE
  5
53
102
{ACAD_REACTORS
330
42
102
}
330
42
100
AcDbScale
 70
     0
300
1'-0" = 1'-0"
140
12.0
141
12.0
290
     0
  0
TABLESTYLE
  5
65
102
{ACAD_XDICTIONARY
360
D81
102
}
102
{ACAD_REACTORS
330
64
102
}
330
64
100
AcDbTableStyle
  3
Standard
 70
     0
 71
     0
 40
0.06
 41
0.06
280
     0
281
     0
  7
Standard
140
0.18
170
     2
 62
     0
 63
     7
283
     0
274
    -2
284
     1
 64
     0
275
    -2
285
     1
 65
     0
276
    -2
286
     1
 66
     0
277
    -2
287
     1
 67
     0
278
    -2
288
     1
 68
     0
279
    -2
289
     1
 69
     0
  7
Standard
140
0.25
170
     5
 62
     0
 63
     7
283
     0
274
    -2
284
     1
 64
     0
275
    -2
285
     1
 65
     0
276
    -2
286
     1
 66
     0
277
    -2
287
     1
 67
     0
278
    -2
288
     1
 68
     0
279
    -2
289
     1
 69
     0
  7
Standard
140
0.18
170
     5
 62
     0
 63
     7
283
     0
274
    -2
284
     1
 64
     0
275
    -2
285
     1
 65
     0
276
    -2
286
     1
 66
     0
277
    -2
287
     1
 67
     0
278
    -2
288
     1
 68
     0
279
    -2
289
     1
 69
     0
  0
VISUALSTYLE
  5
2F
102
{ACAD_XDICTIONARY
360
D95
102
}
102
{ACAD_REACTORS
330
29
102
}
330
29
100
AcDbVisualStyle
  2
2dWireframe
 70
     4
 71
     0
 72
     2
 73
     0
 90
        0
 40
-0.6
 41
-30.0
 62
     5
 63
     7
421
 16777215
 74
     1
 91
        4
 64
     7
 65
   257
 75
     1
175
     1
 42
1.0
 92
        0
 66
   257
 43
1.0
 76
     1
 77
     6
 78
     2
 67
     7
 79
     5
170
     0
171
     0
290
     0
174
     0
 93
        1
 44
0.0
173
     0
291
     0
 45
0.0
1001
ACAD
1000
AcDbSavedByObjectVersion
1070
     0
  0
VISUALSTYLE
  5
2E
102
{ACAD_XDICTIONARY
360
D93
102
}
102
{ACAD_REACTORS
330
29
102
}
330
29
100
AcDbVisualStyle
  2
Basic
 70
     7
 71
     1
 72
     0
 73
     1
 90
        0
 40
-0.6
 41
-30.0
 62
     5
 63
     7
421
 16777215
 74
     0
 91
        4
 64
     7
 65
   257
 75
     1
175
     1
 42
1.0
 92
        8
 66
     7
 43
1.0
 76
     1
 77
     6
 78
     2
 67
     7
 79
     5
170
     0
171
     0
290
     0
174
     0
 93
        1
 44
0.0
173
     0
291
     1
 45
0.0
1001
ACAD
1000
AcDbSavedByObjectVersion
1070
     0
  0
VISUALSTYLE
  5
35
102
{ACAD_XDICTIONARY
360
DA1
102
}
102
{ACAD_REACTORS
330
29
102
}
330
29
100
AcDbVisualStyle
  2
Brighten
 70
    12
 71
     2
 72
     2
 73
     0
 90
        0
 40
-0.6
 41
-30.0
 62
     5
 63
     7
421
 16777215
 74
     1
 91
        4
 64
     7
 65
   257
 75
     1
175
     1
 42
1.0
 92
        8
 66
     7
 43
1.0
 76
     1
 77
     6
 78
     2
 67
     7
 79
     5
170
     0
171
     0
290
     0
174
     0
 93
        1
 44
50.0
173
     0
291
     1
 45
0.0
1001
ACAD
1000
AcDbSavedByObjectVersion
1070
     0
  0
VISUALSTYLE
  5
39
102
{ACAD_XDICTIONARY
360
DA9
102
}
102
{ACAD_REACTORS
330
29
102
}
330
29
100
AcDbVisualStyle
  2
ColorChange
 70
    16
 71
     2
 72
     2
 73
     3
 90
        0
 40
-0.6
 41
-30.0
 62
     5
 63
     8
421
  8421504
 74
     1
 91
        4
 64
     7
 65
   257
 75
     1
175
     1
 42
1.0
 92
        8
 66
     8
424
  8421504
 43
1.0
 76
     1
 77
     6
 78
     2
 67
     7
 79
     5
170
     0
171
     0
290
     0
174
     0
 93
        1
 44
0.0
173
     0
291
     1
 45
0.0
1001
ACAD
1000
AcDbSavedByObjectVersion
1070
     0
  0
VISUALSTYLE
  5
32
102
{ACAD_XDICTIONARY
360
D9B
102
}
102
{ACAD_REACTORS
330
29
102
}
330
29
100
AcDbVisualStyle
  2
Conceptual
 70
     9
 71
     3
 72
     2
 73
     0
 90
        0
 40
-0.6
 41
-30.0
 62
     5
 63
     7
421
 16777215
 74
     2
 91
        2
 64
     7
 65
   257
 75
     1
175
     1
 42
179.0
 92
        8
 66
     7
 43
1.0
 76
     1
 77
     6
 78
     2
 67
     7
 79
     3
170
     0
171
     0
290
     0
174
     0
 93
        1
 44
0.0
173
     0
291
     0
 45
0.0
1001
ACAD
1000
AcDbSavedByObjectVersion
1070
     0
  0
VISUALSTYLE
  5
34
102
{ACAD_XDICTIONARY
360
D9F
102
}
102
{ACAD_REACTORS
330
29
102
}
330
29
100
AcDbVisualStyle
  2
Dim
 70
    11
 71
     2
 72
     2
 73
     0
 90
        0
 40
-0.6
 41
-30.0
 62
     5
 63
     7
421
 16777215
 74
     1
 91
        4
 64
     7
 65
   257
 75
     1
175
     1
 42
1.0
 92
        8
 66
     7
 43
1.0
 76
     1
 77
     6
 78
     2
 67
     7
 79
     5
170
     0
171
     0
290
     0
174
     0
 93
        1
 44
-50.0
173
     0
291
     1
 45
0.0
1001
ACAD
1000
AcDbSavedByObjectVersion
1070
     0
  0
VISUALSTYLE
  5
41
102
{ACAD_XDICTIONARY
360
DB9
102
}
102
{ACAD_REACTORS
330
29
102
}
330
29
100
AcDbVisualStyle
  2
EdgeColorOff
 70
    22
 71
     2
 72
     2
 73
     0
 90
        0
 40
-0.6
 41
-30.0
 62
     5
 63
     7
421
 16777215
 74
     1
 91
        4
 64
     7
 65
   257
 75
     1
175
     1
 42
1.0
 92
        8
 66
     7
 43
1.0
 76
     1
 77
     6
 78
     2
 67
     7
 79
     5
170
     0
171
     0
290
     0
174
     0
 93
        1
 44
0.0
173
     0
291
     1
 45
0.0
1001
ACAD
1000
AcDbSavedByObjectVersion
1070
     0
  0
VISUALSTYLE
  5
38
102
{ACAD_XDICTIONARY
360
DA7
102
}
102
{ACAD_REACTORS
330
29
102
}
330
29
100
AcDbVisualStyle
  2
Facepattern
 70
    15
 71
     2
 72
     2
 73
     0
 90
        0
 40
-0.6
 41
-30.0
 62
     5
 63
     7
421
 16777215
 74
     1
 91
        4
 64
     7
 65
   257
 75
     1
175
     1
 42
1.0
 92
        8
 66
     7
 43
1.0
 76
     1
 77
     6
 78
     2
 67
     7
 79
     5
170
     0
171
     0
290
     0
174
     0
 93
        1
 44
0.0
173
     0
291
     1
 45
0.0
1001
ACAD
1000
AcDbSavedByObjectVersion
1070
     0
  0
VISUALSTYLE
  5
2A
102
{ACAD_XDICTIONARY
360
D8B
102
}
102
{ACAD_REACTORS
330
29
102
}
330
29
100
AcDbVisualStyle
  2
Flat
 70
     0
 71
     2
 72
     1
 73
     1
 90
        2
 40
-0.6
 41
30.0
 62
     5
 63
     7
421
 16777215
 74
     0
 91
        0
 64
     7
 65
   257
 75
     1
175
     1
 42
1.0
 92
        8
 66
     7
 43
1.0
 76
     1
 77
     6
 78
     2
 67
     7
 79
     5
170
     0
171
     0
290
     0
174
     0
 93
       13
 44
0.0
173
     0
291
     1
 45
0.0
1001
ACAD
1000
AcDbSavedByObjectVersion
1070
     0
  0
VISUALSTYLE
  5
2B
102
{ACAD_XDICTIONARY
360
D8D
102
}
102
{ACAD_REACTORS
330
29
102
}
330
29
100
AcDbVisualStyle
  2
FlatWithEdges
 70
     1
 71
     2
 72
     1
 73
     1
 90
        2
 40
-0.6
 41
30.0
 62
     5
 63
     7
421
 16777215
 74
     1
 91
        0
 64
     7
 65
   257
 75
     1
175
     1
 42
1.0
 92
        0
 66
   257
 43
1.0
 76
     1
 77
     6
 78
     2
 67
     7
 79
     5
170
     0
171
     0
290
     0
174
     0
 93
       13
 44
0.0
173
     0
291
     1
 45
0.0
1001
ACAD
1000
AcDbSavedByObjectVersion
1070
     0
  0
VISUALSTYLE
  5
2C
102
{ACAD_XDICTIONARY
360
D8F
102
}
102
{ACAD_REACTORS
330
29
102
}
330
29
100
AcDbVisualStyle
  2
Gouraud
 70
     2
 71
     2
 72
     2
 73
     1
 90
        2
 40
-0.6
 41
30.0
 62
     5
 63
     7
421
 16777215
 74
     0
 91
        0
 64
     7
 65
   257
 75
     1
175
     1
 42
1.0
 92
        0
 66
     7
 43
1.0
 76
     1
 77
     6
 78
     2
 67
     7
 79
     5
170
     0
171
     0
290
     0
174
     0
 93
       13
 44
0.0
173
     0
291
     1
 45
0.0
1001
ACAD
1000
AcDbSavedByObjectVersion
1070
     0
  0
VISUALSTYLE
  5
2D
102
{ACAD_XDICTIONARY
360
D91
102
}
102
{ACAD_REACTORS
330
29
102
}
330
29
100
AcDbVisualStyle
  2
GouraudWithEdges
 70
     3
 71
     2
 72
     2
 73
     1
 90
        2
 40
-0.6
 41
30.0
 62
     5
 63
     7
421
 16777215
 74
     1
 91
        0
 64
     7
 65
   257
 75
     1
175
     1
 42
1.0
 92
        0
 66
   257
 43
1.0
 76
     1
 77
     6
 78
     2
 67
     7
 79
     5
170
     0
171
     0
290
     0
174
     0
 93
       13
 44
0.0
173
     0
291
     1
 45
0.0
1001
ACAD
1000
AcDbSavedByObjectVersion
1070
     0
  0
VISUALSTYLE
  5
31
102
{ACAD_XDICTIONARY
360
D99
102
}
102
{ACAD_REACTORS
330
29
102
}
330
29
100
AcDbVisualStyle
  2
Hidden
 70
     6
 71
     1
 72
     2
 73
     2
 90
        0
 40
-0.6
 41
-30.0
 62
     5
 63
     7
421
 16777215
 74
     2
 91
        2
 64
     7
 65
   257
 75
     2
175
     1
 42
40.0
 92
        0
 66
   257
 43
1.0
 76
     1
 77
     6
 78
     2
 67
     7
 79
     3
170
     0
171
     0
290
     0
174
     0
 93
        1
 44
0.0
173
     0
291
     0
 45
0.0
1001
ACAD
1000
AcDbSavedByObjectVersion
1070
     0
  0
VISUALSTYLE
  5
3F
102
{ACAD_XDICTIONARY
360
DB5
102
}
102
{ACAD_REACTORS
330
29
102
}
330
29
100
AcDbVisualStyle
  2
JitterOff
 70
    20
 71
     2
 72
     2
 73
     0
 90
        0
 40
-0.6
 41
-30.0
 62
     5
 63
     7
421
 16777215
 74
     1
 91
        4
 64
     7
 65
   257
 75
     1
175
     1
 42
1.0
 92
       10
 66
     7
 43
1.0
 76
     1
 77
     6
 78
     2
 67
     7
 79
     5
170
     0
171
     0
290
     0
174
     0
 93
        1
 44
0.0
173
     0
291
     1
 45
0.0
1001
ACAD
1000
AcDbSavedByObjectVersion
1070
     0
  0
VISUALSTYLE
  5
37
102
{ACAD_XDICTIONARY
360
DA5
102
}
102
{ACAD_REACTORS
330
29
102
}
330
29
100
AcDbVisualStyle
  2
Linepattern
 70
    14
 71
     2
 72
     2
 73
     0
 90
        0
 40
-0.6
 41
-30.0
 62
     5
 63
     7
421
 16777215
 74
     1
 91
        4
 64
     7
 65
   257
 75
     7
175
     7
 42
1.0
 92
        8
 66
     7
 43
1.0
 76
     1
 77
     6
 78
     2
 67
     7
 79
     5
170
     0
171
     0
290
     0
174
     0
 93
        1
 44
0.0
173
     0
291
     1
 45
0.0
1001
ACAD
1000
AcDbSavedByObjectVersion
1070
     0
  0
VISUALSTYLE
  5
40
102
{ACAD_XDICTIONARY
360
DB7
102
}
102
{ACAD_REACTORS
330
29
102
}
330
29
100
AcDbVisualStyle
  2
OverhangOff
 70
    21
 71
     2
 72
     2
 73
     0
 90
        0
 40
-0.6
 41
-30.0
 62
     5
 63
     7
421
 16777215
 74
     1
 91
        4
 64
     7
 65
   257
 75
     1
175
     1
 42
1.0
 92
        9
 66
     7
 43
1.0
 76
     1
 77
     6
 78
     2
 67
     7
 79
     5
170
     0
171
     0
290
     0
174
     0
 93
        1
 44
0.0
173
     0
291
     1
 45
0.0
1001
ACAD
1000
AcDbSavedByObjectVersion
1070
     0
  0
VISUALSTYLE
  5
33
102
{ACAD_XDICTIONARY
360
D9D
102
}
102
{ACAD_REACTORS
330
29
102
}
330
29
100
AcDbVisualStyle
  2
Realistic
 70
     8
 71
     2
 72
     3
 73
     0
 90
        2
 40
-0.6
 41
30.0
 62
     5
 63
     7
421
 16777215
 74
     0
 91
        0
 64
     7
 65
   257
 75
     1
175
     1
 42
1.0
 92
        8
 66
   257
 43
1.0
 76
     1
 77
     6
 78
     2
 67
     7
 79
     3
170
     0
171
     0
290
     0
174
     0
 93
       13
 44
0.0
173
     0
291
     0
 45
0.0
1001
ACAD
1000
AcDbSavedByObjectVersion
1070
     0
  0
VISUALSTYLE
  5
3E
102
{ACAD_XDICTIONARY
360
DB3
102
}
102
{ACAD_REACTORS
330
29
102
}
330
29
100
AcDbVisualStyle
  2
Shaded
 70
    27
 71
     2
 72
     2
 73
     1
 90
        2
 40
-0.6
 41
30.0
 62
     5
 63
     7
421
 16777215
 74
     0
 91
        4
 64
     7
 65
   257
 75
     1
175
     1
 42
1.0
 92
        8
 66
   257
 43
1.0
 76
     1
 77
     6
 78
     2
 67
     8
425
  7895160
 79
     3
170
     0
171
     0
290
     0
174
     0
 93
        5
 44
0.0
173
     0
291
     0
 45
0.0
1001
ACAD
1000
AcDbSavedByObjectVersion
1070
     0
  0
VISUALSTYLE
  5
3D
102
{ACAD_XDICTIONARY
360
DB1
102
}
102
{ACAD_REACTORS
330
29
102
}
330
29
100
AcDbVisualStyle
  2
Shaded with edges
 70
    26
 71
     2
 72
     2
 73
     1
 90
        2
 40
-0.6
 41
30.0
 62
     5
 63
     7
421
 16777215
 74
     1
 91
       10
 64
     7
 65
   257
 75
     2
175
     1
 42
1.0
 92
        8
 66
   257
 43
1.0
 76
     1
 77
     6
 78
     2
 67
     7
 79
     3
170
     0
171
     0
290
     0
174
     0
 93
        5
 44
0.0
173
     0
291
     0
 45
0.0
1001
ACAD
1000
AcDbSavedByObjectVersion
1070
     0
  0
VISUALSTYLE
  5
3A
102
{ACAD_XDICTIONARY
360
DAB
102
}
102
{ACAD_REACTORS
330
29
102
}
330
29
100
AcDbVisualStyle
  2
Shades of Gray
 70
    23
 71
     2
 72
     2
 73
     3
 90
        0
 40
-0.6
 41
-30.0
 62
     5
 63
     7
421
 16777215
 74
     2
 91
        2
 64
     7
 65
     7
 75
     1
175
     1
 42
40.0
 92
        8
 66
     7
 43
1.0
 76
     1
 77
     6
 78
     2
 67
     7
 79
     3
170
     0
171
     0
290
     0
174
     0
 93
        1
 44
0.0
173
     0
291
     0
 45
0.0
1001
ACAD
1000
AcDbSavedByObjectVersion
1070
     0
  0
VISUALSTYLE
  5
3B
102
{ACAD_XDICTIONARY
360
DAD
102
}
102
{ACAD_REACTORS
330
29
102
}
330
29
100
AcDbVisualStyle
  2
Sketchy
 70
    24
 71
     1
 72
     2
 73
     2
 90
        0
 40
-0.6
 41
-30.0
 62
     5
 63
     7
421
 16777215
 74
     2
 91
        2
 64
     7
 65
     7
 75
     1
175
     1
 42
40.0
 92
       11
 66
     7
 43
1.0
 76
     1
 77
     6
 78
     2
 67
     7
 79
     6
170
     0
171
     0
290
     0
174
     0
 93
        1
 44
0.0
173
     0
291
     0
 45
0.0
1001
ACAD
1000
AcDbSavedByObjectVersion
1070
     0
  0
VISUALSTYLE
  5
36
102
{ACAD_XDICTIONARY
360
DA3
102
}
102
{ACAD_REACTORS
330
29
102
}
330
29
100
AcDbVisualStyle
  2
Thicken
 70
    13
 71
     2
 72
     2
 73
     0
 90
        0
 40
-0.6
 41
-30.0
 62
     5
 63
     7
421
 16777215
 74
     1
 91
        4
 64
     7
 65
   257
 75
     1
175
     1
 42
1.0
 92
       12
 66
     7
 43
1.0
 76
     1
 77
     6
 78
     2
 67
     7
 79
     5
170
     0
171
     0
290
     0
174
     0
 93
        1
 44
0.0
173
     0
291
     1
 45
0.0
1001
ACAD
1000
AcDbSavedByObjectVersion
1070
     0
  0
VISUALSTYLE
  5
30
102
{ACAD_XDICTIONARY
360
D97
102
}
102
{ACAD_REACTORS
330
29
102
}
330
29
100
AcDbVisualStyle
  2
Wireframe
 70
     5
 71
     0
 72
     2
 73
     0
 90
        0
 40
-0.6
 41
-30.0
 62
     5
 63
     7
421
 16777215
 74
     1
 91
        4
 64
     7
 65
   257
 75
     1
175
     1
 42
1.0
 92
        0
 66
   257
 43
1.0
 76
     1
 77
     6
 78
     2
 67
     7
 79
     3
170
     0
171
     0
290
     0
174
     0
 93
        1
 44
0.0
173
     0
291
     0
 45
0.0
1001
ACAD
1000
AcDbSavedByObjectVersion
1070
     0
  0
VISUALSTYLE
  5
3C
102
{ACAD_XDICTIONARY
360
DAF
102
}
102
{ACAD_REACTORS
330
29
102
}
330
29
100
AcDbVisualStyle
  2
X-Ray
 70
    25
 71
     2
 72
     2
 73
     1
 90
        1
 40
0.5
 41
-30.0
 62
     5
 63
     7
421
 16777215
 74
     1
 91
        0
 64
     7
 65
   257
 75
     1
175
     1
 42
1.0
 92
        8
 66
     7
 43
1.0
 76
     1
 77
     6
 78
     2
 67
     7
 79
     3
170
     0
171
     0
290
     0
174
     0
 93
       13
 44
0.0
173
     0
291
     0
 45
0.0
1001
ACAD
1000
AcDbSavedByObjectVersion
1070
     0
  0
DICTIONARYVAR
  5
79
102
{ACAD_REACTORS
330
76
102
}
330
76
100
DictionaryVariables
280
     0
  1
1:1
  0
DICTIONARYVAR
  5
78
102
{ACAD_REACTORS
330
76
102
}
330
76
100
DictionaryVariables
280
     0
  1
STANDARD
  0
DICTIONARYVAR
  5
77
102
{ACAD_REACTORS
330
76
102
}
330
76
100
DictionaryVariables
280
     0
  1
STANDARD
  0
DICTIONARYVAR
  5
D7E
102
{ACAD_REACTORS
330
76
102
}
330
76
100
DictionaryVariables
280
     0
  1
0
  0
DICTIONARYVAR
  5
D7F
102
{ACAD_REACTORS
330
76
102
}
330
76
100
DictionaryVariables
280
     0
  1
0
  0
DICTIONARYVAR
  5
D7D
102
{ACAD_REACTORS
330
76
102
}
330
76
100
DictionaryVariables
280
     0
  1
2
  0
DICTIONARYVAR
  5
D7C
102
{ACAD_REACTORS
330
76
102
}
330
76
100
DictionaryVariables
280
     0
  1
1
  0
DICTIONARYVAR
  5
D80
102
{ACAD_REACTORS
330
76
102
}
330
76
100
DictionaryVariables
280
     0
  1
2
  0
DICTIONARY
  5
1A
330
19
100
AcDbDictionary
280
     1
281
     1
  3
ACAD_XREC_ROUNDTRIP
360
D89
  3
BUMPTILE
360
1C
  3
DIFFUSETILE
360
1B
  3
OPACITYTILE
360
1F
  3
REFLECTIONTILE
360
1E
  3
REFRACTIONTILE
360
20
  3
SPECULARTILE
360
1D
  0
DICTIONARY
  5
12
330
11
100
AcDbDictionary
280
     1
281
     1
  3
ACAD_XREC_ROUNDTRIP
360
D88
  3
BUMPTILE
360
14
  3
DIFFUSETILE
360
13
  3
FBXASSET
360
109
  3
OPACITYTILE
360
17
  3
REFLECTIONTILE
360
16
  3
REFRACTIONTILE
360
18
  3
SPECULARTILE
360
15
  0
DICTIONARY
  5
22
330
21
100
AcDbDictionary
280
     1
281
     1
  3
ACAD_XREC_ROUNDTRIP
360
D8A
  3
BUMPTILE
360
24
  3
DIFFUSETILE
360
23
  3
FBXASSET
360
BA
  3
OPACITYTILE
360
27
  3
REFLECTIONTILE
360
26
  3
REFRACTIONTILE
360
28
  3
SPECULARTILE
360
25
  0
DICTIONARY
  5
D83
330
67
100
AcDbDictionary
280
     1
281
     1
  3
ACAD_XREC_ROUNDTRIP
360
D84
  0
DICTIONARY
  5
D81
330
65
100
AcDbDictionary
280
     1
281
     1
  3
ACAD_ROUNDTRIP_2008_TABLESTYLE_CELLSTYLEMAP
360
D82
  3
ACAD_XREC_ROUNDTRIP
360
DBB
  0
DICTIONARY
  5
D95
330
2F
100
AcDbDictionary
280
     1
281
     1
  3
ACAD_XREC_ROUNDTRIP
360
D96
  0
DICTIONARY
  5
D93
330
2E
100
AcDbDictionary
280
     1
281
     1
  3
ACAD_XREC_ROUNDTRIP
360
D94
  0
DICTIONARY
  5
DA1
330
35
100
AcDbDictionary
280
     1
281
     1
  3
ACAD_XREC_ROUNDTRIP
360
DA2
  0
DICTIONARY
  5
DA9
330
39
100
AcDbDictionary
280
     1
281
     1
  3
ACAD_XREC_ROUNDTRIP
360
DAA
  0
DICTIONARY
  5
D9B
330
32
100
AcDbDictionary
280
     1
281
     1
  3
ACAD_XREC_ROUNDTRIP
360
D9C
  0
DICTIONARY
  5
D9F
330
34
100
AcDbDictionary
280
     1
281
     1
  3
ACAD_XREC_ROUNDTRIP
360
DA0
  0
DICTIONARY
  5
DB9
330
41
100
AcDbDictionary
280
     1
281
     1
  3
ACAD_XREC_ROUNDTRIP
360
DBA
  0
DICTIONARY
  5
DA7
330
38
100
AcDbDictionary
280
     1
281
     1
  3
ACAD_XREC_ROUNDTRIP
360
DA8
  0
DICTIONARY
  5
D8B
330
2A
100
AcDbDictionary
280
     1
281
     1
  3
ACAD_XREC_ROUNDTRIP
360
D8C
  0
DICTIONARY
  5
D8D
330
2B
100
AcDbDictionary
280
     1
281
     1
  3
ACAD_XREC_ROUNDTRIP
360
D8E
  0
DICTIONARY
  5
D8F
330
2C
100
AcDbDictionary
280
     1
281
     1
  3
ACAD_XREC_ROUNDTRIP
360
D90
  0
DICTIONARY
  5
D91
330
2D
100
AcDbDictionary
280
     1
281
     1
  3
ACAD_XREC_ROUNDTRIP
360
D92
  0
DICTIONARY
  5
D99
330
31
100
AcDbDictionary
280
     1
281
     1
  3
ACAD_XREC_ROUNDTRIP
360
D9A
  0
DICTIONARY
  5
DB5
330
3F
100
AcDbDictionary
280
     1
281
     1
  3
ACAD_XREC_ROUNDTRIP
360
DB6
  0
DICTIONARY
  5
DA5
330
37
100
AcDbDictionary
280
     1
281
     1
  3
ACAD_XREC_ROUNDTRIP
360
DA6
  0
DICTIONARY
  5
DB7
330
40
100
AcDbDictionary
280
     1
281
     1
  3
ACAD_XREC_ROUNDTRIP
360
DB8
  0
DICTIONARY
  5
D9D
330
33
100
AcDbDictionary
280
     1
281
     1
  3
ACAD_XREC_ROUNDTRIP
360
D9E
  0
DICTIONARY
  5
DB3
330
3E
100
AcDbDictionary
280
     1
281
     1
  3
ACAD_XREC_ROUNDTRIP
360
DB4
  0
DICTIONARY
  5
DB1
330
3D
100
AcDbDictionary
280
     1
281
     1
  3
ACAD_XREC_ROUNDTRIP
360
DB2
  0
DICTIONARY
  5
DAB
330
3A
100
AcDbDictionary
280
     1
281
     1
  3
ACAD_XREC_ROUNDTRIP
360
DAC
  0
DICTIONARY
  5
DAD
330
3B
100
AcDbDictionary
280
     1
281
     1
  3
ACAD_XREC_ROUNDTRIP
360
DAE
  0
DICTIONARY
  5
DA3
330
36
100
AcDbDictionary
280
     1
281
     1
  3
ACAD_XREC_ROUNDTRIP
360
DA4
  0
DICTIONARY
  5
D97
330
30
100
AcDbDictionary
280
     1
281
     1
  3
ACAD_XREC_ROUNDTRIP
360
D98
  0
DICTIONARY
  5
DAF
330
3C
100
AcDbDictionary
280
     1
281
     1
  3
ACAD_XREC_ROUNDTRIP
360
DB0
  0
XRECORD
  5
D89
102
{ACAD_REACTORS
330
1A
102
}
330
1A
100
AcDbXrecord
280
     1
102
MATERIAL
148
0.0
149
0.0
149
0.0
 93
        0
 94
      127
282
     0
 72
     0
 77
     0
171
     0
175
     0
179
     0
273
     0
  0
XRECORD
  5
1C
102
{ACAD_REACTORS
330
1A
102
}
330
1A
100
AcDbXrecord
280
     1
270
     1
271
     1
  0
XRECORD
  5
1B
102
{ACAD_REACTORS
330
1A
102
}
330
1A
100
AcDbXrecord
280
     1
270
     1
271
     1
  0
XRECORD
  5
1F
102
{ACAD_REACTORS
330
1A
102
}
330
1A
100
AcDbXrecord
280
     1
270
     1
271
     1
  0
XRECORD
  5
1E
102
{ACAD_REACTORS
330
1A
102
}
330
1A
100
AcDbXrecord
280
     1
270
     1
271
     1
  0
XRECORD
  5
20
102
{ACAD_REACTORS
330
1A
102
}
330
1A
100
AcDbXrecord
280
     1
270
     1
271
     1
  0
XRECORD
  5
1D
102
{ACAD_REACTORS
330
1A
102
}
330
1A
100
AcDbXrecord
280
     1
270
     1
271
     1
  0
XRECORD
  5
D88
102
{ACAD_REACTORS
330
12
102
}
330
12
100
AcDbXrecord
280
     1
102
MATERIAL
148
0.0
149
0.0
149
0.0
 93
        0
 94
      127
282
     0
 72
     0
 77
     0
171
     0
175
     0
179
     0
273
     0
  0
XRECORD
  5
14
102
{ACAD_REACTORS
330
12
102
}
330
12
100
AcDbXrecord
280
     1
270
     1
271
     1
  0
XRECORD
  5
13
102
{ACAD_REACTORS
330
12
102
}
330
12
100
AcDbXrecord
280
     1
270
     1
271
     1
  0
XRECORD
  5
109
102
{ACAD_REACTORS
330
12
102
}
330
12
100
AcDbXrecord
280
     1
 70
     1
 90
1959938040
 71
     1
  1
88F1EB58-1072-49B2-BBF9-F03386D15A1D
311
504B03040A0000080000FB5CE5423DEE336E79000000790000001B0000006175746F6465736B2D64657369676E2D7061636B6167652E786D6C3C3F786D6C2076657273696F6E3D22312E302220656E636F64696E673D227574662D3822203F3E3C666F726D6174733E3C666F726D61743E687474703A2F2F736368656D612E
311
6175746F6465736B2E636F6D2F64657369676E2D7061636B6167652F323030393C2F666F726D61743E3C2F666F726D6174733E504B0304140006080800FB5CE542D486FD9CA0000000F4000000130000005B436F6E74656E745F54797065735D2E786D6C7D8EC10E82300C865F65E91D8A1E8C310C0EEA1BF002731658846E
311
D98AC1B77784ABF1D8FE5FBFBF75BBCE937A534CCEB38643598122B6FEE978D0B0485F9C41B54DDD7D022595594E1A469170414C76A4D9A4D207E29CF43ECE46F218070CC6BECC4078ACAA135ACF422C856C0E68EA1BF5669944DDD7BCDE7B1F8E415D77AECB980613C2E4AC91FC167A2B244592486606FC29C8FD7F045B9A
311
EF7053A7E60B504B0304140006080800FB5CE5422FE0B8A6EC0000007C01000008000000636F72652E786D6C8D904D6EC3201085AF82D856D860E25F61A2C46E4FD00B20200E4A0C9681AAC72F4E1CA9DD7535A337EF9B193D76FC9EEFE04BAFDE38DB43926108B4954E193BF530860B6A203872B63A177ED920B062D63DDC
311
64C8D9B4BAB8EC927436681B926A9DD2BB28BCD70102794F4D0FBDBCEA59642286E4F0B76C11F226269D915797E0188D02CF2346A57DE662F40A79751A8BF14C1B541DC60A1D306D51530F236A8B9AD2E17C1A3EDE29CB3798B360E6D77DB96A11B482BCC084225C235C7E12D2D1B62BCB375C7614B37CB3FF81E2A2FE0945
311
63032DF6779F98879CA4471E03CEF22D8B541E41A5BAE5C67F00504B0304140006080800FB5CE54255019EA25F0000007C00000007000000636E782E786D6C4DCB3B0E80201045D1AD90E915ED2CF8AC45050C11660C8261F98AB1B07AC9C97D42D718D865D3E909258CFD00CCE24AC6E326A164D74DC0B4128928FF326038
311
472BA13128B1252AC747C6BAB984FC68F0B87FE8960A5C09FE86CFB69FBA01504B0304140006080800FB5CE542660C80C569010000020300000C0000006662782F636F72652E786D6C8D52ED8E8320107C15C2DF8BA252FB15A469EBDD13DC0B50A51EA98241307DFC5B3F9A5E2F4DD3982099D9D99D1D65BB6B53A35EDA4E
311
199DE1388C3092BA30A5D25586BD3B076B8C769C5963DC9F328CB46864860718735659E3DB192A8C76523B40B529E50C8AAE930EA3A2864B86BBE247362214DE414577095B515C4425C338041AEA38EB9C0503681A329C989F4F5746269C33EF5539B3AA8469EAACA4C57CB9CF93FC40D7C172912F83454437C17A75CC834D
311
B2A2F478D81FBF3E2923839833A79A9BBBC24AE164897912C534885641947EC7F1966EB669FA11A55B1A3132943F887C5BBE29F24A3B9ACC76275987790C4646E2DFB61091439DE8C10FE18C0C21C26B4CF8316808044276E254DFF6B800D4CBC219BB00A634FE4EF5A2F612A646687C189958E83C3680CD9EF6495EF479DD
311
033EA0D01558130EAE27EF86E96C9A3A47D14A1BF4EE8AB4B18DA8EFE6268BF7F33EE8A9BC30B5B1EFA8C9BC2A99C324C3DFCB7F01504B0304140006080800FB5CE542158966EE7D0000009D0000000B0000006662782F636E782E786D6C4DCCD10A83201886E15B91FFDC352DC3400D1B761FB12C64A6C3E9D8E5AF46073B
311
FAE0E1E315FD67F3E86DD3CBC520815CAE806CB8C7D9855542C90BE6807A25528CF9EF06284C9B95703028B1A6589E27CD76998ACFBB7A171E273684B19BE11AB7D430DCD484E0A11D0DD65D578F541B3E100A9512D5AFB4EF11565F504B0304140006080800FB5CE542B5BED01E2D01000015020000310000006662782F34
311
313535434538412D363245352D343331312D423646452D4139393346324145384231322F636F72652E786D6C8D515B6EC32010BC0AE22B55850DC6384E848992CA39412FE0D8C44589C1E251E5F885DA91DABFFCB068766676B4CB0F8FE90EBEA575CAE806920C4320756F06A5C706067F45350407C1AD31FE0F0D02DD4DB2
311
810986828FD68479857AA3BDD43EA2DA0C72053BE7A487A0BFC74F035DFF25A72EEB828F0C77CBE6AEBF75A3CC4816DB9127B8F3360600CB90F4425112C63EDAFA88AAA265A8A484A053756ED171B7A3E7E2D8D62752F07C110A1E821A56B91A621C7555D2BE6A92C4827B353DE3F756765E0E5014985084B708B34F42F674
311
B767EC1DB33DC53C4FF47FA2300F2F8A82D29E166BDC45E6A0203C5F1A820F265CEECF30F2311BEB419AB771B27F83026718D78C56B8DAF27CE1C60D44D3AA5C4D9D37366E7873BB443A618B73550A9EA723C5F27BC158D341C50F504B0304140006080800FB5CE5424AF451054F01000033030000300000006662782F3431
311
3535434538412D363245352D343331312D423646452D4139393346324145384231322F636E782E786D6CD593BD6E032110845F05D146F797F33989C56129459E20455A0C6B9B9883133F51FCF6596CECB87191320D3ACD0E33AB4F1C5B7F4F867C810FDAD99176754B0958E994B6BB91A6B8AD9E295973E69D8B37364AAC98
311
60A459A69CEDBC4B7391146C45321155A3EDA1881E824B5E424039DF24C6496130006C95508469034A812257237E6DC1E32A286E8E24EE81BCBD7E10B7F90419036B720A674DEEE02C9FA5E9C644893422849106B98749D42245A7201C6A25A2A8BBFAD27567A7DF24922F5C2A93D724978F349F94978D6AE4C81A1C7216A2
311
477AC5148F33502EE6D9682922426E4EC6B387B3A46D5C2E8A5723788FEE6ED92F1618769A7116F504C5213D88088AF2C7B6EBABF6A96A87F7AE5BF52FAB6178688755DFB226DB39DB3867CA258C01EF66229D8D6023E51D6BF2F81EBEE2234A7B64EDFCF10F201140693DD3B966FC673ECDE97D232E8F7F01FF01504B0304
311
140006080800FB5CE54295AFC5F9A405000081100000340000006662782F34313535434538412D363245352D343331312D423646452D4139393346324145384231322F6F626A656374732E786D6CAD57D96EDB3814FD1541F332F3E045B6933A0345456CD785D1A62D6AB4980703062D510A27D402924A9CF9FA3914295972
311
EDD433E88B162E97F79E7BEE42FFED3EE5CE131592E5D9ADEBF587AE43B3308F5896DCBAA58A7B53D7791BF822CF556B99EB6424A5B7AE1E76033F117959D8A188C6A4E4EA687439FBCB9121CDA8EB849C4879EBCAF081A6A44F4A9547543EF623A2483F89F77DAF6F1676C52682140F47420B2268A6A029C63348718C525E
311
F777E80E027FA0E7035F3FEDAAF1F95583CA9EEEF92C938A64E10F871D89197B93C5BBD1D54DEF6A3219F726D723AF375BCE163DEFCD7838BF9ECF6FEEDEDDE060A90424594D048DDDE03DB0112CF407662AF04B96A9F1C82EB10E1A08FAC4B4A7DC60E478FEC0AC69ACB3469E523FCCB38C86155640A3B2CF8A8E6841B308
311
3E675442B31642C3EEAFA7716C4D8FF5BF3DB23D7C1902ED1D2D41B5EEF5BBAD69BEFB1B26C84B182424D50C34585A430D578707847779CEED1C934E4A14158C7087B39D20E2C50DB0542F09FC8E18CD64A1A3415BE006F08299EED20561F4739E9FD2322E39D73476832A0AB68815AA64A519FB878A83F66D64A0137CA5D9
311
30B506A99782BAC18DA1C8F4884D064827E62481CB61A6DE391E1D193AD771BA5AB8C187E56EBFD6B17BFAF042E405154AD307D4AA1D57BF354A5627EF22CFE90DEE912A0750BE02F94F08F5832AF09B60FBC97E624F51826432CE450ADF3843A737C463E878D5537FB7BEFC41B3B9EBBD7378C2D91AAA5F8067D786B62F5B
311
7006FE13089F8BB1356D1D128EB471CF3200A449E2F01C43C8C3F16EEF062B64396465EC223CF06032D47DC2A73FB0629028AA935AEF0C581EA5C50B123460AB1809350CF9AD82073FFD90CEAA83EDB273F05EFD12BADE2DD61FD6A5884948EF6D4C2F68CC32A650E20EBC692BD4C1BC63D1237D79CE4504437FC47BDDC63B
311
B54749A0AD31D7C027754ED73F87933B0784D897E43ADDF83F390146E8C2DA927FCF6448392719CDCBFADC57EB07CA86815807BB667253600E8505A43133473188221D0A5668109B6AD524CDFE19EBBEAD3E81916E307BF9485EDAD96B77C8BD61CE73B1DDBD6C4D5A3A09F5F72EB72D06032D0574AF82A48E7F0BFA366271
311
5C4A24C113B87E5FCDDBBED3690129A2966AA26502FB115C4458D2D67251AD054125CDB32D43DD44DC9D3CA02D1F905A065402CF692C298FB78CF332DDC68CA31A6D53529C81E3FFEBBF2BD3624BD2BCCCD419D91DD5511DBABA77D82B9F890A1FDC605DBD7B33E4DE884667C8A06BC909AC3AAE9D4E97DEBBD9D5B4E70DDF
311
8C7A939BD9A8379B2D6F7ACBE1783CBD5E785777DEA2F693D124F0EB52D38E687809A5CD2F05B3EEFBB642FCD824E006F744C9CD7B139EF5FBDBAA8F5ED81F600FEA65B3F12E7A42DF47A39F0B38AC3C296895169CA6345344C7D0BDFEE05F09FA8C8E32667C9592845E20E5F3FBF5913118B960DF171DEFF4F968AF1D9DEB
311
803C29443D94E92E238C1F6D4C0C92FD224B2C7EB54F9AB72934F5AFFEB38E41672A73CE22E4C1C849689E52856C784111122995A05EBBA78FECDDE382DD4FA6435464C769ADC9034193CC25C202D42A43D51D777E4353A7FBAA5B17E5B6FF8887CD14AE03CEDCBA68D2150BA9ECEF50A0752B54090797DA9D3C1A7F92251C
311
BDB6D9D4FC37BB34369D92DC2CB9A47FB27699146E0D401A29D037A02182772A6502BFD2CDCE87FFC9F05A1D87287CEE4AD5D87218688CA98E41881AA3EC6D014DCCA33D7A8F407DDD2CAF5FADE92072D12DEB551218A93D454452DD14B47E56A5BBC597013A1467F5D9297899C097974BEA090A32973AC0C122B0C2CA2C88
311
0255E77F6EBE881C37D9D4593250C0F97D3FBDFE6333CFD334CFCCD0E6CEDE879DF5036EB7D106C981EA6B89DC8C86DE68535D07EC0D65BB2392F649241F3100CF0AD600DD713F7869EE8CA84366A25937D0AE3862E86AE1D8C23681504B97766ED5E0A0F1C8A88318D2574A1D31ED05C5AB378241B5142A08F4F2C1BF504B
311
0304140006080000FB5CE542000000000000000000000000350000006662782F34313535434538412D363245352D343331312D423646452D4139393346324145384231322F76657274696365732E62696E504B0304140006080800FB5CE542F270F1330600000004000000360000006662782F34313535434538412D363245
311
352D343331312D423646452D4139393346324145384231322F747269616E676C65732E62696E636660600000504B0304140006080000FB5CE542000000000000000000000000370000006662782F34313535434538412D363245352D343331312D423646452D4139393346324145384231322F617474726962757465732E62
311
696E504B0304140006080800FB5CE542D5987DFC8F00000041010000360000006662782F34313535434538412D363245352D343331312D423646452D4139393346324145384231322F6469726563746F72792E786D6C858F410EC2201045AF4266AF15DDB800BA74E7C21B903225242D6328188F2FA5C4183471359997F9FF
311
81E89FF3C41E1816475E02DF1F80A11FC8386F25A438EECEC07A250251FC3803E6F58C12560C4AD840E95E91C151A72936F496F35732D860FE635F62C8F2DA16B505C545B74125BAA2FA9E05D7CC053D063734D5C7665FD55B6B8D15D5E9BFEAFD8490FFA45E504B0304140006080800FB5CE542DF812CD6FF000000A00100
311
003B0000006662782F34313535434538412D363245352D343331312D423646452D4139393346324145384231322F7265736F75726365732F636F72652E786D6C8D504B6E833010BD0A9A6D65B0710821328E92D09EA017B0CC845A0976E44FD5E3D724546A77DDCC8CDE47F3F4C4E16BBE159FE88371B607565228D06A371A
311
3BF590E285ECA03848E19D8BBF64505835630F0B0C524CDEA5FB0A696723DA9851EB465C4115024628F42D1F3D04FD81B32A558A5911AEE55DE9AB9AB06465A6B34E8A107D0E503C9F2C13A4C7E092D71844F564A548C98CABC68CF9A7B918F420B7C7A11E4EBC25DBCDB0251BCA3BB26BCF03E9EA96F3F3E9787E7BE5A25A
311
CC524433FF64D41E55C411644D1927B425B479676CCFBB7DD3BCD066CFA9A816F91F53BA8FFF34256323AFD7B84F5B00C97290072145B5F495D7A3CCBC976EE537504B010214000A0000080000FB5CE5423DEE336E79000000790000001B00000000000000000000000000000000006175746F6465736B2D64657369676E2D
311
7061636B6167652E786D6C504B01021400140006080800FB5CE542D486FD9CA0000000F40000001300000000000000000000000000B20000005B436F6E74656E745F54797065735D2E786D6C504B01021400140006080800FB5CE5422FE0B8A6EC0000007C010000080000000000000000000000000083010000636F72652E
311
786D6C504B01021400140006080800FB5CE54255019EA25F0000007C000000070000000000000000000000000095020000636E782E786D6C504B01021400140006080800FB5CE542660C80C569010000020300000C00000000000000000000000000190300006662782F636F72652E786D6C504B01021400140006080800FB
311
5CE542158966EE7D0000009D0000000B00000000000000000000000000AC0400006662782F636E782E786D6C504B01021400140006080800FB5CE542B5BED01E2D010000150200003100000000000000000000000000520500006662782F34313535434538412D363245352D343331312D423646452D413939334632414538
311
4231322F636F72652E786D6C504B01021400140006080800FB5CE5424AF451054F010000330300003000000000000000000000000000CE0600006662782F34313535434538412D363245352D343331312D423646452D4139393346324145384231322F636E782E786D6C504B01021400140006080800FB5CE54295AFC5F9A4
311
0500008110000034000000000000000000000000006B0800006662782F34313535434538412D363245352D343331312D423646452D4139393346324145384231322F6F626A656374732E786D6C504B01021400140006080000FB5CE5420000000000000000000000003500000000000000000000000000610E00006662782F
311
34313535434538412D363245352D343331312D423646452D4139393346324145384231322F76657274696365732E62696E504B01021400140006080800FB5CE542F270F13306000000040000003600000000000000000000000000B40E00006662782F34313535434538412D363245352D343331312D423646452D41393933
311
46324145384231322F747269616E676C65732E62696E504B01021400140006080000FB5CE54200000000000000000000000037000000000000000000000000000E0F00006662782F34313535434538412D363245352D343331312D423646452D4139393346324145384231322F617474726962757465732E62696E504B0102
311
1400140006080800FB5CE542D5987DFC8F000000410100003600000000000000000000000000630F00006662782F34313535434538412D363245352D343331312D423646452D4139393346324145384231322F6469726563746F72792E786D6C504B01021400140006080800FB5CE542DF812CD6FF000000A00100003B0000
311
0000000000000000000000461000006662782F34313535434538412D363245352D343331312D423646452D4139393346324145384231322F7265736F75726365732F636F72652E786D6C504B0506000000000E000E00800400009E1100000000
310
504B03040A0000080000FB5CE5423DEE336E79000000790000001B0000006175746F6465736B2D64657369676E2D7061636B6167652E786D6C3C3F786D6C2076657273696F6E3D22312E302220656E636F64696E673D227574662D3822203F3E3C666F726D6174733E3C666F726D61743E687474703A2F2F736368656D612E
310
6175746F6465736B2E636F6D2F64657369676E2D7061636B6167652F323030393C2F666F726D61743E3C2F666F726D6174733E504B0304140006080800FB5CE542D486FD9CA0000000F4000000130000005B436F6E74656E745F54797065735D2E786D6C7D8EC10E82300C865F65E91D8A1E8C310C0EEA1BF002731658846E
310
D98AC1B77784ABF1D8FE5FBFBF75BBCE937A534CCEB38643598122B6FEE978D0B0485F9C41B54DDD7D022595594E1A469170414C76A4D9A4D207E29CF43ECE46F218070CC6BECC4078ACAA135ACF422C856C0E68EA1BF5669944DDD7BCDE7B1F8E415D77AECB980613C2E4AC91FC167A2B244592486606FC29C8FD7F045B9A
310
EF7053A7E60B504B0304140006080800FB5CE5427B90B05EEB0000007C01000008000000636F72652E786D6C8D90416EC3201045AF82D856D860439C58982856E313F40208888B128365A0CAF18313476A775DCDE8CF7F33A3CF8FF7E9067ECC12AC771D240586C038E5B575630753BCA03D0447C117EFE32F1B044E4EA683
310
AB0C051F179FE64D52DE45E362569DD7661365082642A06EB9E96050DF6692854C313BC2B598A5BACAD114E4DD653825ABC1EB88D5799FBD58B340517DD61561B447FB7E6810A5BB019D7A4AD079A0074A9A33AB76275EAEB0E0D14EEFFB6A31321A9D794C6A841B84D917216D7D6819FBC0ACAD312F57FB1F28CDFA9F50B2
310
2ED6D5F6EE0B0B5090FCC8732078B96691CB33A85CD7DCC403504B0304140006080800FB5CE54255019EA25F0000007C00000007000000636E782E786D6C4DCB3B0E80201045D1AD90E915ED2CF8AC45050C11660C8261F98AB1B07AC9C97D42D718D865D3E909258CFD00CCE24AC6E326A164D74DC0B4128928FF32603847
310
2BA13128B1252AC747C6BAB984FC68F0B87FE8960A5C09FE86CFB69FBA01504B0304140006080800FB5CE54272D5381F67010000020300000C0000006662782F636F72652E786D6C8D525B6E833010BC8AE5DFCA18F3C84BC651A22627E8051C70280AD8C8D828C7EFF28868AA2A8A908C35B3B33B3BC0F7F7A646BDB25D65
310
7486591062A4746E8A4A9719F6EE4A3618ED05B7C6B85F651869D9A80C0F3016BCB4C6B733941BED9476806A53A819945DA71C46790D970C77F9B76A6420BD838AEE16B432BFC952052C001AEA04EF9C0503681A329C585C2F774E275C70EFAB6266AB02A655D74A592CA2CF38626972249BE3794D926475268763C2C8E99C
310
6C13B63EA5D1EAC0E92016DC55CDC35D6E9574AA007DC86212AE49987E31B68BB7BB34FD08D35D1C723A943F897C5BBC29F295767134DB9D641D160C8C8CC49F6D2122873AD9831F2A381D4284D798F073D0100884ECE4A57EEC7103A857B9333601A6307EA17A597B055343343E9C4E2C741E1BC066FFF6895EF479DD033E
310
A0D42558930EAE17EF86E97C9A3A47D12A4B7A7747DAD846D68BB9C9E2722E83FE95E7A636F61D359D57A5739874F87BC50F504B0304140006080800FB5CE5424F01841A7E0000009D0000000B0000006662782F636E782E786D6C4DCCD10A83201886E15B91FFDC95DA9C033536A3FB886521990EA76397BF1A1DECE88387
310
8F57B69FD5A3B74D2F17830272AA01D9F088A30BB38292272C00B55AA618F3DF0D501856AB6067D0724EB13C0F1AED34149F37F52E2C071A72EFF9ADE7B8EBCE14378C187C1586E19A5222046BB8B850A8B4AC7EA56DF7B0FE02504B0304140006080800FB5CE5422B77AC092B01000015020000310000006662782F433142
310
46364146362D444435322D343331432D393843332D3032323138383334363837322F636F72652E786D6C8D515B6EC32010BC0AE22B55651B8CED900813B58972825EC00192A0C460F1A872FC42ED48ED5F7E58343B333BDA65BBC77807DFCA796D4D0F718920504658A9CDA587319C0B0AC18E33676DF84383C00CA3EA6186
310
21671767E3B440C29AA04C48A8B1522DE0E0BD0A10887BFAF4D08BAB1A8772882131FCAD9C06711B2EAAC4656A271E673EB81400CC43F20BF91E7F1EBB8F63571C0E6D5D3404EF8B0DDD9302D535A694341D5DD7AC9A859CC5A8E522D732C5D167ADDCAB2659CC59D0E333BE706A084A425E239C26AE0BD47E61BC259B6DDB
310
BEA3764B10AB32FD9F284EF24551D426907A893BCB3CE4985573833369E3E9FE0CA31E937501E4792BAFC41BE4A84488AE29DDE40DCCDCB48164DA358BA90FD6A50DAF6EA744278B73D77056E523A5F27BC154F341F90F504B0304140006080800FB5CE5422C539E125701000033030000300000006662782F433142463641
310
46362D444435322D343331432D393843332D3032323138383334363837322F636E782E786D6CBD93CD6EC32010845F0571ADFC17C7691A6122F5D027E8A1570C9B84068305B86ADEBE4B42D25C7AA854F582ACD96166F509B3EDE768C807F8A09DED6953D69480954E69BBEFE91C77C59A922D67DEB97867A3C48A117A9A64
310
CAD9DEBB79CA92829D984D44D5687BCCA287E0662F21A09C6E12E3A4301800B69851847100A540919B11BF76E071151487138907202FCF6FC40DEF206360554AE1AC4A1D9CA53337DD9928914684D0D3200F308A52CCD12908C7528928CAA6BC76FDB0D377124917AE95B3D72495F7349D94E78D4AE4C82A1C7216A2477AD9
310
144F13502EA6C968292242AECEC68B87B359DBB85A66AF46F01EDDED62B55E63D879C659D4236487F4202228CA1775D316F5635177AF4DB3699F365DF750779BB66655B273363867F2258C01EF26229D8D6023E50DABD2F8277CD94794F6C8DAF9D32F402280DC7AA173CBF84B3ECDAA5D2EFF914F757EDF88CBE35FC0BF00
310
504B0304140006080800FB5CE5425C824173640700009A1B0000340000006662782F43314246364146362D444435322D343331432D393843332D3032323138383334363837322F6F626A656374732E786D6CED59DD73A33610FF5718FAD23E181BDBC9251DC24D1C5F6E3CD75C6FEA5EA70F9E616490891A211849E4E2FEF5
310
5D7D80819804B7E9DB3DD8809056BBBFFDD412BC7FCAA8F388B92039BB727D6FE23A98C57942587AE5967237BA709DF761C0F35C36A6B90E4319BE72D5B01B0629CFCBC20E2578874A2A3BA3B78B3F1D1163865D27A648882B57C4F738431E2A659E60F1E02548222FDD3D79BE6726B6C9A61C15F71DA205E29849E014C619
310
50710C537EFB71E28EC360ACDE8781FAB7B3668366CDFB678DB5D46D2E091312B1F8194B1D32B3412CCDFCF9F2C3F4EC7274369FCF46F3F3A93F5ADC2E9623FFDD6C72737E737379FDE112D8DBE639B53225B8C02C01FDEDDDD00FC6EA4D2DBA45E018D771CE188E3590009516AB4B9060015B35E09BB41F7D2551E3B596B0
310
F13C57EF2D0B8DE1599B4ADFAC6140B4E8822076BB4AE2EADA942FDFFE05828B2146C90596C0AD901CB46BE1E1E0156E3809C666340CB6075D10E16448624E107528D972C4412930554D0903B3C09251CEC18194A324D09A33AFDBB6059EF9BAEB1CE3725752AA3CC30DB56345E07E580ACD19F91BF303F74D64802790B624
310
4C5E582EE5BEC06E78198CF56018A8CB6C6A5F1A209D1D45A9D08898B71D416F94EBAF966EF8E976FBB456E1E0F8E605CF0BCCA5323AA547CD1718B2BD2A94ECB6FE20CDA905208C01D5AE3C80F21B20FF19A2C78115D01B274FF3A7B99D2B39626297F30C74E34C9CD104FE268EAFFFD57DE32E18D78BDBDAEBC313DC5441
310
75F1DFF16CCBA0B1B2FC37E00C834730F89CCFECAB758C28D8F31D610090321287E63004A17DB77D72C315044E08F4B00AD1D0079181DD47B80DC696CC412B957B59AF6380A8DD63364449009BB64860A3474F1F217B70121FD4D414B10FDEB33731D7EBE5FAD3BAE43B14E33BEBD34BBC238C48C89AC7196A61DE92E801EF
310
BFE53C01419FE3BD6EE29DD9AD04A0AD3057C0A71508EAE1B0736B8318D6A5B90A37C12B3B80102A5737E8DF1111634A11C37959ED5B473765A8B5C7DB9AC10DA706E2D9B463C21C3F12555580D31C66B41885BC1F73522810DDF0A391AC0E9A5E8F745F579FC122EBF93DB3560C422F43F4771DB48EE0D0B2EC0A690B442D
310
F0F610CEE39CE63CDAEE2313E95CA825808DB6B7FCD1220AB1DE284951010FD27E578594D4481B2564B72B05C4D5232CFEB1BA699AC3C49BF9674EF3BFE38C7388B6E0BB885BBFEBEC11910CA538DAA1A46FBBE66E356DA149F690E67847412EF248E43E42329A24383D059A93885FBE29F594E642108605E4ABA3E037D198
310
7810488C362B9695563B4013116558227A0A028A4C0FB83AEDE81A3786D2E1751E6BEB7D49634DA2FF93457004B564CE2202A528E4905719F7BD3388216D740DCA1D7CC1DA2ADA5A0C5A420911EFA36F98A4F7F214D40DF91EDC6338929432CA0B1483590F20FBCC5794523BBC6F51FCA0F2471497F4AD0C4460BA8B08A565
310
16C18F3038790C71ED3A30BD884283B8897D126750942159F2219B9C9F4D9EED636A866E086C6CB42314C27694A1A207F55640D4F58853836FA9F728755B664584B2BC64830CC59B75BDC992EFAA55911DC8AF2A15A16CAC085B82614098ACB36A15B3C1D475600537D2816A1F099415D49CC25E493C7EED4D9A72EF06DCFA
310
E9DB6E9041E1D7A3BD66449D5730581E5B8581F886647CEF866B7D1D2DA0FE4E707248F555ADD9AC00013115C94B4EAC8ABEAEA0BCB1359A1BDE2129361F4DD6ADAE5F571E743F8231AC81DAA55EB85240679849A42A933B75437F4310825B34CCF84AE5D453A85C2789AE1A11BD257DEA6C9511AD4D33E215F798E519FCD8
310
86B0989609DEA0443C447792466BA258B7527A19A9307E51C05F3FAE3BF0C0C80091BEA8020F7FEBACB5A337AA5C3A4A44DE97D996210241B0255A6A74E3152CB51AA9B45C5FD59902EA2E3030ABE2F9F79345B31DF1FD64915AC3F84F278BC5FE17B46FF6451AE93C56767DD231A0CE4F8ACA5B1C0374DBA1A65A671193CC
310
ADFCD69922088A55941F5C8D5541C310ECE3F85F67EDBE2C68B6EBF07F5AD6F69F551C276595D664D5A53A52B9AE9A39ECE2E2D6FFB038BB18F99377D3D1FC72311D2D16B797A3DBC96C7671BEF4CFAEFD658DA676D430A88399CE5DF06C825A35AC9E2C06D095153925099CE61327C510F3259CE907B4CF79860524CF66B3
310
3BB14DF901AB1F4D9F53A22DC51527F7081AC454405A078CCA58B6C79D1FA03529E1A07DE542D3C87B803F6B95AE0399E7CA855681243116DE16DA4CAAA1A78943CAD5B9DF12037C104B554A348BEAE77A95C2A615FEEB2943D28095ABD5C380C2AD80EE57AB43A179B33CC527095EB1E32009B7DB5242B56664390CD4C2E8
310
6D0EEA37B251C21EECD64FE0BA2F8BE57B7A4E0B91419F0C5E3402437524114F75BF5B316659BA5E7E19439FCD59FDEA14B44C4197C3298D3806632E5541055604566169164882A9DEFCBCF9C273F8C49339BA2A727E7CBA38FF6973936759CECCD0E61A4E65097C2872D6F7F0D927D940F18055735D6CA6137FBAD14D6DDB
310
678FB648604F5545305015134A908EC9815D3E6B50D9F6E558A9A2337DB5746C10856680B1A3673D5EF391CB011F529F5394C7683FAFA47DB1AF3DD653C1263874A4C37F00504B0304140006080000FB5CE542000000000000000000000000350000006662782F43314246364146362D444435322D343331432D393843332D
310
3032323138383334363837322F76657274696365732E62696E504B0304140006080800FB5CE542F270F1330600000004000000360000006662782F43314246364146362D444435322D343331432D393843332D3032323138383334363837322F747269616E676C65732E62696E636660600000504B0304140006080000FB5C
310
E542000000000000000000000000370000006662782F43314246364146362D444435322D343331432D393843332D3032323138383334363837322F617474726962757465732E62696E504B0304140006080800FB5CE542D5987DFC8F00000041010000360000006662782F43314246364146362D444435322D343331432D39
310
3843332D3032323138383334363837322F6469726563746F72792E786D6C858F410EC2201045AF4266AF15DDB800BA74E7C21B903225242D6328188F2FA5C4183471359997F9FF81E89FF3C41E1816475E02DF1F80A11FC8386F25A438EECEC07A250251FC3803E6F58C12560C4AD840E95E91C151A72936F496F35732D860
310
FE635F62C8F2DA16B505C545B74125BAA2FA9E05D7CC053D063734D5C7665FD55B6B8D15D5E9BFEAFD8490FFA45E504B0304140006080800FB5CE542137AED6FFE000000A00100003B0000006662782F43314246364146362D444435322D343331432D393843332D3032323138383334363837322F7265736F75726365732F
310
636F72652E786D6C8D504B6E833010BD0AF2B63260C02141C61151C3097A01CB4C889560237FAA1EBF76A052BBEB6666F43E9AA7C7CE5FCB33FB04EB94D13D22798932D0D24C4ACF3D0AFE868F283B73668DF1BF6428D362811E251871365B13D61D92467BD03EA2DA4CB083C239F02893CF78F4C8C93B2C2217C147857BE4
310
AB900F31434EF248471D67CEDB1820DB9EA489B805678295E058B1B19C85A0A65DA3A6F853DD1458C4ABF7BA22B419F0F132B6B8690E231E2E0DC1D7B13935A4BDD2EA30B0229939F36AF9C9282D080F53F497A4C6658B4BFA4148579F3A4ADF4ADAD5252B92FC8F29ACD33F4D41695F577BDCCDE6102731C88BE0AC487DC5
310
F52A33EED42DFF06504B010214000A0000080000FB5CE5423DEE336E79000000790000001B00000000000000000000000000000000006175746F6465736B2D64657369676E2D7061636B6167652E786D6C504B01021400140006080800FB5CE542D486FD9CA0000000F40000001300000000000000000000000000B2000000
310
5B436F6E74656E745F54797065735D2E786D6C504B01021400140006080800FB5CE5427B90B05EEB0000007C010000080000000000000000000000000083010000636F72652E786D6C504B01021400140006080800FB5CE54255019EA25F0000007C000000070000000000000000000000000094020000636E782E786D6C50
310
4B01021400140006080800FB5CE54272D5381F67010000020300000C00000000000000000000000000180300006662782F636F72652E786D6C504B01021400140006080800FB5CE5424F01841A7E0000009D0000000B00000000000000000000000000A90400006662782F636E782E786D6C504B01021400140006080800FB
310
5CE5422B77AC092B010000150200003100000000000000000000000000500500006662782F43314246364146362D444435322D343331432D393843332D3032323138383334363837322F636F72652E786D6C504B01021400140006080800FB5CE5422C539E1257010000330300003000000000000000000000000000CA0600
310
006662782F43314246364146362D444435322D343331432D393843332D3032323138383334363837322F636E782E786D6C504B01021400140006080800FB5CE5425C824173640700009A1B000034000000000000000000000000006F0800006662782F43314246364146362D444435322D343331432D393843332D30323231
310
38383334363837322F6F626A656374732E786D6C504B01021400140006080000FB5CE5420000000000000000000000003500000000000000000000000000251000006662782F43314246364146362D444435322D343331432D393843332D3032323138383334363837322F76657274696365732E62696E504B010214001400
310
06080800FB5CE542F270F13306000000040000003600000000000000000000000000781000006662782F43314246364146362D444435322D343331432D393843332D3032323138383334363837322F747269616E676C65732E62696E504B01021400140006080000FB5CE54200000000000000000000000037000000000000
310
00000000000000D21000006662782F43314246364146362D444435322D343331432D393843332D3032323138383334363837322F617474726962757465732E62696E504B01021400140006080800FB5CE542D5987DFC8F000000410100003600000000000000000000000000271100006662782F43314246364146362D4444
310
35322D343331432D393843332D3032323138383334363837322F6469726563746F72792E786D6C504B01021400140006080800FB5CE542137AED6FFE000000A00100003B000000000000000000000000000A1200006662782F43314246364146362D444435322D343331432D393843332D3032323138383334363837322F72
310
65736F75726365732F636F72652E786D6C504B0506000000000E000E0080040000611300000000
  0
XRECORD
  5
17
102
{ACAD_REACTORS
330
12
102
}
330
12
100
AcDbXrecord
280
     1
270
     1
271
     1
  0
XRECORD
  5
16
102
{ACAD_REACTORS
330
12
102
}
330
12
100
AcDbXrecord
280
     1
270
     1
271
     1
  0
XRECORD
  5
18
102
{ACAD_REACTORS
330
12
102
}
330
12
100
AcDbXrecord
280
     1
270
     1
271
     1
  0
XRECORD
  5
15
102
{ACAD_REACTORS
330
12
102
}
330
12
100
AcDbXrecord
280
     1
270
     1
271
     1
  0
XRECORD
  5
D8A
102
{ACAD_REACTORS
330
22
102
}
330
22
100
AcDbXrecord
280
     1
102
MATERIAL
148
0.0
149
0.0
149
0.0
 93
        0
 94
      127
282
     0
 72
     0
 77
     0
171
     0
175
     0
179
     0
273
     0
  0
XRECORD
  5
24
102
{ACAD_REACTORS
330
22
102
}
330
22
100
AcDbXrecord
280
     1
270
     1
271
     1
  0
XRECORD
  5
23
102
{ACAD_REACTORS
330
22
102
}
330
22
100
AcDbXrecord
280
     1
270
     1
271
     1
  0
XRECORD
  5
BA
102
{ACAD_REACTORS
330
22
102
}
330
22
100
AcDbXrecord
280
     1
 70
     1
 90
1959938040
 71
     1
  1
D1EE2321-9C82-4EA8-96AB-BAA8CC79A54B
311
504B03040A0000080000FA5CE5423DEE336E79000000790000001B0000006175746F6465736B2D64657369676E2D7061636B6167652E786D6C3C3F786D6C2076657273696F6E3D22312E302220656E636F64696E673D227574662D3822203F3E3C666F726D6174733E3C666F726D61743E687474703A2F2F736368656D612E
311
6175746F6465736B2E636F6D2F64657369676E2D7061636B6167652F323030393C2F666F726D61743E3C2F666F726D6174733E504B0304140006080800FA5CE542D486FD9CA0000000F4000000130000005B436F6E74656E745F54797065735D2E786D6C7D8EC10E82300C865F65E91D8A1E8C310C0EEA1BF002731658846E
311
D98AC1B77784ABF1D8FE5FBFBF75BBCE937A534CCEB38643598122B6FEE978D0B0485F9C41B54DDD7D022595594E1A469170414C76A4D9A4D207E29CF43ECE46F218070CC6BECC4078ACAA135ACF422C856C0E68EA1BF5669944DDD7BCDE7B1F8E415D77AECB980613C2E4AC91FC167A2B244592486606FC29C8FD7F045B9A
311
EF7053A7E60B504B0304140006080800FA5CE542E00D9840EA0000007C01000008000000636F72652E786D6C8D90416EC3201045AF82665B6183A915626122274A4ED00B20202E4A0C9681AAC72F4E1CA9DD7535A33FFFCD8CBE387C4F77F46597E882EF81560490F53A18E7C71E72BA620EE820C51242FA6503E4D5647B58
311
6590625C429E3749079FAC4F45F5C1D84D5431DA0448DF4BD343D49F765295CAA938E2AD9A95BEA9D156F4D515386767D0F38833659FBB3ABB8024973339EDD8059F074EF03B39EE311FE809379CB02367ED30302EEA159622B9E9755F2F56256B403684324C7698B41F94766CDFB5CD1B693B4644BDDAFF407936FF84B2F3
311
8935DBBB4F2C82A4E591C7408A7ACDA2944750A5AEB9C91F504B0304140006080800FA5CE54255019EA25F0000007C00000007000000636E782E786D6C4DCB3B0E80201045D1AD90E915ED2CF8AC45050C11660C8261F98AB1B07AC9C97D42D718D865D3E909258CFD00CCE24AC6E326A164D74DC0B4128928FF326038472B
311
A13128B1252AC747C6BAB984FC68F0B87FE8960A5C09FE86CFB69FBA01504B0304140006080800FA5CE5420DA291EE66010000020300000C0000006662782F636F72652E786D6C8D52ED8E8230107C95A67F2FA50524A2293568F409EE052A548E082D292DF1F16FF9309E17630C49696676766707F8EED6366850B6AF8DCE
311
7018308C942E4C59EB2AC3DE5D488AD14E706B8CFB53869196ADCAF00863C12B6B7CB74085D14E6907A836A55A40D9F7CA61543470C9705FFCA85606D23BA8E8AF41278BABAC54100640439DE0BDB36000CD43C6138BCBF9C6E98C0BEE7D5D2E6C5DC2B4FA522B8B053B1DD9611D9FC8314F1959B1FD86A479782051CAE27D
311
1A27791EA79C8E62C15DDDDEDD155649A74A2C2216C684AD094BBEC3701B6FB649F4C5926DCC381DCB9F44BE2B3F14F95ABB385AECCEB21E8B108C4CC4BF6D2122877A39801F2A381D4384D794F073D0100884ECE4B9B9EF71056850853376054C69FC831A64E3154C65687A389D59E83C3580CD5EF689DEF479DF033EA0D4
311
1558930EAE67EFC6E97C9EBA44D1294B067743DAD856360F73B3C5C7F918F4525E98C6D84FD47459952E61D2F1EF15BF504B0304140006080800FA5CE542EB9D44CD7D0000009D0000000B0000006662782F636E782E786D6C4DCCD10AC2201886E15B91FFDCA62375813A52EC3E467343DA344CA3CB6F8B1D74F4C1C3C72B
311
FBCFBAA0B7CFAF90A2027A22807CBCA731C459412D13EE00F55AE694CADF0D501C56AF6067D072CEA93E0F1AFD34D4A56CBA84F83850506E5AC61D6617E1F0D93A828DE50653C11C77A4EDECF5068D96CDAFB4ED1ED65F504B0304140006080800FA5CE542BC779F082E01000015020000310000006662782F373136423235
311
36452D353937452D344345302D424336422D3137354536453032384341462F636F72652E786D6C8D515B6EC32010BC8AC557AA0A1B6C633B11266A22F704BD00C1244189C1E251E5F885DA91DABFFCB068766676B44BF78FE99E7D4BEB94D13DC0390299D4C28C4A5F7A10FC197620DB336A8DF17F6820D37C923D483060F4
311
624D98574818EDA5F611D566942BC89D931E64E21E3F3D70E22A279EF3E023C3DDF2998B1BBFC81CE7B11D798C3A6F63806C19925EC05ADC1C4AD20C906CDB01D6C701C1C3B13940DC92A11950D91D3F3E69B108190D418DAB5C8D318E3A2B695F35496246BD9A9EF18595DCCB11B012E10AA21622F285F1AEDAEE48F98EC8
311
AE42B448F47FA2308F2F8A82D2BE2AD7B88BCC018669B134181D4D38DD9F61E46336D66769DEC649F10618CA11EACAB2EDEA96160B376E209A36F56AEABCB171C39BDB29D231599C9B9AD1221D2996DF0BC69A0ECA7E00504B0304140006080800FA5CE5420C99BC8A4F01000033030000300000006662782F373136423235
311
36452D353937452D344345302D424336422D3137354536453032384341462F636E782E786D6CD593BD6E032110845F05D146F7E7B39DC4E2B094224F90222D076B9B9883133F51FCF6596CECB84991320D3ACD0E33AB4F1CDB7E4D867C820FDAD98176754B0958E994B6FB81A6B8AB9E28D972E69D8B77364AAC9860A059A6
311
9CEDBD4B739114EC44321155A3EDB1881E824B5E424039DF24C6496130006C9550846904A540919B11BF76E0711514C713890720AF2FEFC48D1F2063604D4EE1ACC91D9CE5B334DD992891468430D0200F30895AA4E8148463AD441475575FBB7ED9E92789E40BD7CAE435C9E503CD27E565A31A39B206879C85E8915E31C5
311
D30C948B79365A8A88909BB3F1E2E12C691BD7CBE2D508DEA3BB5BF7CB25869D679C453D4171480F2282A27CD1767DD53E56EDEAADEB36FDF366B57868579BBE654DB673363A67CA258C01EF66229D8D6023E51D6BF2F8377CC54794F6C8DAF9D31F402280D27AA173CBF8CF7C9AF3FB465C1EFF02FE0D504B030414000608
311
0800FA5CE542C5C69B62A405000080100000340000006662782F37313642323536452D353937452D344345302D424336422D3137354536453032384341462F6F626A656374732E786D6CAD57DB6EDB3810FD1541FBB2FBE08B6C27B5178A0A5F92C228D216355AEC8301839228451BEA02924A9CFDFA3D14295972ECC4BBE8
311
8B6551C3E1CC993317BA1FF729B39E2817499EDDD84E7F685B340BF230C9E21BBB94516F6A5B1F3D97E7B96C89D95646527A63AB65DB73639E9785590A69444A268F56EF167F5922A019B5AD8011216E6C113CD094F44929F3908AC77E4824E9C7D1BEEFF4B560576DCC49F170A4B4209C661296623D83164B1BE5745F87F6
311
C07307EABBE7AA5F23353E2F35A8FCE99E9F6442922C7875D8919AB13359DD8EAE66BDABC964DC9B5C8F9CDEE26EB1EA391FC6C3E5F572399BDFCE70B0901C9A8C259C46B6F709D8F0247007FA93E7964926C72323620234E0F4295191B2BD91E5B8032DD378679C3C657E9067190D2AAC8046E59F511DD2826621629E5001
311
CB5A080DBBAF8EC2B1F579ACDECD91EDE5CB1068EF6829AA6DAF9F6D4B73FF6FB8202E61101754315063691CD55C1D1E10F6F39C996F89B05222294F08B358E273C25F6C0FA24AC4733B6A1493B9CA06E581ED210AFA73972E48A3F7797ECACAA8644CD1D8F6AA2CD82157A8149565C93F941FAC6F23039B102BC586A97148
311
BE14D4F6669A22D323366920AD88911821879B6AE77874E4E852E5E97A657B9FEFFCFD46E5EEE9C30B9E17944B451F50AB0E5CFD5428199B9C8B22A736D847A61C40F90EE4BF20D50FA6206E3CD94FF613738AE4241351CE53C4C61A5ABD217E869653FDAAFFAD7FEEA0D9DC8DDE393C116C05D52FC0B3EB433B962D383DF7
311
0984CFF9D8B8B6090843D9B84F3200A44862B11C4BA8C391BFB7BD35AA1CAA327611E6397019E63EE1AF3B306A5028AA935ACF0C581E95C50B0A3460AB18093334F98D818738BD2A67D5C146EC1CBC57BF84AEF3D5E6F3A6E41109E8BDC9E9158D922C91687107DEB40DEA60DEF1E891BE3CE73C84A3AFF1DEB4F14ECD5102
311
682BCC15F0715DD3D5CBE1E4CE0101F6C5B92A37EE3B27C009D5585BFAEF131150C64846F3B23EF7CDFE81B6A12156C9AE98DC349843630169F497A31C44930E785228109B6ED514CDFE19EF7EACBF80919067B94FD841C83F94DE206739DFF92F3B5D954E22FDB34B6D03C1406901DBAB1CA9D3DF60BE0B93282A056AE009
311
587FAE97EDD0A9AA800A516BD5C93281FBC82DC20D676BBD68D69CA091E6D92E41DB44DA9D3CA0AD1F881A02540ACF592C288B76096365BA8B128666B44B4971068EFF6FBF5FA6C58EA47999C933BA3BA6A339746DEF90573C13193CD8DEA67AF61628BD210D0F61EE08AB567202AB4E6857CEEDED688CA169B69C8E7A93DB
311
F9B437BB9E2F7A8BF97CBA5C7E98CDAF268B3A4E5AB9E7D69DA69DD088123A9B5BF2C484EFC71AE9636A80EDDD1329B69F7476D6CF1FEB3E466177803D6897CDC679F884B18F86EF2B38489E54B44E0B46539A49A252E85EFD61DF09C68C8E317A7D9D92985EA0E5EBA7CD913358B960DF3795EEF4F968AF595DAA843CA944
311
3E94A99F91841D6D8C3592FD228B0D7E754C9AA7EE33F5AB7A3381C1602A7296842883A115D33CA512C5F0821EC4532A40BDF6481F9AABC705BB9FF4802889CF686DC903C18CCC04D202D42A03D95DB77EC34CA7C6AA1B1BDDB6FF881F53296C0B9CB9B131A3CB24A0A2EFA33FAB49A8520E2EB50779CCFD248B19466DBDA9
311
796F76296C3A1DB911B9647C327EE90A6E1C4019293036601E42742A633CB7B2CD7C0FFE93E3B5391691F8EB97B2F1E5B0D038531D8314D54E99CB0266984773F41E89FAB65B4EBF92E92072D125EB4D1268AD3D49785C5D14947DC6A4F9EADB00038AB5FE6A15AC8C11CBCB35F53805994B95E06011586174164482AACB3F
311
B7DF788E8B6C6ADD25A080F5FB7E7AFDC77699A7699EE9A5EDDC5C87ADCD032EB7E116C581AA5B89D88E86CE685BDD06CC0565E71341FB24148F58406479D200DD093F78A9AF8CE843FA43233750A13862E87A6599C63681524397766D55E060EEC8A8851C52374A95316D81E2CD0BC1A01285091CA3BCF72F504B03041400
311
06080000FA5CE542000000000000000000000000350000006662782F37313642323536452D353937452D344345302D424336422D3137354536453032384341462F76657274696365732E62696E504B0304140006080800FA5CE542F270F1330600000004000000360000006662782F37313642323536452D353937452D3443
311
45302D424336422D3137354536453032384341462F747269616E676C65732E62696E636660600000504B0304140006080000FA5CE542000000000000000000000000370000006662782F37313642323536452D353937452D344345302D424336422D3137354536453032384341462F617474726962757465732E62696E504B
311
0304140006080800FA5CE542D5987DFC8F00000041010000360000006662782F37313642323536452D353937452D344345302D424336422D3137354536453032384341462F6469726563746F72792E786D6C858F410EC2201045AF4266AF15DDB800BA74E7C21B903225242D6328188F2FA5C4183471359997F9FF81E89FF3
311
C41E1816475E02DF1F80A11FC8386F25A438EECEC07A250251FC3803E6F58C12560C4AD840E95E91C151A72936F496F35732D860FE635F62C8F2DA16B505C545B74125BAA2FA9E05D7CC053D063734D5C7665FD55B6B8D15D5E9BFEAFD8490FFA45E504B0304140006080800FA5CE54288E7C571FD000000A00100003B0000
311
006662782F37313642323536452D353937452D344345302D424336422D3137354536453032384341462F7265736F75726365732F636F72652E786D6C8D504B6E833010BD0A9A6D65B0715108328E48949EA017B0CC845A0936F2A7EAF16B0295DA5D3733A3F7D13C3D71FA9A1FC527FA609CED8195140AB4DA8DC64E3DA478
311
232D142729BC73F1970C0AAB66EC6185418AC9BBB4EC907636A28D19B56EC41D54216084423FF2D143D01F38AB52A59815E15E2E4ADFD584252B339D755284E87380627BB24E901E834B5E6310D5C64A919219778D19F34F7333E841D2B72BBD1CF8955C879692577A3E9276601752B7949F5BDE0C036F45B59AA58866FEC9
311
A83DAA8823C89A324EE881D0E69DB18E1FBBA67EA14DC7A9A856F91F535AC67F9A92B191D77BDCCD1640B21CE4494851AD7DE5F52C33EFB55BF90D504B010214000A0000080000FA5CE5423DEE336E79000000790000001B00000000000000000000000000000000006175746F6465736B2D64657369676E2D7061636B6167
311
652E786D6C504B01021400140006080800FA5CE542D486FD9CA0000000F40000001300000000000000000000000000B20000005B436F6E74656E745F54797065735D2E786D6C504B01021400140006080800FA5CE542E00D9840EA0000007C010000080000000000000000000000000083010000636F72652E786D6C504B01
311
021400140006080800FA5CE54255019EA25F0000007C000000070000000000000000000000000093020000636E782E786D6C504B01021400140006080800FA5CE5420DA291EE66010000020300000C00000000000000000000000000170300006662782F636F72652E786D6C504B01021400140006080800FA5CE542EB9D44
311
CD7D0000009D0000000B00000000000000000000000000A70400006662782F636E782E786D6C504B01021400140006080800FA5CE542BC779F082E0100001502000031000000000000000000000000004D0500006662782F37313642323536452D353937452D344345302D424336422D3137354536453032384341462F636F
311
72652E786D6C504B01021400140006080800FA5CE5420C99BC8A4F010000330300003000000000000000000000000000CA0600006662782F37313642323536452D353937452D344345302D424336422D3137354536453032384341462F636E782E786D6C504B01021400140006080800FA5CE542C5C69B62A4050000801000
311
003400000000000000000000000000670800006662782F37313642323536452D353937452D344345302D424336422D3137354536453032384341462F6F626A656374732E786D6C504B01021400140006080000FA5CE54200000000000000000000000035000000000000000000000000005D0E00006662782F373136423235
311
36452D353937452D344345302D424336422D3137354536453032384341462F76657274696365732E62696E504B01021400140006080800FA5CE542F270F13306000000040000003600000000000000000000000000B00E00006662782F37313642323536452D353937452D344345302D424336422D31373545364530323843
311
41462F747269616E676C65732E62696E504B01021400140006080000FA5CE54200000000000000000000000037000000000000000000000000000A0F00006662782F37313642323536452D353937452D344345302D424336422D3137354536453032384341462F617474726962757465732E62696E504B0102140014000608
311
0800FA5CE542D5987DFC8F0000004101000036000000000000000000000000005F0F00006662782F37313642323536452D353937452D344345302D424336422D3137354536453032384341462F6469726563746F72792E786D6C504B01021400140006080800FA5CE54288E7C571FD000000A00100003B0000000000000000
311
0000000000421000006662782F37313642323536452D353937452D344345302D424336422D3137354536453032384341462F7265736F75726365732F636F72652E786D6C504B0506000000000E000E0080040000981100000000
310
504B03040A0000080000FA5CE5423DEE336E79000000790000001B0000006175746F6465736B2D64657369676E2D7061636B6167652E786D6C3C3F786D6C2076657273696F6E3D22312E302220656E636F64696E673D227574662D3822203F3E3C666F726D6174733E3C666F726D61743E687474703A2F2F736368656D612E
310
6175746F6465736B2E636F6D2F64657369676E2D7061636B6167652F323030393C2F666F726D61743E3C2F666F726D6174733E504B0304140006080800FA5CE542D486FD9CA0000000F4000000130000005B436F6E74656E745F54797065735D2E786D6C7D8EC10E82300C865F65E91D8A1E8C310C0EEA1BF002731658846E
310
D98AC1B77784ABF1D8FE5FBFBF75BBCE937A534CCEB38643598122B6FEE978D0B0485F9C41B54DDD7D022595594E1A469170414C76A4D9A4D207E29CF43ECE46F218070CC6BECC4078ACAA135ACF422C856C0E68EA1BF5669944DDD7BCDE7B1F8E415D77AECB980613C2E4AC91FC167A2B244592486606FC29C8FD7F045B9A
310
EF7053A7E60B504B0304140006080800FA5CE542A3A7EAB5EC0000007C01000008000000636F72652E786D6C8D90416EC3201045AF82665BE1806D92D8C24489D39CA01740405C94182C03558F5F9C3852BBEB6A467FFE9B197D7EF81EEFE8CBCCC17AD7012D0820E394D7D60D1DA478C57B4007C167EFE32F1B202747D3C1
310
2283E0C3ECD3B44ACABB685CCCAAF3DAACA20CC14440EA9E9B0E82FA34A32C648AD9116EC524D54D0EA6A0AF2EC329598D9E47ACCEFBECD59A190439363DAB4F3DDE5EEA33AE9BF309EF6BCAF0916D7BF2DE5FFA5D53F2CD020B1EEDF8BAAF6623A3D1204A422B4C7698B00F4ADBAA6959F946585B11BE59EC7FA034E97F42
310
C9BA5895EBBB4F2C80A0F991C740F0CD92452E8FA0725D72133F504B0304140006080800FA5CE54255019EA25F0000007C00000007000000636E782E786D6C4DCB3B0E80201045D1AD90E915ED2CF8AC45050C11660C8261F98AB1B07AC9C97D42D718D865D3E909258CFD00CCE24AC6E326A164D74DC0B4128928FF326038
310
472BA13128B1252AC747C6BAB984FC68F0B87FE8960A5C09FE86CFB69FBA01504B0304140006080800FA5CE54296EF733368010000020300000C0000006662782F636F72652E786D6C8D52ED8E8230107C95A67F2FD0F2A5624A8DE2F904F702152A4784969496F8F8B77C18CFCBC51892D2CCECECCE0EB0DDAD6DD0204D5F
310
6B95E1C0A7184955E8B25655869DBD781B8C769C19ADEDAF328C946865864718735619EDBA052AB4B2525940952EE5028ABE9716A3A2814B86FBE25BB6C217CE42457FF53B515C4525FDC0071AEA38EBAD0103681E329E985FCE3746669C33E7EA7261EB12A6D5975A1ACCE93ECD93F8907BAB537CF4E2F478F036719078FB
310
6495D3CFFC94AFD3909151CC99ADDBBBBBC248616589794883C8A36B8F265F41B08DD26D127ED0641B5146C6F22791EBCA3745AE56360A17BBB3ACC73C002313F1675B88C8A25E0CE0877046C610E13525FC1C340402215B716EEE7B5C011A6461B5898129B57B5083689C84A9144D0F23330B9DA706B0D9BF7DC2177D5EF7
310
800F285405D68485EBD9D9713A9BA72E5174D27883BD21A54D2B9A87B9D9E2E37C0CFA575EE8469B77D46459952C6192F1EFE53F504B0304140006080800FA5CE542378DA4727D0000009D0000000B0000006662782F636E782E786D6C4DCCD10AC2201886E15B91FFDC364BD4401D3FABEE63343724A7611A5D7E5BECA0A3
310
0F1E3E5EDD7D9640DE2EBF7C8A06D8A105E2E23D8D3ECE066A99A802D2599D532A7F372071589C818DC1EA39A7FADC6974D350435935F8F8D89133C4737F94B447212857EC4215B682AAABE23789882726A1B1BAF995D6DDC2F60B504B0304140006080800FA5CE542CC3B0E7B2B01000014020000310000006662782F3431
310
4141394332372D434136362D343831442D384130362D3845383446374141413331372F636F72652E786D6C8D515B6EC32010BC0AE22B55850DC6B19D0813A1B43D412F406C92A2C460F1A872FC42ED48ED5F7E58343B333BDA6587FB7403DFCA796D4D0F4981215066B0A336971EC670461D0407CE9CB5E10F0D022327D5C3
310
0C43CE2ECEC67985066B823221A1C68E6A05A5F72A4030DCD2A7877EF852932C640C89E1AFC52C87ABBCA88214A99D789CF9E05200B00CC92FE435116277AC5A74144D83EA8EBCA14EE00675EF5DFDD10A21286959B908398B518FAB5C8F298E3E6BE59E35C962CE829E1EF107A7645023E4152614E116E1ED27217BBADB6F
310
AB57BCDD53CCCA4CFF278AF3F8A4286A1368B5C65D641E72C2CAA5C1D968E3E9F608A3EEB37501E4791BAF8617C87181F10E7798A6052CD4B480E4D9D4ABA70FD6A5056FAEA7C4A6AB71537356E61BA5F27BC054F33DF90F504B0304140006080800FA5CE5426A3E739D5601000033030000300000006662782F3431414139
310
4332372D434136362D343831442D384130362D3845383446374141413331372F636E782E786D6CBD93CD6E022114855F85B06DE6CF516B0D8349177D822EBA45B82A9581093F4D7DFB5E14AD9B2E9A34DD90C9B987736EBE306CF3391AF2013E686707DAD52D2560A553DAEE079AE2AE5A51B2E1CC3B17EF6C945831C240B3
310
4C39DB7B97A62229D8896422AA46DB63113D0497BC848072BE498C93C26000D82AA108E3169402456E46FCDA81C75550DC9E483C0079797E236EFB0E3206D6E414CE9ADCC1593E4BD39D8912694408030DF200A3A8458A4E4138D64A445177F5B5EB879DBE9348BE70AD4C5E935C3ED07C525E36AA91236B70C859881EE915
310
533C4D40B99826A3A58808B9391B2F1ECE92B671392F5E8DE03DBAFBD972B5C2B0F38CB3A847280EE941445094CFDAAEAFDAC7AA5DBC76DDBA7F5A2F660FED62DDB7ACC976CEB6CE99720963C0BB89486723D84879C79A3CFE095FF111A53DB276FEF40B9008A0B45EE8DC32FE924FB7ECE7F37FE4D39CDF37E2F2F817F02F
310
504B0304140006080800FA5CE542D3D763C862070000991B0000340000006662782F34314141394332372D434136362D343831442D384130362D3845383446374141413331372F6F626A656374732E786D6CED595B739B3814FE2B0CFBB2FB606C6C274D76083B8E93763C9DB49D7ADBD907CF3032C8441B211849E4B2BF7E
310
8F2E602026C1DBEC5B1F6C404847E77CE7AA43F0C763469D7BCC05C9D985EB7B13D7C12CCE13C2D20BB794BBD199EBFC11063CCF65639AEB3094E10B570DBB6190F2BC2CEC508277A8A4B233FAFEF22F47C49861D7892912E2C215F12DCE90874A992758DC790992C84B778F9EEF99896DB22947C56D876881386612388571
310
06541CC394DF7E9CB8E33018ABF761A0FEEDACD9A059F3FE59632D759B4BC284442C7EC65287CC6C104B337F7E753D3D391F9DCCE7B3D1FC74EA8F2EDF5F5E8DFC77B3C9F274B93C5F5C9F037BDB3CA756A604179825A0BF2737F483B17A538B6E1138C4759C3386630D2440A5C5EA122458C0560DF826ED475F49D478AD25
310
6C3CCFD57BCB426378D6A6D2376B18102DBA2088DDAE92B8BA36E5CBB77F83E0628851728125702B2407ED5A783878851B4E82B1190D83ED5E17443819929813441D4AB61C71500A4C5553C2C02CB06494737020E52809B4E6CCEBB66D8167BEEE3A87B8DC95942ACF7043ED5811B81F96427346FEC17CCF7D1319E009A42D
310
099367964BF95460373C0FC67A300CD46536B52F0D90CE8EA2546844CCDB8EA04BE5FAAB2B37FCF87EFBB856E1E0F0E605CF0BCCA5323AA547CD1718B2BD2A94ECB6FE20CDA905208C01D5AEDC83F21590FF04D163CF0AE88D93C7F9E3DCCE951C31B1CB7906BA7126CE68027F13C7D7FFEABE71178CEBC56DEDF5E1096EAA
310
A03AFB713CDB3268AC2CFF0D38C3E01E0C3EE733FB6A1D230AF67C431800A48CC4A1390C4168DF6D1FDD70058113023DAC4234F4416460F71E6E83B125B3D74AE55ED6EB18206AF7980D5112C0A62D12D8E8D1D307C81E9CC47B353545EC83F7E44DCC7571B5FEB82EF90EC5F8C6FAF415DE11462464CDC30CB5306F497487
310
9F1E729E80A0CFF15E37F1CEEC5602D056982BE0D30A04F5B0DFB9B5410CEBD25C859BE0951D400895AB1BF46F888831A588E1BCACF6ADA39B32D4DAE36DCDE0865303F16CDA31618EEF89AA2AC069F6335A8C42DE8F392914886EF8C14856074DAF47BA6FAB4F6091F5FC9E592B06A19721FAA70E5A077068597685B405A2
310
1678BB0FE7714E731E6D9F2213E95CA825808DB6B77C6F1185586F94A4A8800769BFAB424A6AA48D12B2DB9502E2EA0116BFAF964D73987833FFC469FE779C710ED1167C1771EB779D3D2292A114473B94F46DD7DCADA62D34C91ED21CEF28C845EE897C8A908C26094E8F81E628E2E76F4A3DA5B910846101F9EA20F84D34
310
261E0412A3CD8A65A5D50ED044441996881E838022D303AE4E3BBAC68DA174789DC7DA7A5FD25893E8FF64111C412D99B38840290A39E455C67DEF0462481B5D8372075FB0B68AB61683965042C44FD10326E9AD3C067543BE07F7188E24A58CF202C560D603C83EF315A5D40EEF5B14DFA9FC11C5257D2B031198EE224269
310
9945F0230C4E1E435CBB0E4C2FA2D0206E629FC419146548967CC826A7279367FB989AA11B021B1BED0885B01D65A8E841BD1510753DE2D4E05BEA3D4ADD965911A12C2FD92043F1665D6FB2E4BB6A556407F2AB4A45281B2BC29660181026EBAC5AC56C30751D58C18D74A07A8A04CA0A6A4E61AF241EBFF6264DB977036E
310
FDF46D37C8A0F0EBD15E33A2CE2B182C8FADC2403C2019DFBAE15A5F4797507F2738D9A7FAAAD66C568080988AE425275645DF5650DED81ACD0D6F90149B0F26EB56D76F2B0FBA1FC118D640ED522F5C29A033CC245295C98DBAA15F1184E0160D33BE5239F5182A8B24D15523A2EF499F3A5B65446BD38C78C52D6679063F
310
B6212CA6658237281177D18DA4D19A28D6AD945E462A8C5F14F0F38775071E181920D21755E0E187CE5A3BBA54E5D24122F2B6CCB60C1108822DD152A31BAF60A9D548A5E5FAAACE14507781815915CF7F9E2C9AED889F278BD41AC68F9D2C68BE45741F6D1AD93C56667DD429A04E4F8ACA5B9C0274D7A1A65A271193CBAD
310
F8D69722888955901F5C8C5531C310ECE3F83F27EDBE2468B6EBF07F5CD2F69F151C472595D664D5A43A50B8AE9A29ECCABFBE9ECEA02B7BBE3C9B8EE6D78BB3D1F9E9E27274B9589C2D97EFCE1727F3CB1A4DEDA76150C7329DBAE0D9C4B46A583D590CA0292B724A1238CC274E8A21E44B38D20FE89EF30C0BC89DCD5E77
310
627BF20356DF9B36A7445B8A2B4E6E11F487A980AC0E1895B16C8F3BBF406752C239FBC2859E9177077FD62A5D0712CF850B9D0249622CBC2D7499543F4F13878CAB53BF2506F82096AA8C6816D5CFF52A854D2BFAD7538664012B57AB8501755B01CDAF568342F366798A8F12BC62C741126EB7A58462CDC8B21FA885D1DB
310
ECD56F64A384DDD9AD1FC1755F16CBF7F49C162283BE18BC680486EA48229EEA76B762CCB2B4B8FA3286369BB3FAEC14B44C4197C3298D3806632E553D055604566169164882A92E7FDF7CE1397CE1C91C5D1439BF3E9E9DFEB659E659963333B459C0A12C81EF44CEFA16BEFA241BA81DB0EAAD8BCD74E24F37BAA76DDBEC
310
D11609ECA9A20806AA5A4209D23139B0CB67FD29DBBD1C2B5574A6AFAE1C1B44A11760ECE8598BD77CE372C087D4D714E531DACF2B695F6C6B8FF554B0090E0DE9F05F504B0304140006080000FA5CE542000000000000000000000000350000006662782F34314141394332372D434136362D343831442D384130362D3845
310
383446374141413331372F76657274696365732E62696E504B0304140006080800FA5CE542F270F1330600000004000000360000006662782F34314141394332372D434136362D343831442D384130362D3845383446374141413331372F747269616E676C65732E62696E636660600000504B0304140006080000FA5CE542
310
000000000000000000000000370000006662782F34314141394332372D434136362D343831442D384130362D3845383446374141413331372F617474726962757465732E62696E504B0304140006080800FA5CE542D5987DFC8F00000041010000360000006662782F34314141394332372D434136362D343831442D384130
310
362D3845383446374141413331372F6469726563746F72792E786D6C858F410EC2201045AF4266AF15DDB800BA74E7C21B903225242D6328188F2FA5C4183471359997F9FF81E89FF3C41E1816475E02DF1F80A11FC8386F25A438EECEC07A250251FC3803E6F58C12560C4AD840E95E91C151A72936F496F35732D860FE63
310
5F62C8F2DA16B505C545B74125BAA2FA9E05D7CC053D063734D5C7665FD55B6B8D15D5E9BFEAFD8490FFA45E504B0304140006080800FA5CE542B00CC42DFF000000A00100003B0000006662782F34314141394332372D434136362D343831442D384130362D3845383446374141413331372F7265736F75726365732F636F
310
72652E786D6C8D50596EC23010BD4A34BF95133B0B10E41891504ED00B58CE0016C48EBC543D7E1D48A5F6AF3F33A3B7689E1E3F7C4D8FEC139DD7D674C0720A191A65476DAE1DC470213BC80E823B6BC32F1964464ED8C10283E05767E3BC42CA9A802624D4D81157507A8F0132F54847075EDD7092B98C2129FC3D9FA5BA
310
CB2BE62C4F74D209EE834B01B2D793658270E86D740A3D2F5EACE031EA71D5E831FDD4178D0E043DB64353F73DD99CEB13A9DB534F76356BC8B1D90CF47D380FDBB6E4C562163CE8E927A37228038E204ACA2A42B784361F8CEDAB76DF946FB4D95794178BFC8F29CEE33F4D519B50956BDC97CD836029C89310BC58FA4AEB
310
5966DA4BB7E21B504B010214000A0000080000FA5CE5423DEE336E79000000790000001B00000000000000000000000000000000006175746F6465736B2D64657369676E2D7061636B6167652E786D6C504B01021400140006080800FA5CE542D486FD9CA0000000F40000001300000000000000000000000000B20000005B
310
436F6E74656E745F54797065735D2E786D6C504B01021400140006080800FA5CE542A3A7EAB5EC0000007C010000080000000000000000000000000083010000636F72652E786D6C504B01021400140006080800FA5CE54255019EA25F0000007C000000070000000000000000000000000095020000636E782E786D6C504B
310
01021400140006080800FA5CE54296EF733368010000020300000C00000000000000000000000000190300006662782F636F72652E786D6C504B01021400140006080800FA5CE542378DA4727D0000009D0000000B00000000000000000000000000AB0400006662782F636E782E786D6C504B01021400140006080800FA5C
310
E542CC3B0E7B2B010000140200003100000000000000000000000000510500006662782F34314141394332372D434136362D343831442D384130362D3845383446374141413331372F636F72652E786D6C504B01021400140006080800FA5CE5426A3E739D56010000330300003000000000000000000000000000CB060000
310
6662782F34314141394332372D434136362D343831442D384130362D3845383446374141413331372F636E782E786D6C504B01021400140006080800FA5CE542D3D763C862070000991B000034000000000000000000000000006F0800006662782F34314141394332372D434136362D343831442D384130362D3845383446
310
374141413331372F6F626A656374732E786D6C504B01021400140006080000FA5CE5420000000000000000000000003500000000000000000000000000231000006662782F34314141394332372D434136362D343831442D384130362D3845383446374141413331372F76657274696365732E62696E504B01021400140006
310
080800FA5CE542F270F13306000000040000003600000000000000000000000000761000006662782F34314141394332372D434136362D343831442D384130362D3845383446374141413331372F747269616E676C65732E62696E504B01021400140006080000FA5CE5420000000000000000000000003700000000000000
310
000000000000D01000006662782F34314141394332372D434136362D343831442D384130362D3845383446374141413331372F617474726962757465732E62696E504B01021400140006080800FA5CE542D5987DFC8F000000410100003600000000000000000000000000251100006662782F34314141394332372D434136
310
362D343831442D384130362D3845383446374141413331372F6469726563746F72792E786D6C504B01021400140006080800FA5CE542B00CC42DFF000000A00100003B00000000000000000000000000081200006662782F34314141394332372D434136362D343831442D384130362D3845383446374141413331372F7265
310
736F75726365732F636F72652E786D6C504B0506000000000E000E0080040000601300000000
  0
XRECORD
  5
27
102
{ACAD_REACTORS
330
22
102
}
330
22
100
AcDbXrecord
280
     1
270
     1
271
     1
  0
XRECORD
  5
26
102
{ACAD_REACTORS
330
22
102
}
330
22
100
AcDbXrecord
280
     1
270
     1
271
     1
  0
XRECORD
  5
28
102
{ACAD_REACTORS
330
22
102
}
330
22
100
AcDbXrecord
280
     1
270
     1
271
     1
  0
XRECORD
  5
25
102
{ACAD_REACTORS
330
22
102
}
330
22
100
AcDbXrecord
280
     1
270
     1
271
     1
  0
XRECORD
  5
D84
102
{ACAD_REACTORS
330
D83
102
}
330
D83
100
AcDbXrecord
280
     1
102
ACAD_ROUNDTRIP_2012_MLEADER_STYLE
298
     1
  0
CELLSTYLEMAP
  5
D82
102
{ACAD_REACTORS
330
D81
102
}
330
D81
100
AcDbCellStyleMap
 90
        3
300
CELLSTYLE
  1
TABLEFORMAT_BEGIN
 90
        5
170
     1
 91
        0
 92
    32768
 62
   257
 93
        1
300
CONTENTFORMAT
  1
CONTENTFORMAT_BEGIN
 90
        0
 91
        0
 92
      512
 93
        0
300

 40
0.0
140
1.0
 94
        5
 62
     0
340
55
144
0.25
309
CONTENTFORMAT_END
171
     0
 94
        0
309
TABLEFORMAT_END
  1
CELLSTYLE_BEGIN
 90
        1
 91
        1
300
_TITLE
309
CELLSTYLE_END
300
CELLSTYLE
  1
TABLEFORMAT_BEGIN
 90
        5
170
     1
 91
        0
 92
        0
 62
   257
 93
        1
300
CONTENTFORMAT
  1
CONTENTFORMAT_BEGIN
 90
        0
 91
        0
 92
      512
 93
        0
300

 40
0.0
140
1.0
 94
        5
 62
     0
340
55
144
0.18
309
CONTENTFORMAT_END
171
     0
 94
        0
309
TABLEFORMAT_END
  1
CELLSTYLE_BEGIN
 90
        2
 91
        1
300
_HEADER
309
CELLSTYLE_END
300
CELLSTYLE
  1
TABLEFORMAT_BEGIN
 90
        5
170
     1
 91
        0
 92
        0
 62
   257
 93
        1
300
CONTENTFORMAT
  1
CONTENTFORMAT_BEGIN
 90
        0
 91
        0
 92
      512
 93
        0
300

 40
0.0
140
1.0
 94
        2
 62
     0
340
55
144
0.18
309
CONTENTFORMAT_END
171
     0
 94
        0
309
TABLEFORMAT_END
  1
CELLSTYLE_BEGIN
 90
        3
 91
        2
300
_DATA
309
CELLSTYLE_END
  0
XRECORD
  5
DBB
102
{ACAD_REACTORS
330
D81
102
}
330
D81
100
AcDbXrecord
280
     1
102
ACAD_ROUNDTRIP_PRE2007_TABLESTYLE
 90
      512
 91
        0
  1

 92
      512
 93
        0
  2

 94
      512
 95
        0
  3

  0
XRECORD
  5
D96
102
{ACAD_REACTORS
330
D95
102
}
330
D95
100
AcDbXrecord
280
     1
102
RTVSPropertyOp0
 70
     1
102
RTVSPropertyOp1
 70
     1
102
RTVSPropertyOp2
 70
     1
102
RTVSPropertyOp3
 70
     1
102
RTVSPropertyOp4
 70
     1
102
RTVSPropertyOp5
 70
     1
102
RTVSPropertyOp6
 70
     1
102
RTVSPropertyOp7
 70
     1
102
RTVSPropertyOp8
 70
     1
102
RTVSPropertyOp9
 70
     1
102
RTVSPropertyOp10
 70
     1
102
RTVSPropertyOp11
 70
     1
102
RTVSPropertyOp12
 70
     1
102
RTVSPropertyOp13
 70
     1
102
RTVSPropertyOp14
 70
     1
102
RTVSPropertyOp15
 70
     1
102
RTVSPropertyOp16
 70
     1
102
RTVSPropertyOp17
 70
     1
102
RTVSPropertyOp18
 70
     1
102
RTVSPropertyOp19
 70
     1
102
RTVSPropertyOp20
 70
     1
102
RTVSPropertyOp21
 70
     1
102
RTVSPropertyOp22
 70
     1
102
RTVSPropertyOp23
 70
     1
102
RTVSPropertyOp24
 70
     1
102
RTVSPropertyOp25
 70
     1
102
RTVSPropertyOp26
 70
     1
102
RTVSPropertyOp27
 70
     1
102
RTVSPropertyOp28
 70
     1
102
RTVSPropertyOp29
 70
     1
102
RTVSPropertyOp30
 70
     1
102
RTVSPropertyOp31
 70
     1
102
RTVSPropertyOp32
 70
     1
  0
XRECORD
  5
D94
102
{ACAD_REACTORS
330
D93
102
}
330
D93
100
AcDbXrecord
280
     1
102
RTVSPropertyOp0
 70
     1
102
RTVSPropertyOp1
 70
     1
102
RTVSPropertyOp2
 70
     1
102
RTVSPropertyOp3
 70
     1
102
RTVSPropertyOp4
 70
     1
102
RTVSPropertyOp5
 70
     1
102
RTVSPropertyOp6
 70
     1
102
RTVSPropertyOp7
 70
     1
102
RTVSPropertyOp8
 70
     1
102
RTVSPropertyOp9
 70
     1
102
RTVSPropertyOp10
 70
     1
102
RTVSPropertyOp11
 70
     1
102
RTVSPropertyOp12
 70
     1
102
RTVSPropertyOp13
 70
     1
102
RTVSPropertyOp14
 70
     1
102
RTVSPropertyOp15
 70
     1
102
RTVSPropertyOp16
 70
     1
102
RTVSPropertyOp17
 70
     1
102
RTVSPropertyOp18
 70
     1
102
RTVSPropertyOp19
 70
     1
102
RTVSPropertyOp20
 70
     1
102
RTVSPropertyOp21
 70
     1
102
RTVSPropertyOp22
 70
     1
102
RTVSPropertyOp23
 70
     1
102
RTVSPropertyOp24
 70
     1
102
RTVSPropertyOp25
 70
     1
102
RTVSPropertyOp26
 70
     1
102
RTVSPropertyOp27
 70
     1
102
RTVSPropertyOp28
 70
     1
102
RTVSPropertyOp29
 70
     1
102
RTVSPropertyOp30
 70
     1
102
RTVSPropertyOp31
 70
     1
102
RTVSPropertyOp32
 70
     1
  0
XRECORD
  5
DA2
102
{ACAD_REACTORS
330
DA1
102
}
330
DA1
100
AcDbXrecord
280
     1
102
RTVSPropertyOp0
 70
     1
102
RTVSPropertyOp1
 70
     1
102
RTVSPropertyOp2
 70
     1
102
RTVSPropertyOp3
 70
     1
102
RTVSPropertyOp4
 70
     1
102
RTVSPropertyOp5
 70
     1
102
RTVSPropertyOp6
 70
     1
102
RTVSPropertyOp7
 70
     1
102
RTVSPropertyOp8
 70
     1
102
RTVSPropertyOp9
 70
     1
102
RTVSPropertyOp10
 70
     1
102
RTVSPropertyOp11
 70
     1
102
RTVSPropertyOp12
 70
     1
102
RTVSPropertyOp13
 70
     1
102
RTVSPropertyOp14
 70
     1
102
RTVSPropertyOp15
 70
     1
102
RTVSPropertyOp16
 70
     1
102
RTVSPropertyOp17
 70
     1
102
RTVSPropertyOp18
 70
     1
102
RTVSPropertyOp19
 70
     1
102
RTVSPropertyOp20
 70
     1
102
RTVSPropertyOp21
 70
     1
102
RTVSPropertyOp22
 70
     1
102
RTVSPropertyOp23
 70
     1
102
RTVSPropertyOp24
 70
     1
102
RTVSPropertyOp25
 70
     1
102
RTVSPropertyOp26
 70
     1
102
RTVSPropertyOp27
 70
     1
102
RTVSPropertyOp28
 70
     1
102
RTVSPropertyOp29
 70
     1
102
RTVSPropertyOp30
 70
     1
102
RTVSPropertyOp31
 70
     1
102
RTVSPropertyOp32
 70
     1
  0
XRECORD
  5
DAA
102
{ACAD_REACTORS
330
DA9
102
}
330
DA9
100
AcDbXrecord
280
     1
102
RTVSPropertyOp0
 70
     1
102
RTVSPropertyOp1
 70
     1
102
RTVSPropertyOp2
 70
     1
102
RTVSPropertyOp3
 70
     1
102
RTVSPropertyOp4
 70
     1
102
RTVSPropertyOp5
 70
     1
102
RTVSPropertyOp6
 70
     1
102
RTVSPropertyOp7
 70
     1
102
RTVSPropertyOp8
 70
     1
102
RTVSPropertyOp9
 70
     1
102
RTVSPropertyOp10
 70
     1
102
RTVSPropertyOp11
 70
     1
102
RTVSPropertyOp12
 70
     1
102
RTVSPropertyOp13
 70
     1
102
RTVSPropertyOp14
 70
     1
102
RTVSPropertyOp15
 70
     1
102
RTVSPropertyOp16
 70
     1
102
RTVSPropertyOp17
 70
     1
102
RTVSPropertyOp18
 70
     1
102
RTVSPropertyOp19
 70
     1
102
RTVSPropertyOp20
 70
     1
102
RTVSPropertyOp21
 70
     1
102
RTVSPropertyOp22
 70
     1
102
RTVSPropertyOp23
 70
     1
102
RTVSPropertyOp24
 70
     1
102
RTVSPropertyOp25
 70
     1
102
RTVSPropertyOp26
 70
     1
102
RTVSPropertyOp27
 70
     1
102
RTVSPropertyOp28
 70
     1
102
RTVSPropertyOp29
 70
     1
102
RTVSPropertyOp30
 70
     1
102
RTVSPropertyOp31
 70
     1
102
RTVSPropertyOp32
 70
     1
  0
XRECORD
  5
D9C
102
{ACAD_REACTORS
330
D9B
102
}
330
D9B
100
AcDbXrecord
280
     1
102
RTVSPropertyOp0
 70
     1
102
RTVSPropertyOp1
 70
     1
102
RTVSPropertyOp2
 70
     1
102
RTVSPropertyOp3
 70
     1
102
RTVSPropertyOp4
 70
     1
102
RTVSPropertyOp5
 70
     1
102
RTVSPropertyOp6
 70
     1
102
RTVSPropertyOp7
 70
     1
102
RTVSPropertyOp8
 70
     1
102
RTVSPropertyOp9
 70
     1
102
RTVSPropertyOp10
 70
     1
102
RTVSPropertyOp11
 70
     1
102
RTVSPropertyOp12
 70
     1
102
RTVSPropertyOp13
 70
     1
102
RTVSPropertyOp14
 70
     1
102
RTVSPropertyOp15
 70
     1
102
RTVSPropertyOp16
 70
     1
102
RTVSPropertyOp17
 70
     1
102
RTVSPropertyOp18
 70
     1
102
RTVSPropertyOp19
 70
     1
102
RTVSPropertyOp20
 70
     1
102
RTVSPropertyOp21
 70
     1
102
RTVSPropertyOp22
 70
     1
102
RTVSPropertyOp23
 70
     1
102
RTVSPropertyOp24
 70
     1
102
RTVSPropertyOp25
 70
     1
102
RTVSPropertyOp26
 70
     1
102
RTVSPropertyOp27
 70
     1
102
RTVSPropertyOp28
 70
     1
102
RTVSPropertyOp29
 70
     1
102
RTVSPropertyOp30
 70
     1
102
RTVSPropertyOp31
 70
     1
102
RTVSPropertyOp32
 70
     1
  0
XRECORD
  5
DA0
102
{ACAD_REACTORS
330
D9F
102
}
330
D9F
100
AcDbXrecord
280
     1
102
RTVSPropertyOp0
 70
     1
102
RTVSPropertyOp1
 70
     1
102
RTVSPropertyOp2
 70
     1
102
RTVSPropertyOp3
 70
     1
102
RTVSPropertyOp4
 70
     1
102
RTVSPropertyOp5
 70
     1
102
RTVSPropertyOp6
 70
     1
102
RTVSPropertyOp7
 70
     1
102
RTVSPropertyOp8
 70
     1
102
RTVSPropertyOp9
 70
     1
102
RTVSPropertyOp10
 70
     1
102
RTVSPropertyOp11
 70
     1
102
RTVSPropertyOp12
 70
     1
102
RTVSPropertyOp13
 70
     1
102
RTVSPropertyOp14
 70
     1
102
RTVSPropertyOp15
 70
     1
102
RTVSPropertyOp16
 70
     1
102
RTVSPropertyOp17
 70
     1
102
RTVSPropertyOp18
 70
     1
102
RTVSPropertyOp19
 70
     1
102
RTVSPropertyOp20
 70
     1
102
RTVSPropertyOp21
 70
     1
102
RTVSPropertyOp22
 70
     1
102
RTVSPropertyOp23
 70
     1
102
RTVSPropertyOp24
 70
     1
102
RTVSPropertyOp25
 70
     1
102
RTVSPropertyOp26
 70
     1
102
RTVSPropertyOp27
 70
     1
102
RTVSPropertyOp28
 70
     1
102
RTVSPropertyOp29
 70
     1
102
RTVSPropertyOp30
 70
     1
102
RTVSPropertyOp31
 70
     1
102
RTVSPropertyOp32
 70
     1
  0
XRECORD
  5
DBA
102
{ACAD_REACTORS
330
DB9
102
}
330
DB9
100
AcDbXrecord
280
     1
102
RTVSPropertyOp0
 70
     0
102
RTVSPropertyOp1
 70
     0
102
RTVSPropertyOp2
 70
     0
102
RTVSPropertyOp3
 70
     0
102
RTVSPropertyOp4
 70
     0
102
RTVSPropertyOp5
 70
     0
102
RTVSPropertyOp6
 70
     0
102
RTVSPropertyOp7
 70
     0
102
RTVSPropertyOp8
 70
     0
102
RTVSPropertyOp9
 70
     0
102
RTVSPropertyOp10
 70
     0
102
RTVSPropertyOp11
 70
     0
102
RTVSPropertyOp12
 70
     0
102
RTVSPropertyOp13
 70
     0
102
RTVSPropertyOp14
 70
     2
102
RTVSPropertyOp15
 70
     0
102
RTVSPropertyOp16
 70
     0
102
RTVSPropertyOp17
 70
     0
102
RTVSPropertyOp18
 70
     0
102
RTVSPropertyOp19
 70
     0
102
RTVSPropertyOp20
 70
     0
102
RTVSPropertyOp21
 70
     0
102
RTVSPropertyOp22
 70
     0
102
RTVSPropertyOp23
 70
     0
102
RTVSPropertyOp24
 70
     0
102
RTVSPropertyOp25
 70
     0
102
RTVSPropertyOp26
 70
     0
102
RTVSPropertyOp27
 70
     0
102
RTVSPropertyOp28
 70
     1
102
RTVSPropertyOp29
 70
     1
102
RTVSPropertyOp30
 70
     1
102
RTVSPropertyOp31
 70
     1
102
RTVSPropertyOp32
 70
     1
  0
XRECORD
  5
DA8
102
{ACAD_REACTORS
330
DA7
102
}
330
DA7
100
AcDbXrecord
280
     1
102
RTVSPropertyOp0
 70
     1
102
RTVSPropertyOp1
 70
     1
102
RTVSPropertyOp2
 70
     1
102
RTVSPropertyOp3
 70
     1
102
RTVSPropertyOp4
 70
     1
102
RTVSPropertyOp5
 70
     1
102
RTVSPropertyOp6
 70
     1
102
RTVSPropertyOp7
 70
     1
102
RTVSPropertyOp8
 70
     1
102
RTVSPropertyOp9
 70
     1
102
RTVSPropertyOp10
 70
     1
102
RTVSPropertyOp11
 70
     1
102
RTVSPropertyOp12
 70
     1
102
RTVSPropertyOp13
 70
     1
102
RTVSPropertyOp14
 70
     1
102
RTVSPropertyOp15
 70
     1
102
RTVSPropertyOp16
 70
     1
102
RTVSPropertyOp17
 70
     1
102
RTVSPropertyOp18
 70
     1
102
RTVSPropertyOp19
 70
     1
102
RTVSPropertyOp20
 70
     1
102
RTVSPropertyOp21
 70
     1
102
RTVSPropertyOp22
 70
     1
102
RTVSPropertyOp23
 70
     1
102
RTVSPropertyOp24
 70
     1
102
RTVSPropertyOp25
 70
     1
102
RTVSPropertyOp26
 70
     1
102
RTVSPropertyOp27
 70
     1
102
RTVSPropertyOp28
 70
     1
102
RTVSPropertyOp29
 70
     1
102
RTVSPropertyOp30
 70
     1
102
RTVSPropertyOp31
 70
     1
102
RTVSPropertyOp32
 70
     1
  0
XRECORD
  5
D8C
102
{ACAD_REACTORS
330
D8B
102
}
330
D8B
100
AcDbXrecord
280
     1
102
RTVSPropertyOp0
 70
     1
102
RTVSPropertyOp1
 70
     1
102
RTVSPropertyOp2
 70
     1
102
RTVSPropertyOp3
 70
     1
102
RTVSPropertyOp4
 70
     1
102
RTVSPropertyOp5
 70
     1
102
RTVSPropertyOp6
 70
     1
102
RTVSPropertyOp7
 70
     1
102
RTVSPropertyOp8
 70
     1
102
RTVSPropertyOp9
 70
     1
102
RTVSPropertyOp10
 70
     1
102
RTVSPropertyOp11
 70
     1
102
RTVSPropertyOp12
 70
     1
102
RTVSPropertyOp13
 70
     1
102
RTVSPropertyOp14
 70
     1
102
RTVSPropertyOp15
 70
     1
102
RTVSPropertyOp16
 70
     1
102
RTVSPropertyOp17
 70
     1
102
RTVSPropertyOp18
 70
     1
102
RTVSPropertyOp19
 70
     1
102
RTVSPropertyOp20
 70
     1
102
RTVSPropertyOp21
 70
     1
102
RTVSPropertyOp22
 70
     1
102
RTVSPropertyOp23
 70
     1
102
RTVSPropertyOp24
 70
     1
102
RTVSPropertyOp25
 70
     1
102
RTVSPropertyOp26
 70
     1
102
RTVSPropertyOp27
 70
     1
102
RTVSPropertyOp28
 70
     1
102
RTVSPropertyOp29
 70
     1
102
RTVSPropertyOp30
 70
     1
102
RTVSPropertyOp31
 70
     1
102
RTVSPropertyOp32
 70
     1
  0
XRECORD
  5
D8E
102
{ACAD_REACTORS
330
D8D
102
}
330
D8D
100
AcDbXrecord
280
     1
102
RTVSPropertyOp0
 70
     1
102
RTVSPropertyOp1
 70
     1
102
RTVSPropertyOp2
 70
     1
102
RTVSPropertyOp3
 70
     1
102
RTVSPropertyOp4
 70
     1
102
RTVSPropertyOp5
 70
     1
102
RTVSPropertyOp6
 70
     1
102
RTVSPropertyOp7
 70
     1
102
RTVSPropertyOp8
 70
     1
102
RTVSPropertyOp9
 70
     1
102
RTVSPropertyOp10
 70
     1
102
RTVSPropertyOp11
 70
     1
102
RTVSPropertyOp12
 70
     1
102
RTVSPropertyOp13
 70
     1
102
RTVSPropertyOp14
 70
     1
102
RTVSPropertyOp15
 70
     1
102
RTVSPropertyOp16
 70
     1
102
RTVSPropertyOp17
 70
     1
102
RTVSPropertyOp18
 70
     1
102
RTVSPropertyOp19
 70
     1
102
RTVSPropertyOp20
 70
     1
102
RTVSPropertyOp21
 70
     1
102
RTVSPropertyOp22
 70
     1
102
RTVSPropertyOp23
 70
     1
102
RTVSPropertyOp24
 70
     1
102
RTVSPropertyOp25
 70
     1
102
RTVSPropertyOp26
 70
     1
102
RTVSPropertyOp27
 70
     1
102
RTVSPropertyOp28
 70
     1
102
RTVSPropertyOp29
 70
     1
102
RTVSPropertyOp30
 70
     1
102
RTVSPropertyOp31
 70
     1
102
RTVSPropertyOp32
 70
     1
  0
XRECORD
  5
D90
102
{ACAD_REACTORS
330
D8F
102
}
330
D8F
100
AcDbXrecord
280
     1
102
RTVSPropertyOp0
 70
     1
102
RTVSPropertyOp1
 70
     1
102
RTVSPropertyOp2
 70
     1
102
RTVSPropertyOp3
 70
     1
102
RTVSPropertyOp4
 70
     1
102
RTVSPropertyOp5
 70
     1
102
RTVSPropertyOp6
 70
     1
102
RTVSPropertyOp7
 70
     1
102
RTVSPropertyOp8
 70
     1
102
RTVSPropertyOp9
 70
     1
102
RTVSPropertyOp10
 70
     1
102
RTVSPropertyOp11
 70
     1
102
RTVSPropertyOp12
 70
     1
102
RTVSPropertyOp13
 70
     1
102
RTVSPropertyOp14
 70
     1
102
RTVSPropertyOp15
 70
     1
102
RTVSPropertyOp16
 70
     1
102
RTVSPropertyOp17
 70
     1
102
RTVSPropertyOp18
 70
     1
102
RTVSPropertyOp19
 70
     1
102
RTVSPropertyOp20
 70
     1
102
RTVSPropertyOp21
 70
     1
102
RTVSPropertyOp22
 70
     1
102
RTVSPropertyOp23
 70
     1
102
RTVSPropertyOp24
 70
     1
102
RTVSPropertyOp25
 70
     1
102
RTVSPropertyOp26
 70
     1
102
RTVSPropertyOp27
 70
     1
102
RTVSPropertyOp28
 70
     1
102
RTVSPropertyOp29
 70
     1
102
RTVSPropertyOp30
 70
     1
102
RTVSPropertyOp31
 70
     1
102
RTVSPropertyOp32
 70
     1
  0
XRECORD
  5
D92
102
{ACAD_REACTORS
330
D91
102
}
330
D91
100
AcDbXrecord
280
     1
102
RTVSPropertyOp0
 70
     1
102
RTVSPropertyOp1
 70
     1
102
RTVSPropertyOp2
 70
     1
102
RTVSPropertyOp3
 70
     1
102
RTVSPropertyOp4
 70
     1
102
RTVSPropertyOp5
 70
     1
102
RTVSPropertyOp6
 70
     1
102
RTVSPropertyOp7
 70
     1
102
RTVSPropertyOp8
 70
     1
102
RTVSPropertyOp9
 70
     1
102
RTVSPropertyOp10
 70
     1
102
RTVSPropertyOp11
 70
     1
102
RTVSPropertyOp12
 70
     1
102
RTVSPropertyOp13
 70
     1
102
RTVSPropertyOp14
 70
     1
102
RTVSPropertyOp15
 70
     1
102
RTVSPropertyOp16
 70
     1
102
RTVSPropertyOp17
 70
     1
102
RTVSPropertyOp18
 70
     1
102
RTVSPropertyOp19
 70
     1
102
RTVSPropertyOp20
 70
     1
102
RTVSPropertyOp21
 70
     1
102
RTVSPropertyOp22
 70
     1
102
RTVSPropertyOp23
 70
     1
102
RTVSPropertyOp24
 70
     1
102
RTVSPropertyOp25
 70
     1
102
RTVSPropertyOp26
 70
     1
102
RTVSPropertyOp27
 70
     1
102
RTVSPropertyOp28
 70
     1
102
RTVSPropertyOp29
 70
     1
102
RTVSPropertyOp30
 70
     1
102
RTVSPropertyOp31
 70
     1
102
RTVSPropertyOp32
 70
     1
  0
XRECORD
  5
D9A
102
{ACAD_REACTORS
330
D99
102
}
330
D99
100
AcDbXrecord
280
     1
102
RTVSPropertyOp0
 70
     1
102
RTVSPropertyOp1
 70
     1
102
RTVSPropertyOp2
 70
     1
102
RTVSPropertyOp3
 70
     1
102
RTVSPropertyOp4
 70
     1
102
RTVSPropertyOp5
 70
     1
102
RTVSPropertyOp6
 70
     1
102
RTVSPropertyOp7
 70
     1
102
RTVSPropertyOp8
 70
     1
102
RTVSPropertyOp9
 70
     1
102
RTVSPropertyOp10
 70
     1
102
RTVSPropertyOp11
 70
     1
102
RTVSPropertyOp12
 70
     1
102
RTVSPropertyOp13
 70
     1
102
RTVSPropertyOp14
 70
     1
102
RTVSPropertyOp15
 70
     1
102
RTVSPropertyOp16
 70
     1
102
RTVSPropertyOp17
 70
     1
102
RTVSPropertyOp18
 70
     1
102
RTVSPropertyOp19
 70
     1
102
RTVSPropertyOp20
 70
     1
102
RTVSPropertyOp21
 70
     1
102
RTVSPropertyOp22
 70
     1
102
RTVSPropertyOp23
 70
     1
102
RTVSPropertyOp24
 70
     1
102
RTVSPropertyOp25
 70
     1
102
RTVSPropertyOp26
 70
     1
102
RTVSPropertyOp27
 70
     1
102
RTVSPropertyOp28
 70
     1
102
RTVSPropertyOp29
 70
     1
102
RTVSPropertyOp30
 70
     1
102
RTVSPropertyOp31
 70
     1
102
RTVSPropertyOp32
 70
     1
  0
XRECORD
  5
DB6
102
{ACAD_REACTORS
330
DB5
102
}
330
DB5
100
AcDbXrecord
280
     1
102
RTVSPropertyOp0
 70
     0
102
RTVSPropertyOp1
 70
     0
102
RTVSPropertyOp2
 70
     0
102
RTVSPropertyOp3
 70
     0
102
RTVSPropertyOp4
 70
     0
102
RTVSPropertyOp5
 70
     0
102
RTVSPropertyOp6
 70
     0
102
RTVSPropertyOp7
 70
     0
102
RTVSPropertyOp8
 70
     0
102
RTVSPropertyOp9
 70
     0
102
RTVSPropertyOp10
 70
     0
102
RTVSPropertyOp11
 70
     0
102
RTVSPropertyOp12
 70
     0
102
RTVSPropertyOp13
 70
     0
102
RTVSPropertyOp14
 70
     2
102
RTVSPropertyOp15
 70
     0
102
RTVSPropertyOp16
 70
     0
102
RTVSPropertyOp17
 70
     0
102
RTVSPropertyOp18
 70
     0
102
RTVSPropertyOp19
 70
     0
102
RTVSPropertyOp20
 70
     0
102
RTVSPropertyOp21
 70
     0
102
RTVSPropertyOp22
 70
     0
102
RTVSPropertyOp23
 70
     0
102
RTVSPropertyOp24
 70
     0
102
RTVSPropertyOp25
 70
     0
102
RTVSPropertyOp26
 70
     0
102
RTVSPropertyOp27
 70
     0
102
RTVSPropertyOp28
 70
     1
102
RTVSPropertyOp29
 70
     1
102
RTVSPropertyOp30
 70
     1
102
RTVSPropertyOp31
 70
     1
102
RTVSPropertyOp32
 70
     1
  0
XRECORD
  5
DA6
102
{ACAD_REACTORS
330
DA5
102
}
330
DA5
100
AcDbXrecord
280
     1
102
RTVSPropertyOp0
 70
     1
102
RTVSPropertyOp1
 70
     1
102
RTVSPropertyOp2
 70
     1
102
RTVSPropertyOp3
 70
     1
102
RTVSPropertyOp4
 70
     1
102
RTVSPropertyOp5
 70
     1
102
RTVSPropertyOp6
 70
     1
102
RTVSPropertyOp7
 70
     1
102
RTVSPropertyOp8
 70
     1
102
RTVSPropertyOp9
 70
     1
102
RTVSPropertyOp10
 70
     1
102
RTVSPropertyOp11
 70
     1
102
RTVSPropertyOp12
 70
     1
102
RTVSPropertyOp13
 70
     1
102
RTVSPropertyOp14
 70
     1
102
RTVSPropertyOp15
 70
     1
102
RTVSPropertyOp16
 70
     1
102
RTVSPropertyOp17
 70
     1
102
RTVSPropertyOp18
 70
     1
102
RTVSPropertyOp19
 70
     1
102
RTVSPropertyOp20
 70
     1
102
RTVSPropertyOp21
 70
     1
102
RTVSPropertyOp22
 70
     1
102
RTVSPropertyOp23
 70
     1
102
RTVSPropertyOp24
 70
     1
102
RTVSPropertyOp25
 70
     1
102
RTVSPropertyOp26
 70
     1
102
RTVSPropertyOp27
 70
     1
102
RTVSPropertyOp28
 70
     1
102
RTVSPropertyOp29
 70
     1
102
RTVSPropertyOp30
 70
     1
102
RTVSPropertyOp31
 70
     1
102
RTVSPropertyOp32
 70
     1
  0
XRECORD
  5
DB8
102
{ACAD_REACTORS
330
DB7
102
}
330
DB7
100
AcDbXrecord
280
     1
102
RTVSPropertyOp0
 70
     0
102
RTVSPropertyOp1
 70
     0
102
RTVSPropertyOp2
 70
     0
102
RTVSPropertyOp3
 70
     0
102
RTVSPropertyOp4
 70
     0
102
RTVSPropertyOp5
 70
     0
102
RTVSPropertyOp6
 70
     0
102
RTVSPropertyOp7
 70
     0
102
RTVSPropertyOp8
 70
     0
102
RTVSPropertyOp9
 70
     0
102
RTVSPropertyOp10
 70
     0
102
RTVSPropertyOp11
 70
     0
102
RTVSPropertyOp12
 70
     0
102
RTVSPropertyOp13
 70
     0
102
RTVSPropertyOp14
 70
     2
102
RTVSPropertyOp15
 70
     0
102
RTVSPropertyOp16
 70
     0
102
RTVSPropertyOp17
 70
     0
102
RTVSPropertyOp18
 70
     0
102
RTVSPropertyOp19
 70
     0
102
RTVSPropertyOp20
 70
     0
102
RTVSPropertyOp21
 70
     0
102
RTVSPropertyOp22
 70
     0
102
RTVSPropertyOp23
 70
     0
102
RTVSPropertyOp24
 70
     0
102
RTVSPropertyOp25
 70
     0
102
RTVSPropertyOp26
 70
     0
102
RTVSPropertyOp27
 70
     0
102
RTVSPropertyOp28
 70
     1
102
RTVSPropertyOp29
 70
     1
102
RTVSPropertyOp30
 70
     1
102
RTVSPropertyOp31
 70
     1
102
RTVSPropertyOp32
 70
     1
  0
XRECORD
  5
D9E
102
{ACAD_REACTORS
330
D9D
102
}
330
D9D
100
AcDbXrecord
280
     1
102
RTVSPropertyOp0
 70
     1
102
RTVSPropertyOp1
 70
     1
102
RTVSPropertyOp2
 70
     1
102
RTVSPropertyOp3
 70
     1
102
RTVSPropertyOp4
 70
     1
102
RTVSPropertyOp5
 70
     1
102
RTVSPropertyOp6
 70
     1
102
RTVSPropertyOp7
 70
     1
102
RTVSPropertyOp8
 70
     1
102
RTVSPropertyOp9
 70
     1
102
RTVSPropertyOp10
 70
     1
102
RTVSPropertyOp11
 70
     1
102
RTVSPropertyOp12
 70
     1
102
RTVSPropertyOp13
 70
     1
102
RTVSPropertyOp14
 70
     1
102
RTVSPropertyOp15
 70
     1
102
RTVSPropertyOp16
 70
     1
102
RTVSPropertyOp17
 70
     1
102
RTVSPropertyOp18
 70
     1
102
RTVSPropertyOp19
 70
     1
102
RTVSPropertyOp20
 70
     1
102
RTVSPropertyOp21
 70
     1
102
RTVSPropertyOp22
 70
     1
102
RTVSPropertyOp23
 70
     1
102
RTVSPropertyOp24
 70
     1
102
RTVSPropertyOp25
 70
     1
102
RTVSPropertyOp26
 70
     1
102
RTVSPropertyOp27
 70
     1
102
RTVSPropertyOp28
 70
     1
102
RTVSPropertyOp29
 70
     1
102
RTVSPropertyOp30
 70
     1
102
RTVSPropertyOp31
 70
     1
102
RTVSPropertyOp32
 70
     1
  0
XRECORD
  5
DB4
102
{ACAD_REACTORS
330
DB3
102
}
330
DB3
100
AcDbXrecord
280
     1
102
RTVSPropertyOp0
 70
     1
102
RTVSPropertyOp1
 70
     1
102
RTVSPropertyOp2
 70
     1
102
RTVSPropertyOp3
 70
     1
102
RTVSPropertyOp4
 70
     1
102
RTVSPropertyOp5
 70
     1
102
RTVSPropertyOp6
 70
     1
102
RTVSPropertyOp7
 70
     1
102
RTVSPropertyOp8
 70
     1
102
RTVSPropertyOp9
 70
     1
102
RTVSPropertyOp10
 70
     1
102
RTVSPropertyOp11
 70
     1
102
RTVSPropertyOp12
 70
     1
102
RTVSPropertyOp13
 70
     1
102
RTVSPropertyOp14
 70
     1
102
RTVSPropertyOp15
 70
     1
102
RTVSPropertyOp16
 70
     1
102
RTVSPropertyOp17
 70
     1
102
RTVSPropertyOp18
 70
     1
102
RTVSPropertyOp19
 70
     1
102
RTVSPropertyOp20
 70
     1
102
RTVSPropertyOp21
 70
     1
102
RTVSPropertyOp22
 70
     1
102
RTVSPropertyOp23
 70
     1
102
RTVSPropertyOp24
 70
     1
102
RTVSPropertyOp25
 70
     1
102
RTVSPropertyOp26
 70
     1
102
RTVSPropertyOp27
 70
     1
102
RTVSPropertyOp28
 70
     1
102
RTVSPropertyOp29
 70
     1
102
RTVSPropertyOp30
 70
     1
102
RTVSPropertyOp31
 70
     1
102
RTVSPropertyOp32
 70
     1
  0
XRECORD
  5
DB2
102
{ACAD_REACTORS
330
DB1
102
}
330
DB1
100
AcDbXrecord
280
     1
102
RTVSPropertyOp0
 70
     1
102
RTVSPropertyOp1
 70
     1
102
RTVSPropertyOp2
 70
     1
102
RTVSPropertyOp3
 70
     1
102
RTVSPropertyOp4
 70
     1
102
RTVSPropertyOp5
 70
     1
102
RTVSPropertyOp6
 70
     1
102
RTVSPropertyOp7
 70
     1
102
RTVSPropertyOp8
 70
     1
102
RTVSPropertyOp9
 70
     1
102
RTVSPropertyOp10
 70
     1
102
RTVSPropertyOp11
 70
     1
102
RTVSPropertyOp12
 70
     1
102
RTVSPropertyOp13
 70
     1
102
RTVSPropertyOp14
 70
     1
102
RTVSPropertyOp15
 70
     1
102
RTVSPropertyOp16
 70
     1
102
RTVSPropertyOp17
 70
     1
102
RTVSPropertyOp18
 70
     1
102
RTVSPropertyOp19
 70
     1
102
RTVSPropertyOp20
 70
     1
102
RTVSPropertyOp21
 70
     1
102
RTVSPropertyOp22
 70
     1
102
RTVSPropertyOp23
 70
     1
102
RTVSPropertyOp24
 70
     1
102
RTVSPropertyOp25
 70
     1
102
RTVSPropertyOp26
 70
     1
102
RTVSPropertyOp27
 70
     1
102
RTVSPropertyOp28
 70
     1
102
RTVSPropertyOp29
 70
     1
102
RTVSPropertyOp30
 70
     1
102
RTVSPropertyOp31
 70
     1
102
RTVSPropertyOp32
 70
     1
  0
XRECORD
  5
DAC
102
{ACAD_REACTORS
330
DAB
102
}
330
DAB
100
AcDbXrecord
280
     1
102
RTVSPropertyOp0
 70
     1
102
RTVSPropertyOp1
 70
     1
102
RTVSPropertyOp2
 70
     1
102
RTVSPropertyOp3
 70
     1
102
RTVSPropertyOp4
 70
     1
102
RTVSPropertyOp5
 70
     1
102
RTVSPropertyOp6
 70
     1
102
RTVSPropertyOp7
 70
     1
102
RTVSPropertyOp8
 70
     1
102
RTVSPropertyOp9
 70
     1
102
RTVSPropertyOp10
 70
     1
102
RTVSPropertyOp11
 70
     1
102
RTVSPropertyOp12
 70
     1
102
RTVSPropertyOp13
 70
     1
102
RTVSPropertyOp14
 70
     1
102
RTVSPropertyOp15
 70
     1
102
RTVSPropertyOp16
 70
     1
102
RTVSPropertyOp17
 70
     1
102
RTVSPropertyOp18
 70
     1
102
RTVSPropertyOp19
 70
     1
102
RTVSPropertyOp20
 70
     1
102
RTVSPropertyOp21
 70
     1
102
RTVSPropertyOp22
 70
     1
102
RTVSPropertyOp23
 70
     1
102
RTVSPropertyOp24
 70
     1
102
RTVSPropertyOp25
 70
     1
102
RTVSPropertyOp26
 70
     1
102
RTVSPropertyOp27
 70
     1
102
RTVSPropertyOp28
 70
     1
102
RTVSPropertyOp29
 70
     1
102
RTVSPropertyOp30
 70
     1
102
RTVSPropertyOp31
 70
     1
102
RTVSPropertyOp32
 70
     1
  0
XRECORD
  5
DAE
102
{ACAD_REACTORS
330
DAD
102
}
330
DAD
100
AcDbXrecord
280
     1
102
RTVSPropertyOp0
 70
     1
102
RTVSPropertyOp1
 70
     1
102
RTVSPropertyOp2
 70
     1
102
RTVSPropertyOp3
 70
     1
102
RTVSPropertyOp4
 70
     1
102
RTVSPropertyOp5
 70
     1
102
RTVSPropertyOp6
 70
     1
102
RTVSPropertyOp7
 70
     1
102
RTVSPropertyOp8
 70
     1
102
RTVSPropertyOp9
 70
     1
102
RTVSPropertyOp10
 70
     1
102
RTVSPropertyOp11
 70
     1
102
RTVSPropertyOp12
 70
     1
102
RTVSPropertyOp13
 70
     1
102
RTVSPropertyOp14
 70
     1
102
RTVSPropertyOp15
 70
     1
102
RTVSPropertyOp16
 70
     1
102
RTVSPropertyOp17
 70
     1
102
RTVSPropertyOp18
 70
     1
102
RTVSPropertyOp19
 70
     1
102
RTVSPropertyOp20
 70
     1
102
RTVSPropertyOp21
 70
     1
102
RTVSPropertyOp22
 70
     1
102
RTVSPropertyOp23
 70
     1
102
RTVSPropertyOp24
 70
     1
102
RTVSPropertyOp25
 70
     1
102
RTVSPropertyOp26
 70
     1
102
RTVSPropertyOp27
 70
     1
102
RTVSPropertyOp28
 70
     1
102
RTVSPropertyOp29
 70
     1
102
RTVSPropertyOp30
 70
     1
102
RTVSPropertyOp31
 70
     1
102
RTVSPropertyOp32
 70
     1
  0
XRECORD
  5
DA4
102
{ACAD_REACTORS
330
DA3
102
}
330
DA3
100
AcDbXrecord
280
     1
102
RTVSPropertyOp0
 70
     1
102
RTVSPropertyOp1
 70
     1
102
RTVSPropertyOp2
 70
     1
102
RTVSPropertyOp3
 70
     1
102
RTVSPropertyOp4
 70
     1
102
RTVSPropertyOp5
 70
     1
102
RTVSPropertyOp6
 70
     1
102
RTVSPropertyOp7
 70
     1
102
RTVSPropertyOp8
 70
     1
102
RTVSPropertyOp9
 70
     1
102
RTVSPropertyOp10
 70
     1
102
RTVSPropertyOp11
 70
     1
102
RTVSPropertyOp12
 70
     1
102
RTVSPropertyOp13
 70
     1
102
RTVSPropertyOp14
 70
     1
102
RTVSPropertyOp15
 70
     1
102
RTVSPropertyOp16
 70
     1
102
RTVSPropertyOp17
 70
     1
102
RTVSPropertyOp18
 70
     1
102
RTVSPropertyOp19
 70
     1
102
RTVSPropertyOp20
 70
     1
102
RTVSPropertyOp21
 70
     1
102
RTVSPropertyOp22
 70
     1
102
RTVSPropertyOp23
 70
     1
102
RTVSPropertyOp24
 70
     1
102
RTVSPropertyOp25
 70
     1
102
RTVSPropertyOp26
 70
     1
102
RTVSPropertyOp27
 70
     1
102
RTVSPropertyOp28
 70
     1
102
RTVSPropertyOp29
 70
     1
102
RTVSPropertyOp30
 70
     1
102
RTVSPropertyOp31
 70
     1
102
RTVSPropertyOp32
 70
     1
  0
XRECORD
  5
D98
102
{ACAD_REACTORS
330
D97
102
}
330
D97
100
AcDbXrecord
280
     1
102
RTVSPropertyOp0
 70
     1
102
RTVSPropertyOp1
 70
     1
102
RTVSPropertyOp2
 70
     1
102
RTVSPropertyOp3
 70
     1
102
RTVSPropertyOp4
 70
     1
102
RTVSPropertyOp5
 70
     1
102
RTVSPropertyOp6
 70
     1
102
RTVSPropertyOp7
 70
     1
102
RTVSPropertyOp8
 70
     1
102
RTVSPropertyOp9
 70
     1
102
RTVSPropertyOp10
 70
     1
102
RTVSPropertyOp11
 70
     1
102
RTVSPropertyOp12
 70
     1
102
RTVSPropertyOp13
 70
     1
102
RTVSPropertyOp14
 70
     1
102
RTVSPropertyOp15
 70
     1
102
RTVSPropertyOp16
 70
     1
102
RTVSPropertyOp17
 70
     1
102
RTVSPropertyOp18
 70
     1
102
RTVSPropertyOp19
 70
     1
102
RTVSPropertyOp20
 70
     1
102
RTVSPropertyOp21
 70
     1
102
RTVSPropertyOp22
 70
     1
102
RTVSPropertyOp23
 70
     1
102
RTVSPropertyOp24
 70
     1
102
RTVSPropertyOp25
 70
     1
102
RTVSPropertyOp26
 70
     1
102
RTVSPropertyOp27
 70
     1
102
RTVSPropertyOp28
 70
     1
102
RTVSPropertyOp29
 70
     1
102
RTVSPropertyOp30
 70
     1
102
RTVSPropertyOp31
 70
     1
102
RTVSPropertyOp32
 70
     1
  0
XRECORD
  5
DB0
102
{ACAD_REACTORS
330
DAF
102
}
330
DAF
100
AcDbXrecord
280
     1
102
RTVSPropertyOp0
 70
     1
102
RTVSPropertyOp1
 70
     1
102
RTVSPropertyOp2
 70
     1
102
RTVSPropertyOp3
 70
     1
102
RTVSPropertyOp4
 70
     1
102
RTVSPropertyOp5
 70
     1
102
RTVSPropertyOp6
 70
     1
102
RTVSPropertyOp7
 70
     1
102
RTVSPropertyOp8
 70
     1
102
RTVSPropertyOp9
 70
     1
102
RTVSPropertyOp10
 70
     1
102
RTVSPropertyOp11
 70
     1
102
RTVSPropertyOp12
 70
     1
102
RTVSPropertyOp13
 70
     1
102
RTVSPropertyOp14
 70
     1
102
RTVSPropertyOp15
 70
     1
102
RTVSPropertyOp16
 70
     1
102
RTVSPropertyOp17
 70
     1
102
RTVSPropertyOp18
 70
     1
102
RTVSPropertyOp19
 70
     1
102
RTVSPropertyOp20
 70
     1
102
RTVSPropertyOp21
 70
     1
102
RTVSPropertyOp22
 70
     1
102
RTVSPropertyOp23
 70
     1
102
RTVSPropertyOp24
 70
     1
102
RTVSPropertyOp25
 70
     1
102
RTVSPropertyOp26
 70
     1
102
RTVSPropertyOp27
 70
     1
102
RTVSPropertyOp28
 70
     1
102
RTVSPropertyOp29
 70
     1
102
RTVSPropertyOp30
 70
     1
102
RTVSPropertyOp31
 70
     1
102
RTVSPropertyOp32
 70
     1
  0
ENDSEC
  0
EOF
