  0
SECTION
  2
HEADER
  9
$ACADVER
  1
AC1024
  9
$ACADMAINTVER
 70
    63
  9
$DWGCODEPAGE
  3
ANSI_1252
  9
$AUTHOR
  1
PR
  9
$REVISIONNUMBER
  1
-
  9
$CUSTOMPROPERTYTAG
  1
Manager
  9
$CUSTOMPROPERTY
  1

  9
$CUSTOMPROPERTYTAG
  1
Company
  9
$CUSTOMPROPERTY
  1

  9
$CUSTOMPROPERTYTAG
  1
Category
  9
$CUSTOMPROPERTY
  1

  9
$CUSTOMPROPERTYTAG
  1
Part Number
  9
$CUSTOMPROPERTY
  1
HWDWA90SP36F4
  9
$CUSTOMPROPERTYTAG
  1
Description
  9
$CUSTOMPROPERTY
  1
N1P PANEL MASTER VIEW
  9
$CUSTOMPROPERTYTAG
  1
Project
  9
$CUSTOMPROPERTY
  1

  9
$CUSTOMPROPERTYTAG
  1
Designer
  9
$CUSTOMPROPERTY
  1
PR
  9
$CUSTOMPROPERTYTAG
  1
Engineer
  9
$CUSTOMPROPERTY
  1

  9
$CUSTOMPROPERTYTAG
  1
Authority
  9
$CUSTOMPROPERTY
  1

  9
$CUSTOMPROPERTYTAG
  1
Cost Center
  9
$CUSTOMPROPERTY
  1

  9
$CUSTOMPROPERTYTAG
  1
Vendor
  9
$CUSTOMPROPERTY
  1

  9
$CUSTOMPROPERTYTAG
  1
User Status
  9
$CUSTOMPROPERTY
  1

  9
$CUSTOMPROPERTYTAG
  1
Design Status
  9
$CUSTOMPROPERTY
  1
WorkInProgress
  9
$CUSTOMPROPERTYTAG
  1
Checked by
  9
$CUSTOMPROPERTY
  1
NJ
  9
$CUSTOMPROPERTYTAG
  1
Engr Approved by
  9
$CUSTOMPROPERTY
  1

  9
$CUSTOMPROPERTYTAG
  1
Date Eng Approved
  9
$CUSTOMPROPERTY
  1
06/27/2013
  9
$CUSTOMPROPERTYTAG
  1
Mfg Approved by
  9
$CUSTOMPROPERTY
  1

  9
$CUSTOMPROPERTYTAG
  1
DWG. NO
  9
$CUSTOMPROPERTY
  1

  9
$CUSTOMPROPERTYTAG
  1
NUMBER OF SHEETS
  9
$CUSTOMPROPERTY
  1
1
  9
$CUSTOMPROPERTYTAG
  1
DRAWING #
  9
$CUSTOMPROPERTY
  1
1
  9
$INSBASE
 10
0.0
 20
0.0
 30
0.0
  9
$EXTMIN
 10
0.0
 20
0.0
 30
0.0
  9
$EXTMAX
 10
136.0
 20
88.0
 30
0.0
  9
$LIMMIN
 10
0.0
 20
0.0
  9
$LIMMAX
 10
136.0
 20
88.0
  9
$ORTHOMODE
 70
     0
  9
$REGENMODE
 70
     1
  9
$FILLMODE
 70
     1
  9
$QTEXTMODE
 70
     0
  9
$MIRRTEXT
 70
     0
  9
$LTSCALE
 40
8.0
  9
$ATTMODE
 70
     1
  9
$TEXTSIZE
 40
0.2
  9
$TRACEWID
 40
0.05
  9
$TEXTSTYLE
  7
Standard
  9
$CLAYER
  8
0
  9
$CELTYPE
  6
ByLayer
  9
$CECOLOR
 62
   256
  9
$CELTSCALE
 40
1.0
  9
$DISPSILH
 70
     0
  9
$DIMSCALE
 40
1.0
  9
$DIMASZ
 40
0.0708661417322835
  9
$DIMEXO
 40
0.0625
  9
$DIMDLI
 40
0.38
  9
$DIMRND
 40
0.0
  9
$DIMDLE
 40
0.0
  9
$DIMEXE
 40
0.18
  9
$DIMTP
 40
0.0
  9
$DIMTM
 40
0.0
  9
$DIMTXT
 40
0.0708661417322835
  9
$DIMCEN
 40
0.09
  9
$DIMTSZ
 40
0.0
  9
$DIMTOL
 70
     0
  9
$DIMLIM
 70
     0
  9
$DIMTIH
 70
     1
  9
$DIMTOH
 70
     1
  9
$DIMSE1
 70
     0
  9
$DIMSE2
 70
     0
  9
$DIMTAD
 70
     0
  9
$DIMZIN
 70
     0
  9
$DIMBLK
  1

  9
$DIMASO
 70
     1
  9
$DIMSHO
 70
     1
  9
$DIMPOST
  1

  9
$DIMAPOST
  1

  9
$DIMALT
 70
     0
  9
$DIMALTD
 70
     2
  9
$DIMALTF
 40
25.4
  9
$DIMLFAC
 40
1.0
  9
$DIMTOFL
 70
     0
  9
$DIMTVP
 40
0.0
  9
$DIMTIX
 70
     0
  9
$DIMSOXD
 70
     0
  9
$DIMSAH
 70
     0
  9
$DIMBLK1
  1

  9
$DIMBLK2
  1

  9
$DIMSTYLE
  2
STANDARD
  9
$DIMCLRD
 70
     0
  9
$DIMCLRE
 70
     0
  9
$DIMCLRT
 70
     0
  9
$DIMTFAC
 40
1.0
  9
$DIMGAP
 40
0.09
  9
$DIMJUST
 70
     0
  9
$DIMSD1
 70
     0
  9
$DIMSD2
 70
     0
  9
$DIMTOLJ
 70
     1
  9
$DIMTZIN
 70
     0
  9
$DIMALTZ
 70
     0
  9
$DIMALTTZ
 70
     0
  9
$DIMUPT
 70
     0
  9
$DIMDEC
 70
     4
  9
$DIMTDEC
 70
     4
  9
$DIMALTU
 70
     2
  9
$DIMALTTD
 70
     2
  9
$DIMTXSTY
  7
Standard
  9
$DIMAUNIT
 70
     0
  9
$DIMADEC
 70
     0
  9
$DIMALTRND
 40
0.0
  9
$DIMAZIN
 70
     0
  9
$DIMDSEP
 70
    46
  9
$DIMATFIT
 70
     3
  9
$DIMFRAC
 70
     0
  9
$DIMLDRBLK
  1

  9
$DIMLUNIT
 70
     2
  9
$DIMLWD
 70
    -2
  9
$DIMLWE
 70
    -2
  9
$DIMTMOVE
 70
     0
  9
$DIMFXL
 40
1.0
  9
$DIMFXLON
 70
     0
  9
$DIMJOGANG
 40
0.7853981633974483
  9
$DIMTFILL
 70
     0
  9
$DIMTFILLCLR
 70
     0
  9
$DIMARCSYM
 70
     0
  9
$DIMLTYPE
  6

  9
$DIMLTEX1
  6

  9
$DIMLTEX2
  6

  9
$DIMTXTDIRECTION
 70
     0
  9
$LUNITS
 70
     2
  9
$LUPREC
 70
     4
  9
$SKETCHINC
 40
0.1
  9
$FILLETRAD
 40
0.0
  9
$AUNITS
 70
     0
  9
$AUPREC
 70
     0
  9
$MENU
  1
.
  9
$ELEVATION
 40
0.0
  9
$PELEVATION
 40
0.0
  9
$THICKNESS
 40
0.0
  9
$LIMCHECK
 70
     0
  9
$CHAMFERA
 40
0.0
  9
$CHAMFERB
 40
0.0
  9
$CHAMFERC
 40
0.0
  9
$CHAMFERD
 40
0.0
  9
$SKPOLY
 70
     0
  9
$TDCREATE
 40
2456478.840666111
  9
$TDUCREATE
 40
2456478.611499445
  9
$TDUPDATE
 40
2456478.840666123
  9
$TDUUPDATE
 40
2456478.611499457
  9
$TDINDWG
 40
0.0000442130
  9
$TDUSRTIMER
 40
0.0000442130
  9
$USRTIMER
 70
     1
  9
$ANGBASE
 50
0.0
  9
$ANGDIR
 70
     0
  9
$PDMODE
 70
     0
  9
$PDSIZE
 40
0.0
  9
$PLINEWID
 40
0.0
  9
$SPLFRAME
 70
     0
  9
$SPLINETYPE
 70
     6
  9
$SPLINESEGS
 70
     8
  9
$HANDSEED
  5
D81
  9
$SURFTAB1
 70
     6
  9
$SURFTAB2
 70
     6
  9
$SURFTYPE
 70
     6
  9
$SURFU
 70
     6
  9
$SURFV
 70
     6
  9
$UCSBASE
  2

  9
$UCSNAME
  2

  9
$UCSORG
 10
0.0
 20
0.0
 30
0.0
  9
$UCSXDIR
 10
1.0
 20
0.0
 30
0.0
  9
$UCSYDIR
 10
0.0
 20
1.0
 30
0.0
  9
$UCSORTHOREF
  2

  9
$UCSORTHOVIEW
 70
     0
  9
$UCSORGTOP
 10
0.0
 20
0.0
 30
0.0
  9
$UCSORGBOTTOM
 10
0.0
 20
0.0
 30
0.0
  9
$UCSORGLEFT
 10
0.0
 20
0.0
 30
0.0
  9
$UCSORGRIGHT
 10
0.0
 20
0.0
 30
0.0
  9
$UCSORGFRONT
 10
0.0
 20
0.0
 30
0.0
  9
$UCSORGBACK
 10
0.0
 20
0.0
 30
0.0
  9
$PUCSBASE
  2

  9
$PUCSNAME
  2

  9
$PUCSORG
 10
0.0
 20
0.0
 30
0.0
  9
$PUCSXDIR
 10
1.0
 20
0.0
 30
0.0
  9
$PUCSYDIR
 10
0.0
 20
1.0
 30
0.0
  9
$PUCSORTHOREF
  2

  9
$PUCSORTHOVIEW
 70
     0
  9
$PUCSORGTOP
 10
0.0
 20
0.0
 30
0.0
  9
$PUCSORGBOTTOM
 10
0.0
 20
0.0
 30
0.0
  9
$PUCSORGLEFT
 10
0.0
 20
0.0
 30
0.0
  9
$PUCSORGRIGHT
 10
0.0
 20
0.0
 30
0.0
  9
$PUCSORGFRONT
 10
0.0
 20
0.0
 30
0.0
  9
$PUCSORGBACK
 10
0.0
 20
0.0
 30
0.0
  9
$USERI1
 70
     0
  9
$USERI2
 70
     0
  9
$USERI3
 70
     0
  9
$USERI4
 70
     0
  9
$USERI5
 70
     0
  9
$USERR1
 40
0.0
  9
$USERR2
 40
0.0
  9
$USERR3
 40
0.0
  9
$USERR4
 40
0.0
  9
$USERR5
 40
0.0
  9
$WORLDVIEW
 70
     1
  9
$SHADEDGE
 70
     3
  9
$SHADEDIF
 70
    70
  9
$TILEMODE
 70
     1
  9
$MAXACTVP
 70
    64
  9
$PINSBASE
 10
0.0
 20
0.0
 30
0.0
  9
$PLIMCHECK
 70
     0
  9
$PEXTMIN
 10
0.0
 20
0.0
 30
0.0
  9
$PEXTMAX
 10
136.0
 20
88.0
 30
0.0
  9
$PLIMMIN
 10
0.0
 20
0.0
  9
$PLIMMAX
 10
136.0
 20
88.0
  9
$UNITMODE
 70
     0
  9
$VISRETAIN
 70
     1
  9
$PLINEGEN
 70
     0
  9
$PSLTSCALE
 70
     1
  9
$TREEDEPTH
 70
  3020
  9
$CMLSTYLE
  2
Standard
  9
$CMLJUST
 70
     0
  9
$CMLSCALE
 40
1.0
  9
$PROXYGRAPHICS
 70
     1
  9
$MEASUREMENT
 70
     0
  9
$CELWEIGHT
370
    -1
  9
$ENDCAPS
280
     0
  9
$JOINSTYLE
280
     0
  9
$LWDISPLAY
290
     0
  9
$INSUNITS
 70
     1
  9
$HYPERLINKBASE
  1

  9
$STYLESHEET
  1

  9
$XEDIT
290
     1
  9
$CEPSNTYPE
380
     0
  9
$PSTYLEMODE
290
     1
  9
$FINGERPRINTGUID
  2
{872BC83A-B39E-46D0-BE03-1192BA16D7DE}
  9
$VERSIONGUID
  2
{D2A3D34A-9501-497B-9982-CDAB336981FA}
  9
$EXTNAMES
290
     1
  9
$PSVPSCALE
 40
0.0
  9
$OLESTARTUP
290
     0
  9
$SORTENTS
280
   127
  9
$INDEXCTL
280
     0
  9
$HIDETEXT
280
     1
  9
$XCLIPFRAME
280
     2
  9
$HALOGAP
280
     0
  9
$OBSCOLOR
 70
   257
  9
$OBSLTYPE
280
     0
  9
$INTERSECTIONDISPLAY
280
     0
  9
$INTERSECTIONCOLOR
 70
   257
  9
$DIMASSOC
280
     1
  9
$PROJECTNAME
  1

  9
$CAMERADISPLAY
290
     0
  9
$LENSLENGTH
 40
50.0
  9
$CAMERAHEIGHT
 40
0.0
  9
$STEPSPERSEC
 40
2.0
  9
$STEPSIZE
 40
6.0
  9
$3DDWFPREC
 40
2.0
  9
$PSOLWIDTH
 40
0.25
  9
$PSOLHEIGHT
 40
4.0
  9
$LOFTANG1
 40
1.570796326794896
  9
$LOFTANG2
 40
1.570796326794896
  9
$LOFTMAG1
 40
0.0
  9
$LOFTMAG2
 40
0.0
  9
$LOFTPARAM
 70
     7
  9
$LOFTNORMALS
280
     1
  9
$LATITUDE
 40
37.795
  9
$LONGITUDE
 40
-122.394
  9
$NORTHDIRECTION
 40
0.0
  9
$TIMEZONE
 70
 -8000
  9
$LIGHTGLYPHDISPLAY
280
     1
  9
$TILEMODELIGHTSYNCH
280
     1
  9
$CMATERIAL
347
11
  9
$SOLIDHIST
280
     0
  9
$SHOWHIST
280
     1
  9
$DWFFRAME
280
     2
  9
$DGNFRAME
280
     0
  9
$REALWORLDSCALE
290
     1
  9
$INTERFERECOLOR
 62
     1
  9
$INTERFEREOBJVS
345
33
  9
$INTERFEREVPVS
346
30
  9
$CSHADOW
280
     0
  9
$SHADOWPLANELOCATION
 40
0.0
  0
ENDSEC
  0
SECTION
  2
CLASSES
  0
CLASS
  1
ACDBDICTIONARYWDFLT
  2
AcDbDictionaryWithDefault
  3
ObjectDBX Classes
 90
        0
 91
        1
280
     0
281
     0
  0
CLASS
  1
MATERIAL
  2
AcDbMaterial
  3
ObjectDBX Classes
 90
     1153
 91
        3
280
     0
281
     0
  0
CLASS
  1
VISUALSTYLE
  2
AcDbVisualStyle
  3
ObjectDBX Classes
 90
     4095
 91
       24
280
     0
281
     0
  0
CLASS
  1
SCALE
  2
AcDbScale
  3
ObjectDBX Classes
 90
     1153
 91
       17
280
     0
281
     0
  0
CLASS
  1
TABLESTYLE
  2
AcDbTableStyle
  3
ObjectDBX Classes
 90
     4095
 91
        1
280
     0
281
     0
  0
CLASS
  1
MLEADERSTYLE
  2
AcDbMLeaderStyle
  3
ACDB_MLEADERSTYLE_CLASS
 90
     4095
 91
        1
280
     0
281
     0
  0
CLASS
  1
DICTIONARYVAR
  2
AcDbDictionaryVar
  3
ObjectDBX Classes
 90
        0
 91
        3
280
     0
281
     0
  0
CLASS
  1
CELLSTYLEMAP
  2
AcDbCellStyleMap
  3
ObjectDBX Classes
 90
     1152
 91
        1
280
     0
281
     0
  0
ENDSEC
  0
SECTION
  2
TABLES
  0
TABLE
  2
VPORT
  5
8
330
0
100
AcDbSymbolTable
 70
     1
  0
VPORT
  5
57
330
8
100
AcDbSymbolTableRecord
100
AcDbViewportTableRecord
  2
*Active
 70
     0
 10
0.0
 20
0.0
 11
1.0
 21
1.0
 12
68.0
 22
44.0
 13
0.0
 23
0.0
 14
1.0
 24
1.0
 15
0.0
 25
0.0
 16
0.0
 26
0.0
 36
1.0
 17
0.0
 27
0.0
 37
0.0
 40
88.0
 41
1.545454545454545
 42
50.0
 43
0.0
 44
0.0
 50
0.0
 51
0.0
 71
     0
 72
   100
 73
     1
 74
     1
 75
     0
 76
     0
 77
     0
 78
     0
281
     0
 65
     1
110
0.0
120
0.0
130
0.0
111
1.0
121
0.0
131
0.0
112
0.0
122
1.0
132
0.0
 79
     0
146
0.0
 60
     3
 61
     5
292
     1
282
     1
141
0.0
142
0.0
 63
   250
421
  3355443
  0
ENDTAB
  0
TABLE
  2
LTYPE
  5
5
330
0
100
AcDbSymbolTable
 70
    59
  0
LTYPE
  5
5B
330
5
100
AcDbSymbolTableRecord
100
AcDbLinetypeTableRecord
  2
ByBlock
 70
     0
  3

 72
    65
 73
     0
 40
0.0
  0
LTYPE
  5
5C
330
5
100
AcDbSymbolTableRecord
100
AcDbLinetypeTableRecord
  2
ByLayer
 70
     0
  3

 72
    65
 73
     0
 40
0.0
  0
LTYPE
  5
5D
330
5
100
AcDbSymbolTableRecord
100
AcDbLinetypeTableRecord
  2
Continuous
 70
     0
  3
Solid line
 72
    65
 73
     0
 40
0.0
  0
LTYPE
  5
7C
330
5
100
AcDbSymbolTableRecord
100
AcDbLinetypeTableRecord
  2
BY_STANDARD
 70
     0
  3
By Standard ____________    ____    ____   _
 72
    65
 73
     6
 40
1.240299999999999
 49
0.6614
 74
     0
 49
-0.0827
 74
     0
 49
0.1654
 74
     0
 49
-0.0827
 74
     0
 49
0.1654
 74
     0
 49
-0.0827
 74
     0
  0
LTYPE
  5
7D
330
5
100
AcDbSymbolTableRecord
100
AcDbLinetypeTableRecord
  2
CHAIN
 70
     0
  3
Chain ____ _ ____ _ ____ _ ____ _ ____ _ ____
 72
    65
 73
     4
 40
0.7087
 49
0.4724000000000001
 74
     0
 49
-0.0591
 74
     0
 49
0.1181
 74
     0
 49
-0.0591
 74
     0
  0
LTYPE
  5
7E
330
5
100
AcDbSymbolTableRecord
100
AcDbLinetypeTableRecord
  2
DASH_DOT
 70
     0
  3
Dash dot __ . __ . __ . __ . __ . __ . __ . __
 72
    65
 73
     4
 40
0.37
 49
0.24
 74
     0
 49
-0.06
 74
     0
 49
0.01
 74
     0
 49
-0.06
 74
     0
  0
LTYPE
  5
7F
330
5
100
AcDbSymbolTableRecord
100
AcDbLinetypeTableRecord
  2
DOUBLE_DASH_DOT
 70
     0
  3
Double-Dash Dot __ __ . __ __ . __ __ . __ _
 72
    65
 73
     6
 40
0.4398
 49
0.24
 74
     0
 49
-0.06
 74
     0
 49
0.0098
 74
     0
 49
-0.06
 74
     0
 49
0.01
 74
     0
 49
-0.06
 74
     0
  0
LTYPE
  5
80
330
5
100
AcDbSymbolTableRecord
100
AcDbLinetypeTableRecord
  2
DASH_TRIPLE_DOT
 70
     0
  3
Dash Triple-Dot _ . . . _ . . . _ . . . _
 72
    65
 73
     8
 40
0.51
 49
0.24
 74
     0
 49
-0.06
 74
     0
 49
0.01
 74
     0
 49
-0.06
 74
     0
 49
0.01
 74
     0
 49
-0.06
 74
     0
 49
0.01
 74
     0
 49
-0.06
 74
     0
  0
LTYPE
  5
81
330
5
100
AcDbSymbolTableRecord
100
AcDbLinetypeTableRecord
  2
DASHED
 70
     0
  3
Dashed __ __ __ __ __ __ __ __ __ __ __ __ __ _
 72
    65
 73
     2
 40
0.2067
 49
0.1654
 74
     0
 49
-0.0413
 74
     0
  0
LTYPE
  5
82
330
5
100
AcDbSymbolTableRecord
100
AcDbLinetypeTableRecord
  2
DASH_DOUBLE_DOT
 70
     0
  3
Dash Double-Dot __ . . __ . . __ . . __ . .
 72
    65
 73
     6
 40
0.4398
 49
0.24
 74
     0
 49
-0.06
 74
     0
 49
0.0098
 74
     0
 49
-0.06
 74
     0
 49
0.01
 74
     0
 49
-0.06
 74
     0
  0
LTYPE
  5
83
330
5
100
AcDbSymbolTableRecord
100
AcDbLinetypeTableRecord
  2
DASHED_SPACE
 70
     0
  3
Dashed Space __ __ __ __ __ __ __ __ __ __ __ _
 72
    65
 73
     2
 40
0.2067
 49
0.1654
 74
     0
 49
-0.0413
 74
     0
  0
LTYPE
  5
84
330
5
100
AcDbSymbolTableRecord
100
AcDbLinetypeTableRecord
  2
DOTTED
 70
     0
  3
Dotted . . . . . . . . . . . . . . . . . . . . 
 72
    65
 73
     2
 40
0.0482
 49
0.0069
 74
     0
 49
-0.0413
 74
     0
  0
LTYPE
  5
85
330
5
100
AcDbSymbolTableRecord
100
AcDbLinetypeTableRecord
  2
DOUBLE_DASH_CHAIN
 70
     0
  3
Double-Dash Chain ______  __  __  ______  __  _
 72
    65
 73
     6
 40
1.240299999999999
 49
0.6614
 74
     0
 49
-0.0827
 74
     0
 49
0.1654
 74
     0
 49
-0.0827
 74
     0
 49
0.1654
 74
     0
 49
-0.0827
 74
     0
  0
LTYPE
  5
87
330
5
100
AcDbSymbolTableRecord
100
AcDbLinetypeTableRecord
  2
DOUBLE_DASH_DOUBLE_DOT
 70
     0
  3
Double-Dash Double-dot _ _ . . _ _ . . _
 72
    65
 73
     8
 40
0.7400000000000001
 49
0.24
 74
     0
 49
-0.06
 74
     0
 49
0.24
 74
     0
 49
-0.06
 74
     0
 49
0.01
 74
     0
 49
-0.06
 74
     0
 49
0.01
 74
     0
 49
-0.06
 74
     0
  0
LTYPE
  5
88
330
5
100
AcDbSymbolTableRecord
100
AcDbLinetypeTableRecord
  2
DOUBLE_DASH_TRIPLE_DOT
 70
     0
  3
Double Dash Triple Dot __ __ . . . __ __ . .
 72
    65
 73
    10
 40
0.8100000000000001
 49
0.24
 74
     0
 49
-0.06
 74
     0
 49
0.24
 74
     0
 49
-0.06
 74
     0
 49
0.01
 74
     0
 49
-0.06
 74
     0
 49
0.01
 74
     0
 49
-0.06
 74
     0
 49
0.01
 74
     0
 49
-0.06
 74
     0
  0
LTYPE
  5
89
330
5
100
AcDbSymbolTableRecord
100
AcDbLinetypeTableRecord
  2
LONG_DASH_DOTTED
 70
     0
  3
Long Dash Dotted ____ . ____ . ____ . ____ . _
 72
    65
 73
     4
 40
0.3543
 49
0.2362
 74
     0
 49
-0.0295
 74
     0
 49
0.0591
 74
     0
 49
-0.0295
 74
     0
  0
LTYPE
  5
8A
330
5
100
AcDbSymbolTableRecord
100
AcDbLinetypeTableRecord
  2
LONG_DASH_DOUBLE_DOT
 70
     0
  3
Long Dash Double Dot ________  .  .  ________  
 72
    65
 73
     6
 40
0.6799999999999999
 49
0.48
 74
     0
 49
-0.06
 74
     0
 49
0.01
 74
     0
 49
-0.06
 74
     0
 49
0.01
 74
     0
 49
-0.06
 74
     0
  0
LTYPE
  5
8B
330
5
100
AcDbSymbolTableRecord
100
AcDbLinetypeTableRecord
  2
LONG_DASH_TRIPLE_DOT
 70
     0
  3
Long Dash Triple Dot ____ ... ____ ... ____
 72
    65
 73
     8
 40
0.3689
 49
0.2362
 74
     0
 49
-0.0295
 74
     0
 49
0.0049
 74
     0
 49
-0.0295
 74
     0
 49
0.0049
 74
     0
 49
-0.0295
 74
     0
 49
0.0049
 74
     0
 49
-0.0295
 74
     0
  0
LTYPE
  5
8C
330
5
100
AcDbSymbolTableRecord
100
AcDbLinetypeTableRecord
  2
BORDER
 70
     0
  3
Border __ __ . __ __ . __ __ . __ __ . __ __ .
 72
    65
 73
     6
 40
1.75
 49
0.5
 74
     0
 49
-0.25
 74
     0
 49
0.5
 74
     0
 49
-0.25
 74
     0
 49
0.0
 74
     0
 49
-0.25
 74
     0
  0
LTYPE
  5
8D
330
5
100
AcDbSymbolTableRecord
100
AcDbLinetypeTableRecord
  2
BORDER2
 70
     0
  3
Border (.5x) __.__.__.__.__.__.__.__.__.__.__.
 72
    65
 73
     6
 40
0.875
 49
0.25
 74
     0
 49
-0.125
 74
     0
 49
0.25
 74
     0
 49
-0.125
 74
     0
 49
0.0
 74
     0
 49
-0.125
 74
     0
  0
LTYPE
  5
8E
330
5
100
AcDbSymbolTableRecord
100
AcDbLinetypeTableRecord
  2
BORDERX2
 70
     0
  3
Border (2x) ____  ____  .  ____  ____  .  ___
 72
    65
 73
     6
 40
3.5
 49
1.0
 74
     0
 49
-0.5
 74
     0
 49
1.0
 74
     0
 49
-0.5
 74
     0
 49
0.0
 74
     0
 49
-0.5
 74
     0
  0
LTYPE
  5
8F
330
5
100
AcDbSymbolTableRecord
100
AcDbLinetypeTableRecord
  2
CENTER
 70
     0
  3
Center ____ _ ____ _ ____ _ ____ _ ____ _ ____
 72
    65
 73
     4
 40
2.0
 49
1.25
 74
     0
 49
-0.25
 74
     0
 49
0.25
 74
     0
 49
-0.25
 74
     0
  0
LTYPE
  5
90
330
5
100
AcDbSymbolTableRecord
100
AcDbLinetypeTableRecord
  2
CENTER2
 70
     0
  3
Center (.5x) ___ _ ___ _ ___ _ ___ _ ___ _ ___
 72
    65
 73
     4
 40
1.125
 49
0.75
 74
     0
 49
-0.125
 74
     0
 49
0.125
 74
     0
 49
-0.125
 74
     0
  0
LTYPE
  5
91
330
5
100
AcDbSymbolTableRecord
100
AcDbLinetypeTableRecord
  2
CENTERX2
 70
     0
  3
Center (2x) ________  __  ________  __  _____
 72
    65
 73
     4
 40
4.0
 49
2.5
 74
     0
 49
-0.5
 74
     0
 49
0.5
 74
     0
 49
-0.5
 74
     0
  0
LTYPE
  5
92
330
5
100
AcDbSymbolTableRecord
100
AcDbLinetypeTableRecord
  2
DASHDOT2
 70
     0
  3
Dash dot (.5x) _._._._._._._._._._._._._._._.
 72
    65
 73
     4
 40
0.5
 49
0.25
 74
     0
 49
-0.125
 74
     0
 49
0.0
 74
     0
 49
-0.125
 74
     0
  0
LTYPE
  5
93
330
5
100
AcDbSymbolTableRecord
100
AcDbLinetypeTableRecord
  2
DASHDOTX2
 70
     0
  3
Dash dot (2x) ____  .  ____  .  ____  .  ___
 72
    65
 73
     4
 40
2.0
 49
1.0
 74
     0
 49
-0.5
 74
     0
 49
0.0
 74
     0
 49
-0.5
 74
     0
  0
LTYPE
  5
95
330
5
100
AcDbSymbolTableRecord
100
AcDbLinetypeTableRecord
  2
DASHED2
 70
     0
  3
Dashed (.5x) _ _ _ _ _ _ _ _ _ _ _ _ _ _ _ _ _
 72
    65
 73
     2
 40
0.375
 49
0.25
 74
     0
 49
-0.125
 74
     0
  0
LTYPE
  5
96
330
5
100
AcDbSymbolTableRecord
100
AcDbLinetypeTableRecord
  2
DASHEDX2
 70
     0
  3
Dashed (2x) ____  ____  ____  ____  ____  ___
 72
    65
 73
     2
 40
1.5
 49
1.0
 74
     0
 49
-0.5
 74
     0
  0
LTYPE
  5
97
330
5
100
AcDbSymbolTableRecord
100
AcDbLinetypeTableRecord
  2
DIVIDE
 70
     0
  3
Divide ____ . . ____ . . ____ . . ____ . . ____
 72
    65
 73
     6
 40
1.25
 49
0.5
 74
     0
 49
-0.25
 74
     0
 49
0.0
 74
     0
 49
-0.25
 74
     0
 49
0.0
 74
     0
 49
-0.25
 74
     0
  0
LTYPE
  5
98
330
5
100
AcDbSymbolTableRecord
100
AcDbLinetypeTableRecord
  2
DIVIDE2
 70
     0
  3
Divide (.5x) __..__..__..__..__..__..__..__.._
 72
    65
 73
     6
 40
0.625
 49
0.25
 74
     0
 49
-0.125
 74
     0
 49
0.0
 74
     0
 49
-0.125
 74
     0
 49
0.0
 74
     0
 49
-0.125
 74
     0
  0
LTYPE
  5
99
330
5
100
AcDbSymbolTableRecord
100
AcDbLinetypeTableRecord
  2
DIVIDEX2
 70
     0
  3
Divide (2x) ________  .  .  ________  .  .  _
 72
    65
 73
     6
 40
2.5
 49
1.0
 74
     0
 49
-0.5
 74
     0
 49
0.0
 74
     0
 49
-0.5
 74
     0
 49
0.0
 74
     0
 49
-0.5
 74
     0
  0
LTYPE
  5
9A
330
5
100
AcDbSymbolTableRecord
100
AcDbLinetypeTableRecord
  2
DOT
 70
     0
  3
Dot . . . . . . . . . . . . . . . . . . . . . .
 72
    65
 73
     2
 40
0.25
 49
0.0
 74
     0
 49
-0.25
 74
     0
  0
LTYPE
  5
9B
330
5
100
AcDbSymbolTableRecord
100
AcDbLinetypeTableRecord
  2
DOT2
 70
     0
  3
Dot (.5x) .....................................
 72
    65
 73
     2
 40
0.125
 49
0.0
 74
     0
 49
-0.125
 74
     0
  0
LTYPE
  5
9C
330
5
100
AcDbSymbolTableRecord
100
AcDbLinetypeTableRecord
  2
DOTX2
 70
     0
  3
Dot (2x) .  .  .  .  .  .  .  .  .  .  .  .  . 
 72
    65
 73
     2
 40
0.5
 49
0.0
 74
     0
 49
-0.5
 74
     0
  0
LTYPE
  5
9D
330
5
100
AcDbSymbolTableRecord
100
AcDbLinetypeTableRecord
  2
HIDDEN
 70
     0
  3
Hidden __ __ __ __ __ __ __ __ __ __ __ __ __ _
 72
    65
 73
     2
 40
0.375
 49
0.25
 74
     0
 49
-0.125
 74
     0
  0
LTYPE
  5
9E
330
5
100
AcDbSymbolTableRecord
100
AcDbLinetypeTableRecord
  2
HIDDEN2
 70
     0
  3
Hidden (.5x) _ _ _ _ _ _ _ _ _ _ _ _ _ _ _ _ _
 72
    65
 73
     2
 40
0.1875
 49
0.125
 74
     0
 49
-0.0625
 74
     0
  0
LTYPE
  5
9F
330
5
100
AcDbSymbolTableRecord
100
AcDbLinetypeTableRecord
  2
HIDDENX2
 70
     0
  3
Hidden (2x) ____ ____ ____ ____ ____ ____ ____
 72
    65
 73
     2
 40
0.75
 49
0.5
 74
     0
 49
-0.25
 74
     0
  0
LTYPE
  5
A0
330
5
100
AcDbSymbolTableRecord
100
AcDbLinetypeTableRecord
  2
PHANTOM
 70
     0
  3
Phantom ______  __  __  ______  __  __  ______
 72
    65
 73
     6
 40
2.5
 49
1.25
 74
     0
 49
-0.25
 74
     0
 49
0.25
 74
     0
 49
-0.25
 74
     0
 49
0.25
 74
     0
 49
-0.25
 74
     0
  0
LTYPE
  5
A1
330
5
100
AcDbSymbolTableRecord
100
AcDbLinetypeTableRecord
  2
PHANTOM2
 70
     0
  3
Phantom (.5x) ___ _ _ ___ _ _ ___ _ _ ___ _ _
 72
    65
 73
     6
 40
1.25
 49
0.625
 74
     0
 49
-0.125
 74
     0
 49
0.125
 74
     0
 49
-0.125
 74
     0
 49
0.125
 74
     0
 49
-0.125
 74
     0
  0
LTYPE
  5
A2
330
5
100
AcDbSymbolTableRecord
100
AcDbLinetypeTableRecord
  2
PHANTOMX2
 70
     0
  3
Phantom (2x) ____________    ____    ____   _
 72
    65
 73
     6
 40
5.0
 49
2.5
 74
     0
 49
-0.5
 74
     0
 49
0.5
 74
     0
 49
-0.5
 74
     0
 49
0.5
 74
     0
 49
-0.5
 74
     0
  0
LTYPE
  5
A3
330
5
100
AcDbSymbolTableRecord
100
AcDbLinetypeTableRecord
  2
ACAD_ISO02W100
 70
     0
  3
ISO dash __ __ __ __ __ __ __ __ __ __ __ __ __
 72
    65
 73
     2
 40
0.59
 49
0.47
 74
     0
 49
-0.12
 74
     0
  0
LTYPE
  5
A4
330
5
100
AcDbSymbolTableRecord
100
AcDbLinetypeTableRecord
  2
ACAD_ISO03W100
 70
     0
  3
ISO dash space __    __    __    __    __    __
 72
    65
 73
     2
 40
1.179999999999999
 49
0.47
 74
     0
 49
-0.71
 74
     0
  0
LTYPE
  5
A5
330
5
100
AcDbSymbolTableRecord
100
AcDbLinetypeTableRecord
  2
ACAD_ISO04W100
 70
     0
  3
ISO long-dash dot ____ . ____ . ____ . ____ . _
 72
    65
 73
     4
 40
1.179999999999999
 49
0.9399999999999998
 74
     0
 49
-0.12
 74
     0
 49
0.0
 74
     0
 49
-0.12
 74
     0
  0
LTYPE
  5
A6
330
5
100
AcDbSymbolTableRecord
100
AcDbLinetypeTableRecord
  2
ACAD_ISO05W100
 70
     0
  3
ISO long-dash double-dot ____ .. ____ .. ____ .
 72
    65
 73
     6
 40
1.299999999999999
 49
0.9399999999999998
 74
     0
 49
-0.12
 74
     0
 49
0.0
 74
     0
 49
-0.12
 74
     0
 49
0.0
 74
     0
 49
-0.12
 74
     0
  0
LTYPE
  5
A7
330
5
100
AcDbSymbolTableRecord
100
AcDbLinetypeTableRecord
  2
ACAD_ISO06W100
 70
     0
  3
ISO long-dash triple-dot ____ ... ____ ... ____
 72
    65
 73
     8
 40
1.419999999999999
 49
0.9399999999999998
 74
     0
 49
-0.12
 74
     0
 49
0.0
 74
     0
 49
-0.12
 74
     0
 49
0.0
 74
     0
 49
-0.12
 74
     0
 49
0.0
 74
     0
 49
-0.12
 74
     0
  0
LTYPE
  5
A8
330
5
100
AcDbSymbolTableRecord
100
AcDbLinetypeTableRecord
  2
ACAD_ISO07W100
 70
     0
  3
ISO dot . . . . . . . . . . . . . . . . . . . .
 72
    65
 73
     2
 40
0.12
 49
0.0
 74
     0
 49
-0.12
 74
     0
  0
LTYPE
  5
A9
330
5
100
AcDbSymbolTableRecord
100
AcDbLinetypeTableRecord
  2
ACAD_ISO08W100
 70
     0
  3
ISO long-dash short-dash ____ __ ____ __ ____ _
 72
    65
 73
     4
 40
0.95
 49
0.47
 74
     0
 49
-0.12
 74
     0
 49
0.24
 74
     0
 49
-0.12
 74
     0
  0
LTYPE
  5
AA
330
5
100
AcDbSymbolTableRecord
100
AcDbLinetypeTableRecord
  2
ACAD_ISO09W100
 70
     0
  3
ISO long-dash double-short-dash ____ __ __ ____
 72
    65
 73
     6
 40
1.31
 49
0.47
 74
     0
 49
-0.12
 74
     0
 49
0.24
 74
     0
 49
-0.12
 74
     0
 49
0.24
 74
     0
 49
-0.12
 74
     0
  0
LTYPE
  5
AB
330
5
100
AcDbSymbolTableRecord
100
AcDbLinetypeTableRecord
  2
ACAD_ISO10W100
 70
     0
  3
ISO dash dot __ . __ . __ . __ . __ . __ . __ .
 72
    65
 73
     4
 40
0.71
 49
0.47
 74
     0
 49
-0.12
 74
     0
 49
0.0
 74
     0
 49
-0.12
 74
     0
  0
LTYPE
  5
AC
330
5
100
AcDbSymbolTableRecord
100
AcDbLinetypeTableRecord
  2
ACAD_ISO11W100
 70
     0
  3
ISO double-dash dot __ __ . __ __ . __ __ . __ 
 72
    65
 73
     6
 40
1.299999999999999
 49
0.47
 74
     0
 49
-0.12
 74
     0
 49
0.47
 74
     0
 49
-0.12
 74
     0
 49
0.0
 74
     0
 49
-0.12
 74
     0
  0
LTYPE
  5
AD
330
5
100
AcDbSymbolTableRecord
100
AcDbLinetypeTableRecord
  2
ACAD_ISO12W100
 70
     0
  3
ISO dash double-dot __ . . __ . . __ . . __ . .
 72
    65
 73
     6
 40
0.8299999999999998
 49
0.47
 74
     0
 49
-0.12
 74
     0
 49
0.0
 74
     0
 49
-0.12
 74
     0
 49
0.0
 74
     0
 49
-0.12
 74
     0
  0
LTYPE
  5
AE
330
5
100
AcDbSymbolTableRecord
100
AcDbLinetypeTableRecord
  2
ACAD_ISO13W100
 70
     0
  3
ISO double-dash double-dot __ __ . . __ __ . . 
 72
    65
 73
     8
 40
1.419999999999999
 49
0.47
 74
     0
 49
-0.12
 74
     0
 49
0.47
 74
     0
 49
-0.12
 74
     0
 49
0.0
 74
     0
 49
-0.12
 74
     0
 49
0.0
 74
     0
 49
-0.12
 74
     0
  0
LTYPE
  5
AF
330
5
100
AcDbSymbolTableRecord
100
AcDbLinetypeTableRecord
  2
ACAD_ISO14W100
 70
     0
  3
ISO dash triple-dot __ . . . __ . . . __ . . . 
 72
    65
 73
     8
 40
0.95
 49
0.47
 74
     0
 49
-0.12
 74
     0
 49
0.0
 74
     0
 49
-0.12
 74
     0
 49
0.0
 74
     0
 49
-0.12
 74
     0
 49
0.0
 74
     0
 49
-0.12
 74
     0
  0
LTYPE
  5
B0
330
5
100
AcDbSymbolTableRecord
100
AcDbLinetypeTableRecord
  2
ACAD_ISO15W100
 70
     0
  3
ISO double-dash triple-dot __ __ . . . __ __ . 
 72
    65
 73
    10
 40
1.539999999999999
 49
0.47
 74
     0
 49
-0.12
 74
     0
 49
0.47
 74
     0
 49
-0.12
 74
     0
 49
0.0
 74
     0
 49
-0.12
 74
     0
 49
0.0
 74
     0
 49
-0.12
 74
     0
 49
0.0
 74
     0
 49
-0.12
 74
     0
  0
LTYPE
  5
B3
330
5
100
AcDbSymbolTableRecord
100
AcDbLinetypeTableRecord
  2
FENCELINE1
 70
     0
  3
Fenceline circle ----0-----0----0-----0----0---
 72
    65
 73
     4
 40
1.45
 49
0.25
 74
     0
 49
-0.1
 74
     4
 75
   133
340
B2
 46
0.1
 50
0.0
 44
-0.1
 45
0.0
 49
-0.1
 74
     0
 49
1.0
 74
     0
  0
LTYPE
  5
B4
330
5
100
AcDbSymbolTableRecord
100
AcDbLinetypeTableRecord
  2
FENCELINE2
 70
     0
  3
Fenceline square ----[]-----[]----[]-----[]----
 72
    65
 73
     4
 40
1.45
 49
0.25
 74
     0
 49
-0.1
 74
     4
 75
   132
340
B2
 46
0.1
 50
0.0
 44
-0.1
 45
0.0
 49
-0.1
 74
     0
 49
1.0
 74
     0
  0
LTYPE
  5
B5
330
5
100
AcDbSymbolTableRecord
100
AcDbLinetypeTableRecord
  2
TRACKS
 70
     0
  3
Tracks -|-|-|-|-|-|-|-|-|-|-|-|-|-|-|-|-|-|-|-|
 72
    65
 73
     2
 40
0.3
 49
0.15
 74
     4
 75
   130
340
B2
 46
0.25
 50
0.0
 44
0.0
 45
0.0
 49
0.15
 74
     0
  0
LTYPE
  5
B6
330
5
100
AcDbSymbolTableRecord
100
AcDbLinetypeTableRecord
  2
BATTING
 70
     0
  3
Batting SSSSSSSSSSSSSSSSSSSSSSSSSSSSSSSSSSSSSSS
 72
    65
 73
     4
 40
0.4001000000000001
 49
0.0001
 74
     0
 49
-0.1
 74
     4
 75
   134
340
B2
 46
0.1
 50
0.0
 44
-0.1
 45
0.0
 49
-0.2
 74
     4
 75
   134
340
B2
 46
0.1
 50
180.0
 44
0.1
 45
0.0
 49
-0.1
 74
     0
  0
LTYPE
  5
B7
330
5
100
AcDbSymbolTableRecord
100
AcDbLinetypeTableRecord
  2
HOT_WATER_SUPPLY
 70
     0
  3
Hot water supply ---- HW ---- HW ---- HW ----
 72
    65
 73
     3
 40
0.9
 49
0.5
 74
     0
 49
-0.2
 74
     2
 75
     0
340
55
 46
0.1
 50
0.0
 44
-0.1
 45
-0.05
  9
HW
 49
-0.2
 74
     0
  0
LTYPE
  5
B8
330
5
100
AcDbSymbolTableRecord
100
AcDbLinetypeTableRecord
  2
GAS_LINE
 70
     0
  3
Gas line ----GAS----GAS----GAS----GAS----GAS---
 72
    65
 73
     3
 40
0.95
 49
0.5
 74
     0
 49
-0.2
 74
     2
 75
     0
340
55
 46
0.1
 50
0.0
 44
-0.1
 45
-0.05
  9
GAS
 49
-0.25
 74
     0
  0
LTYPE
  5
B9
330
5
100
AcDbSymbolTableRecord
100
AcDbLinetypeTableRecord
  2
ZIGZAG
 70
     0
  3
Zig zag /\/\/\/\/\/\/\/\/\/\/\/\/\/\/\/\/\/\/\/
 72
    65
 73
     4
 40
0.8001000000000001
 49
0.0001
 74
     0
 49
-0.2
 74
     4
 75
   131
340
B2
 46
0.2
 50
0.0
 44
-0.2
 45
0.0
 49
-0.4
 74
     4
 75
   131
340
B2
 46
0.2
 50
180.0
 44
0.2
 45
0.0
 49
-0.2
 74
     0
  0
ENDTAB
  0
TABLE
  2
LAYER
  5
2
330
0
100
AcDbSymbolTable
 70
    27
  0
LAYER
  5
54
330
2
100
AcDbSymbolTableRecord
100
AcDbLayerTableRecord
  2
0
 70
     0
 62
     7
  6
Continuous
370
    18
390
F
347
21
  0
LAYER
  5
C0
330
2
100
AcDbSymbolTableRecord
100
AcDbLayerTableRecord
  2
Center Mark (ANSI)
 70
     0
 62
     7
  6
Continuous
370
    15
390
F
347
21
  0
LAYER
  5
C1
330
2
100
AcDbSymbolTableRecord
100
AcDbLayerTableRecord
  2
Centerline (ANSI)
 70
     0
 62
     7
  6
Continuous
370
    15
390
F
347
21
  0
LAYER
  5
C3
330
2
100
AcDbSymbolTableRecord
100
AcDbLayerTableRecord
  2
Dimension (ANSI)
 70
     0
 62
     7
  6
Continuous
370
    13
390
F
347
21
  0
LAYER
  5
C5
330
2
100
AcDbSymbolTableRecord
100
AcDbLayerTableRecord
  2
Hidden (ANSI)
 70
     0
 62
     7
  6
DASHED
370
    15
390
F
347
21
  0
LAYER
  5
CC
330
2
100
AcDbSymbolTableRecord
100
AcDbLayerTableRecord
  2
Symbol (ANSI)
 70
     0
 62
     7
  6
Continuous
370
    18
390
F
347
21
  0
LAYER
  5
CF
330
2
100
AcDbSymbolTableRecord
100
AcDbLayerTableRecord
  2
Visible (ANSI)
 70
     0
 62
     7
  6
Continuous
370
    13
390
F
347
21
  0
LAYER
  5
D0
330
2
100
AcDbSymbolTableRecord
100
AcDbLayerTableRecord
  2
Visible Narrow (ANSI)
 70
     0
 62
     7
  6
Continuous
370
    18
390
F
347
21
  0
LAYER
  5
526
330
2
100
AcDbSymbolTableRecord
100
AcDbLayerTableRecord
  2
Defpoints
 70
     0
 62
     7
  6
Continuous
290
     0
370
    -3
390
F
347
21
  0
ENDTAB
  0
TABLE
  2
STYLE
  5
3
330
0
100
AcDbSymbolTable
 70
    18
  0
STYLE
  5
55
330
3
100
AcDbSymbolTableRecord
100
AcDbTextStyleTableRecord
  2
Standard
 70
     0
 40
0.0
 41
1.0
 50
0.0
 71
     0
 42
0.2
  3
txt
  4

  0
STYLE
  5
5A
330
3
100
AcDbSymbolTableRecord
100
AcDbTextStyleTableRecord
  2
Annotative
 70
     0
 40
0.0
 41
1.0
 50
0.0
 71
     0
 42
0.2
  3
txt
  4

1001
AcadAnnotative
1000
AnnotativeData
1002
{
1070
     1
1070
     1
1002
}
  0
STYLE
  5
B2
330
3
100
AcDbSymbolTableRecord
100
AcDbTextStyleTableRecord
  2

 70
     1
 40
0.0
 41
1.0
 50
0.0
 71
     0
 42
0.2
  3
ltypeshp.shx
  4

  0
STYLE
  5
D4
330
3
100
AcDbSymbolTableRecord
100
AcDbTextStyleTableRecord
  2
ITALICC_120
 70
     0
 40
0.0
 41
1.0
 50
0.0
 71
     0
 42
0.2
  3
italicc.shx
  4

  0
STYLE
  5
D5
330
3
100
AcDbSymbolTableRecord
100
AcDbTextStyleTableRecord
  2
Label Text (ANSI)
 70
     0
 40
0.0
 41
1.0
 50
0.0
 71
     0
 42
0.2
  3
tahoma.ttf
  4

1001
ACAD
1000
Tahoma
1071
      256
  0
STYLE
  5
D6
330
3
100
AcDbSymbolTableRecord
100
AcDbTextStyleTableRecord
  2
Note Text (ANSI)
 70
     0
 40
0.0
 41
1.0
 50
0.0
 71
     0
 42
0.2
  3
tahoma.ttf
  4

1001
ACAD
1000
Tahoma
1071
      256
  0
STYLE
  5
D7
330
3
100
AcDbSymbolTableRecord
100
AcDbTextStyleTableRecord
  2
ROMANS
 70
     0
 40
0.0
 41
1.0
 50
0.0
 71
     0
 42
0.2
  3
romans.shx
  4

  0
STYLE
  5
D8
330
3
100
AcDbSymbolTableRecord
100
AcDbTextStyleTableRecord
  2
SANSSERIF_114
 70
     0
 40
0.0
 41
1.0
 50
0.0
 71
     0
 42
0.2
  3
tahoma.ttf
  4

1001
ACAD
1000
Tahoma
1071
      256
  0
STYLE
  5
D9
330
3
100
AcDbSymbolTableRecord
100
AcDbTextStyleTableRecord
  2
SANSSERIF_117
 70
     0
 40
0.0
 41
1.0
 50
0.0
 71
     0
 42
0.2
  3
tahoma.ttf
  4

1001
ACAD
1000
Tahoma
1071
      256
  0
STYLE
  5
DA
330
3
100
AcDbSymbolTableRecord
100
AcDbTextStyleTableRecord
  2
STANDARDAM_ANSI
 70
     0
 40
0.0
 41
1.0
 50
0.0
 71
     0
 42
0.2
  3
txt.shx
  4

  0
STYLE
  5
DB
330
3
100
AcDbSymbolTableRecord
100
AcDbTextStyleTableRecord
  2
StandardAM_ANSI$0
 70
     0
 40
0.0
 41
1.0
 50
0.0
 71
     0
 42
0.2
  3
txt.shx
  4

  0
STYLE
  5
DC
330
3
100
AcDbSymbolTableRecord
100
AcDbTextStyleTableRecord
  2
STANDARDAM_ANSI$3
 70
     0
 40
0.0
 41
1.0
 50
0.0
 71
     0
 42
0.2
  3
txt.shx
  4

  0
STYLE
  5
DD
330
3
100
AcDbSymbolTableRecord
100
AcDbTextStyleTableRecord
  2
STANDARDAM_ANSI$4
 70
     0
 40
0.0
 41
1.0
 50
0.0
 71
     0
 42
0.2
  3
txt.shx
  4

  0
STYLE
  5
DE
330
3
100
AcDbSymbolTableRecord
100
AcDbTextStyleTableRecord
  2
STANDARDAM_ANSI$7
 70
     0
 40
0.0
 41
1.0
 50
0.0
 71
     0
 42
0.2
  3
txt.shx
  4

  0
STYLE
  5
DF
330
3
100
AcDbSymbolTableRecord
100
AcDbTextStyleTableRecord
  2
STANDARDAM_ANSI$SF
 70
     0
 40
0.0
 41
1.0
 50
0.0
 71
     0
 42
0.2
  3
txt.shx
  4

  0
STYLE
  5
E0
330
3
100
AcDbSymbolTableRecord
100
AcDbTextStyleTableRecord
  2
STANDARDAM_ANSI$SH
 70
     0
 40
0.0
 41
1.0
 50
0.0
 71
     0
 42
0.2
  3
txt.shx
  4

  0
STYLE
  5
E1
330
3
100
AcDbSymbolTableRecord
100
AcDbTextStyleTableRecord
  2
STANDARDSTANDARD
 70
     0
 40
0.0
 41
1.0
 50
0.0
 71
     0
 42
0.2
  3
txt.shx
  4

  0
STYLE
  5
2DF
330
3
100
AcDbSymbolTableRecord
100
AcDbTextStyleTableRecord
  2
Text Style153
 70
     0
 40
0.0
 41
1.0
 50
0.0
 71
     0
 42
0.2
  3
tahoma.ttf
  4

1001
ACAD
1000
Tahoma
1071
      256
  0
ENDTAB
  0
TABLE
  2
VIEW
  5
6
330
0
100
AcDbSymbolTable
 70
     0
  0
ENDTAB
  0
TABLE
  2
UCS
  5
7
330
0
100
AcDbSymbolTable
 70
     0
  0
ENDTAB
  0
TABLE
  2
APPID
  5
9
330
0
100
AcDbSymbolTable
 70
     3
  0
APPID
  5
56
330
9
100
AcDbSymbolTableRecord
100
AcDbRegAppTableRecord
  2
ACAD
 70
     0
  0
APPID
  5
5E
330
9
100
AcDbSymbolTableRecord
100
AcDbRegAppTableRecord
  2
AcadAnnotative
 70
     0
  0
APPID
  5
883
330
9
100
AcDbSymbolTableRecord
100
AcDbRegAppTableRecord
  2
ACAD_DSTYLE_DIMRADIAL_EXTENSION
 70
     0
  0
ENDTAB
  0
TABLE
  2
DIMSTYLE
  5
A
330
0
100
AcDbSymbolTable
 70
    27
100
AcDbDimStyleTable
 71
     2
340
F6
340
58
  0
DIMSTYLE
105
58
330
A
100
AcDbSymbolTableRecord
100
AcDbDimStyleTableRecord
  2
STANDARD
 70
     0
 41
0.1800000071525573
 42
0.0625
140
0.1800000071525574
144
1.0
147
0.0900000035762787
176
   256
177
   256
178
   256
274
     3
340
55
371
    -1
372
    -1
  0
DIMSTYLE
105
59
330
A
100
AcDbSymbolTableRecord
100
AcDbDimStyleTableRecord
  2
Annotative
 70
     0
340
55
1001
AcadAnnotative
1000
AnnotativeData
1002
{
1070
     1
1070
     1
1002
}
  0
DIMSTYLE
105
E2
330
A
100
AcDbSymbolTableRecord
100
AcDbDimStyleTableRecord
  2
AM_ANSI
 70
     0
  4
 mm
 40
8.0
 41
0.119999997317791
 42
0.05
 43
0.5
 44
0.1
 45
0.00000001
 78
     4
 79
     2
140
0.1200000047683716
146
0.7099999189376831
147
0.0599999986588955
176
   256
177
   256
178
     2
284
     4
340
DA
371
    -1
372
    -1
  0
DIMSTYLE
105
E3
330
A
100
AcDbSymbolTableRecord
100
AcDbDimStyleTableRecord
  2
AM_ANSI$7
 70
     0
  4
 mm
 40
8.0
 41
0.119999997317791
 42
0.05
 43
0.5
 44
0.1
 45
0.00000001
 78
     4
 79
     2
140
0.1200000047683716
146
0.7099999189376831
147
0.0599999986588955
176
   256
177
   256
178
     2
284
     4
340
DA
371
    -1
372
    -1
  0
DIMSTYLE
105
E4
330
A
100
AcDbSymbolTableRecord
100
AcDbDimStyleTableRecord
  2
AM_ANSI$0
 70
     0
  4
 mm
 40
8.0
 41
0.119999997317791
 42
0.05
 43
0.5
 44
0.1
 45
0.00000001
 78
     4
 79
     2
140
0.1200000047683716
146
0.7099999189376831
147
0.0599999986588955
176
   256
177
   256
178
     2
284
     4
340
DB
371
    -1
372
    -1
  0
DIMSTYLE
105
E5
330
A
100
AcDbSymbolTableRecord
100
AcDbDimStyleTableRecord
  2
AM_ANSI$0$7
 70
     0
  4
 mm
 40
8.0
 41
0.119999997317791
 42
0.05
 43
0.5
 44
0.1
 45
0.00000001
 78
     4
 79
     2
140
0.1200000047683716
146
0.7099999189376831
147
0.0599999986588955
176
   256
177
   256
178
     2
284
     4
340
DB
371
    -1
372
    -1
  0
DIMSTYLE
105
E6
330
A
100
AcDbSymbolTableRecord
100
AcDbDimStyleTableRecord
  2
AM_ANSI$3
 70
     0
  4
 mm
 40
8.0
 41
0.119999997317791
 42
0.05
 43
0.5
 44
0.1
 45
0.00000001
 78
     4
 79
     2
140
0.1200000047683716
146
0.7099999189376831
147
0.0599999986588955
176
   256
177
   256
178
     2
284
     4
340
DC
371
    -1
372
    -1
  0
DIMSTYLE
105
E7
330
A
100
AcDbSymbolTableRecord
100
AcDbDimStyleTableRecord
  2
AM_ANSI$3$7
 70
     0
  4
 mm
 40
8.0
 41
0.119999997317791
 42
0.05
 43
0.5
 44
0.1
 45
0.00000001
 78
     4
 79
     2
140
0.1200000047683716
146
0.7099999189376831
147
0.0599999986588955
176
   256
177
   256
178
     2
284
     4
340
DC
371
    -1
372
    -1
  0
DIMSTYLE
105
E8
330
A
100
AcDbSymbolTableRecord
100
AcDbDimStyleTableRecord
  2
AM_ANSI$4
 70
     0
  4
 mm
 40
8.0
 41
0.119999997317791
 42
0.05
 43
0.5
 44
0.1
 45
0.00000001
 78
     4
 79
     2
140
0.1200000047683716
146
0.7099999189376831
147
0.0599999986588955
176
   256
177
   256
178
     2
284
     4
340
DD
371
    -1
372
    -1
  0
DIMSTYLE
105
E9
330
A
100
AcDbSymbolTableRecord
100
AcDbDimStyleTableRecord
  2
AM_ANSI$4$7
 70
     0
  4
 mm
 40
8.0
 41
0.119999997317791
 42
0.05
 43
0.5
 44
0.1
 45
0.00000001
 78
     4
 79
     2
140
0.1200000047683716
146
0.7099999189376831
147
0.0599999986588955
176
   256
177
   256
178
     2
284
     4
340
DD
371
    -1
372
    -1
  0
DIMSTYLE
105
EA
330
A
100
AcDbSymbolTableRecord
100
AcDbDimStyleTableRecord
  2
AM_ANSI$SF
 70
     0
  4
 mm
 40
8.0
 41
0.119999997317791
 42
0.05
 43
0.5
 44
0.1
 45
0.00000001
 75
     1
 76
     1
 78
     4
 79
     2
140
0.1200000047683716
146
0.7099999189376831
147
0.0599999986588955
176
   256
177
   256
178
     2
284
     4
340
DF
371
    -1
372
    -1
  0
DIMSTYLE
105
EB
330
A
100
AcDbSymbolTableRecord
100
AcDbDimStyleTableRecord
  2
AM_ANSI$SF$7
 70
     0
  4
 mm
 40
8.0
 41
0.119999997317791
 42
0.05
 43
0.5
 44
0.1
 45
0.00000001
 75
     1
 76
     1
 78
     4
 79
     2
140
0.1200000047683716
146
0.7099999189376831
147
0.0599999986588955
176
   256
177
   256
178
     2
284
     4
340
DF
371
    -1
372
    -1
  0
DIMSTYLE
105
EC
330
A
100
AcDbSymbolTableRecord
100
AcDbDimStyleTableRecord
  2
AM_ANSI$SH
 70
     0
  4
 mm
 40
8.0
 41
0.119999997317791
 42
0.05
 43
0.5
 44
0.1
 45
0.00000001
 75
     1
 76
     1
 78
     4
 79
     2
140
0.1200000047683716
146
0.7099999189376831
147
0.0599999986588955
176
   256
177
   256
178
     2
284
     4
340
E0
371
    -1
372
    -1
  0
DIMSTYLE
105
ED
330
A
100
AcDbSymbolTableRecord
100
AcDbDimStyleTableRecord
  2
AM_ANSI$SH$7
 70
     0
  4
 mm
 40
8.0
 41
0.119999997317791
 42
0.05
 43
0.5
 44
0.1
 45
0.00000001
 75
     1
 76
     1
 78
     4
 79
     2
140
0.1200000047683716
146
0.7099999189376831
147
0.0599999986588955
176
   256
177
   256
178
     2
284
     4
340
E0
371
    -1
372
    -1
  0
DIMSTYLE
105
EE
330
A
100
AcDbSymbolTableRecord
100
AcDbDimStyleTableRecord
  2
Architectural (ANSI)
 70
     0
 40
8.0
 41
0.0984251946210861
 43
0.2362204724409449
 44
0.125
 45
0.00000001
 46
0.3937007874015748
 78
     3
 79
     3
140
0.1200000047683716
147
0.031496062992126
171
     1
176
   256
177
   256
178
   256
272
     2
274
     1
276
     2
277
     4
284
    12
285
     4
286
    12
340
D6
371
    -1
372
    -1
  0
DIMSTYLE
105
EF
330
A
100
AcDbSymbolTableRecord
100
AcDbDimStyleTableRecord
  2
Architectural (ANSI)$7
 70
     0
 40
8.0
 41
0.0984251946210861
 43
0.2362204724409449
 44
0.125
 45
0.00000001
 46
0.3937007874015748
 78
     3
 79
     3
140
0.1200000047683716
147
0.031496062992126
171
     1
176
   256
177
   256
178
   256
272
     2
274
     1
276
     2
277
     4
284
    12
285
     4
286
    12
340
D6
371
    -1
372
    -1
  0
DIMSTYLE
105
F0
330
A
100
AcDbSymbolTableRecord
100
AcDbDimStyleTableRecord
  2
Default - Fraction (ANSI)
 70
     0
 40
8.0
 41
0.0984251946210861
 43
0.2362204724409449
 44
0.125
 45
0.00000001
 46
0.3937007874015748
 79
     3
140
0.1200000047683716
147
0.031496062992126
171
     1
176
   256
177
   256
178
   256
272
     2
274
     1
276
     2
277
     5
284
    12
285
     4
286
    12
340
D6
371
    -1
372
    -1
  0
DIMSTYLE
105
F1
330
A
100
AcDbSymbolTableRecord
100
AcDbDimStyleTableRecord
  2
Default - Fraction (ANSI)$7
 70
     0
 40
8.0
 41
0.0984251946210861
 43
0.2362204724409449
 44
0.125
 45
0.00000001
 46
0.3937007874015748
 79
     3
140
0.1200000047683716
147
0.031496062992126
171
     1
176
   256
177
   256
178
   256
272
     2
274
     1
276
     2
277
     5
284
    12
285
     4
286
    12
340
D6
371
    -1
372
    -1
  0
DIMSTYLE
105
F2
330
A
100
AcDbSymbolTableRecord
100
AcDbDimStyleTableRecord
  2
Default - mm (ANSI)
 70
     0
 40
8.0
 41
0.0984251946210861
 42
0.063
 43
0.2362204724409449
 44
0.125
 45
0.00000001
 46
0.3937007874015748
 73
     0
 78
     4
 79
     1
140
0.1200000047683716
143
1.0
144
25.4
147
0.031496062992126
171
     1
176
   256
177
   256
178
   256
179
     1
271
     2
272
     2
274
     1
284
     4
285
     4
340
D6
371
    -1
372
    -1
  0
DIMSTYLE
105
F3
330
A
100
AcDbSymbolTableRecord
100
AcDbDimStyleTableRecord
  2
Default - mm (ANSI)$7
 70
     0
 40
8.0
 41
0.0984251946210861
 42
0.063
 43
0.2362204724409449
 44
0.125
 45
0.00000001
 46
0.3937007874015748
 73
     0
 78
     4
 79
     1
140
0.1200000047683716
143
1.0
144
25.4
147
0.031496062992126
171
     1
176
   256
177
   256
178
   256
179
     1
271
     2
272
     2
274
     1
284
     4
285
     4
340
D6
371
    -1
372
    -1
  0
DIMSTYLE
105
F4
330
A
100
AcDbSymbolTableRecord
100
AcDbDimStyleTableRecord
  2
Default - mm [in] (ANSI)
 70
     0
  4
 in
 40
8.0
 41
0.0984251946210861
 42
0.063
 43
0.25
 44
0.125
 45
0.00000001
 46
0.3937007874015748
 73
     0
 78
     4
 79
     1
140
0.1200000047683716
143
0.03937
144
25.4
147
0.031496062992126
170
     1
171
     3
176
   256
177
   256
178
   256
179
     1
271
     2
272
     2
274
     3
284
     4
285
     4
286
     4
340
D6
371
    -1
372
    -1
  0
DIMSTYLE
105
F5
330
A
100
AcDbSymbolTableRecord
100
AcDbDimStyleTableRecord
  2
Default - mm [in] (ANSI)$7
 70
     0
  4
 in
 40
8.0
 41
0.0984251946210861
 42
0.063
 43
0.25
 44
0.125
 45
0.00000001
 46
0.3937007874015748
 73
     0
 78
     4
 79
     1
140
0.1200000047683716
143
0.03937
144
25.4
147
0.031496062992126
170
     1
171
     3
176
   256
177
   256
178
   256
179
     1
271
     2
272
     2
274
     3
284
     4
285
     4
286
     4
340
D6
371
    -1
372
    -1
  0
DIMSTYLE
105
F6
102
{ACAD_REACTORS
330
524
330
615
330
6FF
330
7E9
330
8B0
330
99A
330
A9A
330
B84
330
C6E
102
}
330
A
100
AcDbSymbolTableRecord
100
AcDbDimStyleTableRecord
  2
Default (ANSI)
 70
     0
 40
8.0
 41
0.0984251946210861
 43
0.2362204724409449
 44
0.125
 45
0.00000001
 46
0.3937007874015748
 79
     1
140
0.1200000047683716
147
0.031496062992126
171
     1
176
   256
177
   256
178
   256
271
     2
272
     2
274
     1
284
     4
285
     4
340
D6
371
    -1
372
    -1
  0
DIMSTYLE
105
F7
330
A
100
AcDbSymbolTableRecord
100
AcDbDimStyleTableRecord
  2
Default (ANSI)$7
 70
     0
 40
8.0
 41
0.0984251946210861
 43
0.2362204724409449
 44
0.125
 45
0.00000001
 46
0.3937007874015748
 79
     1
140
0.1200000047683716
147
0.031496062992126
171
     1
176
   256
177
   256
178
   256
271
     2
272
     2
274
     1
284
     4
285
     4
340
D6
371
    -1
372
    -1
  0
DIMSTYLE
105
F8
330
A
100
AcDbSymbolTableRecord
100
AcDbDimStyleTableRecord
  2
Alternate (ANSI)
 70
     0
 40
8.0
 41
0.0979999974370003
340
55
342
F9
  0
DIMSTYLE
105
10B
330
A
100
AcDbSymbolTableRecord
100
AcDbDimStyleTableRecord
  2
Datum (ANSI)
 70
     0
 40
8.0
 41
0.0979999974370003
340
55
342
F9
  0
DIMSTYLE
105
11A
330
A
100
AcDbSymbolTableRecord
100
AcDbDimStyleTableRecord
  2
Large (ANSI)
 70
     0
 40
8.0
 41
0.1959999948740005
340
55
342
F9
  0
ENDTAB
  0
TABLE
  2
BLOCK_RECORD
  5
1
330
0
100
AcDbSymbolTable
 70
    13
  0
BLOCK_RECORD
  5
6C
330
1
100
AcDbSymbolTableRecord
100
AcDbBlockTableRecord
  2
*Model_Space
340
6F
 70
     0
280
     1
281
     0
  0
BLOCK_RECORD
  5
68
330
1
100
AcDbSymbolTableRecord
100
AcDbBlockTableRecord
  2
*Paper_Space
340
6B
 70
     0
280
     1
281
     0
  0
BLOCK_RECORD
  5
70
330
1
100
AcDbSymbolTableRecord
100
AcDbBlockTableRecord
  2
*Paper_Space0
340
73
 70
     0
280
     1
281
     0
  0
BLOCK_RECORD
  5
F9
330
1
100
AcDbSymbolTableRecord
100
AcDbBlockTableRecord
  2
_Closed
340
0
 70
     0
280
     1
281
     0
  0
BLOCK_RECORD
  5
100
330
1
100
AcDbSymbolTableRecord
100
AcDbBlockTableRecord
  2
DatumFilled45
340
0
 70
     0
280
     1
281
     0
  0
BLOCK_RECORD
  5
10C
330
1
100
AcDbSymbolTableRecord
100
AcDbBlockTableRecord
  2
Filled-1
340
0
 70
     0
280
     1
281
     0
  0
BLOCK_RECORD
  5
527
330
1
100
AcDbSymbolTableRecord
100
AcDbBlockTableRecord
  2
*D4
340
0
 70
     0
280
     1
281
     0
  0
BLOCK_RECORD
  5
616
330
1
100
AcDbSymbolTableRecord
100
AcDbBlockTableRecord
  2
*D5
340
0
 70
     0
280
     1
281
     0
  0
BLOCK_RECORD
  5
700
330
1
100
AcDbSymbolTableRecord
100
AcDbBlockTableRecord
  2
*D6
340
0
 70
     0
280
     1
281
     0
  0
BLOCK_RECORD
  5
7EA
330
1
100
AcDbSymbolTableRecord
100
AcDbBlockTableRecord
  2
*D7
340
0
 70
     0
280
     1
281
     0
  0
BLOCK_RECORD
  5
8B1
330
1
100
AcDbSymbolTableRecord
100
AcDbBlockTableRecord
  2
*D8
340
0
 70
     0
280
     1
281
     0
  0
BLOCK_RECORD
  5
99B
330
1
100
AcDbSymbolTableRecord
100
AcDbBlockTableRecord
  2
*D9
340
0
 70
     0
280
     1
281
     0
  0
BLOCK_RECORD
  5
A9B
330
1
100
AcDbSymbolTableRecord
100
AcDbBlockTableRecord
  2
*D10
340
0
 70
     0
280
     1
281
     0
  0
BLOCK_RECORD
  5
B85
330
1
100
AcDbSymbolTableRecord
100
AcDbBlockTableRecord
  2
*D11
340
0
 70
     0
280
     1
281
     0
  0
BLOCK_RECORD
  5
C6F
330
1
100
AcDbSymbolTableRecord
100
AcDbBlockTableRecord
  2
*D12
340
0
 70
     0
280
     1
281
     0
  0
ENDTAB
  0
ENDSEC
  0
SECTION
  2
BLOCKS
  0
BLOCK
  5
6D
330
6C
100
AcDbEntity
  8
0
100
AcDbBlockBegin
  2
*Model_Space
 70
     0
 10
0.0
 20
0.0
 30
0.0
  3
*Model_Space
  1

  0
ENDBLK
  5
6E
330
6C
100
AcDbEntity
  8
0
100
AcDbBlockEnd
  0
BLOCK
  5
69
330
68
100
AcDbEntity
 67
     1
  8
0
100
AcDbBlockBegin
  2
*Paper_Space
 70
     0
 10
0.0
 20
0.0
 30
0.0
  3
*Paper_Space
  1

  0
ENDBLK
  5
6A
330
68
100
AcDbEntity
 67
     1
  8
0
100
AcDbBlockEnd
  0
BLOCK
  5
71
330
70
100
AcDbEntity
 67
     1
  8
0
100
AcDbBlockBegin
  2
*Paper_Space0
 70
     0
 10
0.0
 20
0.0
 30
0.0
  3
*Paper_Space0
  1

  0
ENDBLK
  5
72
330
70
100
AcDbEntity
 67
     1
  8
0
100
AcDbBlockEnd
  0
BLOCK
  5
FE
330
F9
100
AcDbEntity
  8
0
100
AcDbBlockBegin
  2
_Closed
 70
     0
 10
0.0
 20
0.0
 30
0.0
  3
_Closed
  1

  0
LINE
  5
FA
330
F9
100
AcDbEntity
  8
0
  6
ByBlock
 62
     0
370
    -2
100
AcDbLine
 10
-1.0
 20
0.1666666666666666
 30
0.0
 11
0.0
 21
0.0
 31
0.0
  0
LINE
  5
FB
330
F9
100
AcDbEntity
  8
0
  6
ByBlock
 62
     0
370
    -2
100
AcDbLine
 10
0.0
 20
0.0
 30
0.0
 11
-1.0
 21
-0.1666666666666666
 31
0.0
  0
LINE
  5
FC
330
F9
100
AcDbEntity
  8
0
  6
ByBlock
 62
     0
370
    -2
100
AcDbLine
 10
-1.0
 20
0.1666666666666666
 30
0.0
 11
-1.0
 21
-0.1666666666666666
 31
0.0
  0
LINE
  5
FD
330
F9
100
AcDbEntity
  8
0
  6
ByBlock
 62
     0
370
    -2
100
AcDbLine
 10
0.0
 20
0.0
 30
0.0
 11
-1.0
 21
0.0
 31
0.0
  0
ENDBLK
  5
FF
330
F9
100
AcDbEntity
  8
0
100
AcDbBlockEnd
  0
BLOCK
  5
101
330
100
100
AcDbEntity
  8
0
100
AcDbBlockBegin
  2
DatumFilled45
 70
     0
 10
0.0
 20
0.0
 30
0.0
  3
DatumFilled45
  1

  0
POLYLINE
  5
103
330
100
100
AcDbEntity
  8
0
 62
     0
100
AcDb2dPolyline
 66
     1
 10
0.0
 20
0.0
 30
0.0
 70
   128
  0
VERTEX
  5
104
330
103
100
AcDbEntity
  8
0
 62
     0
100
AcDbVertex
100
AcDb2dVertex
 10
0.0
 20
0.9999999999999998
 30
0.0
  0
VERTEX
  5
105
330
103
100
AcDbEntity
  8
0
 62
     0
100
AcDbVertex
100
AcDb2dVertex
 10
0.0
 20
-0.9999999999999998
 30
0.0
  0
VERTEX
  5
107
330
103
100
AcDbEntity
  8
0
 62
     0
100
AcDbVertex
100
AcDb2dVertex
 10
-0.9999999999999998
 20
0.0
 30
0.0
  0
VERTEX
  5
108
330
103
100
AcDbEntity
  8
0
 62
     0
100
AcDbVertex
100
AcDb2dVertex
 10
0.0
 20
0.9999999999999998
 30
0.0
  0
SEQEND
  5
106
330
103
100
AcDbEntity
  8
0
 62
     0
  0
SOLID
  5
10A
330
100
100
AcDbEntity
  8
0
 62
     0
100
AcDbTrace
 10
0.0
 20
0.9999999999999998
 30
0.0
 11
0.0
 21
-0.9999999999999998
 31
0.0
 12
-0.9999999999999998
 22
0.0
 32
0.0
 13
0.0
 23
0.9999999999999998
 33
0.0
  0
ENDBLK
  5
102
330
100
100
AcDbEntity
  8
0
100
AcDbBlockEnd
  0
BLOCK
  5
10D
330
10C
100
AcDbEntity
  8
0
100
AcDbBlockBegin
  2
Filled-1
 70
     0
 10
0.0
 20
0.0
 30
0.0
  3
Filled-1
  1

  0
LINE
  5
10F
330
10C
100
AcDbEntity
  8
0
 62
     0
100
AcDbLine
 10
-0.9999999999999998
 20
0.0
 30
0.0
 11
0.0
 21
0.0
 31
0.0
  0
POLYLINE
  5
110
330
10C
100
AcDbEntity
  8
0
 62
     0
100
AcDb2dPolyline
 66
     1
 10
0.0
 20
0.0
 30
0.0
 70
   128
  0
VERTEX
  5
111
330
110
100
AcDbEntity
  8
0
 62
     0
100
AcDbVertex
100
AcDb2dVertex
 10
-0.9999999999999998
 20
-0.0994897959183674
 30
0.0
  0
VERTEX
  5
112
330
110
100
AcDbEntity
  8
0
 62
     0
100
AcDbVertex
100
AcDb2dVertex
 10
0.0
 20
0.0
 30
0.0
  0
VERTEX
  5
114
330
110
100
AcDbEntity
  8
0
 62
     0
100
AcDbVertex
100
AcDb2dVertex
 10
-0.9999999999999998
 20
0.0994897959183674
 30
0.0
  0
VERTEX
  5
115
330
110
100
AcDbEntity
  8
0
 62
     0
100
AcDbVertex
100
AcDb2dVertex
 10
-0.9999999999999998
 20
-0.0994897959183674
 30
0.0
  0
SEQEND
  5
113
330
110
100
AcDbEntity
  8
0
 62
     0
  0
SOLID
  5
116
330
10C
100
AcDbEntity
  8
0
 62
     0
100
AcDbTrace
 10
-0.9999999999999998
 20
-0.0994897959183674
 30
0.0
 11
0.0
 21
0.0
 31
0.0
 12
-0.9999999999999998
 22
0.0994897959183674
 32
0.0
 13
-0.9999999999999998
 23
-0.0994897959183674
 33
0.0
  0
LINE
  5
117
330
10C
100
AcDbEntity
  8
0
 62
     0
100
AcDbLine
 10
-0.9999999999999998
 20
-0.0994897959183674
 30
0.0
 11
0.0
 21
0.0
 31
0.0
  0
LINE
  5
118
330
10C
100
AcDbEntity
  8
0
 62
     0
100
AcDbLine
 10
0.0
 20
0.0
 30
0.0
 11
-0.9999999999999998
 21
0.0994897959183674
 31
0.0
  0
LINE
  5
119
330
10C
100
AcDbEntity
  8
0
 62
     0
100
AcDbLine
 10
-0.9999999999999998
 20
0.0994897959183674
 30
0.0
 11
-0.9999999999999998
 21
-0.0994897959183674
 31
0.0
  0
ENDBLK
  5
10E
330
10C
100
AcDbEntity
  8
0
100
AcDbBlockEnd
  0
BLOCK
  5
528
330
527
100
AcDbEntity
  8
0
100
AcDbBlockBegin
  2
*D4
 70
     1
 10
0.0
 20
0.0
 30
0.0
  3
*D4
  1

  0
LINE
  5
60D
330
527
100
AcDbEntity
  8
Dimension (ANSI)
440
 16777216
100
AcDbLine
 10
70.00988079171482
 20
50.14151113876204
 30
0.0
 11
69.22247923474613
 21
50.14151113876204
 31
0.0
  0
LINE
  5
60E
330
527
100
AcDbEntity
  8
Dimension (ANSI)
440
 16777216
100
AcDbLine
 10
72.45968390565223
 20
50.14151113876204
 30
0.0
 11
73.69031928478808
 21
50.14151113876204
 31
0.0
  0
SOLID
  5
60F
330
527
100
AcDbEntity
  8
Dimension (ANSI)
440
 16777216
100
AcDbTrace
 10
70.00988079171482
 20
50.27274473159016
 30
0.0
 11
70.00988079171482
 21
50.01027754593392
 31
0.0
 12
70.79728234868351
 22
50.14151113876204
 32
0.0
 13
70.79728234868351
 23
50.14151113876204
 33
0.0
  0
SOLID
  5
610
330
527
100
AcDbEntity
  8
Dimension (ANSI)
440
 16777216
100
AcDbTrace
 10
72.45968390565223
 20
50.27274473159016
 30
0.0
 11
72.45968390565223
 21
50.01027754593392
 31
0.0
 12
71.67228234868353
 22
50.14151113876204
 32
0.0
 13
71.67228234868353
 23
50.14151113876204
 33
0.0
  0
MTEXT
  5
611
330
527
100
AcDbEntity
  8
Dimension (ANSI)
440
 16777216
100
AcDbMText
 10
73.94228778872508
 20
50.14151113876204
 30
0.0
 40
0.9600000381469726
 41
0.0
 46
0.0
 71
     4
 72
     1
  1
\A1;0.88{\PTYP.}
  7
Note Text (ANSI)
 73
     1
 44
1.0
  0
POINT
  5
612
330
527
100
AcDbEntity
  8
Defpoints
 62
     0
440
 16777216
100
AcDbPoint
 10
71.67228234868353
 20
61.42229046281613
 30
0.0
  0
POINT
  5
613
330
527
100
AcDbEntity
  8
Defpoints
 62
     0
440
 16777216
100
AcDbPoint
 10
70.79728234868351
 20
63.32305939529086
 30
0.0
  0
POINT
  5
614
330
527
100
AcDbEntity
  8
Defpoints
 62
     0
440
 16777216
100
AcDbPoint
 10
70.79728234868351
 20
50.14151113876204
 30
0.0
  0
ENDBLK
  5
529
330
527
100
AcDbEntity
  8
0
100
AcDbBlockEnd
  0
BLOCK
  5
617
330
616
100
AcDbEntity
  8
0
100
AcDbBlockBegin
  2
*D5
 70
     1
 10
0.0
 20
0.0
 30
0.0
  3
*D5
  1

  0
LINE
  5
6F5
330
616
100
AcDbEntity
  8
Dimension (ANSI)
440
 16777216
100
AcDbLine
 10
21.45642506104187
 20
63.44805939529083
 30
0.0
 11
11.59576328746664
 21
63.44805939529084
 31
0.0
  0
LINE
  5
6F6
330
616
100
AcDbEntity
  8
Dimension (ANSI)
440
 16777216
100
AcDbLine
 10
21.45642506104189
 20
23.56805939529086
 30
0.0
 11
11.59576328746663
 21
23.56805939529086
 31
0.0
  0
LINE
  5
6F7
330
616
100
AcDbEntity
  8
Dimension (ANSI)
440
 16777216
100
AcDbLine
 10
12.59576328746664
 20
62.66065783832215
 30
0.0
 11
12.59576328746663
 21
44.26194866811212
 31
0.0
  0
LINE
  5
6F8
330
616
100
AcDbEntity
  8
Dimension (ANSI)
440
 16777216
100
AcDbLine
 10
12.59576328746663
 20
24.35546095225955
 30
0.0
 11
12.59576328746663
 21
42.75417012246956
 31
0.0
  0
SOLID
  5
6F9
330
616
100
AcDbEntity
  8
Dimension (ANSI)
440
 16777216
100
AcDbTrace
 10
12.46452969463852
 20
62.66065783832215
 30
0.0
 11
12.72699688029475
 21
62.66065783832215
 31
0.0
 12
12.59576328746664
 22
63.44805939529084
 32
0.0
 13
12.59576328746664
 23
63.44805939529084
 33
0.0
  0
SOLID
  5
6FA
330
616
100
AcDbEntity
  8
Dimension (ANSI)
440
 16777216
100
AcDbTrace
 10
12.46452969463851
 20
24.35546095225955
 30
0.0
 11
12.72699688029474
 21
24.35546095225955
 31
0.0
 12
12.59576328746663
 22
23.56805939529086
 32
0.0
 13
12.59576328746663
 23
23.56805939529086
 33
0.0
  0
MTEXT
  5
6FB
330
616
100
AcDbEntity
  8
Dimension (ANSI)
440
 16777216
100
AcDbMText
 10
11.00940997746051
 20
44.00998016417512
 30
0.0
 40
0.9600000381469726
 41
0.0
 46
0.0
 71
     1
 72
     1
  1
\A1;39.88
  7
Note Text (ANSI)
 73
     1
 44
1.0
  0
POINT
  5
6FC
330
616
100
AcDbEntity
  8
Defpoints
 62
     0
440
 16777216
100
AcDbPoint
 10
21.95642506104187
 20
63.44805939529083
 30
0.0
  0
POINT
  5
6FD
330
616
100
AcDbEntity
  8
Defpoints
 62
     0
440
 16777216
100
AcDbPoint
 10
21.95642506104189
 20
23.56805939529086
 30
0.0
  0
POINT
  5
6FE
330
616
100
AcDbEntity
  8
Defpoints
 62
     0
440
 16777216
100
AcDbPoint
 10
12.59576328746663
 20
23.56805939529086
 30
0.0
  0
ENDBLK
  5
618
330
616
100
AcDbEntity
  8
0
100
AcDbBlockEnd
  0
BLOCK
  5
701
330
700
100
AcDbEntity
  8
0
100
AcDbBlockBegin
  2
*D6
 70
     1
 10
0.0
 20
0.0
 30
0.0
  3
*D6
  1

  0
LINE
  5
7DF
330
700
100
AcDbEntity
  8
Dimension (ANSI)
440
 16777216
100
AcDbLine
 10
22.67138380030564
 20
63.07305939529083
 30
0.0
 11
22.67138380030564
 21
67.87529195971157
 31
0.0
  0
LINE
  5
7E0
330
700
100
AcDbEntity
  8
Dimension (ANSI)
440
 16777216
100
AcDbLine
 10
51.92138380030562
 20
63.07305939529083
 30
0.0
 11
51.92138380030562
 21
67.87529195971157
 31
0.0
  0
LINE
  5
7E1
330
700
100
AcDbEntity
  8
Dimension (ANSI)
440
 16777216
100
AcDbLine
 10
23.45878535727432
 20
66.87529195971158
 30
0.0
 11
35.4725683669661
 21
66.87529195971158
 31
0.0
  0
LINE
  5
7E2
330
700
100
AcDbEntity
  8
Dimension (ANSI)
440
 16777216
100
AcDbLine
 10
51.13398224333693
 20
66.87529195971158
 30
0.0
 11
39.12019923364516
 21
66.87529195971158
 31
0.0
  0
SOLID
  5
7E3
330
700
100
AcDbEntity
  8
Dimension (ANSI)
440
 16777216
100
AcDbTrace
 10
23.45878535727432
 20
67.00652555253968
 30
0.0
 11
23.45878535727432
 21
66.74405836688347
 31
0.0
 12
22.67138380030564
 22
66.87529195971158
 32
0.0
 13
22.67138380030564
 23
66.87529195971158
 33
0.0
  0
SOLID
  5
7E4
330
700
100
AcDbEntity
  8
Dimension (ANSI)
440
 16777216
100
AcDbTrace
 10
51.13398224333693
 20
67.00652555253968
 30
0.0
 11
51.13398224333693
 21
66.74405836688347
 31
0.0
 12
51.92138380030562
 22
66.87529195971158
 32
0.0
 13
51.92138380030562
 23
66.87529195971158
 33
0.0
  0
MTEXT
  5
7E5
330
700
100
AcDbEntity
  8
Dimension (ANSI)
440
 16777216
100
AcDbMText
 10
35.7245368709031
 20
67.37527854451537
 30
0.0
 40
0.9600000381469726
 41
0.0
 46
0.0
 71
     1
 72
     1
  1
\A1;29.25
  7
Note Text (ANSI)
 73
     1
 44
1.0
  0
POINT
  5
7E6
330
700
100
AcDbEntity
  8
Defpoints
 62
     0
440
 16777216
100
AcDbPoint
 10
22.67138380030564
 20
62.57305939529083
 30
0.0
  0
POINT
  5
7E7
330
700
100
AcDbEntity
  8
Defpoints
 62
     0
440
 16777216
100
AcDbPoint
 10
51.92138380030562
 20
62.57305939529083
 30
0.0
  0
POINT
  5
7E8
330
700
100
AcDbEntity
  8
Defpoints
 62
     0
440
 16777216
100
AcDbPoint
 10
51.92138380030562
 20
66.87529195971158
 30
0.0
  0
ENDBLK
  5
702
330
700
100
AcDbEntity
  8
0
100
AcDbBlockEnd
  0
BLOCK
  5
7EB
330
7EA
100
AcDbEntity
  8
0
100
AcDbBlockBegin
  2
*D7
 70
     1
 10
0.0
 20
0.0
 30
0.0
  3
*D7
  1

  0
LINE
  5
89C
330
7EA
100
AcDbEntity
  8
Dimension (ANSI)
440
 16777216
100
AcDbLine
 10
58.45386270550539
 20
29.95051812118954
 30
0.0
 11
57.42884252620656
 21
29.95051812118955
 31
0.0
  0
LINE
  5
89D
330
7EA
100
AcDbEntity
  8
Dimension (ANSI)
440
 16777216
100
AcDbLine
 10
57.42884252620656
 20
29.95051812118955
 30
0.0
 11
52.6772113396592
 21
25.19888693464413
 31
0.0
  0
MTEXT
  5
89E
330
7EA
100
AcDbEntity
  8
Dimension (ANSI)
440
 16777216
100
AcDbMText
 10
60.80432111114112
 20
29.95051812118954
 30
0.0
 40
0.9600000381469726
 41
0.0
 46
0.0
 71
     5
 72
     1
  1
\A1;∅0.563{\P(4 PL.)}
  7
Note Text (ANSI)
 73
     1
 44
1.0
  0
SOLID
  5
89F
330
7EA
100
AcDbEntity
  8
Dimension (ANSI)
440
 16777216
100
AcDbTrace
 10
52.58441517625098
 20
25.29168309805238
 30
0.0
 11
52.77000750306741
 21
25.10609077123588
 31
0.0
 12
52.12043435920968
 22
24.64210995419484
 32
0.0
 13
52.12043435920968
 23
24.64210995419484
 33
0.0
  0
LINE
  5
8A0
330
7EA
100
AcDbEntity
  8
Dimension (ANSI)
440
 16777216
100
AcDbLine
 10
51.2013838003056
 20
24.44305939529086
 30
0.0
 11
52.6413838003056
 21
24.44305939529085
 31
0.0
  0
LINE
  5
8A1
330
7EA
100
AcDbEntity
  8
Dimension (ANSI)
440
 16777216
100
AcDbLine
 10
51.9213838003056
 20
23.72305939529085
 30
0.0
 11
51.9213838003056
 21
25.16305939529085
 31
0.0
  0
POINT
  5
8A2
330
7EA
100
AcDbEntity
  8
Defpoints
 62
     0
440
 16777216
100
AcDbPoint
 10
52.12043435920968
 20
24.64210995419484
 30
0.0
  0
POINT
  5
8A3
330
7EA
100
AcDbEntity
  8
Defpoints
 62
     0
440
 16777216
100
AcDbPoint
 10
51.72233324140153
 20
24.24400883638686
 30
0.0
  0
ENDBLK
  5
7EC
330
7EA
100
AcDbEntity
  8
0
100
AcDbBlockEnd
  0
BLOCK
  5
8B2
330
8B1
100
AcDbEntity
  8
0
100
AcDbBlockBegin
  2
*D8
 70
     1
 10
0.0
 20
0.0
 30
0.0
  3
*D8
  1

  0
LINE
  5
990
330
8B1
100
AcDbEntity
  8
Dimension (ANSI)
440
 16777216
100
AcDbLine
 10
20.88988380030563
 20
62.57305939529083
 30
0.0
 11
17.24027750109305
 21
62.57305939529083
 31
0.0
  0
LINE
  5
991
330
8B1
100
AcDbEntity
  8
Dimension (ANSI)
440
 16777216
100
AcDbLine
 10
20.88988380030564
 20
24.44305939529086
 30
0.0
 11
17.24027750109304
 21
24.44305939529086
 31
0.0
  0
LINE
  5
992
330
8B1
100
AcDbEntity
  8
Dimension (ANSI)
440
 16777216
100
AcDbLine
 10
18.24027750109305
 20
61.78565783832214
 30
0.0
 11
18.24027750109305
 21
44.26194866811211
 31
0.0
  0
LINE
  5
993
330
8B1
100
AcDbEntity
  8
Dimension (ANSI)
440
 16777216
100
AcDbLine
 10
18.24027750109304
 20
25.23046095225955
 30
0.0
 11
18.24027750109305
 21
42.75417012246955
 31
0.0
  0
SOLID
  5
994
330
8B1
100
AcDbEntity
  8
Dimension (ANSI)
440
 16777216
100
AcDbTrace
 10
18.10904390826493
 20
61.78565783832214
 30
0.0
 11
18.37151109392116
 21
61.78565783832214
 31
0.0
 12
18.24027750109305
 22
62.57305939529083
 32
0.0
 13
18.24027750109305
 23
62.57305939529083
 33
0.0
  0
SOLID
  5
995
330
8B1
100
AcDbEntity
  8
Dimension (ANSI)
440
 16777216
100
AcDbTrace
 10
18.10904390826493
 20
25.23046095225955
 30
0.0
 11
18.37151109392116
 21
25.23046095225955
 31
0.0
 12
18.24027750109304
 22
24.44305939529086
 32
0.0
 13
18.24027750109304
 23
24.44305939529086
 33
0.0
  0
MTEXT
  5
996
330
8B1
100
AcDbEntity
  8
Dimension (ANSI)
440
 16777216
100
AcDbMText
 10
16.66746347965028
 20
44.00998016417512
 30
0.0
 40
0.9600000381469726
 41
0.0
 46
0.0
 71
     1
 72
     1
  1
\A1;38.13
  7
Note Text (ANSI)
 73
     1
 44
1.0
  0
POINT
  5
997
330
8B1
100
AcDbEntity
  8
Defpoints
 62
     0
440
 16777216
100
AcDbPoint
 10
21.38988380030564
 20
62.57305939529083
 30
0.0
  0
POINT
  5
998
330
8B1
100
AcDbEntity
  8
Defpoints
 62
     0
440
 16777216
100
AcDbPoint
 10
21.38988380030564
 20
24.44305939529086
 30
0.0
  0
POINT
  5
999
330
8B1
100
AcDbEntity
  8
Defpoints
 62
     0
440
 16777216
100
AcDbPoint
 10
18.24027750109304
 20
24.44305939529086
 30
0.0
  0
ENDBLK
  5
8B3
330
8B1
100
AcDbEntity
  8
0
100
AcDbBlockEnd
  0
BLOCK
  5
99C
330
99B
100
AcDbEntity
  8
0
100
AcDbBlockBegin
  2
*D9
 70
     1
 10
0.0
 20
0.0
 30
0.0
  3
*D9
  1

  0
LINE
  5
A8F
330
99B
100
AcDbEntity
  8
Dimension (ANSI)
440
 16777216
100
AcDbLine
 10
21.45642506104189
 20
23.56805939529086
 30
0.0
 11
19.51011100119673
 21
23.56805939529086
 31
0.0
  0
LINE
  5
A90
330
99B
100
AcDbEntity
  8
Dimension (ANSI)
440
 16777216
100
AcDbLine
 10
20.88988380030564
 20
24.44305939529086
 30
0.0
 11
19.51011100119674
 21
24.44305939529086
 31
0.0
  0
LINE
  5
A91
330
99B
100
AcDbEntity
  8
Dimension (ANSI)
440
 16777216
100
AcDbLine
 10
20.51011100119674
 20
25.23046095225955
 30
0.0
 11
20.51011100119674
 21
26.01786250922824
 31
0.0
  0
LINE
  5
A92
330
99B
100
AcDbEntity
  8
Dimension (ANSI)
440
 16777216
100
AcDbLine
 10
20.51011100119674
 20
22.78065783832217
 30
0.0
 11
20.51011100119674
 21
21.27207806823374
 31
0.0
  0
LINE
  5
A93
330
99B
100
AcDbEntity
  8
Dimension (ANSI)
440
 16777216
100
AcDbLine
 10
20.51011100119674
 20
21.27207806823374
 30
0.0
 11
19.72270944422804
 21
21.27207806823374
 31
0.0
  0
SOLID
  5
A94
330
99B
100
AcDbEntity
  8
Dimension (ANSI)
440
 16777216
100
AcDbTrace
 10
20.37887740836863
 20
25.23046095225955
 30
0.0
 11
20.64134459402485
 21
25.23046095225955
 31
0.0
 12
20.51011100119674
 22
24.44305939529086
 32
0.0
 13
20.51011100119674
 23
24.44305939529086
 33
0.0
  0
SOLID
  5
A95
330
99B
100
AcDbEntity
  8
Dimension (ANSI)
440
 16777216
100
AcDbTrace
 10
20.37887740836862
 20
22.78065783832217
 30
0.0
 11
20.64134459402485
 21
22.78065783832217
 31
0.0
 12
20.51011100119674
 22
23.56805939529086
 32
0.0
 13
20.51011100119674
 23
23.56805939529086
 33
0.0
  0
MTEXT
  5
A96
330
99B
100
AcDbEntity
  8
Dimension (ANSI)
440
 16777216
100
AcDbMText
 10
17.00981406189504
 20
21.77399883711801
 30
0.0
 40
0.9600000381469726
 41
0.0
 46
0.0
 71
     1
 72
     1
  1
\A1;0.88
  7
Note Text (ANSI)
 73
     1
 44
1.0
  0
POINT
  5
A97
330
99B
100
AcDbEntity
  8
Defpoints
 62
     0
440
 16777216
100
AcDbPoint
 10
21.95642506104189
 20
23.56805939529086
 30
0.0
  0
POINT
  5
A98
330
99B
100
AcDbEntity
  8
Defpoints
 62
     0
440
 16777216
100
AcDbPoint
 10
21.38988380030564
 20
24.44305939529086
 30
0.0
  0
POINT
  5
A99
330
99B
100
AcDbEntity
  8
Defpoints
 62
     0
440
 16777216
100
AcDbPoint
 10
20.51011100119674
 20
24.44305939529086
 30
0.0
  0
ENDBLK
  5
99D
330
99B
100
AcDbEntity
  8
0
100
AcDbBlockEnd
  0
BLOCK
  5
A9C
330
A9B
100
AcDbEntity
  8
0
100
AcDbBlockBegin
  2
*D10
 70
     1
 10
0.0
 20
0.0
 30
0.0
  3
*D10
  1

  0
LINE
  5
B7A
330
A9B
100
AcDbEntity
  8
Dimension (ANSI)
440
 16777216
100
AcDbLine
 10
21.79638380030564
 20
63.78801813455463
 30
0.0
 11
21.79638380030564
 21
71.46701565002321
 31
0.0
  0
LINE
  5
B7B
330
A9B
100
AcDbEntity
  8
Dimension (ANSI)
440
 16777216
100
AcDbLine
 10
52.79638380030561
 20
63.78801813455463
 30
0.0
 11
52.79638380030561
 21
71.46701565002321
 31
0.0
  0
LINE
  5
B7C
330
A9B
100
AcDbEntity
  8
Dimension (ANSI)
440
 16777216
100
AcDbLine
 10
22.58378535727433
 20
70.46701565002321
 30
0.0
 11
35.46096326248322
 21
70.46701565002321
 31
0.0
  0
LINE
  5
B7D
330
A9B
100
AcDbEntity
  8
Dimension (ANSI)
440
 16777216
100
AcDbLine
 10
52.00898224333693
 20
70.46701565002321
 30
0.0
 11
39.13180433812804
 21
70.46701565002321
 31
0.0
  0
SOLID
  5
B7E
330
A9B
100
AcDbEntity
  8
Dimension (ANSI)
440
 16777216
100
AcDbTrace
 10
22.58378535727433
 20
70.59824924285132
 30
0.0
 11
22.58378535727433
 21
70.33578205719511
 31
0.0
 12
21.79638380030564
 22
70.46701565002321
 32
0.0
 13
21.79638380030564
 23
70.46701565002321
 33
0.0
  0
SOLID
  5
B7F
330
A9B
100
AcDbEntity
  8
Dimension (ANSI)
440
 16777216
100
AcDbTrace
 10
52.00898224333693
 20
70.59824924285132
 30
0.0
 11
52.00898224333693
 21
70.33578205719511
 31
0.0
 12
52.79638380030561
 22
70.46701565002321
 32
0.0
 13
52.79638380030561
 23
70.46701565002321
 33
0.0
  0
MTEXT
  5
B80
330
A9B
100
AcDbEntity
  8
Dimension (ANSI)
440
 16777216
100
AcDbMText
 10
35.71293176642023
 20
70.96700223482701
 30
0.0
 40
0.9600000381469726
 41
0.0
 46
0.0
 71
     1
 72
     1
  1
\A1;31.00
  7
Note Text (ANSI)
 73
     1
 44
1.0
  0
POINT
  5
B81
330
A9B
100
AcDbEntity
  8
Defpoints
 62
     0
440
 16777216
100
AcDbPoint
 10
21.79638380030564
 20
63.28801813455463
 30
0.0
  0
POINT
  5
B82
330
A9B
100
AcDbEntity
  8
Defpoints
 62
     0
440
 16777216
100
AcDbPoint
 10
52.79638380030561
 20
63.28801813455463
 30
0.0
  0
POINT
  5
B83
330
A9B
100
AcDbEntity
  8
Defpoints
 62
     0
440
 16777216
100
AcDbPoint
 10
52.79638380030561
 20
70.46701565002321
 30
0.0
  0
ENDBLK
  5
A9D
330
A9B
100
AcDbEntity
  8
0
100
AcDbBlockEnd
  0
BLOCK
  5
B86
330
B85
100
AcDbEntity
  8
0
100
AcDbBlockBegin
  2
*D11
 70
     1
 10
0.0
 20
0.0
 30
0.0
  3
*D11
  1

  0
LINE
  5
C64
330
B85
100
AcDbEntity
  8
Dimension (ANSI)
440
 16777216
100
AcDbLine
 10
22.67138380030564
 20
64.35455939529084
 30
0.0
 11
22.67138380030564
 21
67.87529195971157
 31
0.0
  0
LINE
  5
C65
330
B85
100
AcDbEntity
  8
Dimension (ANSI)
440
 16777216
100
AcDbLine
 10
21.79638380030564
 20
63.78801813455463
 30
0.0
 11
21.79638380030564
 21
67.87529195971157
 31
0.0
  0
LINE
  5
C66
330
B85
100
AcDbEntity
  8
Dimension (ANSI)
440
 16777216
100
AcDbLine
 10
23.45878535727432
 20
66.87529195971158
 30
0.0
 11
24.24618691424301
 21
66.87529195971158
 31
0.0
  0
LINE
  5
C67
330
B85
100
AcDbEntity
  8
Dimension (ANSI)
440
 16777216
100
AcDbLine
 10
21.00898224333695
 20
66.87529195971158
 30
0.0
 11
19.18508418251645
 21
66.87529195971158
 31
0.0
  0
SOLID
  5
C68
330
B85
100
AcDbEntity
  8
Dimension (ANSI)
440
 16777216
100
AcDbTrace
 10
23.45878535727432
 20
67.00652555253968
 30
0.0
 11
23.45878535727432
 21
66.74405836688347
 31
0.0
 12
22.67138380030564
 22
66.87529195971158
 32
0.0
 13
22.67138380030564
 23
66.87529195971158
 33
0.0
  0
SOLID
  5
C69
330
B85
100
AcDbEntity
  8
Dimension (ANSI)
440
 16777216
100
AcDbTrace
 10
21.00898224333695
 20
67.00652555253968
 30
0.0
 11
21.00898224333695
 21
66.74405836688347
 31
0.0
 12
21.79638380030564
 22
66.87529195971158
 32
0.0
 13
21.79638380030564
 23
66.87529195971158
 33
0.0
  0
MTEXT
  5
C6A
330
B85
100
AcDbEntity
  8
Dimension (ANSI)
440
 16777216
100
AcDbMText
 10
16.47218880018345
 20
67.37721272859585
 30
0.0
 40
0.9600000381469726
 41
0.0
 46
0.0
 71
     1
 72
     1
  1
\A1;0.88
  7
Note Text (ANSI)
 73
     1
 44
1.0
  0
POINT
  5
C6B
330
B85
100
AcDbEntity
  8
Defpoints
 62
     0
440
 16777216
100
AcDbPoint
 10
22.67138380030564
 20
63.85455939529084
 30
0.0
  0
POINT
  5
C6C
330
B85
100
AcDbEntity
  8
Defpoints
 62
     0
440
 16777216
100
AcDbPoint
 10
21.79638380030564
 20
63.28801813455463
 30
0.0
  0
POINT
  5
C6D
330
B85
100
AcDbEntity
  8
Defpoints
 62
     0
440
 16777216
100
AcDbPoint
 10
21.79638380030564
 20
66.87529195971158
 30
0.0
  0
ENDBLK
  5
B87
330
B85
100
AcDbEntity
  8
0
100
AcDbBlockEnd
  0
BLOCK
  5
C70
330
C6F
100
AcDbEntity
  8
0
100
AcDbBlockBegin
  2
*D12
 70
     1
 10
0.0
 20
0.0
 30
0.0
  3
*D12
  1

  0
LINE
  5
D6E
330
C6F
100
AcDbEntity
  8
Dimension (ANSI)
440
 16777216
100
AcDbLine
 10
46.86481644596423
 20
78.89164428990503
 30
0.0
 11
46.86481644596423
 21
78.10424273293634
 31
0.0
  0
LINE
  5
D6F
330
C6F
100
AcDbEntity
  8
Dimension (ANSI)
440
 16777216
100
AcDbLine
 10
46.86481644596423
 20
81.34144740384245
 30
0.0
 11
46.86481644596423
 21
84.54535726459356
 31
0.0
  0
LINE
  5
D70
330
C6F
100
AcDbEntity
  8
Dimension (ANSI)
440
 16777216
100
AcDbLine
 10
46.86481644596423
 20
84.54535726459356
 30
0.0
 11
47.65221800293292
 21
84.54535726459356
 31
0.0
  0
SOLID
  5
D71
330
C6F
100
AcDbEntity
  8
Dimension (ANSI)
440
 16777216
100
AcDbTrace
 10
46.73358285313611
 20
78.89164428990503
 30
0.0
 11
46.99605003879234
 21
78.89164428990503
 31
0.0
 12
46.86481644596423
 22
79.67904584687372
 32
0.0
 13
46.86481644596423
 23
79.67904584687372
 33
0.0
  0
SOLID
  5
D72
330
C6F
100
AcDbEntity
  8
Dimension (ANSI)
440
 16777216
100
AcDbTrace
 10
46.73358285313612
 20
81.34144740384245
 30
0.0
 11
46.99605003879235
 21
81.34144740384245
 31
0.0
 12
46.86481644596423
 22
80.55404584687376
 32
0.0
 13
46.86481644596423
 23
80.55404584687376
 33
0.0
  0
MTEXT
  5
D73
330
C6F
100
AcDbEntity
  8
Dimension (ANSI)
440
 16777216
100
AcDbMText
 10
47.90418650686992
 20
85.19083747670228
 30
0.0
 40
0.9600000381469726
 41
0.0
 46
0.0
 71
     1
 72
     1
  1
\A1;0.88{\PTYP.}
  7
Note Text (ANSI)
 73
     1
 44
1.0
  0
POINT
  5
D74
330
C6F
100
AcDbEntity
  8
Defpoints
 62
     0
440
 16777216
100
AcDbPoint
 10
49.17236653563726
 20
80.55404584687376
 30
0.0
  0
POINT
  5
D75
330
C6F
100
AcDbEntity
  8
Defpoints
 62
     0
440
 16777216
100
AcDbPoint
 10
49.17236653563727
 20
79.67904584687372
 30
0.0
  0
POINT
  5
D76
330
C6F
100
AcDbEntity
  8
Defpoints
 62
     0
440
 16777216
100
AcDbPoint
 10
46.86481644596423
 20
79.67904584687372
 30
0.0
  0
ENDBLK
  5
C71
330
C6F
100
AcDbEntity
  8
0
100
AcDbBlockEnd
  0
ENDSEC
  0
SECTION
  2
ENTITIES
  0
CIRCLE
  5
11B
330
6C
100
AcDbEntity
  8
Visible (ANSI)
100
AcDbCircle
 10
51.92138380030562
 20
24.44305939529086
 30
0.0
 40
0.2814999999999999
  0
CIRCLE
  5
11C
330
6C
100
AcDbEntity
  8
Visible (ANSI)
100
AcDbCircle
 10
51.92138380030562
 20
62.57305939529083
 30
0.0
 40
0.2814999999999999
  0
CIRCLE
  5
11D
330
6C
100
AcDbEntity
  8
Visible (ANSI)
100
AcDbCircle
 10
22.67138380030564
 20
24.44305939529086
 30
0.0
 40
0.2814999999999999
  0
CIRCLE
  5
11E
330
6C
100
AcDbEntity
  8
Visible (ANSI)
100
AcDbCircle
 10
22.67138380030564
 20
62.57305939529083
 30
0.0
 40
0.2814999999999999
  0
LINE
  5
11F
330
6C
100
AcDbEntity
  8
Visible (ANSI)
100
AcDbLine
 10
52.79638380030561
 20
63.28801813455463
 30
0.0
 11
52.79638380030562
 21
23.72810065602711
 31
0.0
  0
LINE
  5
120
330
6C
100
AcDbEntity
  8
Visible (ANSI)
100
AcDbLine
 10
21.95642506104187
 20
63.44805939529083
 30
0.0
 11
52.6363425395694
 21
63.44805939529085
 31
0.0
  0
LINE
  5
121
330
6C
100
AcDbEntity
  8
Visible (ANSI)
100
AcDbLine
 10
21.79638380030565
 20
23.7281006560271
 30
0.0
 11
21.79638380030564
 21
63.28801813455463
 31
0.0
  0
LINE
  5
122
330
6C
100
AcDbEntity
  8
Visible (ANSI)
100
AcDbLine
 10
52.6363425395694
 20
23.56805939529086
 30
0.0
 11
21.95642506104189
 21
23.56805939529086
 31
0.0
  0
LINE
  5
123
330
6C
100
AcDbEntity
  8
Hidden (ANSI)
100
AcDbLine
 10
52.70263380030564
 20
23.72810065602711
 30
0.0
 11
52.70263380030562
 21
63.28801813455463
 31
0.0
  0
LINE
  5
124
330
6C
100
AcDbEntity
  8
Hidden (ANSI)
100
AcDbLine
 10
52.6363425395694
 20
63.35430939529086
 30
0.0
 11
21.95642506104187
 21
63.35430939529083
 31
0.0
  0
LINE
  5
125
330
6C
100
AcDbEntity
  8
Hidden (ANSI)
100
AcDbLine
 10
21.89013380030564
 20
63.28801813455463
 30
0.0
 11
21.89013380030565
 21
23.7281006560271
 31
0.0
  0
LINE
  5
126
330
6C
100
AcDbEntity
  8
Hidden (ANSI)
100
AcDbLine
 10
21.95642506104189
 20
23.66180939529086
 30
0.0
 11
52.6363425395694
 21
23.66180939529086
 31
0.0
  0
POLYLINE
  5
127
330
6C
100
AcDbEntity
  8
Visible (ANSI)
100
AcDb2dPolyline
 66
     1
 10
0.0
 20
0.0
 30
0.0
 70
   128
  0
VERTEX
  5
128
330
127
100
AcDbEntity
  8
Visible (ANSI)
100
AcDbVertex
100
AcDb2dVertex
 10
52.67138404060154
 20
63.3230591117417
 30
0.0
  0
VERTEX
  5
129
330
127
100
AcDbEntity
  8
Visible (ANSI)
100
AcDbVertex
100
AcDb2dVertex
 10
52.67956010828424
 20
63.32159931420541
 30
0.0
  0
VERTEX
  5
12B
330
127
100
AcDbEntity
  8
Visible (ANSI)
100
AcDbVertex
100
AcDb2dVertex
 10
52.68770013158333
 20
63.32013951666912
 30
0.0
  0
VERTEX
  5
12C
330
127
100
AcDbEntity
  8
Visible (ANSI)
100
AcDbVertex
100
AcDb2dVertex
 10
52.69577106981383
 20
63.31867971913283
 30
0.0
  0
VERTEX
  5
12D
330
127
100
AcDbEntity
  8
Visible (ANSI)
100
AcDbVertex
100
AcDb2dVertex
 10
52.70373687859212
 20
63.31721992159653
 30
0.0
  0
VERTEX
  5
12E
330
127
100
AcDbEntity
  8
Visible (ANSI)
100
AcDbVertex
100
AcDb2dVertex
 10
52.71156451723324
 20
63.31576012406024
 30
0.0
  0
VERTEX
  5
12F
330
127
100
AcDbEntity
  8
Visible (ANSI)
100
AcDbVertex
100
AcDb2dVertex
 10
52.71921794135357
 20
63.31430032652394
 30
0.0
  0
VERTEX
  5
130
330
127
100
AcDbEntity
  8
Visible (ANSI)
100
AcDbVertex
100
AcDb2dVertex
 10
52.72667011766539
 20
63.31284052898765
 30
0.0
  0
VERTEX
  5
131
330
127
100
AcDbEntity
  8
Visible (ANSI)
100
AcDbVertex
100
AcDb2dVertex
 10
52.73388500178509
 20
63.31137772775272
 30
0.0
  0
VERTEX
  5
132
330
127
100
AcDbEntity
  8
Visible (ANSI)
100
AcDbVertex
100
AcDb2dVertex
 10
52.74082955302771
 20
63.30991793021643
 30
0.0
  0
VERTEX
  5
133
330
127
100
AcDbEntity
  8
Visible (ANSI)
100
AcDbVertex
100
AcDb2dVertex
 10
52.74747974180417
 20
63.30845813268012
 30
0.0
  0
VERTEX
  5
134
330
127
100
AcDbEntity
  8
Visible (ANSI)
100
AcDbVertex
100
AcDb2dVertex
 10
52.75380252742948
 20
63.30699833514383
 30
0.0
  0
VERTEX
  5
135
330
127
100
AcDbEntity
  8
Visible (ANSI)
100
AcDbVertex
100
AcDb2dVertex
 10
52.75977087661593
 20
63.30553853760754
 30
0.0
  0
VERTEX
  5
136
330
127
100
AcDbEntity
  8
Visible (ANSI)
100
AcDbVertex
100
AcDb2dVertex
 10
52.76536376347308
 20
63.30407874007125
 30
0.0
  0
VERTEX
  5
137
330
127
100
AcDbEntity
  8
Visible (ANSI)
100
AcDbVertex
100
AcDb2dVertex
 10
52.77055415471325
 20
63.30261894253496
 30
0.0
  0
VERTEX
  5
138
330
127
100
AcDbEntity
  8
Visible (ANSI)
100
AcDbVertex
100
AcDb2dVertex
 10
52.77531802074733
 20
63.30115914499866
 30
0.0
  0
VERTEX
  5
139
330
127
100
AcDbEntity
  8
Visible (ANSI)
100
AcDbVertex
100
AcDb2dVertex
 10
52.77963733938353
 20
63.29969934746237
 30
0.0
  0
VERTEX
  5
13A
330
127
100
AcDbEntity
  8
Visible (ANSI)
100
AcDbVertex
100
AcDb2dVertex
 10
52.78349408843003
 20
63.29823954992607
 30
0.0
  0
VERTEX
  5
13B
330
127
100
AcDbEntity
  8
Visible (ANSI)
100
AcDbVertex
100
AcDb2dVertex
 10
52.78686724199641
 20
63.29677975238977
 30
0.0
  0
VERTEX
  5
13C
330
127
100
AcDbEntity
  8
Visible (ANSI)
100
AcDbVertex
100
AcDb2dVertex
 10
52.78975079268538
 20
63.29531695115484
 30
0.0
  0
VERTEX
  5
13D
330
127
100
AcDbEntity
  8
Visible (ANSI)
100
AcDbVertex
100
AcDb2dVertex
 10
52.79212371460651
 20
63.29385715361855
 30
0.0
  0
VERTEX
  5
13E
330
127
100
AcDbEntity
  8
Visible (ANSI)
100
AcDbVertex
100
AcDb2dVertex
 10
52.79398300406118
 20
63.29239735608226
 30
0.0
  0
VERTEX
  5
13F
330
127
100
AcDbEntity
  8
Visible (ANSI)
100
AcDbVertex
100
AcDb2dVertex
 10
52.7953136425562
 20
63.29093755854596
 30
0.0
  0
VERTEX
  5
140
330
127
100
AcDbEntity
  8
Visible (ANSI)
100
AcDbVertex
100
AcDb2dVertex
 10
52.79611563009157
 20
63.28947776100967
 30
0.0
  0
VERTEX
  5
141
330
127
100
AcDbEntity
  8
Visible (ANSI)
100
AcDbVertex
100
AcDb2dVertex
 10
52.79638295927003
 20
63.28801796347338
 30
0.0
  0
SEQEND
  5
12A
330
127
100
AcDbEntity
  8
Visible (ANSI)
  0
POLYLINE
  5
142
330
6C
100
AcDbEntity
  8
Visible (ANSI)
100
AcDb2dPolyline
 66
     1
 10
0.0
 20
0.0
 30
0.0
 70
   128
  0
VERTEX
  5
143
330
142
100
AcDbEntity
  8
Visible (ANSI)
100
AcDbVertex
100
AcDb2dVertex
 10
52.79638295927003
 20
23.72810065901386
 30
0.0
  0
VERTEX
  5
144
330
142
100
AcDbEntity
  8
Visible (ANSI)
100
AcDbVertex
100
AcDb2dVertex
 10
52.79611563009157
 20
23.72664060334721
 30
0.0
  0
VERTEX
  5
146
330
142
100
AcDbEntity
  8
Visible (ANSI)
100
AcDbVertex
100
AcDb2dVertex
 10
52.7953136425562
 20
23.72518054768057
 30
0.0
  0
VERTEX
  5
147
330
142
100
AcDbEntity
  8
Visible (ANSI)
100
AcDbVertex
100
AcDb2dVertex
 10
52.79398300406118
 20
23.72372050374712
 30
0.0
  0
VERTEX
  5
148
330
142
100
AcDbEntity
  8
Visible (ANSI)
100
AcDbVertex
100
AcDb2dVertex
 10
52.79212371460651
 20
23.72226044808047
 30
0.0
  0
VERTEX
  5
149
330
142
100
AcDbEntity
  8
Visible (ANSI)
100
AcDbVertex
100
AcDb2dVertex
 10
52.78975079268538
 20
23.72080039241383
 30
0.0
  0
VERTEX
  5
14A
330
142
100
AcDbEntity
  8
Visible (ANSI)
100
AcDbVertex
100
AcDb2dVertex
 10
52.78686724199641
 20
23.71934033674718
 30
0.0
  0
VERTEX
  5
14B
330
142
100
AcDbEntity
  8
Visible (ANSI)
100
AcDbVertex
100
AcDb2dVertex
 10
52.78349408843003
 20
23.71788029281374
 30
0.0
  0
VERTEX
  5
14C
330
142
100
AcDbEntity
  8
Visible (ANSI)
100
AcDbVertex
100
AcDb2dVertex
 10
52.77963733938353
 20
23.71642023714709
 30
0.0
  0
VERTEX
  5
14D
330
142
100
AcDbEntity
  8
Visible (ANSI)
100
AcDbVertex
100
AcDb2dVertex
 10
52.77531802074733
 20
23.71496018148044
 30
0.0
  0
VERTEX
  5
14E
330
142
100
AcDbEntity
  8
Visible (ANSI)
100
AcDbVertex
100
AcDb2dVertex
 10
52.77055415471325
 20
23.7135001258138
 30
0.0
  0
VERTEX
  5
14F
330
142
100
AcDbEntity
  8
Visible (ANSI)
100
AcDbVertex
100
AcDb2dVertex
 10
52.76536376347308
 20
23.71204008188035
 30
0.0
  0
VERTEX
  5
150
330
142
100
AcDbEntity
  8
Visible (ANSI)
100
AcDbVertex
100
AcDb2dVertex
 10
52.75977087661593
 20
23.7105800262137
 30
0.0
  0
VERTEX
  5
151
330
142
100
AcDbEntity
  8
Visible (ANSI)
100
AcDbVertex
100
AcDb2dVertex
 10
52.75380252742948
 20
23.70911997054706
 30
0.0
  0
VERTEX
  5
152
330
142
100
AcDbEntity
  8
Visible (ANSI)
100
AcDbVertex
100
AcDb2dVertex
 10
52.74747974180417
 20
23.70765991488041
 30
0.0
  0
VERTEX
  5
153
330
142
100
AcDbEntity
  8
Visible (ANSI)
100
AcDbVertex
100
AcDb2dVertex
 10
52.74082955302771
 20
23.70619987094697
 30
0.0
  0
VERTEX
  5
154
330
142
100
AcDbEntity
  8
Visible (ANSI)
100
AcDbVertex
100
AcDb2dVertex
 10
52.73388500178509
 20
23.70473981528032
 30
0.0
  0
VERTEX
  5
155
330
142
100
AcDbEntity
  8
Visible (ANSI)
100
AcDbVertex
100
AcDb2dVertex
 10
52.72667011766539
 20
23.70327975961367
 30
0.0
  0
VERTEX
  5
156
330
142
100
AcDbEntity
  8
Visible (ANSI)
100
AcDbVertex
100
AcDb2dVertex
 10
52.71921794135357
 20
23.70181971568023
 30
0.0
  0
VERTEX
  5
157
330
142
100
AcDbEntity
  8
Visible (ANSI)
100
AcDbVertex
100
AcDb2dVertex
 10
52.71156451723324
 20
23.70035966001358
 30
0.0
  0
VERTEX
  5
158
330
142
100
AcDbEntity
  8
Visible (ANSI)
100
AcDbVertex
100
AcDb2dVertex
 10
52.70373687859212
 20
23.69889960434694
 30
0.0
  0
VERTEX
  5
159
330
142
100
AcDbEntity
  8
Visible (ANSI)
100
AcDbVertex
100
AcDb2dVertex
 10
52.69577106981383
 20
23.69743954868029
 30
0.0
  0
VERTEX
  5
15A
330
142
100
AcDbEntity
  8
Visible (ANSI)
100
AcDbVertex
100
AcDb2dVertex
 10
52.68770013158333
 20
23.69597950474684
 30
0.0
  0
VERTEX
  5
15B
330
142
100
AcDbEntity
  8
Visible (ANSI)
100
AcDbVertex
100
AcDb2dVertex
 10
52.67956010828424
 20
23.6945194490802
 30
0.0
  0
VERTEX
  5
15C
330
142
100
AcDbEntity
  8
Visible (ANSI)
100
AcDbVertex
100
AcDb2dVertex
 10
52.67138404060154
 20
23.69305939341355
 30
0.0
  0
SEQEND
  5
145
330
142
100
AcDbEntity
  8
Visible (ANSI)
  0
POLYLINE
  5
15D
330
6C
100
AcDbEntity
  8
Visible (ANSI)
100
AcDb2dPolyline
 66
     1
 10
0.0
 20
0.0
 30
0.0
 70
   128
  0
VERTEX
  5
15E
330
15D
100
AcDbEntity
  8
Visible (ANSI)
100
AcDbVertex
100
AcDb2dVertex
 10
21.92138379842834
 20
63.3230591117417
 30
0.0
  0
VERTEX
  5
15F
330
15D
100
AcDbEntity
  8
Visible (ANSI)
100
AcDbVertex
100
AcDb2dVertex
 10
21.92284385409498
 20
63.33123517942441
 30
0.0
  0
VERTEX
  5
161
330
15D
100
AcDbEntity
  8
Visible (ANSI)
100
AcDbVertex
100
AcDb2dVertex
 10
21.92430390976163
 20
63.3393752027235
 30
0.0
  0
VERTEX
  5
162
330
15D
100
AcDbEntity
  8
Visible (ANSI)
100
AcDbVertex
100
AcDb2dVertex
 10
21.92576395369508
 20
63.347446140954
 30
0.0
  0
VERTEX
  5
163
330
15D
100
AcDbEntity
  8
Visible (ANSI)
100
AcDbVertex
100
AcDb2dVertex
 10
21.92722400936172
 20
63.3554119497323
 30
0.0
  0
VERTEX
  5
164
330
15D
100
AcDbEntity
  8
Visible (ANSI)
100
AcDbVertex
100
AcDb2dVertex
 10
21.92868406502837
 20
63.36323958837341
 30
0.0
  0
VERTEX
  5
165
330
15D
100
AcDbEntity
  8
Visible (ANSI)
100
AcDbVertex
100
AcDb2dVertex
 10
21.93014412069501
 20
63.37089601619237
 30
0.0
  0
VERTEX
  5
166
330
15D
100
AcDbEntity
  8
Visible (ANSI)
100
AcDbVertex
100
AcDb2dVertex
 10
21.93160416462846
 20
63.37834518880556
 30
0.0
  0
VERTEX
  5
167
330
15D
100
AcDbEntity
  8
Visible (ANSI)
100
AcDbVertex
100
AcDb2dVertex
 10
21.93306422029511
 20
63.38556007292527
 30
0.0
  0
VERTEX
  5
168
330
15D
100
AcDbEntity
  8
Visible (ANSI)
100
AcDbVertex
100
AcDb2dVertex
 10
21.93452427596175
 20
63.39250462416789
 30
0.0
  0
VERTEX
  5
169
330
15D
100
AcDbEntity
  8
Visible (ANSI)
100
AcDbVertex
100
AcDb2dVertex
 10
21.9359843198952
 20
63.39915481294434
 30
0.0
  0
VERTEX
  5
16A
330
15D
100
AcDbEntity
  8
Visible (ANSI)
100
AcDbVertex
100
AcDb2dVertex
 10
21.93744437556185
 20
63.40547759856964
 30
0.0
  0
VERTEX
  5
16B
330
15D
100
AcDbEntity
  8
Visible (ANSI)
100
AcDbVertex
100
AcDb2dVertex
 10
21.9389044312285
 20
63.41144895145474
 30
0.0
  0
VERTEX
  5
16C
330
15D
100
AcDbEntity
  8
Visible (ANSI)
100
AcDbVertex
100
AcDb2dVertex
 10
21.94036448689514
 20
63.41703883461327
 30
0.0
  0
VERTEX
  5
16D
330
15D
100
AcDbEntity
  8
Visible (ANSI)
100
AcDbVertex
100
AcDb2dVertex
 10
21.94182453082859
 20
63.42222922585342
 30
0.0
  0
VERTEX
  5
16E
330
15D
100
AcDbEntity
  8
Visible (ANSI)
100
AcDbVertex
100
AcDb2dVertex
 10
21.94328458649523
 20
63.4269930918875
 30
0.0
  0
VERTEX
  5
16F
330
15D
100
AcDbEntity
  8
Visible (ANSI)
100
AcDbVertex
100
AcDb2dVertex
 10
21.94474464216188
 20
63.43131241052369
 30
0.0
  0
VERTEX
  5
170
330
15D
100
AcDbEntity
  8
Visible (ANSI)
100
AcDbVertex
100
AcDb2dVertex
 10
21.94620469782853
 20
63.4351691595702
 30
0.0
  0
VERTEX
  5
171
330
15D
100
AcDbEntity
  8
Visible (ANSI)
100
AcDbVertex
100
AcDb2dVertex
 10
21.94766474176197
 20
63.43854531683521
 30
0.0
  0
VERTEX
  5
172
330
15D
100
AcDbEntity
  8
Visible (ANSI)
100
AcDbVertex
100
AcDb2dVertex
 10
21.94912479742862
 20
63.44142586382556
 30
0.0
  0
VERTEX
  5
173
330
15D
100
AcDbEntity
  8
Visible (ANSI)
100
AcDbVertex
100
AcDb2dVertex
 10
21.95058485309526
 20
63.44379878574669
 30
0.0
  0
VERTEX
  5
174
330
15D
100
AcDbEntity
  8
Visible (ANSI)
100
AcDbVertex
100
AcDb2dVertex
 10
21.95204490876191
 20
63.44565807520135
 30
0.0
  0
VERTEX
  5
175
330
15D
100
AcDbEntity
  8
Visible (ANSI)
100
AcDbVertex
100
AcDb2dVertex
 10
21.95350495269535
 20
63.44698871369637
 30
0.0
  0
VERTEX
  5
176
330
15D
100
AcDbEntity
  8
Visible (ANSI)
100
AcDbVertex
100
AcDb2dVertex
 10
21.954965008362
 20
63.44779070123174
 30
0.0
  0
VERTEX
  5
177
330
15D
100
AcDbEntity
  8
Visible (ANSI)
100
AcDbVertex
100
AcDb2dVertex
 10
21.95642506402865
 20
63.4480580304102
 30
0.0
  0
SEQEND
  5
160
330
15D
100
AcDbEntity
  8
Visible (ANSI)
  0
POLYLINE
  5
178
330
6C
100
AcDbEntity
  8
Visible (ANSI)
100
AcDb2dPolyline
 66
     1
 10
0.0
 20
0.0
 30
0.0
 70
   128
  0
VERTEX
  5
179
330
178
100
AcDbEntity
  8
Visible (ANSI)
100
AcDbVertex
100
AcDb2dVertex
 10
52.6363428923332
 20
63.4480580304102
 30
0.0
  0
VERTEX
  5
17A
330
178
100
AcDbEntity
  8
Visible (ANSI)
100
AcDbVertex
100
AcDb2dVertex
 10
52.6378026898695
 20
63.44779070123174
 30
0.0
  0
VERTEX
  5
17C
330
178
100
AcDbEntity
  8
Visible (ANSI)
100
AcDbVertex
100
AcDb2dVertex
 10
52.63926248740579
 20
63.44698871369637
 30
0.0
  0
VERTEX
  5
17D
330
178
100
AcDbEntity
  8
Visible (ANSI)
100
AcDbVertex
100
AcDb2dVertex
 10
52.64072228494208
 20
63.44565807520135
 30
0.0
  0
VERTEX
  5
17E
330
178
100
AcDbEntity
  8
Visible (ANSI)
100
AcDbVertex
100
AcDb2dVertex
 10
52.64218208247839
 20
63.44379878574669
 30
0.0
  0
VERTEX
  5
17F
330
178
100
AcDbEntity
  8
Visible (ANSI)
100
AcDbVertex
100
AcDb2dVertex
 10
52.64364188001468
 20
63.44142586382556
 30
0.0
  0
VERTEX
  5
180
330
178
100
AcDbEntity
  8
Visible (ANSI)
100
AcDbVertex
100
AcDb2dVertex
 10
52.64510167755097
 20
63.43854531683521
 30
0.0
  0
VERTEX
  5
181
330
178
100
AcDbEntity
  8
Visible (ANSI)
100
AcDbVertex
100
AcDb2dVertex
 10
52.64656147508727
 20
63.4351691595702
 30
0.0
  0
VERTEX
  5
182
330
178
100
AcDbEntity
  8
Visible (ANSI)
100
AcDbVertex
100
AcDb2dVertex
 10
52.64802427632219
 20
63.43131241052369
 30
0.0
  0
VERTEX
  5
183
330
178
100
AcDbEntity
  8
Visible (ANSI)
100
AcDbVertex
100
AcDb2dVertex
 10
52.64948407385849
 20
63.4269930918875
 30
0.0
  0
VERTEX
  5
184
330
178
100
AcDbEntity
  8
Visible (ANSI)
100
AcDbVertex
100
AcDb2dVertex
 10
52.65094387139478
 20
63.42222922585342
 30
0.0
  0
VERTEX
  5
185
330
178
100
AcDbEntity
  8
Visible (ANSI)
100
AcDbVertex
100
AcDb2dVertex
 10
52.65240366893108
 20
63.41703883461327
 30
0.0
  0
VERTEX
  5
186
330
178
100
AcDbEntity
  8
Visible (ANSI)
100
AcDbVertex
100
AcDb2dVertex
 10
52.65386346646737
 20
63.41144895145474
 30
0.0
  0
VERTEX
  5
187
330
178
100
AcDbEntity
  8
Visible (ANSI)
100
AcDbVertex
100
AcDb2dVertex
 10
52.65532326400366
 20
63.40547759856964
 30
0.0
  0
VERTEX
  5
188
330
178
100
AcDbEntity
  8
Visible (ANSI)
100
AcDbVertex
100
AcDb2dVertex
 10
52.65678306153996
 20
63.39915481294434
 30
0.0
  0
VERTEX
  5
189
330
178
100
AcDbEntity
  8
Visible (ANSI)
100
AcDbVertex
100
AcDb2dVertex
 10
52.65824285907625
 20
63.39250462416789
 30
0.0
  0
VERTEX
  5
18A
330
178
100
AcDbEntity
  8
Visible (ANSI)
100
AcDbVertex
100
AcDb2dVertex
 10
52.65970265661255
 20
63.38556007292527
 30
0.0
  0
VERTEX
  5
18B
330
178
100
AcDbEntity
  8
Visible (ANSI)
100
AcDbVertex
100
AcDb2dVertex
 10
52.66116245414885
 20
63.37834518880556
 30
0.0
  0
VERTEX
  5
18C
330
178
100
AcDbEntity
  8
Visible (ANSI)
100
AcDbVertex
100
AcDb2dVertex
 10
52.66262225168514
 20
63.37089601619237
 30
0.0
  0
VERTEX
  5
18D
330
178
100
AcDbEntity
  8
Visible (ANSI)
100
AcDbVertex
100
AcDb2dVertex
 10
52.66408204922143
 20
63.36323958837341
 30
0.0
  0
VERTEX
  5
18E
330
178
100
AcDbEntity
  8
Visible (ANSI)
100
AcDbVertex
100
AcDb2dVertex
 10
52.66554485045635
 20
63.3554119497323
 30
0.0
  0
VERTEX
  5
18F
330
178
100
AcDbEntity
  8
Visible (ANSI)
100
AcDbVertex
100
AcDb2dVertex
 10
52.66700464799265
 20
63.347446140954
 30
0.0
  0
VERTEX
  5
190
330
178
100
AcDbEntity
  8
Visible (ANSI)
100
AcDbVertex
100
AcDb2dVertex
 10
52.66846444552895
 20
63.3393752027235
 30
0.0
  0
VERTEX
  5
191
330
178
100
AcDbEntity
  8
Visible (ANSI)
100
AcDbVertex
100
AcDb2dVertex
 10
52.66992424306525
 20
63.33123517942441
 30
0.0
  0
VERTEX
  5
192
330
178
100
AcDbEntity
  8
Visible (ANSI)
100
AcDbVertex
100
AcDb2dVertex
 10
52.67138404060154
 20
63.3230591117417
 30
0.0
  0
SEQEND
  5
17B
330
178
100
AcDbEntity
  8
Visible (ANSI)
  0
POLYLINE
  5
193
330
6C
100
AcDbEntity
  8
Visible (ANSI)
100
AcDb2dPolyline
 66
     1
 10
0.0
 20
0.0
 30
0.0
 70
   128
  0
VERTEX
  5
194
330
193
100
AcDbEntity
  8
Visible (ANSI)
100
AcDbVertex
100
AcDb2dVertex
 10
21.92138379842834
 20
23.69305939341355
 30
0.0
  0
VERTEX
  5
195
330
193
100
AcDbEntity
  8
Visible (ANSI)
100
AcDbVertex
100
AcDb2dVertex
 10
21.91320841127111
 20
23.6945194490802
 30
0.0
  0
VERTEX
  5
197
330
193
100
AcDbEntity
  8
Visible (ANSI)
100
AcDbVertex
100
AcDb2dVertex
 10
21.90506802424289
 20
23.69597950474684
 30
0.0
  0
VERTEX
  5
198
330
193
100
AcDbEntity
  8
Visible (ANSI)
100
AcDbVertex
100
AcDb2dVertex
 10
21.89699750840751
 20
23.69743954868029
 30
0.0
  0
VERTEX
  5
199
330
193
100
AcDbEntity
  8
Visible (ANSI)
100
AcDbVertex
100
AcDb2dVertex
 10
21.88903141803246
 20
23.69889960434694
 30
0.0
  0
VERTEX
  5
19A
330
193
100
AcDbEntity
  8
Visible (ANSI)
100
AcDbVertex
100
AcDb2dVertex
 10
21.88120386739033
 20
23.70035966001358
 30
0.0
  0
VERTEX
  5
19B
330
193
100
AcDbEntity
  8
Visible (ANSI)
100
AcDbVertex
100
AcDb2dVertex
 10
21.8735483723606
 20
23.70181971568023
 30
0.0
  0
VERTEX
  5
19C
330
193
100
AcDbEntity
  8
Visible (ANSI)
100
AcDbVertex
100
AcDb2dVertex
 10
21.86609771549789
 20
23.70327975961367
 30
0.0
  0
VERTEX
  5
19D
330
193
100
AcDbEntity
  8
Visible (ANSI)
100
AcDbVertex
100
AcDb2dVertex
 10
21.85888379936699
 20
23.70473981528032
 30
0.0
  0
VERTEX
  5
19E
330
193
100
AcDbEntity
  8
Visible (ANSI)
100
AcDbVertex
100
AcDb2dVertex
 10
21.8519375233443
 20
23.70619987094697
 30
0.0
  0
VERTEX
  5
19F
330
193
100
AcDbEntity
  8
Visible (ANSI)
100
AcDbVertex
100
AcDb2dVertex
 10
21.8452886222863
 20
23.70765991488041
 30
0.0
  0
VERTEX
  5
1A0
330
193
100
AcDbEntity
  8
Visible (ANSI)
100
AcDbVertex
100
AcDb2dVertex
 10
21.83896557266405
 20
23.70911997054706
 30
0.0
  0
VERTEX
  5
1A1
330
193
100
AcDbEntity
  8
Visible (ANSI)
100
AcDbVertex
100
AcDb2dVertex
 10
21.83299545176473
 20
23.7105800262137
 30
0.0
  0
VERTEX
  5
1A2
330
193
100
AcDbEntity
  8
Visible (ANSI)
100
AcDbVertex
100
AcDb2dVertex
 10
21.82740382329303
 20
23.71204008188035
 30
0.0
  0
VERTEX
  5
1A3
330
193
100
AcDbEntity
  8
Visible (ANSI)
100
AcDbVertex
100
AcDb2dVertex
 10
21.82221463177235
 20
23.7135001258138
 30
0.0
  0
VERTEX
  5
1A4
330
193
100
AcDbEntity
  8
Visible (ANSI)
100
AcDbVertex
100
AcDb2dVertex
 10
21.81745009841264
 20
23.71496018148044
 30
0.0
  0
VERTEX
  5
1A5
330
193
100
AcDbEntity
  8
Visible (ANSI)
100
AcDbVertex
100
AcDb2dVertex
 10
21.81313062431158
 20
23.71642023714709
 30
0.0
  0
VERTEX
  5
1A6
330
193
100
AcDbEntity
  8
Visible (ANSI)
100
AcDbVertex
100
AcDb2dVertex
 10
21.80927470832211
 20
23.71788029281374
 30
0.0
  0
VERTEX
  5
1A7
330
193
100
AcDbEntity
  8
Visible (ANSI)
100
AcDbVertex
100
AcDb2dVertex
 10
21.80589885905355
 20
23.71934033674718
 30
0.0
  0
VERTEX
  5
1A8
330
193
100
AcDbEntity
  8
Visible (ANSI)
100
AcDbVertex
100
AcDb2dVertex
 10
21.80301753400552
 20
23.72080039241383
 30
0.0
  0
VERTEX
  5
1A9
330
193
100
AcDbEntity
  8
Visible (ANSI)
100
AcDbVertex
100
AcDb2dVertex
 10
21.80064307210218
 20
23.72226044808047
 30
0.0
  0
VERTEX
  5
1AA
330
193
100
AcDbEntity
  8
Visible (ANSI)
100
AcDbVertex
100
AcDb2dVertex
 10
21.79878564034272
 20
23.72372050374712
 30
0.0
  0
VERTEX
  5
1AB
330
193
100
AcDbEntity
  8
Visible (ANSI)
100
AcDbVertex
100
AcDb2dVertex
 10
21.79745319264361
 20
23.72518054768057
 30
0.0
  0
VERTEX
  5
1AC
330
193
100
AcDbEntity
  8
Visible (ANSI)
100
AcDbVertex
100
AcDb2dVertex
 10
21.79665143489099
 20
23.72664060334721
 30
0.0
  0
VERTEX
  5
1AD
330
193
100
AcDbEntity
  8
Visible (ANSI)
100
AcDbVertex
100
AcDb2dVertex
 10
21.79638380030565
 20
23.72810065901386
 30
0.0
  0
SEQEND
  5
196
330
193
100
AcDbEntity
  8
Visible (ANSI)
  0
POLYLINE
  5
1AE
330
6C
100
AcDbEntity
  8
Visible (ANSI)
100
AcDb2dPolyline
 66
     1
 10
0.0
 20
0.0
 30
0.0
 70
   128
  0
VERTEX
  5
1AF
330
1AE
100
AcDbEntity
  8
Visible (ANSI)
100
AcDbVertex
100
AcDb2dVertex
 10
21.79638380030564
 20
63.28801796347338
 30
0.0
  0
VERTEX
  5
1B0
330
1AE
100
AcDbEntity
  8
Visible (ANSI)
100
AcDbVertex
100
AcDb2dVertex
 10
21.79665143489099
 20
63.28947776100967
 30
0.0
  0
VERTEX
  5
1B2
330
1AE
100
AcDbEntity
  8
Visible (ANSI)
100
AcDbVertex
100
AcDb2dVertex
 10
21.79745319264361
 20
63.29093755854596
 30
0.0
  0
VERTEX
  5
1B3
330
1AE
100
AcDbEntity
  8
Visible (ANSI)
100
AcDbVertex
100
AcDb2dVertex
 10
21.79878564034272
 20
63.29239735608226
 30
0.0
  0
VERTEX
  5
1B4
330
1AE
100
AcDbEntity
  8
Visible (ANSI)
100
AcDbVertex
100
AcDb2dVertex
 10
21.80064307210218
 20
63.29385715361855
 30
0.0
  0
VERTEX
  5
1B5
330
1AE
100
AcDbEntity
  8
Visible (ANSI)
100
AcDbVertex
100
AcDb2dVertex
 10
21.80301753400552
 20
63.29531695115484
 30
0.0
  0
VERTEX
  5
1B6
330
1AE
100
AcDbEntity
  8
Visible (ANSI)
100
AcDbVertex
100
AcDb2dVertex
 10
21.80589885905355
 20
63.29677975238977
 30
0.0
  0
VERTEX
  5
1B7
330
1AE
100
AcDbEntity
  8
Visible (ANSI)
100
AcDbVertex
100
AcDb2dVertex
 10
21.80927470832211
 20
63.29823954992607
 30
0.0
  0
VERTEX
  5
1B8
330
1AE
100
AcDbEntity
  8
Visible (ANSI)
100
AcDbVertex
100
AcDb2dVertex
 10
21.81313062431158
 20
63.29969934746237
 30
0.0
  0
VERTEX
  5
1B9
330
1AE
100
AcDbEntity
  8
Visible (ANSI)
100
AcDbVertex
100
AcDb2dVertex
 10
21.81745009841264
 20
63.30115914499866
 30
0.0
  0
VERTEX
  5
1BA
330
1AE
100
AcDbEntity
  8
Visible (ANSI)
100
AcDbVertex
100
AcDb2dVertex
 10
21.82221463177235
 20
63.30261894253496
 30
0.0
  0
VERTEX
  5
1BB
330
1AE
100
AcDbEntity
  8
Visible (ANSI)
100
AcDbVertex
100
AcDb2dVertex
 10
21.82740382329303
 20
63.30407874007125
 30
0.0
  0
VERTEX
  5
1BC
330
1AE
100
AcDbEntity
  8
Visible (ANSI)
100
AcDbVertex
100
AcDb2dVertex
 10
21.83299545176473
 20
63.30553853760754
 30
0.0
  0
VERTEX
  5
1BD
330
1AE
100
AcDbEntity
  8
Visible (ANSI)
100
AcDbVertex
100
AcDb2dVertex
 10
21.83896557266405
 20
63.30699833514383
 30
0.0
  0
VERTEX
  5
1BE
330
1AE
100
AcDbEntity
  8
Visible (ANSI)
100
AcDbVertex
100
AcDb2dVertex
 10
21.8452886222863
 20
63.30845813268012
 30
0.0
  0
VERTEX
  5
1BF
330
1AE
100
AcDbEntity
  8
Visible (ANSI)
100
AcDbVertex
100
AcDb2dVertex
 10
21.8519375233443
 20
63.30991793021643
 30
0.0
  0
VERTEX
  5
1C0
330
1AE
100
AcDbEntity
  8
Visible (ANSI)
100
AcDbVertex
100
AcDb2dVertex
 10
21.85888379936699
 20
63.31137772775272
 30
0.0
  0
VERTEX
  5
1C1
330
1AE
100
AcDbEntity
  8
Visible (ANSI)
100
AcDbVertex
100
AcDb2dVertex
 10
21.86609771549789
 20
63.31284052898765
 30
0.0
  0
VERTEX
  5
1C2
330
1AE
100
AcDbEntity
  8
Visible (ANSI)
100
AcDbVertex
100
AcDb2dVertex
 10
21.8735483723606
 20
63.31430032652394
 30
0.0
  0
VERTEX
  5
1C3
330
1AE
100
AcDbEntity
  8
Visible (ANSI)
100
AcDbVertex
100
AcDb2dVertex
 10
21.88120386739033
 20
63.31576012406024
 30
0.0
  0
VERTEX
  5
1C4
330
1AE
100
AcDbEntity
  8
Visible (ANSI)
100
AcDbVertex
100
AcDb2dVertex
 10
21.88903141803246
 20
63.31721992159653
 30
0.0
  0
VERTEX
  5
1C5
330
1AE
100
AcDbEntity
  8
Visible (ANSI)
100
AcDbVertex
100
AcDb2dVertex
 10
21.89699750840751
 20
63.31867971913283
 30
0.0
  0
VERTEX
  5
1C6
330
1AE
100
AcDbEntity
  8
Visible (ANSI)
100
AcDbVertex
100
AcDb2dVertex
 10
21.90506802424289
 20
63.32013951666912
 30
0.0
  0
VERTEX
  5
1C7
330
1AE
100
AcDbEntity
  8
Visible (ANSI)
100
AcDbVertex
100
AcDb2dVertex
 10
21.91320841127111
 20
63.32159931420541
 30
0.0
  0
VERTEX
  5
1C8
330
1AE
100
AcDbEntity
  8
Visible (ANSI)
100
AcDbVertex
100
AcDb2dVertex
 10
21.92138379842834
 20
63.3230591117417
 30
0.0
  0
SEQEND
  5
1B1
330
1AE
100
AcDbEntity
  8
Visible (ANSI)
  0
POLYLINE
  5
1C9
330
6C
100
AcDbEntity
  8
Visible (ANSI)
100
AcDb2dPolyline
 66
     1
 10
0.0
 20
0.0
 30
0.0
 70
   128
  0
VERTEX
  5
1CA
330
1C9
100
AcDbEntity
  8
Visible (ANSI)
100
AcDbVertex
100
AcDb2dVertex
 10
52.67138404060154
 20
23.69305939341355
 30
0.0
  0
VERTEX
  5
1CB
330
1C9
100
AcDbEntity
  8
Visible (ANSI)
100
AcDbVertex
100
AcDb2dVertex
 10
52.66992424306525
 20
23.68488400625632
 30
0.0
  0
VERTEX
  5
1CD
330
1C9
100
AcDbEntity
  8
Visible (ANSI)
100
AcDbVertex
100
AcDb2dVertex
 10
52.66846444552895
 20
23.6767436192281
 30
0.0
  0
VERTEX
  5
1CE
330
1C9
100
AcDbEntity
  8
Visible (ANSI)
100
AcDbVertex
100
AcDb2dVertex
 10
52.66700464799265
 20
23.66867310339272
 30
0.0
  0
VERTEX
  5
1CF
330
1C9
100
AcDbEntity
  8
Visible (ANSI)
100
AcDbVertex
100
AcDb2dVertex
 10
52.66554485045635
 20
23.66070701301767
 30
0.0
  0
VERTEX
  5
1D0
330
1C9
100
AcDbEntity
  8
Visible (ANSI)
100
AcDbVertex
100
AcDb2dVertex
 10
52.66408204922143
 20
23.65287946237554
 30
0.0
  0
VERTEX
  5
1D1
330
1C9
100
AcDbEntity
  8
Visible (ANSI)
100
AcDbVertex
100
AcDb2dVertex
 10
52.66262225168514
 20
23.64522396734581
 30
0.0
  0
VERTEX
  5
1D2
330
1C9
100
AcDbEntity
  8
Visible (ANSI)
100
AcDbVertex
100
AcDb2dVertex
 10
52.66116245414885
 20
23.6377733104831
 30
0.0
  0
VERTEX
  5
1D3
330
1C9
100
AcDbEntity
  8
Visible (ANSI)
100
AcDbVertex
100
AcDb2dVertex
 10
52.65970265661255
 20
23.6305593943522
 30
0.0
  0
VERTEX
  5
1D4
330
1C9
100
AcDbEntity
  8
Visible (ANSI)
100
AcDbVertex
100
AcDb2dVertex
 10
52.65824285907625
 20
23.62361311832951
 30
0.0
  0
VERTEX
  5
1D5
330
1C9
100
AcDbEntity
  8
Visible (ANSI)
100
AcDbVertex
100
AcDb2dVertex
 10
52.65678306153996
 20
23.61696421727152
 30
0.0
  0
VERTEX
  5
1D6
330
1C9
100
AcDbEntity
  8
Visible (ANSI)
100
AcDbVertex
100
AcDb2dVertex
 10
52.65532326400366
 20
23.61064116764926
 30
0.0
  0
VERTEX
  5
1D7
330
1C9
100
AcDbEntity
  8
Visible (ANSI)
100
AcDbVertex
100
AcDb2dVertex
 10
52.65386346646737
 20
23.60467104674994
 30
0.0
  0
VERTEX
  5
1D8
330
1C9
100
AcDbEntity
  8
Visible (ANSI)
100
AcDbVertex
100
AcDb2dVertex
 10
52.65240366893108
 20
23.59907941827824
 30
0.0
  0
VERTEX
  5
1D9
330
1C9
100
AcDbEntity
  8
Visible (ANSI)
100
AcDbVertex
100
AcDb2dVertex
 10
52.65094387139478
 20
23.59389022675756
 30
0.0
  0
VERTEX
  5
1DA
330
1C9
100
AcDbEntity
  8
Visible (ANSI)
100
AcDbVertex
100
AcDb2dVertex
 10
52.64948407385849
 20
23.58912569339786
 30
0.0
  0
VERTEX
  5
1DB
330
1C9
100
AcDbEntity
  8
Visible (ANSI)
100
AcDbVertex
100
AcDb2dVertex
 10
52.64802427632219
 20
23.58480621929679
 30
0.0
  0
VERTEX
  5
1DC
330
1C9
100
AcDbEntity
  8
Visible (ANSI)
100
AcDbVertex
100
AcDb2dVertex
 10
52.64656147508727
 20
23.58095030330733
 30
0.0
  0
VERTEX
  5
1DD
330
1C9
100
AcDbEntity
  8
Visible (ANSI)
100
AcDbVertex
100
AcDb2dVertex
 10
52.64510167755097
 20
23.57757445403876
 30
0.0
  0
VERTEX
  5
1DE
330
1C9
100
AcDbEntity
  8
Visible (ANSI)
100
AcDbVertex
100
AcDb2dVertex
 10
52.64364188001468
 20
23.57469312899073
 30
0.0
  0
VERTEX
  5
1DF
330
1C9
100
AcDbEntity
  8
Visible (ANSI)
100
AcDbVertex
100
AcDb2dVertex
 10
52.64218208247839
 20
23.57231866708739
 30
0.0
  0
VERTEX
  5
1E0
330
1C9
100
AcDbEntity
  8
Visible (ANSI)
100
AcDbVertex
100
AcDb2dVertex
 10
52.64072228494208
 20
23.57046123532793
 30
0.0
  0
VERTEX
  5
1E1
330
1C9
100
AcDbEntity
  8
Visible (ANSI)
100
AcDbVertex
100
AcDb2dVertex
 10
52.63926248740579
 20
23.56912878762882
 30
0.0
  0
VERTEX
  5
1E2
330
1C9
100
AcDbEntity
  8
Visible (ANSI)
100
AcDbVertex
100
AcDb2dVertex
 10
52.6378026898695
 20
23.5683270298762
 30
0.0
  0
VERTEX
  5
1E3
330
1C9
100
AcDbEntity
  8
Visible (ANSI)
100
AcDbVertex
100
AcDb2dVertex
 10
52.6363428923332
 20
23.56805939529086
 30
0.0
  0
SEQEND
  5
1CC
330
1C9
100
AcDbEntity
  8
Visible (ANSI)
  0
POLYLINE
  5
1E4
330
6C
100
AcDbEntity
  8
Visible (ANSI)
100
AcDb2dPolyline
 66
     1
 10
0.0
 20
0.0
 30
0.0
 70
   128
  0
VERTEX
  5
1E5
330
1E4
100
AcDbEntity
  8
Visible (ANSI)
100
AcDbVertex
100
AcDb2dVertex
 10
21.95642506402865
 20
23.56805939529086
 30
0.0
  0
VERTEX
  5
1E6
330
1E4
100
AcDbEntity
  8
Visible (ANSI)
100
AcDbVertex
100
AcDb2dVertex
 10
21.954965008362
 20
23.5683270298762
 30
0.0
  0
VERTEX
  5
1E8
330
1E4
100
AcDbEntity
  8
Visible (ANSI)
100
AcDbVertex
100
AcDb2dVertex
 10
21.95350495269535
 20
23.56912878762882
 30
0.0
  0
VERTEX
  5
1E9
330
1E4
100
AcDbEntity
  8
Visible (ANSI)
100
AcDbVertex
100
AcDb2dVertex
 10
21.95204490876191
 20
23.57046123532793
 30
0.0
  0
VERTEX
  5
1EA
330
1E4
100
AcDbEntity
  8
Visible (ANSI)
100
AcDbVertex
100
AcDb2dVertex
 10
21.95058485309526
 20
23.57231866708739
 30
0.0
  0
VERTEX
  5
1EB
330
1E4
100
AcDbEntity
  8
Visible (ANSI)
100
AcDbVertex
100
AcDb2dVertex
 10
21.94912479742862
 20
23.57469312899073
 30
0.0
  0
VERTEX
  5
1EC
330
1E4
100
AcDbEntity
  8
Visible (ANSI)
100
AcDbVertex
100
AcDb2dVertex
 10
21.94766474176197
 20
23.57757445403876
 30
0.0
  0
VERTEX
  5
1ED
330
1E4
100
AcDbEntity
  8
Visible (ANSI)
100
AcDbVertex
100
AcDb2dVertex
 10
21.94620469782853
 20
23.58095030330733
 30
0.0
  0
VERTEX
  5
1EE
330
1E4
100
AcDbEntity
  8
Visible (ANSI)
100
AcDbVertex
100
AcDb2dVertex
 10
21.94474464216188
 20
23.58480621929679
 30
0.0
  0
VERTEX
  5
1EF
330
1E4
100
AcDbEntity
  8
Visible (ANSI)
100
AcDbVertex
100
AcDb2dVertex
 10
21.94328458649523
 20
23.58912569339786
 30
0.0
  0
VERTEX
  5
1F0
330
1E4
100
AcDbEntity
  8
Visible (ANSI)
100
AcDbVertex
100
AcDb2dVertex
 10
21.94182453082859
 20
23.59389022675756
 30
0.0
  0
VERTEX
  5
1F1
330
1E4
100
AcDbEntity
  8
Visible (ANSI)
100
AcDbVertex
100
AcDb2dVertex
 10
21.94036448689514
 20
23.59907941827824
 30
0.0
  0
VERTEX
  5
1F2
330
1E4
100
AcDbEntity
  8
Visible (ANSI)
100
AcDbVertex
100
AcDb2dVertex
 10
21.9389044312285
 20
23.60467104674994
 30
0.0
  0
VERTEX
  5
1F3
330
1E4
100
AcDbEntity
  8
Visible (ANSI)
100
AcDbVertex
100
AcDb2dVertex
 10
21.93744437556185
 20
23.61064116764926
 30
0.0
  0
VERTEX
  5
1F4
330
1E4
100
AcDbEntity
  8
Visible (ANSI)
100
AcDbVertex
100
AcDb2dVertex
 10
21.9359843198952
 20
23.61696421727152
 30
0.0
  0
VERTEX
  5
1F5
330
1E4
100
AcDbEntity
  8
Visible (ANSI)
100
AcDbVertex
100
AcDb2dVertex
 10
21.93452427596175
 20
23.62361311832951
 30
0.0
  0
VERTEX
  5
1F6
330
1E4
100
AcDbEntity
  8
Visible (ANSI)
100
AcDbVertex
100
AcDb2dVertex
 10
21.93306422029511
 20
23.6305593943522
 30
0.0
  0
VERTEX
  5
1F7
330
1E4
100
AcDbEntity
  8
Visible (ANSI)
100
AcDbVertex
100
AcDb2dVertex
 10
21.93160416462846
 20
23.6377733104831
 30
0.0
  0
VERTEX
  5
1F8
330
1E4
100
AcDbEntity
  8
Visible (ANSI)
100
AcDbVertex
100
AcDb2dVertex
 10
21.93014412069501
 20
23.64522396734581
 30
0.0
  0
VERTEX
  5
1F9
330
1E4
100
AcDbEntity
  8
Visible (ANSI)
100
AcDbVertex
100
AcDb2dVertex
 10
21.92868406502837
 20
23.65287946237554
 30
0.0
  0
VERTEX
  5
1FA
330
1E4
100
AcDbEntity
  8
Visible (ANSI)
100
AcDbVertex
100
AcDb2dVertex
 10
21.92722400936172
 20
23.66070701301767
 30
0.0
  0
VERTEX
  5
1FB
330
1E4
100
AcDbEntity
  8
Visible (ANSI)
100
AcDbVertex
100
AcDb2dVertex
 10
21.92576395369508
 20
23.66867310339272
 30
0.0
  0
VERTEX
  5
1FC
330
1E4
100
AcDbEntity
  8
Visible (ANSI)
100
AcDbVertex
100
AcDb2dVertex
 10
21.92430390976163
 20
23.6767436192281
 30
0.0
  0
VERTEX
  5
1FD
330
1E4
100
AcDbEntity
  8
Visible (ANSI)
100
AcDbVertex
100
AcDb2dVertex
 10
21.92284385409498
 20
23.68488400625632
 30
0.0
  0
VERTEX
  5
1FE
330
1E4
100
AcDbEntity
  8
Visible (ANSI)
100
AcDbVertex
100
AcDb2dVertex
 10
21.92138379842834
 20
23.69305939341355
 30
0.0
  0
SEQEND
  5
1E7
330
1E4
100
AcDbEntity
  8
Visible (ANSI)
  0
LINE
  5
1FF
330
6C
100
AcDbEntity
  8
Hidden (ANSI)
100
AcDbLine
 10
52.70263380030564
 20
23.72810065602711
 30
0.0
 11
52.79638380030562
 21
23.72810065602711
 31
0.0
  0
POLYLINE
  5
200
330
6C
100
AcDbEntity
  8
Hidden (ANSI)
100
AcDb2dPolyline
 66
     1
 10
0.0
 20
0.0
 30
0.0
 70
   128
  0
VERTEX
  5
201
330
200
100
AcDbEntity
  8
Hidden (ANSI)
100
AcDbVertex
100
AcDb2dVertex
 10
52.67138404060154
 20
23.69305939341355
 30
0.0
  0
VERTEX
  5
202
330
200
100
AcDbEntity
  8
Hidden (ANSI)
100
AcDbVertex
100
AcDb2dVertex
 10
52.6734265556729
 20
23.6945194490802
 30
0.0
  0
VERTEX
  5
204
330
200
100
AcDbEntity
  8
Hidden (ANSI)
100
AcDbVertex
100
AcDb2dVertex
 10
52.67546306334698
 20
23.69597950474684
 30
0.0
  0
VERTEX
  5
205
330
200
100
AcDbEntity
  8
Hidden (ANSI)
100
AcDbVertex
100
AcDb2dVertex
 10
52.67748154882927
 20
23.69743954868029
 30
0.0
  0
VERTEX
  5
206
330
200
100
AcDbEntity
  8
Hidden (ANSI)
100
AcDbVertex
100
AcDb2dVertex
 10
52.67947300102385
 20
23.69889960434694
 30
0.0
  0
VERTEX
  5
207
330
200
100
AcDbEntity
  8
Hidden (ANSI)
100
AcDbVertex
100
AcDb2dVertex
 10
52.68142840883481
 20
23.70035966001358
 30
0.0
  0
VERTEX
  5
208
330
200
100
AcDbEntity
  8
Hidden (ANSI)
100
AcDbVertex
100
AcDb2dVertex
 10
52.68334176486488
 20
23.70181971568023
 30
0.0
  0
VERTEX
  5
209
330
200
100
AcDbEntity
  8
Hidden (ANSI)
100
AcDbVertex
100
AcDb2dVertex
 10
52.68520405801819
 20
23.70327975961367
 30
0.0
  0
VERTEX
  5
20A
330
200
100
AcDbEntity
  8
Hidden (ANSI)
100
AcDbVertex
100
AcDb2dVertex
 10
52.68700928089742
 20
23.70473981528032
 30
0.0
  0
VERTEX
  5
20B
330
200
100
AcDbEntity
  8
Hidden (ANSI)
100
AcDbVertex
100
AcDb2dVertex
 10
52.68874541870808
 20
23.70619987094697
 30
0.0
  0
VERTEX
  5
20C
330
200
100
AcDbEntity
  8
Hidden (ANSI)
100
AcDbVertex
100
AcDb2dVertex
 10
52.69040646405287
 20
23.70765991488041
 30
0.0
  0
VERTEX
  5
20D
330
200
100
AcDbEntity
  8
Hidden (ANSI)
100
AcDbVertex
100
AcDb2dVertex
 10
52.69198941323318
 20
23.70911997054706
 30
0.0
  0
VERTEX
  5
20E
330
200
100
AcDbEntity
  8
Hidden (ANSI)
100
AcDbVertex
100
AcDb2dVertex
 10
52.69348225145446
 20
23.7105800262137
 30
0.0
  0
VERTEX
  5
20F
330
200
100
AcDbEntity
  8
Hidden (ANSI)
100
AcDbVertex
100
AcDb2dVertex
 10
52.69487897131942
 20
23.71204008188035
 30
0.0
  0
VERTEX
  5
210
330
200
100
AcDbEntity
  8
Hidden (ANSI)
100
AcDbVertex
100
AcDb2dVertex
 10
52.69617656912946
 20
23.7135001258138
 30
0.0
  0
VERTEX
  5
211
330
200
100
AcDbEntity
  8
Hidden (ANSI)
100
AcDbVertex
100
AcDb2dVertex
 10
52.69736603378866
 20
23.71496018148044
 30
0.0
  0
VERTEX
  5
212
330
200
100
AcDbEntity
  8
Hidden (ANSI)
100
AcDbVertex
100
AcDb2dVertex
 10
52.69844736529703
 20
23.71642023714709
 30
0.0
  0
VERTEX
  5
213
330
200
100
AcDbEntity
  8
Hidden (ANSI)
100
AcDbVertex
100
AcDb2dVertex
 10
52.69941155255866
 20
23.71788029281374
 30
0.0
  0
VERTEX
  5
214
330
200
100
AcDbEntity
  8
Hidden (ANSI)
100
AcDbVertex
100
AcDb2dVertex
 10
52.70025559187491
 20
23.71934033674718
 30
0.0
  0
VERTEX
  5
215
330
200
100
AcDbEntity
  8
Hidden (ANSI)
100
AcDbVertex
100
AcDb2dVertex
 10
52.70097647954716
 20
23.72080039241383
 30
0.0
  0
VERTEX
  5
216
330
200
100
AcDbEntity
  8
Hidden (ANSI)
100
AcDbVertex
100
AcDb2dVertex
 10
52.70156820817812
 20
23.72226044808047
 30
0.0
  0
VERTEX
  5
217
330
200
100
AcDbEntity
  8
Hidden (ANSI)
100
AcDbVertex
100
AcDb2dVertex
 10
52.70203378146645
 20
23.72372050374712
 30
0.0
  0
VERTEX
  5
218
330
200
100
AcDbEntity
  8
Hidden (ANSI)
100
AcDbVertex
100
AcDb2dVertex
 10
52.70236719201486
 20
23.72518054768057
 30
0.0
  0
VERTEX
  5
219
330
200
100
AcDbEntity
  8
Hidden (ANSI)
100
AcDbVertex
100
AcDb2dVertex
 10
52.70256543612473
 20
23.72664060334721
 30
0.0
  0
VERTEX
  5
21A
330
200
100
AcDbEntity
  8
Hidden (ANSI)
100
AcDbVertex
100
AcDb2dVertex
 10
52.70263452119332
 20
23.72810065901386
 30
0.0
  0
SEQEND
  5
203
330
200
100
AcDbEntity
  8
Hidden (ANSI)
  0
LINE
  5
21B
330
6C
100
AcDbEntity
  8
Hidden (ANSI)
100
AcDbLine
 10
52.70263380030562
 20
63.28801813455463
 30
0.0
 11
52.79638380030561
 21
63.28801813455463
 31
0.0
  0
POLYLINE
  5
21C
330
6C
100
AcDbEntity
  8
Hidden (ANSI)
100
AcDb2dPolyline
 66
     1
 10
0.0
 20
0.0
 30
0.0
 70
   128
  0
VERTEX
  5
21D
330
21C
100
AcDbEntity
  8
Hidden (ANSI)
100
AcDbVertex
100
AcDb2dVertex
 10
52.67138404060154
 20
63.3230591117417
 30
0.0
  0
VERTEX
  5
21E
330
21C
100
AcDbEntity
  8
Hidden (ANSI)
100
AcDbVertex
100
AcDb2dVertex
 10
52.6734265556729
 20
63.32159931420541
 30
0.0
  0
VERTEX
  5
220
330
21C
100
AcDbEntity
  8
Hidden (ANSI)
100
AcDbVertex
100
AcDb2dVertex
 10
52.67546306334698
 20
63.32013951666912
 30
0.0
  0
VERTEX
  5
221
330
21C
100
AcDbEntity
  8
Hidden (ANSI)
100
AcDbVertex
100
AcDb2dVertex
 10
52.67748154882927
 20
63.31867971913283
 30
0.0
  0
VERTEX
  5
222
330
21C
100
AcDbEntity
  8
Hidden (ANSI)
100
AcDbVertex
100
AcDb2dVertex
 10
52.67947300102385
 20
63.31721992159653
 30
0.0
  0
VERTEX
  5
223
330
21C
100
AcDbEntity
  8
Hidden (ANSI)
100
AcDbVertex
100
AcDb2dVertex
 10
52.68142840883481
 20
63.31576012406024
 30
0.0
  0
VERTEX
  5
224
330
21C
100
AcDbEntity
  8
Hidden (ANSI)
100
AcDbVertex
100
AcDb2dVertex
 10
52.68334176486488
 20
63.31430032652394
 30
0.0
  0
VERTEX
  5
225
330
21C
100
AcDbEntity
  8
Hidden (ANSI)
100
AcDbVertex
100
AcDb2dVertex
 10
52.68520405801819
 20
63.31284052898765
 30
0.0
  0
VERTEX
  5
226
330
21C
100
AcDbEntity
  8
Hidden (ANSI)
100
AcDbVertex
100
AcDb2dVertex
 10
52.68700928089742
 20
63.31137772775272
 30
0.0
  0
VERTEX
  5
227
330
21C
100
AcDbEntity
  8
Hidden (ANSI)
100
AcDbVertex
100
AcDb2dVertex
 10
52.68874541870808
 20
63.30991793021643
 30
0.0
  0
VERTEX
  5
228
330
21C
100
AcDbEntity
  8
Hidden (ANSI)
100
AcDbVertex
100
AcDb2dVertex
 10
52.69040646405287
 20
63.30845813268012
 30
0.0
  0
VERTEX
  5
229
330
21C
100
AcDbEntity
  8
Hidden (ANSI)
100
AcDbVertex
100
AcDb2dVertex
 10
52.69198941323318
 20
63.30699833514383
 30
0.0
  0
VERTEX
  5
22A
330
21C
100
AcDbEntity
  8
Hidden (ANSI)
100
AcDbVertex
100
AcDb2dVertex
 10
52.69348225145446
 20
63.30553853760754
 30
0.0
  0
VERTEX
  5
22B
330
21C
100
AcDbEntity
  8
Hidden (ANSI)
100
AcDbVertex
100
AcDb2dVertex
 10
52.69487897131942
 20
63.30407874007125
 30
0.0
  0
VERTEX
  5
22C
330
21C
100
AcDbEntity
  8
Hidden (ANSI)
100
AcDbVertex
100
AcDb2dVertex
 10
52.69617656912946
 20
63.30261894253496
 30
0.0
  0
VERTEX
  5
22D
330
21C
100
AcDbEntity
  8
Hidden (ANSI)
100
AcDbVertex
100
AcDb2dVertex
 10
52.69736603378866
 20
63.30115914499866
 30
0.0
  0
VERTEX
  5
22E
330
21C
100
AcDbEntity
  8
Hidden (ANSI)
100
AcDbVertex
100
AcDb2dVertex
 10
52.69844736529703
 20
63.29969934746237
 30
0.0
  0
VERTEX
  5
22F
330
21C
100
AcDbEntity
  8
Hidden (ANSI)
100
AcDbVertex
100
AcDb2dVertex
 10
52.69941155255866
 20
63.29823954992607
 30
0.0
  0
VERTEX
  5
230
330
21C
100
AcDbEntity
  8
Hidden (ANSI)
100
AcDbVertex
100
AcDb2dVertex
 10
52.70025559187491
 20
63.29677975238977
 30
0.0
  0
VERTEX
  5
231
330
21C
100
AcDbEntity
  8
Hidden (ANSI)
100
AcDbVertex
100
AcDb2dVertex
 10
52.70097647954716
 20
63.29531695115484
 30
0.0
  0
VERTEX
  5
232
330
21C
100
AcDbEntity
  8
Hidden (ANSI)
100
AcDbVertex
100
AcDb2dVertex
 10
52.70156820817812
 20
63.29385715361855
 30
0.0
  0
VERTEX
  5
233
330
21C
100
AcDbEntity
  8
Hidden (ANSI)
100
AcDbVertex
100
AcDb2dVertex
 10
52.70203378146645
 20
63.29239735608226
 30
0.0
  0
VERTEX
  5
234
330
21C
100
AcDbEntity
  8
Hidden (ANSI)
100
AcDbVertex
100
AcDb2dVertex
 10
52.70236719201486
 20
63.29093755854596
 30
0.0
  0
VERTEX
  5
235
330
21C
100
AcDbEntity
  8
Hidden (ANSI)
100
AcDbVertex
100
AcDb2dVertex
 10
52.70256543612473
 20
63.28947776100967
 30
0.0
  0
VERTEX
  5
236
330
21C
100
AcDbEntity
  8
Hidden (ANSI)
100
AcDbVertex
100
AcDb2dVertex
 10
52.70263452119332
 20
63.28801796347338
 30
0.0
  0
SEQEND
  5
21F
330
21C
100
AcDbEntity
  8
Hidden (ANSI)
  0
LINE
  5
237
330
6C
100
AcDbEntity
  8
Hidden (ANSI)
100
AcDbLine
 10
52.6363425395694
 20
63.35430939529086
 30
0.0
 11
52.6363425395694
 21
63.44805939529085
 31
0.0
  0
POLYLINE
  5
238
330
6C
100
AcDbEntity
  8
Hidden (ANSI)
100
AcDb2dPolyline
 66
     1
 10
0.0
 20
0.0
 30
0.0
 70
   128
  0
VERTEX
  5
239
330
238
100
AcDbEntity
  8
Hidden (ANSI)
100
AcDbVertex
100
AcDb2dVertex
 10
52.67138404060154
 20
63.3230591117417
 30
0.0
  0
VERTEX
  5
23A
330
238
100
AcDbEntity
  8
Hidden (ANSI)
100
AcDbVertex
100
AcDb2dVertex
 10
52.66992424306525
 20
63.3251046305117
 30
0.0
  0
VERTEX
  5
23C
330
238
100
AcDbEntity
  8
Hidden (ANSI)
100
AcDbVertex
100
AcDb2dVertex
 10
52.66846444552895
 20
63.32713813448716
 30
0.0
  0
VERTEX
  5
23D
330
238
100
AcDbEntity
  8
Hidden (ANSI)
100
AcDbVertex
100
AcDb2dVertex
 10
52.66700464799265
 20
63.32915661996944
 30
0.0
  0
VERTEX
  5
23E
330
238
100
AcDbEntity
  8
Hidden (ANSI)
100
AcDbVertex
100
AcDb2dVertex
 10
52.66554485045635
 20
63.33114807216401
 30
0.0
  0
VERTEX
  5
23F
330
238
100
AcDbEntity
  8
Hidden (ANSI)
100
AcDbVertex
100
AcDb2dVertex
 10
52.66408204922143
 20
63.33310347997497
 30
0.0
  0
VERTEX
  5
240
330
238
100
AcDbEntity
  8
Hidden (ANSI)
100
AcDbVertex
100
AcDb2dVertex
 10
52.66262225168514
 20
63.33501683600506
 30
0.0
  0
VERTEX
  5
241
330
238
100
AcDbEntity
  8
Hidden (ANSI)
100
AcDbVertex
100
AcDb2dVertex
 10
52.66116245414885
 20
63.33688213285699
 30
0.0
  0
VERTEX
  5
242
330
238
100
AcDbEntity
  8
Hidden (ANSI)
100
AcDbVertex
100
AcDb2dVertex
 10
52.65970265661255
 20
63.33868435203759
 30
0.0
  0
VERTEX
  5
243
330
238
100
AcDbEntity
  8
Hidden (ANSI)
100
AcDbVertex
100
AcDb2dVertex
 10
52.65824285907625
 20
63.34042048984826
 30
0.0
  0
VERTEX
  5
244
330
238
100
AcDbEntity
  8
Hidden (ANSI)
100
AcDbVertex
100
AcDb2dVertex
 10
52.65678306153996
 20
63.34208453889168
 30
0.0
  0
VERTEX
  5
245
330
238
100
AcDbEntity
  8
Hidden (ANSI)
100
AcDbVertex
100
AcDb2dVertex
 10
52.65532326400366
 20
63.34366448437335
 30
0.0
  0
VERTEX
  5
246
330
238
100
AcDbEntity
  8
Hidden (ANSI)
100
AcDbVertex
100
AcDb2dVertex
 10
52.65386346646737
 20
63.34515732259462
 30
0.0
  0
VERTEX
  5
247
330
238
100
AcDbEntity
  8
Hidden (ANSI)
100
AcDbVertex
100
AcDb2dVertex
 10
52.65240366893108
 20
63.34655404245959
 30
0.0
  0
VERTEX
  5
248
330
238
100
AcDbEntity
  8
Hidden (ANSI)
100
AcDbVertex
100
AcDb2dVertex
 10
52.65094387139478
 20
63.34785164026964
 30
0.0
  0
VERTEX
  5
249
330
238
100
AcDbEntity
  8
Hidden (ANSI)
100
AcDbVertex
100
AcDb2dVertex
 10
52.64948407385849
 20
63.34904410862748
 30
0.0
  0
VERTEX
  5
24A
330
238
100
AcDbEntity
  8
Hidden (ANSI)
100
AcDbVertex
100
AcDb2dVertex
 10
52.64802427632219
 20
63.35012243643721
 30
0.0
  0
VERTEX
  5
24B
330
238
100
AcDbEntity
  8
Hidden (ANSI)
100
AcDbVertex
100
AcDb2dVertex
 10
52.64656147508727
 20
63.35108662369883
 30
0.0
  0
VERTEX
  5
24C
330
238
100
AcDbEntity
  8
Hidden (ANSI)
100
AcDbVertex
100
AcDb2dVertex
 10
52.64510167755097
 20
63.35193066301508
 30
0.0
  0
VERTEX
  5
24D
330
238
100
AcDbEntity
  8
Hidden (ANSI)
100
AcDbVertex
100
AcDb2dVertex
 10
52.64364188001468
 20
63.35265155068732
 30
0.0
  0
VERTEX
  5
24E
330
238
100
AcDbEntity
  8
Hidden (ANSI)
100
AcDbVertex
100
AcDb2dVertex
 10
52.64218208247839
 20
63.3532432793183
 30
0.0
  0
VERTEX
  5
24F
330
238
100
AcDbEntity
  8
Hidden (ANSI)
100
AcDbVertex
100
AcDb2dVertex
 10
52.64072228494208
 20
63.35370885260662
 30
0.0
  0
VERTEX
  5
250
330
238
100
AcDbEntity
  8
Hidden (ANSI)
100
AcDbVertex
100
AcDb2dVertex
 10
52.63926248740579
 20
63.35404226315503
 30
0.0
  0
VERTEX
  5
251
330
238
100
AcDbEntity
  8
Hidden (ANSI)
100
AcDbVertex
100
AcDb2dVertex
 10
52.6378026898695
 20
63.35424351096353
 30
0.0
  0
VERTEX
  5
252
330
238
100
AcDbEntity
  8
Hidden (ANSI)
100
AcDbVertex
100
AcDb2dVertex
 10
52.6363428923332
 20
63.35430959233349
 30
0.0
  0
SEQEND
  5
23B
330
238
100
AcDbEntity
  8
Hidden (ANSI)
  0
LINE
  5
253
330
6C
100
AcDbEntity
  8
Hidden (ANSI)
100
AcDbLine
 10
21.95642506104187
 20
63.35430939529083
 30
0.0
 11
21.95642506104187
 21
63.44805939529083
 31
0.0
  0
POLYLINE
  5
254
330
6C
100
AcDbEntity
  8
Hidden (ANSI)
100
AcDb2dPolyline
 66
     1
 10
0.0
 20
0.0
 30
0.0
 70
   128
  0
VERTEX
  5
255
330
254
100
AcDbEntity
  8
Hidden (ANSI)
100
AcDbVertex
100
AcDb2dVertex
 10
21.92138379842834
 20
63.3230591117417
 30
0.0
  0
VERTEX
  5
256
330
254
100
AcDbEntity
  8
Hidden (ANSI)
100
AcDbVertex
100
AcDb2dVertex
 10
21.92284385409498
 20
63.3251046305117
 30
0.0
  0
VERTEX
  5
258
330
254
100
AcDbEntity
  8
Hidden (ANSI)
100
AcDbVertex
100
AcDb2dVertex
 10
21.92430390976163
 20
63.32713813448716
 30
0.0
  0
VERTEX
  5
259
330
254
100
AcDbEntity
  8
Hidden (ANSI)
100
AcDbVertex
100
AcDb2dVertex
 10
21.92576395369508
 20
63.32915661996944
 30
0.0
  0
VERTEX
  5
25A
330
254
100
AcDbEntity
  8
Hidden (ANSI)
100
AcDbVertex
100
AcDb2dVertex
 10
21.92722400936172
 20
63.33114807216401
 30
0.0
  0
VERTEX
  5
25B
330
254
100
AcDbEntity
  8
Hidden (ANSI)
100
AcDbVertex
100
AcDb2dVertex
 10
21.92868406502837
 20
63.33310347997497
 30
0.0
  0
VERTEX
  5
25C
330
254
100
AcDbEntity
  8
Hidden (ANSI)
100
AcDbVertex
100
AcDb2dVertex
 10
21.93014412069501
 20
63.33501683600506
 30
0.0
  0
VERTEX
  5
25D
330
254
100
AcDbEntity
  8
Hidden (ANSI)
100
AcDbVertex
100
AcDb2dVertex
 10
21.93160416462846
 20
63.33688213285699
 30
0.0
  0
VERTEX
  5
25E
330
254
100
AcDbEntity
  8
Hidden (ANSI)
100
AcDbVertex
100
AcDb2dVertex
 10
21.93306422029511
 20
63.33868435203759
 30
0.0
  0
VERTEX
  5
25F
330
254
100
AcDbEntity
  8
Hidden (ANSI)
100
AcDbVertex
100
AcDb2dVertex
 10
21.93452427596175
 20
63.34042048984826
 30
0.0
  0
VERTEX
  5
260
330
254
100
AcDbEntity
  8
Hidden (ANSI)
100
AcDbVertex
100
AcDb2dVertex
 10
21.9359843198952
 20
63.34208453889168
 30
0.0
  0
VERTEX
  5
261
330
254
100
AcDbEntity
  8
Hidden (ANSI)
100
AcDbVertex
100
AcDb2dVertex
 10
21.93744437556185
 20
63.34366448437335
 30
0.0
  0
VERTEX
  5
262
330
254
100
AcDbEntity
  8
Hidden (ANSI)
100
AcDbVertex
100
AcDb2dVertex
 10
21.9389044312285
 20
63.34515732259462
 30
0.0
  0
VERTEX
  5
263
330
254
100
AcDbEntity
  8
Hidden (ANSI)
100
AcDbVertex
100
AcDb2dVertex
 10
21.94036448689514
 20
63.34655404245959
 30
0.0
  0
VERTEX
  5
264
330
254
100
AcDbEntity
  8
Hidden (ANSI)
100
AcDbVertex
100
AcDb2dVertex
 10
21.94182453082859
 20
63.34785164026964
 30
0.0
  0
VERTEX
  5
265
330
254
100
AcDbEntity
  8
Hidden (ANSI)
100
AcDbVertex
100
AcDb2dVertex
 10
21.94328458649523
 20
63.34904410862748
 30
0.0
  0
VERTEX
  5
266
330
254
100
AcDbEntity
  8
Hidden (ANSI)
100
AcDbVertex
100
AcDb2dVertex
 10
21.94474464216188
 20
63.35012243643721
 30
0.0
  0
VERTEX
  5
267
330
254
100
AcDbEntity
  8
Hidden (ANSI)
100
AcDbVertex
100
AcDb2dVertex
 10
21.94620469782853
 20
63.35108662369883
 30
0.0
  0
VERTEX
  5
268
330
254
100
AcDbEntity
  8
Hidden (ANSI)
100
AcDbVertex
100
AcDb2dVertex
 10
21.94766474176197
 20
63.35193066301508
 30
0.0
  0
VERTEX
  5
269
330
254
100
AcDbEntity
  8
Hidden (ANSI)
100
AcDbVertex
100
AcDb2dVertex
 10
21.94912479742862
 20
63.35265155068732
 30
0.0
  0
VERTEX
  5
26A
330
254
100
AcDbEntity
  8
Hidden (ANSI)
100
AcDbVertex
100
AcDb2dVertex
 10
21.95058485309526
 20
63.3532432793183
 30
0.0
  0
VERTEX
  5
26B
330
254
100
AcDbEntity
  8
Hidden (ANSI)
100
AcDbVertex
100
AcDb2dVertex
 10
21.95204490876191
 20
63.35370885260662
 30
0.0
  0
VERTEX
  5
26C
330
254
100
AcDbEntity
  8
Hidden (ANSI)
100
AcDbVertex
100
AcDb2dVertex
 10
21.95350495269535
 20
63.35404226315503
 30
0.0
  0
VERTEX
  5
26D
330
254
100
AcDbEntity
  8
Hidden (ANSI)
100
AcDbVertex
100
AcDb2dVertex
 10
21.954965008362
 20
63.35424351096353
 30
0.0
  0
VERTEX
  5
26E
330
254
100
AcDbEntity
  8
Hidden (ANSI)
100
AcDbVertex
100
AcDb2dVertex
 10
21.95642506402865
 20
63.35430959233349
 30
0.0
  0
SEQEND
  5
257
330
254
100
AcDbEntity
  8
Hidden (ANSI)
  0
LINE
  5
26F
330
6C
100
AcDbEntity
  8
Hidden (ANSI)
100
AcDbLine
 10
21.89013380030564
 20
63.28801813455463
 30
0.0
 11
21.79638380030564
 21
63.28801813455463
 31
0.0
  0
POLYLINE
  5
270
330
6C
100
AcDbEntity
  8
Hidden (ANSI)
100
AcDb2dPolyline
 66
     1
 10
0.0
 20
0.0
 30
0.0
 70
   128
  0
VERTEX
  5
271
330
270
100
AcDbEntity
  8
Hidden (ANSI)
100
AcDbVertex
100
AcDb2dVertex
 10
21.92138379842834
 20
63.3230591117417
 30
0.0
  0
VERTEX
  5
272
330
270
100
AcDbEntity
  8
Hidden (ANSI)
100
AcDbVertex
100
AcDb2dVertex
 10
21.91933995750563
 20
63.32159931420541
 30
0.0
  0
VERTEX
  5
274
330
270
100
AcDbEntity
  8
Hidden (ANSI)
100
AcDbVertex
100
AcDb2dVertex
 10
21.91730485781528
 20
63.32013951666912
 30
0.0
  0
VERTEX
  5
275
330
270
100
AcDbEntity
  8
Hidden (ANSI)
100
AcDbVertex
100
AcDb2dVertex
 10
21.91528722885643
 20
63.31867971913283
 30
0.0
  0
VERTEX
  5
276
330
270
100
AcDbEntity
  8
Hidden (ANSI)
100
AcDbVertex
100
AcDb2dVertex
 10
21.91329570626267
 20
63.31721992159653
 30
0.0
  0
VERTEX
  5
277
330
270
100
AcDbEntity
  8
Hidden (ANSI)
100
AcDbVertex
100
AcDb2dVertex
 10
21.91133882006878
 20
63.31576012406024
 30
0.0
  0
VERTEX
  5
278
330
270
100
AcDbEntity
  8
Hidden (ANSI)
100
AcDbVertex
100
AcDb2dVertex
 10
21.909424947778
 20
63.31430032652394
 30
0.0
  0
VERTEX
  5
279
330
270
100
AcDbEntity
  8
Hidden (ANSI)
100
AcDbVertex
100
AcDb2dVertex
 10
21.90756227916237
 20
63.31284052898765
 30
0.0
  0
VERTEX
  5
27A
330
270
100
AcDbEntity
  8
Hidden (ANSI)
100
AcDbVertex
100
AcDb2dVertex
 10
21.9057588045296
 20
63.31137772775272
 30
0.0
  0
VERTEX
  5
27B
330
270
100
AcDbEntity
  8
Hidden (ANSI)
100
AcDbVertex
100
AcDb2dVertex
 10
21.90402223259063
 20
63.30991793021643
 30
0.0
  0
VERTEX
  5
27C
330
270
100
AcDbEntity
  8
Hidden (ANSI)
100
AcDbVertex
100
AcDb2dVertex
 10
21.90236000219285
 20
63.30845813268012
 30
0.0
  0
VERTEX
  5
27D
330
270
100
AcDbEntity
  8
Hidden (ANSI)
100
AcDbVertex
100
AcDb2dVertex
 10
21.90077924712054
 20
63.30699833514383
 30
0.0
  0
VERTEX
  5
27E
330
270
100
AcDbEntity
  8
Hidden (ANSI)
100
AcDbVertex
100
AcDb2dVertex
 10
21.89928671396241
 20
63.30553853760754
 30
0.0
  0
VERTEX
  5
27F
330
270
100
AcDbEntity
  8
Hidden (ANSI)
100
AcDbVertex
100
AcDb2dVertex
 10
21.89788880904446
 20
63.30407874007125
 30
0.0
  0
VERTEX
  5
280
330
270
100
AcDbEntity
  8
Hidden (ANSI)
100
AcDbVertex
100
AcDb2dVertex
 10
21.89659150456437
 20
63.30261894253496
 30
0.0
  0
VERTEX
  5
281
330
270
100
AcDbEntity
  8
Hidden (ANSI)
100
AcDbVertex
100
AcDb2dVertex
 10
21.89540037379108
 20
63.30115914499866
 30
0.0
  0
VERTEX
  5
282
330
270
100
AcDbEntity
  8
Hidden (ANSI)
100
AcDbVertex
100
AcDb2dVertex
 10
21.89432050893243
 20
63.29969934746237
 30
0.0
  0
VERTEX
  5
283
330
270
100
AcDbEntity
  8
Hidden (ANSI)
100
AcDbVertex
100
AcDb2dVertex
 10
21.89335652700177
 20
63.29823954992607
 30
0.0
  0
VERTEX
  5
284
330
270
100
AcDbEntity
  8
Hidden (ANSI)
100
AcDbVertex
100
AcDb2dVertex
 10
21.8925125639513
 20
63.29677975238977
 30
0.0
  0
VERTEX
  5
285
330
270
100
AcDbEntity
  8
Hidden (ANSI)
100
AcDbVertex
100
AcDb2dVertex
 10
21.89179223360595
 20
63.29531695115484
 30
0.0
  0
VERTEX
  5
286
330
270
100
AcDbEntity
  8
Hidden (ANSI)
100
AcDbVertex
100
AcDb2dVertex
 10
21.89119861593014
 20
63.29385715361855
 30
0.0
  0
VERTEX
  5
287
330
270
100
AcDbEntity
  8
Hidden (ANSI)
100
AcDbVertex
100
AcDb2dVertex
 10
21.89073426289439
 20
63.29239735608226
 30
0.0
  0
VERTEX
  5
288
330
270
100
AcDbEntity
  8
Hidden (ANSI)
100
AcDbVertex
100
AcDb2dVertex
 10
21.89040114567592
 20
63.29093755854596
 30
0.0
  0
VERTEX
  5
289
330
270
100
AcDbEntity
  8
Hidden (ANSI)
100
AcDbVertex
100
AcDb2dVertex
 10
21.89020070745806
 20
63.28947776100967
 30
0.0
  0
VERTEX
  5
28A
330
270
100
AcDbEntity
  8
Hidden (ANSI)
100
AcDbVertex
100
AcDb2dVertex
 10
21.89013379889766
 20
63.28801796347338
 30
0.0
  0
SEQEND
  5
273
330
270
100
AcDbEntity
  8
Hidden (ANSI)
  0
LINE
  5
28B
330
6C
100
AcDbEntity
  8
Hidden (ANSI)
100
AcDbLine
 10
21.89013380030565
 20
23.7281006560271
 30
0.0
 11
21.79638380030565
 21
23.7281006560271
 31
0.0
  0
POLYLINE
  5
28C
330
6C
100
AcDbEntity
  8
Hidden (ANSI)
100
AcDb2dPolyline
 66
     1
 10
0.0
 20
0.0
 30
0.0
 70
   128
  0
VERTEX
  5
28D
330
28C
100
AcDbEntity
  8
Hidden (ANSI)
100
AcDbVertex
100
AcDb2dVertex
 10
21.92138379842834
 20
23.69305939341355
 30
0.0
  0
VERTEX
  5
28E
330
28C
100
AcDbEntity
  8
Hidden (ANSI)
100
AcDbVertex
100
AcDb2dVertex
 10
21.91933995750563
 20
23.6945194490802
 30
0.0
  0
VERTEX
  5
290
330
28C
100
AcDbEntity
  8
Hidden (ANSI)
100
AcDbVertex
100
AcDb2dVertex
 10
21.91730485781528
 20
23.69597950474684
 30
0.0
  0
VERTEX
  5
291
330
28C
100
AcDbEntity
  8
Hidden (ANSI)
100
AcDbVertex
100
AcDb2dVertex
 10
21.91528722885643
 20
23.69743954868029
 30
0.0
  0
VERTEX
  5
292
330
28C
100
AcDbEntity
  8
Hidden (ANSI)
100
AcDbVertex
100
AcDb2dVertex
 10
21.91329570626267
 20
23.69889960434694
 30
0.0
  0
VERTEX
  5
293
330
28C
100
AcDbEntity
  8
Hidden (ANSI)
100
AcDbVertex
100
AcDb2dVertex
 10
21.91133882006878
 20
23.70035966001358
 30
0.0
  0
VERTEX
  5
294
330
28C
100
AcDbEntity
  8
Hidden (ANSI)
100
AcDbVertex
100
AcDb2dVertex
 10
21.909424947778
 20
23.70181971568023
 30
0.0
  0
VERTEX
  5
295
330
28C
100
AcDbEntity
  8
Hidden (ANSI)
100
AcDbVertex
100
AcDb2dVertex
 10
21.90756227916237
 20
23.70327975961367
 30
0.0
  0
VERTEX
  5
296
330
28C
100
AcDbEntity
  8
Hidden (ANSI)
100
AcDbVertex
100
AcDb2dVertex
 10
21.9057588045296
 20
23.70473981528032
 30
0.0
  0
VERTEX
  5
297
330
28C
100
AcDbEntity
  8
Hidden (ANSI)
100
AcDbVertex
100
AcDb2dVertex
 10
21.90402223259063
 20
23.70619987094697
 30
0.0
  0
VERTEX
  5
298
330
28C
100
AcDbEntity
  8
Hidden (ANSI)
100
AcDbVertex
100
AcDb2dVertex
 10
21.90236000219285
 20
23.70765991488041
 30
0.0
  0
VERTEX
  5
299
330
28C
100
AcDbEntity
  8
Hidden (ANSI)
100
AcDbVertex
100
AcDb2dVertex
 10
21.90077924712054
 20
23.70911997054706
 30
0.0
  0
VERTEX
  5
29A
330
28C
100
AcDbEntity
  8
Hidden (ANSI)
100
AcDbVertex
100
AcDb2dVertex
 10
21.89928671396241
 20
23.7105800262137
 30
0.0
  0
VERTEX
  5
29B
330
28C
100
AcDbEntity
  8
Hidden (ANSI)
100
AcDbVertex
100
AcDb2dVertex
 10
21.89788880904446
 20
23.71204008188035
 30
0.0
  0
VERTEX
  5
29C
330
28C
100
AcDbEntity
  8
Hidden (ANSI)
100
AcDbVertex
100
AcDb2dVertex
 10
21.89659150456437
 20
23.7135001258138
 30
0.0
  0
VERTEX
  5
29D
330
28C
100
AcDbEntity
  8
Hidden (ANSI)
100
AcDbVertex
100
AcDb2dVertex
 10
21.89540037379108
 20
23.71496018148044
 30
0.0
  0
VERTEX
  5
29E
330
28C
100
AcDbEntity
  8
Hidden (ANSI)
100
AcDbVertex
100
AcDb2dVertex
 10
21.89432050893243
 20
23.71642023714709
 30
0.0
  0
VERTEX
  5
29F
330
28C
100
AcDbEntity
  8
Hidden (ANSI)
100
AcDbVertex
100
AcDb2dVertex
 10
21.89335652700177
 20
23.71788029281374
 30
0.0
  0
VERTEX
  5
2A0
330
28C
100
AcDbEntity
  8
Hidden (ANSI)
100
AcDbVertex
100
AcDb2dVertex
 10
21.8925125639513
 20
23.71934033674718
 30
0.0
  0
VERTEX
  5
2A1
330
28C
100
AcDbEntity
  8
Hidden (ANSI)
100
AcDbVertex
100
AcDb2dVertex
 10
21.89179223360595
 20
23.72080039241383
 30
0.0
  0
VERTEX
  5
2A2
330
28C
100
AcDbEntity
  8
Hidden (ANSI)
100
AcDbVertex
100
AcDb2dVertex
 10
21.89119861593014
 20
23.72226044808047
 30
0.0
  0
VERTEX
  5
2A3
330
28C
100
AcDbEntity
  8
Hidden (ANSI)
100
AcDbVertex
100
AcDb2dVertex
 10
21.89073426289439
 20
23.72372050374712
 30
0.0
  0
VERTEX
  5
2A4
330
28C
100
AcDbEntity
  8
Hidden (ANSI)
100
AcDbVertex
100
AcDb2dVertex
 10
21.89040114567592
 20
23.72518054768057
 30
0.0
  0
VERTEX
  5
2A5
330
28C
100
AcDbEntity
  8
Hidden (ANSI)
100
AcDbVertex
100
AcDb2dVertex
 10
21.89020070745806
 20
23.72664060334721
 30
0.0
  0
VERTEX
  5
2A6
330
28C
100
AcDbEntity
  8
Hidden (ANSI)
100
AcDbVertex
100
AcDb2dVertex
 10
21.89013379889766
 20
23.72810065901386
 30
0.0
  0
SEQEND
  5
28F
330
28C
100
AcDbEntity
  8
Hidden (ANSI)
  0
LINE
  5
2A7
330
6C
100
AcDbEntity
  8
Hidden (ANSI)
100
AcDbLine
 10
21.95642506104189
 20
23.66180939529086
 30
0.0
 11
21.95642506104189
 21
23.56805939529086
 31
0.0
  0
POLYLINE
  5
2A8
330
6C
100
AcDbEntity
  8
Hidden (ANSI)
100
AcDb2dPolyline
 66
     1
 10
0.0
 20
0.0
 30
0.0
 70
   128
  0
VERTEX
  5
2A9
330
2A8
100
AcDbEntity
  8
Hidden (ANSI)
100
AcDbVertex
100
AcDb2dVertex
 10
21.92138379842834
 20
23.69305939341355
 30
0.0
  0
VERTEX
  5
2AA
330
2A8
100
AcDbEntity
  8
Hidden (ANSI)
100
AcDbVertex
100
AcDb2dVertex
 10
21.92284385409498
 20
23.69101555249084
 30
0.0
  0
VERTEX
  5
2AC
330
2A8
100
AcDbEntity
  8
Hidden (ANSI)
100
AcDbVertex
100
AcDb2dVertex
 10
21.92430390976163
 20
23.68898045280049
 30
0.0
  0
VERTEX
  5
2AD
330
2A8
100
AcDbEntity
  8
Hidden (ANSI)
100
AcDbVertex
100
AcDb2dVertex
 10
21.92576395369508
 20
23.68696282384164
 30
0.0
  0
VERTEX
  5
2AE
330
2A8
100
AcDbEntity
  8
Hidden (ANSI)
100
AcDbVertex
100
AcDb2dVertex
 10
21.92722400936172
 20
23.68497130124788
 30
0.0
  0
VERTEX
  5
2AF
330
2A8
100
AcDbEntity
  8
Hidden (ANSI)
100
AcDbVertex
100
AcDb2dVertex
 10
21.92868406502837
 20
23.683014415054
 30
0.0
  0
VERTEX
  5
2B0
330
2A8
100
AcDbEntity
  8
Hidden (ANSI)
100
AcDbVertex
100
AcDb2dVertex
 10
21.93014412069501
 20
23.68110054276321
 30
0.0
  0
VERTEX
  5
2B1
330
2A8
100
AcDbEntity
  8
Hidden (ANSI)
100
AcDbVertex
100
AcDb2dVertex
 10
21.93160416462846
 20
23.67923787414758
 30
0.0
  0
VERTEX
  5
2B2
330
2A8
100
AcDbEntity
  8
Hidden (ANSI)
100
AcDbVertex
100
AcDb2dVertex
 10
21.93306422029511
 20
23.67743439951481
 30
0.0
  0
VERTEX
  5
2B3
330
2A8
100
AcDbEntity
  8
Hidden (ANSI)
100
AcDbVertex
100
AcDb2dVertex
 10
21.93452427596175
 20
23.67569782757584
 30
0.0
  0
VERTEX
  5
2B4
330
2A8
100
AcDbEntity
  8
Hidden (ANSI)
100
AcDbVertex
100
AcDb2dVertex
 10
21.9359843198952
 20
23.67403559717807
 30
0.0
  0
VERTEX
  5
2B5
330
2A8
100
AcDbEntity
  8
Hidden (ANSI)
100
AcDbVertex
100
AcDb2dVertex
 10
21.93744437556185
 20
23.67245484210575
 30
0.0
  0
VERTEX
  5
2B6
330
2A8
100
AcDbEntity
  8
Hidden (ANSI)
100
AcDbVertex
100
AcDb2dVertex
 10
21.9389044312285
 20
23.67096230894762
 30
0.0
  0
VERTEX
  5
2B7
330
2A8
100
AcDbEntity
  8
Hidden (ANSI)
100
AcDbVertex
100
AcDb2dVertex
 10
21.94036448689514
 20
23.66956440402967
 30
0.0
  0
VERTEX
  5
2B8
330
2A8
100
AcDbEntity
  8
Hidden (ANSI)
100
AcDbVertex
100
AcDb2dVertex
 10
21.94182453082859
 20
23.66826709954958
 30
0.0
  0
VERTEX
  5
2B9
330
2A8
100
AcDbEntity
  8
Hidden (ANSI)
100
AcDbVertex
100
AcDb2dVertex
 10
21.94328458649523
 20
23.66707596877629
 30
0.0
  0
VERTEX
  5
2BA
330
2A8
100
AcDbEntity
  8
Hidden (ANSI)
100
AcDbVertex
100
AcDb2dVertex
 10
21.94474464216188
 20
23.66599610391765
 30
0.0
  0
VERTEX
  5
2BB
330
2A8
100
AcDbEntity
  8
Hidden (ANSI)
100
AcDbVertex
100
AcDb2dVertex
 10
21.94620469782853
 20
23.66503212198698
 30
0.0
  0
VERTEX
  5
2BC
330
2A8
100
AcDbEntity
  8
Hidden (ANSI)
100
AcDbVertex
100
AcDb2dVertex
 10
21.94766474176197
 20
23.66418815893651
 30
0.0
  0
VERTEX
  5
2BD
330
2A8
100
AcDbEntity
  8
Hidden (ANSI)
100
AcDbVertex
100
AcDb2dVertex
 10
21.94912479742862
 20
23.66346782859116
 30
0.0
  0
VERTEX
  5
2BE
330
2A8
100
AcDbEntity
  8
Hidden (ANSI)
100
AcDbVertex
100
AcDb2dVertex
 10
21.95058485309526
 20
23.66287421091535
 30
0.0
  0
VERTEX
  5
2BF
330
2A8
100
AcDbEntity
  8
Hidden (ANSI)
100
AcDbVertex
100
AcDb2dVertex
 10
21.95204490876191
 20
23.6624098578796
 30
0.0
  0
VERTEX
  5
2C0
330
2A8
100
AcDbEntity
  8
Hidden (ANSI)
100
AcDbVertex
100
AcDb2dVertex
 10
21.95350495269535
 20
23.66207674066113
 30
0.0
  0
VERTEX
  5
2C1
330
2A8
100
AcDbEntity
  8
Hidden (ANSI)
100
AcDbVertex
100
AcDb2dVertex
 10
21.954965008362
 20
23.66187630244327
 30
0.0
  0
VERTEX
  5
2C2
330
2A8
100
AcDbEntity
  8
Hidden (ANSI)
100
AcDbVertex
100
AcDb2dVertex
 10
21.95642506402865
 20
23.66180939388287
 30
0.0
  0
SEQEND
  5
2AB
330
2A8
100
AcDbEntity
  8
Hidden (ANSI)
  0
LINE
  5
2C3
330
6C
100
AcDbEntity
  8
Hidden (ANSI)
100
AcDbLine
 10
52.6363425395694
 20
23.66180939529086
 30
0.0
 11
52.6363425395694
 21
23.56805939529086
 31
0.0
  0
POLYLINE
  5
2C4
330
6C
100
AcDbEntity
  8
Hidden (ANSI)
100
AcDb2dPolyline
 66
     1
 10
0.0
 20
0.0
 30
0.0
 70
   128
  0
VERTEX
  5
2C5
330
2C4
100
AcDbEntity
  8
Hidden (ANSI)
100
AcDbVertex
100
AcDb2dVertex
 10
52.67138404060154
 20
23.69305939341355
 30
0.0
  0
VERTEX
  5
2C6
330
2C4
100
AcDbEntity
  8
Hidden (ANSI)
100
AcDbVertex
100
AcDb2dVertex
 10
52.66992424306525
 20
23.69101555249084
 30
0.0
  0
VERTEX
  5
2C8
330
2C4
100
AcDbEntity
  8
Hidden (ANSI)
100
AcDbVertex
100
AcDb2dVertex
 10
52.66846444552895
 20
23.68898045280049
 30
0.0
  0
VERTEX
  5
2C9
330
2C4
100
AcDbEntity
  8
Hidden (ANSI)
100
AcDbVertex
100
AcDb2dVertex
 10
52.66700464799265
 20
23.68696282384164
 30
0.0
  0
VERTEX
  5
2CA
330
2C4
100
AcDbEntity
  8
Hidden (ANSI)
100
AcDbVertex
100
AcDb2dVertex
 10
52.66554485045635
 20
23.68497130124788
 30
0.0
  0
VERTEX
  5
2CB
330
2C4
100
AcDbEntity
  8
Hidden (ANSI)
100
AcDbVertex
100
AcDb2dVertex
 10
52.66408204922143
 20
23.683014415054
 30
0.0
  0
VERTEX
  5
2CC
330
2C4
100
AcDbEntity
  8
Hidden (ANSI)
100
AcDbVertex
100
AcDb2dVertex
 10
52.66262225168514
 20
23.68110054276321
 30
0.0
  0
VERTEX
  5
2CD
330
2C4
100
AcDbEntity
  8
Hidden (ANSI)
100
AcDbVertex
100
AcDb2dVertex
 10
52.66116245414885
 20
23.67923787414758
 30
0.0
  0
VERTEX
  5
2CE
330
2C4
100
AcDbEntity
  8
Hidden (ANSI)
100
AcDbVertex
100
AcDb2dVertex
 10
52.65970265661255
 20
23.67743439951481
 30
0.0
  0
VERTEX
  5
2CF
330
2C4
100
AcDbEntity
  8
Hidden (ANSI)
100
AcDbVertex
100
AcDb2dVertex
 10
52.65824285907625
 20
23.67569782757584
 30
0.0
  0
VERTEX
  5
2D0
330
2C4
100
AcDbEntity
  8
Hidden (ANSI)
100
AcDbVertex
100
AcDb2dVertex
 10
52.65678306153996
 20
23.67403559717807
 30
0.0
  0
VERTEX
  5
2D1
330
2C4
100
AcDbEntity
  8
Hidden (ANSI)
100
AcDbVertex
100
AcDb2dVertex
 10
52.65532326400366
 20
23.67245484210575
 30
0.0
  0
VERTEX
  5
2D2
330
2C4
100
AcDbEntity
  8
Hidden (ANSI)
100
AcDbVertex
100
AcDb2dVertex
 10
52.65386346646737
 20
23.67096230894762
 30
0.0
  0
VERTEX
  5
2D3
330
2C4
100
AcDbEntity
  8
Hidden (ANSI)
100
AcDbVertex
100
AcDb2dVertex
 10
52.65240366893108
 20
23.66956440402967
 30
0.0
  0
VERTEX
  5
2D4
330
2C4
100
AcDbEntity
  8
Hidden (ANSI)
100
AcDbVertex
100
AcDb2dVertex
 10
52.65094387139478
 20
23.66826709954958
 30
0.0
  0
VERTEX
  5
2D5
330
2C4
100
AcDbEntity
  8
Hidden (ANSI)
100
AcDbVertex
100
AcDb2dVertex
 10
52.64948407385849
 20
23.66707596877629
 30
0.0
  0
VERTEX
  5
2D6
330
2C4
100
AcDbEntity
  8
Hidden (ANSI)
100
AcDbVertex
100
AcDb2dVertex
 10
52.64802427632219
 20
23.66599610391765
 30
0.0
  0
VERTEX
  5
2D7
330
2C4
100
AcDbEntity
  8
Hidden (ANSI)
100
AcDbVertex
100
AcDb2dVertex
 10
52.64656147508727
 20
23.66503212198698
 30
0.0
  0
VERTEX
  5
2D8
330
2C4
100
AcDbEntity
  8
Hidden (ANSI)
100
AcDbVertex
100
AcDb2dVertex
 10
52.64510167755097
 20
23.66418815893651
 30
0.0
  0
VERTEX
  5
2D9
330
2C4
100
AcDbEntity
  8
Hidden (ANSI)
100
AcDbVertex
100
AcDb2dVertex
 10
52.64364188001468
 20
23.66346782859116
 30
0.0
  0
VERTEX
  5
2DA
330
2C4
100
AcDbEntity
  8
Hidden (ANSI)
100
AcDbVertex
100
AcDb2dVertex
 10
52.64218208247839
 20
23.66287421091535
 30
0.0
  0
VERTEX
  5
2DB
330
2C4
100
AcDbEntity
  8
Hidden (ANSI)
100
AcDbVertex
100
AcDb2dVertex
 10
52.64072228494208
 20
23.6624098578796
 30
0.0
  0
VERTEX
  5
2DC
330
2C4
100
AcDbEntity
  8
Hidden (ANSI)
100
AcDbVertex
100
AcDb2dVertex
 10
52.63926248740579
 20
23.66207674066113
 30
0.0
  0
VERTEX
  5
2DD
330
2C4
100
AcDbEntity
  8
Hidden (ANSI)
100
AcDbVertex
100
AcDb2dVertex
 10
52.6378026898695
 20
23.66187630244327
 30
0.0
  0
VERTEX
  5
2DE
330
2C4
100
AcDbEntity
  8
Hidden (ANSI)
100
AcDbVertex
100
AcDb2dVertex
 10
52.6363428923332
 20
23.66180939388287
 30
0.0
  0
SEQEND
  5
2C7
330
2C4
100
AcDbEntity
  8
Hidden (ANSI)
  0
MTEXT
  5
2E0
330
6C
100
AcDbEntity
  8
Symbol (ANSI)
100
AcDbMText
 10
33.71928659565619
 20
18.81540454389133
 30
0.0
 40
0.9600000118646095
 41
0.0
 46
0.0
 71
     7
 72
     1
  1
FRONT VIEW
  7
Text Style153
 73
     1
 44
1.0
  0
LINE
  5
2E2
330
6C
100
AcDbEntity
  8
Symbol (ANSI)
370
    30
100
AcDbLine
 10
33.6232863487091
 20
18.61963144489221
 30
0.0
 11
41.34140638299451
 21
18.61963144489221
 31
0.0
  0
POLYLINE
  5
2E3
330
6C
100
AcDbEntity
  8
Visible (ANSI)
100
AcDb2dPolyline
 66
     1
 10
0.0
 20
0.0
 30
0.0
 70
   128
  0
VERTEX
  5
2E4
330
2E3
100
AcDbEntity
  8
Visible (ANSI)
100
AcDbVertex
100
AcDb2dVertex
 10
70.79728235009151
 20
63.3230591117417
 30
0.0
  0
VERTEX
  5
2E5
330
2E3
100
AcDbEntity
  8
Visible (ANSI)
100
AcDbVertex
100
AcDb2dVertex
 10
70.7975499843331
 20
63.32159931420541
 30
0.0
  0
VERTEX
  5
2E7
330
2E3
100
AcDbEntity
  8
Visible (ANSI)
100
AcDbVertex
100
AcDb2dVertex
 10
70.79835174307112
 20
63.32013951666912
 30
0.0
  0
VERTEX
  5
2E8
330
2E3
100
AcDbEntity
  8
Visible (ANSI)
100
AcDbVertex
100
AcDb2dVertex
 10
70.79968418847859
 20
63.31867971913283
 30
0.0
  0
VERTEX
  5
2E9
330
2E3
100
AcDbEntity
  8
Visible (ANSI)
100
AcDbVertex
100
AcDb2dVertex
 10
70.80154161822142
 20
63.31721992159653
 30
0.0
  0
VERTEX
  5
2EA
330
2E3
100
AcDbEntity
  8
Visible (ANSI)
100
AcDbVertex
100
AcDb2dVertex
 10
70.80391608305807
 20
63.31576012406024
 30
0.0
  0
VERTEX
  5
2EB
330
2E3
100
AcDbEntity
  8
Visible (ANSI)
100
AcDbVertex
100
AcDb2dVertex
 10
70.80679740443946
 20
63.31430032652394
 30
0.0
  0
VERTEX
  5
2EC
330
2E3
100
AcDbEntity
  8
Visible (ANSI)
100
AcDbVertex
100
AcDb2dVertex
 10
70.81017325664133
 20
63.31284052898765
 30
0.0
  0
VERTEX
  5
2ED
330
2E3
100
AcDbEntity
  8
Visible (ANSI)
100
AcDbVertex
100
AcDb2dVertex
 10
70.8140291726308
 20
63.31137772775272
 30
0.0
  0
VERTEX
  5
2EE
330
2E3
100
AcDbEntity
  8
Visible (ANSI)
100
AcDbVertex
100
AcDb2dVertex
 10
70.81834864966516
 20
63.30991793021643
 30
0.0
  0
VERTEX
  5
2EF
330
2E3
100
AcDbEntity
  8
Visible (ANSI)
100
AcDbVertex
100
AcDb2dVertex
 10
70.82311317862492
 20
63.30845813268012
 30
0.0
  0
VERTEX
  5
2F0
330
2E3
100
AcDbEntity
  8
Visible (ANSI)
100
AcDbVertex
100
AcDb2dVertex
 10
70.82830237307891
 20
63.30699833514383
 30
0.0
  0
VERTEX
  5
2F1
330
2E3
100
AcDbEntity
  8
Visible (ANSI)
100
AcDbVertex
100
AcDb2dVertex
 10
70.83389399861729
 20
63.30553853760754
 30
0.0
  0
VERTEX
  5
2F2
330
2E3
100
AcDbEntity
  8
Visible (ANSI)
100
AcDbVertex
100
AcDb2dVertex
 10
70.83986411951662
 20
63.30407874007125
 30
0.0
  0
VERTEX
  5
2F3
330
2E3
100
AcDbEntity
  8
Visible (ANSI)
100
AcDbVertex
100
AcDb2dVertex
 10
70.84618716913889
 20
63.30261894253496
 30
0.0
  0
VERTEX
  5
2F4
330
2E3
100
AcDbEntity
  8
Visible (ANSI)
100
AcDbVertex
100
AcDb2dVertex
 10
70.85283607019687
 20
63.30115914499866
 30
0.0
  0
VERTEX
  5
2F5
330
2E3
100
AcDbEntity
  8
Visible (ANSI)
100
AcDbVertex
100
AcDb2dVertex
 10
70.85978234915287
 20
63.29969934746237
 30
0.0
  0
VERTEX
  5
2F6
330
2E3
100
AcDbEntity
  8
Visible (ANSI)
100
AcDbVertex
100
AcDb2dVertex
 10
70.86699626235047
 20
63.29823954992607
 30
0.0
  0
VERTEX
  5
2F7
330
2E3
100
AcDbEntity
  8
Visible (ANSI)
100
AcDbVertex
100
AcDb2dVertex
 10
70.87444691921318
 20
63.29677975238977
 30
0.0
  0
VERTEX
  5
2F8
330
2E3
100
AcDbEntity
  8
Visible (ANSI)
100
AcDbVertex
100
AcDb2dVertex
 10
70.88210241570957
 20
63.29531695115484
 30
0.0
  0
VERTEX
  5
2F9
330
2E3
100
AcDbEntity
  8
Visible (ANSI)
100
AcDbVertex
100
AcDb2dVertex
 10
70.88992996800168
 20
63.29385715361855
 30
0.0
  0
VERTEX
  5
2FA
330
2E3
100
AcDbEntity
  8
Visible (ANSI)
100
AcDbVertex
100
AcDb2dVertex
 10
70.8978960581934
 20
63.29239735608226
 30
0.0
  0
VERTEX
  5
2FB
330
2E3
100
AcDbEntity
  8
Visible (ANSI)
100
AcDbVertex
100
AcDb2dVertex
 10
70.90596657402878
 20
63.29093755854596
 30
0.0
  0
VERTEX
  5
2FC
330
2E3
100
AcDbEntity
  8
Visible (ANSI)
100
AcDbVertex
100
AcDb2dVertex
 10
70.9141069581237
 20
63.28947776100967
 30
0.0
  0
VERTEX
  5
2FD
330
2E3
100
AcDbEntity
  8
Visible (ANSI)
100
AcDbVertex
100
AcDb2dVertex
 10
70.92228234821423
 20
63.28801796347338
 30
0.0
  0
SEQEND
  5
2E6
330
2E3
100
AcDbEntity
  8
Visible (ANSI)
  0
POLYLINE
  5
2FE
330
6C
100
AcDbEntity
  8
Visible (ANSI)
100
AcDb2dPolyline
 66
     1
 10
0.0
 20
0.0
 30
0.0
 70
   128
  0
VERTEX
  5
2FF
330
2FE
100
AcDbEntity
  8
Visible (ANSI)
100
AcDbVertex
100
AcDb2dVertex
 10
70.92228234821423
 20
23.72810065901386
 30
0.0
  0
VERTEX
  5
300
330
2FE
100
AcDbEntity
  8
Visible (ANSI)
100
AcDbVertex
100
AcDb2dVertex
 10
70.9141069581237
 20
23.72664060334721
 30
0.0
  0
VERTEX
  5
302
330
2FE
100
AcDbEntity
  8
Visible (ANSI)
100
AcDbVertex
100
AcDb2dVertex
 10
70.90596657402878
 20
23.72518054768057
 30
0.0
  0
VERTEX
  5
303
330
2FE
100
AcDbEntity
  8
Visible (ANSI)
100
AcDbVertex
100
AcDb2dVertex
 10
70.8978960581934
 20
23.72372050374712
 30
0.0
  0
VERTEX
  5
304
330
2FE
100
AcDbEntity
  8
Visible (ANSI)
100
AcDbVertex
100
AcDb2dVertex
 10
70.88992996800168
 20
23.72226044808047
 30
0.0
  0
VERTEX
  5
305
330
2FE
100
AcDbEntity
  8
Visible (ANSI)
100
AcDbVertex
100
AcDb2dVertex
 10
70.88210241570957
 20
23.72080039241383
 30
0.0
  0
VERTEX
  5
306
330
2FE
100
AcDbEntity
  8
Visible (ANSI)
100
AcDbVertex
100
AcDb2dVertex
 10
70.87444691921318
 20
23.71934033674718
 30
0.0
  0
VERTEX
  5
307
330
2FE
100
AcDbEntity
  8
Visible (ANSI)
100
AcDbVertex
100
AcDb2dVertex
 10
70.86699626235047
 20
23.71788029281374
 30
0.0
  0
VERTEX
  5
308
330
2FE
100
AcDbEntity
  8
Visible (ANSI)
100
AcDbVertex
100
AcDb2dVertex
 10
70.85978234915287
 20
23.71642023714709
 30
0.0
  0
VERTEX
  5
309
330
2FE
100
AcDbEntity
  8
Visible (ANSI)
100
AcDbVertex
100
AcDb2dVertex
 10
70.85283607019687
 20
23.71496018148044
 30
0.0
  0
VERTEX
  5
30A
330
2FE
100
AcDbEntity
  8
Visible (ANSI)
100
AcDbVertex
100
AcDb2dVertex
 10
70.84618716913889
 20
23.7135001258138
 30
0.0
  0
VERTEX
  5
30B
330
2FE
100
AcDbEntity
  8
Visible (ANSI)
100
AcDbVertex
100
AcDb2dVertex
 10
70.83986411951662
 20
23.71204008188035
 30
0.0
  0
VERTEX
  5
30C
330
2FE
100
AcDbEntity
  8
Visible (ANSI)
100
AcDbVertex
100
AcDb2dVertex
 10
70.83389399861729
 20
23.7105800262137
 30
0.0
  0
VERTEX
  5
30D
330
2FE
100
AcDbEntity
  8
Visible (ANSI)
100
AcDbVertex
100
AcDb2dVertex
 10
70.82830237307891
 20
23.70911997054706
 30
0.0
  0
VERTEX
  5
30E
330
2FE
100
AcDbEntity
  8
Visible (ANSI)
100
AcDbVertex
100
AcDb2dVertex
 10
70.82311317862492
 20
23.70765991488041
 30
0.0
  0
VERTEX
  5
30F
330
2FE
100
AcDbEntity
  8
Visible (ANSI)
100
AcDbVertex
100
AcDb2dVertex
 10
70.81834864966516
 20
23.70619987094697
 30
0.0
  0
VERTEX
  5
310
330
2FE
100
AcDbEntity
  8
Visible (ANSI)
100
AcDbVertex
100
AcDb2dVertex
 10
70.8140291726308
 20
23.70473981528032
 30
0.0
  0
VERTEX
  5
311
330
2FE
100
AcDbEntity
  8
Visible (ANSI)
100
AcDbVertex
100
AcDb2dVertex
 10
70.81017325664133
 20
23.70327975961367
 30
0.0
  0
VERTEX
  5
312
330
2FE
100
AcDbEntity
  8
Visible (ANSI)
100
AcDbVertex
100
AcDb2dVertex
 10
70.80679740443946
 20
23.70181971568023
 30
0.0
  0
VERTEX
  5
313
330
2FE
100
AcDbEntity
  8
Visible (ANSI)
100
AcDbVertex
100
AcDb2dVertex
 10
70.80391608305807
 20
23.70035966001358
 30
0.0
  0
VERTEX
  5
314
330
2FE
100
AcDbEntity
  8
Visible (ANSI)
100
AcDbVertex
100
AcDb2dVertex
 10
70.80154161822142
 20
23.69889960434694
 30
0.0
  0
VERTEX
  5
315
330
2FE
100
AcDbEntity
  8
Visible (ANSI)
100
AcDbVertex
100
AcDb2dVertex
 10
70.79968418847859
 20
23.69743954868029
 30
0.0
  0
VERTEX
  5
316
330
2FE
100
AcDbEntity
  8
Visible (ANSI)
100
AcDbVertex
100
AcDb2dVertex
 10
70.79835174307112
 20
23.69597950474684
 30
0.0
  0
VERTEX
  5
317
330
2FE
100
AcDbEntity
  8
Visible (ANSI)
100
AcDbVertex
100
AcDb2dVertex
 10
70.7975499843331
 20
23.6945194490802
 30
0.0
  0
VERTEX
  5
318
330
2FE
100
AcDbEntity
  8
Visible (ANSI)
100
AcDbVertex
100
AcDb2dVertex
 10
70.79728235009151
 20
23.69305939341355
 30
0.0
  0
SEQEND
  5
301
330
2FE
100
AcDbEntity
  8
Visible (ANSI)
  0
LINE
  5
319
330
6C
100
AcDbEntity
  8
Visible (ANSI)
100
AcDbLine
 10
71.67228234868357
 20
23.7281006560271
 30
0.0
 11
70.92228234868357
 21
23.72810065602711
 31
0.0
  0
LINE
  5
31A
330
6C
100
AcDbEntity
  8
Visible (ANSI)
100
AcDbLine
 10
70.89103234868352
 20
23.69305939529086
 30
0.0
 11
70.79728234868352
 21
23.69305939529086
 31
0.0
  0
POLYLINE
  5
31B
330
6C
100
AcDbEntity
  8
Visible (ANSI)
100
AcDb2dPolyline
 66
     1
 10
0.0
 20
0.0
 30
0.0
 70
   128
  0
VERTEX
  5
31C
330
31B
100
AcDbEntity
  8
Visible (ANSI)
100
AcDbVertex
100
AcDb2dVertex
 10
70.89103234868352
 20
23.69305939341355
 30
0.0
  0
VERTEX
  5
31D
330
31B
100
AcDbEntity
  8
Visible (ANSI)
100
AcDbVertex
100
AcDb2dVertex
 10
70.89109925732985
 20
23.6945194490802
 30
0.0
  0
VERTEX
  5
31F
330
31B
100
AcDbEntity
  8
Visible (ANSI)
100
AcDbVertex
100
AcDb2dVertex
 10
70.89129969676801
 20
23.69597950474684
 30
0.0
  0
VERTEX
  5
320
330
31B
100
AcDbEntity
  8
Visible (ANSI)
100
AcDbVertex
100
AcDb2dVertex
 10
70.89163280869279
 20
23.69743954868029
 30
0.0
  0
VERTEX
  5
321
330
31B
100
AcDbEntity
  8
Visible (ANSI)
100
AcDbVertex
100
AcDb2dVertex
 10
70.89209716663265
 20
23.69889960434694
 30
0.0
  0
VERTEX
  5
322
330
31B
100
AcDbEntity
  8
Visible (ANSI)
100
AcDbVertex
100
AcDb2dVertex
 10
70.89269078210849
 20
23.70035966001358
 30
0.0
  0
VERTEX
  5
323
330
31B
100
AcDbEntity
  8
Visible (ANSI)
100
AcDbVertex
100
AcDb2dVertex
 10
70.89341111337049
 20
23.70181971568023
 30
0.0
  0
VERTEX
  5
324
330
31B
100
AcDbEntity
  8
Visible (ANSI)
100
AcDbVertex
100
AcDb2dVertex
 10
70.89425507568764
 20
23.70327975961367
 30
0.0
  0
VERTEX
  5
325
330
31B
100
AcDbEntity
  8
Visible (ANSI)
100
AcDbVertex
100
AcDb2dVertex
 10
70.895219054685
 20
23.70473981528032
 30
0.0
  0
VERTEX
  5
326
330
31B
100
AcDbEntity
  8
Visible (ANSI)
100
AcDbVertex
100
AcDb2dVertex
 10
70.89629892321027
 20
23.70619987094697
 30
0.0
  0
VERTEX
  5
327
330
31B
100
AcDbEntity
  8
Visible (ANSI)
100
AcDbVertex
100
AcDb2dVertex
 10
70.89749005655019
 20
23.70765991488041
 30
0.0
  0
VERTEX
  5
328
330
31B
100
AcDbEntity
  8
Visible (ANSI)
100
AcDbVertex
100
AcDb2dVertex
 10
70.89878735443036
 20
23.70911997054706
 30
0.0
  0
VERTEX
  5
329
330
31B
100
AcDbEntity
  8
Visible (ANSI)
100
AcDbVertex
100
AcDb2dVertex
 10
70.90018526154828
 20
23.7105800262137
 30
0.0
  0
VERTEX
  5
32A
330
31B
100
AcDbEntity
  8
Visible (ANSI)
100
AcDbVertex
100
AcDb2dVertex
 10
70.90167779177313
 20
23.71204008188035
 30
0.0
  0
VERTEX
  5
32B
330
31B
100
AcDbEntity
  8
Visible (ANSI)
100
AcDbVertex
100
AcDb2dVertex
 10
70.90325855417869
 20
23.7135001258138
 30
0.0
  0
VERTEX
  5
32C
330
31B
100
AcDbEntity
  8
Visible (ANSI)
100
AcDbVertex
100
AcDb2dVertex
 10
70.90492077944318
 20
23.71496018148044
 30
0.0
  0
VERTEX
  5
32D
330
31B
100
AcDbEntity
  8
Visible (ANSI)
100
AcDbVertex
100
AcDb2dVertex
 10
70.90665734844886
 20
23.71642023714709
 30
0.0
  0
VERTEX
  5
32E
330
31B
100
AcDbEntity
  8
Visible (ANSI)
100
AcDbVertex
100
AcDb2dVertex
 10
70.90846082748157
 20
23.71788029281374
 30
0.0
  0
VERTEX
  5
32F
330
31B
100
AcDbEntity
  8
Visible (ANSI)
100
AcDbVertex
100
AcDb2dVertex
 10
70.91032349169726
 20
23.71934033674718
 30
0.0
  0
VERTEX
  5
330
330
31B
100
AcDbEntity
  8
Visible (ANSI)
100
AcDbVertex
100
AcDb2dVertex
 10
70.9122373654547
 20
23.72080039241383
 30
0.0
  0
VERTEX
  5
331
330
31B
100
AcDbEntity
  8
Visible (ANSI)
100
AcDbVertex
100
AcDb2dVertex
 10
70.91419425311524
 20
23.72226044808047
 30
0.0
  0
VERTEX
  5
332
330
31B
100
AcDbEntity
  8
Visible (ANSI)
100
AcDbVertex
100
AcDb2dVertex
 10
70.91618577570899
 20
23.72372050374712
 30
0.0
  0
VERTEX
  5
333
330
31B
100
AcDbEntity
  8
Visible (ANSI)
100
AcDbVertex
100
AcDb2dVertex
 10
70.91820340466783
 20
23.72518054768057
 30
0.0
  0
VERTEX
  5
334
330
31B
100
AcDbEntity
  8
Visible (ANSI)
100
AcDbVertex
100
AcDb2dVertex
 10
70.92023850142489
 20
23.72664060334721
 30
0.0
  0
VERTEX
  5
335
330
31B
100
AcDbEntity
  8
Visible (ANSI)
100
AcDbVertex
100
AcDb2dVertex
 10
70.92228234821421
 20
23.72810065901386
 30
0.0
  0
SEQEND
  5
31E
330
31B
100
AcDbEntity
  8
Visible (ANSI)
  0
POLYLINE
  5
336
330
6C
100
AcDbEntity
  8
Visible (ANSI)
100
AcDb2dPolyline
 66
     1
 10
0.0
 20
0.0
 30
0.0
 70
   128
  0
VERTEX
  5
337
330
336
100
AcDbEntity
  8
Visible (ANSI)
100
AcDbVertex
100
AcDb2dVertex
 10
70.89103234868352
 20
63.3230591117417
 30
0.0
  0
VERTEX
  5
338
330
336
100
AcDbEntity
  8
Visible (ANSI)
100
AcDbVertex
100
AcDb2dVertex
 10
70.89109925732985
 20
63.32159931420541
 30
0.0
  0
VERTEX
  5
33A
330
336
100
AcDbEntity
  8
Visible (ANSI)
100
AcDbVertex
100
AcDb2dVertex
 10
70.89129969676801
 20
63.32013951666912
 30
0.0
  0
VERTEX
  5
33B
330
336
100
AcDbEntity
  8
Visible (ANSI)
100
AcDbVertex
100
AcDb2dVertex
 10
70.89163280869279
 20
63.31867971913283
 30
0.0
  0
VERTEX
  5
33C
330
336
100
AcDbEntity
  8
Visible (ANSI)
100
AcDbVertex
100
AcDb2dVertex
 10
70.89209716663265
 20
63.31721992159653
 30
0.0
  0
VERTEX
  5
33D
330
336
100
AcDbEntity
  8
Visible (ANSI)
100
AcDbVertex
100
AcDb2dVertex
 10
70.89269078210849
 20
63.31576012406024
 30
0.0
  0
VERTEX
  5
33E
330
336
100
AcDbEntity
  8
Visible (ANSI)
100
AcDbVertex
100
AcDb2dVertex
 10
70.89341111337049
 20
63.31430032652394
 30
0.0
  0
VERTEX
  5
33F
330
336
100
AcDbEntity
  8
Visible (ANSI)
100
AcDbVertex
100
AcDb2dVertex
 10
70.89425507568764
 20
63.31284052898765
 30
0.0
  0
VERTEX
  5
340
330
336
100
AcDbEntity
  8
Visible (ANSI)
100
AcDbVertex
100
AcDb2dVertex
 10
70.895219054685
 20
63.31137772775272
 30
0.0
  0
VERTEX
  5
341
330
336
100
AcDbEntity
  8
Visible (ANSI)
100
AcDbVertex
100
AcDb2dVertex
 10
70.89629892321027
 20
63.30991793021643
 30
0.0
  0
VERTEX
  5
342
330
336
100
AcDbEntity
  8
Visible (ANSI)
100
AcDbVertex
100
AcDb2dVertex
 10
70.89749005655019
 20
63.30845813268012
 30
0.0
  0
VERTEX
  5
343
330
336
100
AcDbEntity
  8
Visible (ANSI)
100
AcDbVertex
100
AcDb2dVertex
 10
70.89878735443036
 20
63.30699833514383
 30
0.0
  0
VERTEX
  5
344
330
336
100
AcDbEntity
  8
Visible (ANSI)
100
AcDbVertex
100
AcDb2dVertex
 10
70.90018526154828
 20
63.30553853760754
 30
0.0
  0
VERTEX
  5
345
330
336
100
AcDbEntity
  8
Visible (ANSI)
100
AcDbVertex
100
AcDb2dVertex
 10
70.90167779177313
 20
63.30407874007125
 30
0.0
  0
VERTEX
  5
346
330
336
100
AcDbEntity
  8
Visible (ANSI)
100
AcDbVertex
100
AcDb2dVertex
 10
70.90325855417869
 20
63.30261894253496
 30
0.0
  0
VERTEX
  5
347
330
336
100
AcDbEntity
  8
Visible (ANSI)
100
AcDbVertex
100
AcDb2dVertex
 10
70.90492077944318
 20
63.30115914499866
 30
0.0
  0
VERTEX
  5
348
330
336
100
AcDbEntity
  8
Visible (ANSI)
100
AcDbVertex
100
AcDb2dVertex
 10
70.90665734844886
 20
63.29969934746237
 30
0.0
  0
VERTEX
  5
349
330
336
100
AcDbEntity
  8
Visible (ANSI)
100
AcDbVertex
100
AcDb2dVertex
 10
70.90846082748157
 20
63.29823954992607
 30
0.0
  0
VERTEX
  5
34A
330
336
100
AcDbEntity
  8
Visible (ANSI)
100
AcDbVertex
100
AcDb2dVertex
 10
70.91032349169726
 20
63.29677975238977
 30
0.0
  0
VERTEX
  5
34B
330
336
100
AcDbEntity
  8
Visible (ANSI)
100
AcDbVertex
100
AcDb2dVertex
 10
70.9122373654547
 20
63.29531695115484
 30
0.0
  0
VERTEX
  5
34C
330
336
100
AcDbEntity
  8
Visible (ANSI)
100
AcDbVertex
100
AcDb2dVertex
 10
70.91419425311524
 20
63.29385715361855
 30
0.0
  0
VERTEX
  5
34D
330
336
100
AcDbEntity
  8
Visible (ANSI)
100
AcDbVertex
100
AcDb2dVertex
 10
70.91618577570899
 20
63.29239735608226
 30
0.0
  0
VERTEX
  5
34E
330
336
100
AcDbEntity
  8
Visible (ANSI)
100
AcDbVertex
100
AcDb2dVertex
 10
70.91820340466783
 20
63.29093755854596
 30
0.0
  0
VERTEX
  5
34F
330
336
100
AcDbEntity
  8
Visible (ANSI)
100
AcDbVertex
100
AcDb2dVertex
 10
70.92023850142489
 20
63.28947776100967
 30
0.0
  0
VERTEX
  5
350
330
336
100
AcDbEntity
  8
Visible (ANSI)
100
AcDbVertex
100
AcDb2dVertex
 10
70.92228234821421
 20
63.28801796347338
 30
0.0
  0
SEQEND
  5
339
330
336
100
AcDbEntity
  8
Visible (ANSI)
  0
LINE
  5
351
330
6C
100
AcDbEntity
  8
Visible (ANSI)
100
AcDbLine
 10
70.89103234868352
 20
63.32305939529086
 30
0.0
 11
70.79728234868352
 21
63.32305939529086
 31
0.0
  0
LINE
  5
352
330
6C
100
AcDbEntity
  8
Visible (ANSI)
100
AcDbLine
 10
70.92228234868355
 20
63.28801813455463
 30
0.0
 11
71.67228234868355
 21
63.28801813455463
 31
0.0
  0
POLYLINE
  5
353
330
6C
100
AcDbEntity
  8
Visible (ANSI)
100
AcDb2dPolyline
 66
     1
 10
0.0
 20
0.0
 30
0.0
 70
   128
  0
VERTEX
  5
354
330
353
100
AcDbEntity
  8
Visible (ANSI)
100
AcDbVertex
100
AcDb2dVertex
 10
70.92228234821418
 20
63.4480580304102
 30
0.0
  0
VERTEX
  5
355
330
353
100
AcDbEntity
  8
Visible (ANSI)
100
AcDbVertex
100
AcDb2dVertex
 10
70.91410695812365
 20
63.44779070123174
 30
0.0
  0
VERTEX
  5
357
330
353
100
AcDbEntity
  8
Visible (ANSI)
100
AcDbVertex
100
AcDb2dVertex
 10
70.90596657402873
 20
63.44698871369637
 30
0.0
  0
VERTEX
  5
358
330
353
100
AcDbEntity
  8
Visible (ANSI)
100
AcDbVertex
100
AcDb2dVertex
 10
70.89789605819335
 20
63.44565807520135
 30
0.0
  0
VERTEX
  5
359
330
353
100
AcDbEntity
  8
Visible (ANSI)
100
AcDbVertex
100
AcDb2dVertex
 10
70.88992996800164
 20
63.44379878574669
 30
0.0
  0
VERTEX
  5
35A
330
353
100
AcDbEntity
  8
Visible (ANSI)
100
AcDbVertex
100
AcDb2dVertex
 10
70.88210241570952
 20
63.44142586382556
 30
0.0
  0
VERTEX
  5
35B
330
353
100
AcDbEntity
  8
Visible (ANSI)
100
AcDbVertex
100
AcDb2dVertex
 10
70.87444691921314
 20
63.43854531683521
 30
0.0
  0
VERTEX
  5
35C
330
353
100
AcDbEntity
  8
Visible (ANSI)
100
AcDbVertex
100
AcDb2dVertex
 10
70.86699626235042
 20
63.4351691595702
 30
0.0
  0
VERTEX
  5
35D
330
353
100
AcDbEntity
  8
Visible (ANSI)
100
AcDbVertex
100
AcDb2dVertex
 10
70.85978234915284
 20
63.43131241052369
 30
0.0
  0
VERTEX
  5
35E
330
353
100
AcDbEntity
  8
Visible (ANSI)
100
AcDbVertex
100
AcDb2dVertex
 10
70.85283607019684
 20
63.4269930918875
 30
0.0
  0
VERTEX
  5
35F
330
353
100
AcDbEntity
  8
Visible (ANSI)
100
AcDbVertex
100
AcDb2dVertex
 10
70.84618716913884
 20
63.42222922585342
 30
0.0
  0
VERTEX
  5
360
330
353
100
AcDbEntity
  8
Visible (ANSI)
100
AcDbVertex
100
AcDb2dVertex
 10
70.83986411951659
 20
63.41703883461327
 30
0.0
  0
VERTEX
  5
361
330
353
100
AcDbEntity
  8
Visible (ANSI)
100
AcDbVertex
100
AcDb2dVertex
 10
70.83389399861727
 20
63.41144895145474
 30
0.0
  0
VERTEX
  5
362
330
353
100
AcDbEntity
  8
Visible (ANSI)
100
AcDbVertex
100
AcDb2dVertex
 10
70.82830237307887
 20
63.40547759856964
 30
0.0
  0
VERTEX
  5
363
330
353
100
AcDbEntity
  8
Visible (ANSI)
100
AcDbVertex
100
AcDb2dVertex
 10
70.82311317862489
 20
63.39915481294434
 30
0.0
  0
VERTEX
  5
364
330
353
100
AcDbEntity
  8
Visible (ANSI)
100
AcDbVertex
100
AcDb2dVertex
 10
70.81834864966514
 20
63.39250462416789
 30
0.0
  0
VERTEX
  5
365
330
353
100
AcDbEntity
  8
Visible (ANSI)
100
AcDbVertex
100
AcDb2dVertex
 10
70.81402917263076
 20
63.38556007292527
 30
0.0
  0
VERTEX
  5
366
330
353
100
AcDbEntity
  8
Visible (ANSI)
100
AcDbVertex
100
AcDb2dVertex
 10
70.81017325664131
 20
63.37834518880556
 30
0.0
  0
VERTEX
  5
367
330
353
100
AcDbEntity
  8
Visible (ANSI)
100
AcDbVertex
100
AcDb2dVertex
 10
70.80679740443944
 20
63.37089601619237
 30
0.0
  0
VERTEX
  5
368
330
353
100
AcDbEntity
  8
Visible (ANSI)
100
AcDbVertex
100
AcDb2dVertex
 10
70.80391608305806
 20
63.36323958837341
 30
0.0
  0
VERTEX
  5
369
330
353
100
AcDbEntity
  8
Visible (ANSI)
100
AcDbVertex
100
AcDb2dVertex
 10
70.8015416182214
 20
63.3554119497323
 30
0.0
  0
VERTEX
  5
36A
330
353
100
AcDbEntity
  8
Visible (ANSI)
100
AcDbVertex
100
AcDb2dVertex
 10
70.79968418847859
 20
63.347446140954
 30
0.0
  0
VERTEX
  5
36B
330
353
100
AcDbEntity
  8
Visible (ANSI)
100
AcDbVertex
100
AcDb2dVertex
 10
70.79835174307112
 20
63.3393752027235
 30
0.0
  0
VERTEX
  5
36C
330
353
100
AcDbEntity
  8
Visible (ANSI)
100
AcDbVertex
100
AcDb2dVertex
 10
70.7975499843331
 20
63.33123517942441
 30
0.0
  0
VERTEX
  5
36D
330
353
100
AcDbEntity
  8
Visible (ANSI)
100
AcDbVertex
100
AcDb2dVertex
 10
70.79728235009151
 20
63.3230591117417
 30
0.0
  0
SEQEND
  5
356
330
353
100
AcDbEntity
  8
Visible (ANSI)
  0
LINE
  5
36E
330
6C
100
AcDbEntity
  8
Visible (ANSI)
100
AcDbLine
 10
70.9222823486835
 20
63.35430939529086
 30
0.0
 11
71.67228234868351
 21
63.3543093952909
 31
0.0
  0
LINE
  5
36F
330
6C
100
AcDbEntity
  8
Visible (ANSI)
100
AcDbLine
 10
71.67228234868351
 20
63.4480593952909
 30
0.0
 11
70.9222823486835
 21
63.44805939529085
 31
0.0
  0
LINE
  5
370
330
6C
100
AcDbEntity
  8
Visible (ANSI)
100
AcDbLine
 10
70.9222823486835
 20
63.35430939529086
 30
0.0
 11
70.9222823486835
 21
63.44805939529085
 31
0.0
  0
LINE
  5
371
330
6C
100
AcDbEntity
  8
Visible (ANSI)
100
AcDbLine
 10
71.67228234868351
 20
63.3543093952909
 30
0.0
 11
71.67228234868351
 21
63.4480593952909
 31
0.0
  0
POLYLINE
  5
372
330
6C
100
AcDbEntity
  8
Visible (ANSI)
100
AcDb2dPolyline
 66
     1
 10
0.0
 20
0.0
 30
0.0
 70
   128
  0
VERTEX
  5
373
330
372
100
AcDbEntity
  8
Visible (ANSI)
100
AcDbVertex
100
AcDb2dVertex
 10
70.89103234868352
 20
63.3230591117417
 30
0.0
  0
VERTEX
  5
374
330
372
100
AcDbEntity
  8
Visible (ANSI)
100
AcDbVertex
100
AcDb2dVertex
 10
70.89109925732985
 20
63.3251046305117
 30
0.0
  0
VERTEX
  5
376
330
372
100
AcDbEntity
  8
Visible (ANSI)
100
AcDbVertex
100
AcDb2dVertex
 10
70.89129969676801
 20
63.32713813448716
 30
0.0
  0
VERTEX
  5
377
330
372
100
AcDbEntity
  8
Visible (ANSI)
100
AcDbVertex
100
AcDb2dVertex
 10
70.89163280869279
 20
63.32915661996944
 30
0.0
  0
VERTEX
  5
378
330
372
100
AcDbEntity
  8
Visible (ANSI)
100
AcDbVertex
100
AcDb2dVertex
 10
70.89209716663265
 20
63.33114807216401
 30
0.0
  0
VERTEX
  5
379
330
372
100
AcDbEntity
  8
Visible (ANSI)
100
AcDbVertex
100
AcDb2dVertex
 10
70.89269078210849
 20
63.33310347997497
 30
0.0
  0
VERTEX
  5
37A
330
372
100
AcDbEntity
  8
Visible (ANSI)
100
AcDbVertex
100
AcDb2dVertex
 10
70.89341111337049
 20
63.33501683600506
 30
0.0
  0
VERTEX
  5
37B
330
372
100
AcDbEntity
  8
Visible (ANSI)
100
AcDbVertex
100
AcDb2dVertex
 10
70.89425507568762
 20
63.33688213285699
 30
0.0
  0
VERTEX
  5
37C
330
372
100
AcDbEntity
  8
Visible (ANSI)
100
AcDbVertex
100
AcDb2dVertex
 10
70.89521905468498
 20
63.33868435203759
 30
0.0
  0
VERTEX
  5
37D
330
372
100
AcDbEntity
  8
Visible (ANSI)
100
AcDbVertex
100
AcDb2dVertex
 10
70.89629892321025
 20
63.34042048984826
 30
0.0
  0
VERTEX
  5
37E
330
372
100
AcDbEntity
  8
Visible (ANSI)
100
AcDbVertex
100
AcDb2dVertex
 10
70.89749005655018
 20
63.34208453889168
 30
0.0
  0
VERTEX
  5
37F
330
372
100
AcDbEntity
  8
Visible (ANSI)
100
AcDbVertex
100
AcDb2dVertex
 10
70.89878735443035
 20
63.34366448437335
 30
0.0
  0
VERTEX
  5
380
330
372
100
AcDbEntity
  8
Visible (ANSI)
100
AcDbVertex
100
AcDb2dVertex
 10
70.90018526154827
 20
63.34515732259462
 30
0.0
  0
VERTEX
  5
381
330
372
100
AcDbEntity
  8
Visible (ANSI)
100
AcDbVertex
100
AcDb2dVertex
 10
70.90167779177311
 20
63.34655404245959
 30
0.0
  0
VERTEX
  5
382
330
372
100
AcDbEntity
  8
Visible (ANSI)
100
AcDbVertex
100
AcDb2dVertex
 10
70.90325855417868
 20
63.34785164026964
 30
0.0
  0
VERTEX
  5
383
330
372
100
AcDbEntity
  8
Visible (ANSI)
100
AcDbVertex
100
AcDb2dVertex
 10
70.90492077944317
 20
63.34904410862748
 30
0.0
  0
VERTEX
  5
384
330
372
100
AcDbEntity
  8
Visible (ANSI)
100
AcDbVertex
100
AcDb2dVertex
 10
70.90665734844884
 20
63.35012243643721
 30
0.0
  0
VERTEX
  5
385
330
372
100
AcDbEntity
  8
Visible (ANSI)
100
AcDbVertex
100
AcDb2dVertex
 10
70.90846082748156
 20
63.35108662369883
 30
0.0
  0
VERTEX
  5
386
330
372
100
AcDbEntity
  8
Visible (ANSI)
100
AcDbVertex
100
AcDb2dVertex
 10
70.91032349169724
 20
63.35193066301508
 30
0.0
  0
VERTEX
  5
387
330
372
100
AcDbEntity
  8
Visible (ANSI)
100
AcDbVertex
100
AcDb2dVertex
 10
70.91223736545469
 20
63.35265155068732
 30
0.0
  0
VERTEX
  5
388
330
372
100
AcDbEntity
  8
Visible (ANSI)
100
AcDbVertex
100
AcDb2dVertex
 10
70.91419425311521
 20
63.3532432793183
 30
0.0
  0
VERTEX
  5
389
330
372
100
AcDbEntity
  8
Visible (ANSI)
100
AcDbVertex
100
AcDb2dVertex
 10
70.91618577570897
 20
63.35370885260662
 30
0.0
  0
VERTEX
  5
38A
330
372
100
AcDbEntity
  8
Visible (ANSI)
100
AcDbVertex
100
AcDb2dVertex
 10
70.91820340466782
 20
63.35404226315503
 30
0.0
  0
VERTEX
  5
38B
330
372
100
AcDbEntity
  8
Visible (ANSI)
100
AcDbVertex
100
AcDb2dVertex
 10
70.92023850142488
 20
63.35424351096353
 30
0.0
  0
VERTEX
  5
38C
330
372
100
AcDbEntity
  8
Visible (ANSI)
100
AcDbVertex
100
AcDb2dVertex
 10
70.92228234821418
 20
63.35430959233349
 30
0.0
  0
SEQEND
  5
375
330
372
100
AcDbEntity
  8
Visible (ANSI)
  0
POLYLINE
  5
38D
330
6C
100
AcDbEntity
  8
Visible (ANSI)
100
AcDb2dPolyline
 66
     1
 10
0.0
 20
0.0
 30
0.0
 70
   128
  0
VERTEX
  5
38E
330
38D
100
AcDbEntity
  8
Visible (ANSI)
100
AcDbVertex
100
AcDb2dVertex
 10
70.79728235009151
 20
23.69305939341355
 30
0.0
  0
VERTEX
  5
38F
330
38D
100
AcDbEntity
  8
Visible (ANSI)
100
AcDbVertex
100
AcDb2dVertex
 10
70.7975499843331
 20
23.68488400625632
 30
0.0
  0
VERTEX
  5
391
330
38D
100
AcDbEntity
  8
Visible (ANSI)
100
AcDbVertex
100
AcDb2dVertex
 10
70.79835174307112
 20
23.6767436192281
 30
0.0
  0
VERTEX
  5
392
330
38D
100
AcDbEntity
  8
Visible (ANSI)
100
AcDbVertex
100
AcDb2dVertex
 10
70.79968418847859
 20
23.66867310339272
 30
0.0
  0
VERTEX
  5
393
330
38D
100
AcDbEntity
  8
Visible (ANSI)
100
AcDbVertex
100
AcDb2dVertex
 10
70.8015416182214
 20
23.66070701301767
 30
0.0
  0
VERTEX
  5
394
330
38D
100
AcDbEntity
  8
Visible (ANSI)
100
AcDbVertex
100
AcDb2dVertex
 10
70.80391608305806
 20
23.65287946237554
 30
0.0
  0
VERTEX
  5
395
330
38D
100
AcDbEntity
  8
Visible (ANSI)
100
AcDbVertex
100
AcDb2dVertex
 10
70.80679740443944
 20
23.64522396734581
 30
0.0
  0
VERTEX
  5
396
330
38D
100
AcDbEntity
  8
Visible (ANSI)
100
AcDbVertex
100
AcDb2dVertex
 10
70.81017325664131
 20
23.6377733104831
 30
0.0
  0
VERTEX
  5
397
330
38D
100
AcDbEntity
  8
Visible (ANSI)
100
AcDbVertex
100
AcDb2dVertex
 10
70.81402917263076
 20
23.6305593943522
 30
0.0
  0
VERTEX
  5
398
330
38D
100
AcDbEntity
  8
Visible (ANSI)
100
AcDbVertex
100
AcDb2dVertex
 10
70.81834864966514
 20
23.62361311832951
 30
0.0
  0
VERTEX
  5
399
330
38D
100
AcDbEntity
  8
Visible (ANSI)
100
AcDbVertex
100
AcDb2dVertex
 10
70.82311317862489
 20
23.61696421727152
 30
0.0
  0
VERTEX
  5
39A
330
38D
100
AcDbEntity
  8
Visible (ANSI)
100
AcDbVertex
100
AcDb2dVertex
 10
70.82830237307887
 20
23.61064116764926
 30
0.0
  0
VERTEX
  5
39B
330
38D
100
AcDbEntity
  8
Visible (ANSI)
100
AcDbVertex
100
AcDb2dVertex
 10
70.83389399861727
 20
23.60467104674994
 30
0.0
  0
VERTEX
  5
39C
330
38D
100
AcDbEntity
  8
Visible (ANSI)
100
AcDbVertex
100
AcDb2dVertex
 10
70.83986411951659
 20
23.59907941827824
 30
0.0
  0
VERTEX
  5
39D
330
38D
100
AcDbEntity
  8
Visible (ANSI)
100
AcDbVertex
100
AcDb2dVertex
 10
70.84618716913884
 20
23.59389022675756
 30
0.0
  0
VERTEX
  5
39E
330
38D
100
AcDbEntity
  8
Visible (ANSI)
100
AcDbVertex
100
AcDb2dVertex
 10
70.85283607019684
 20
23.58912569339786
 30
0.0
  0
VERTEX
  5
39F
330
38D
100
AcDbEntity
  8
Visible (ANSI)
100
AcDbVertex
100
AcDb2dVertex
 10
70.85978234915284
 20
23.58480621929679
 30
0.0
  0
VERTEX
  5
3A0
330
38D
100
AcDbEntity
  8
Visible (ANSI)
100
AcDbVertex
100
AcDb2dVertex
 10
70.86699626235042
 20
23.58095030330733
 30
0.0
  0
VERTEX
  5
3A1
330
38D
100
AcDbEntity
  8
Visible (ANSI)
100
AcDbVertex
100
AcDb2dVertex
 10
70.87444691921314
 20
23.57757445403876
 30
0.0
  0
VERTEX
  5
3A2
330
38D
100
AcDbEntity
  8
Visible (ANSI)
100
AcDbVertex
100
AcDb2dVertex
 10
70.88210241570952
 20
23.57469312899073
 30
0.0
  0
VERTEX
  5
3A3
330
38D
100
AcDbEntity
  8
Visible (ANSI)
100
AcDbVertex
100
AcDb2dVertex
 10
70.88992996800164
 20
23.57231866708739
 30
0.0
  0
VERTEX
  5
3A4
330
38D
100
AcDbEntity
  8
Visible (ANSI)
100
AcDbVertex
100
AcDb2dVertex
 10
70.89789605819335
 20
23.57046123532793
 30
0.0
  0
VERTEX
  5
3A5
330
38D
100
AcDbEntity
  8
Visible (ANSI)
100
AcDbVertex
100
AcDb2dVertex
 10
70.90596657402873
 20
23.56912878762882
 30
0.0
  0
VERTEX
  5
3A6
330
38D
100
AcDbEntity
  8
Visible (ANSI)
100
AcDbVertex
100
AcDb2dVertex
 10
70.91410695812365
 20
23.5683270298762
 30
0.0
  0
VERTEX
  5
3A7
330
38D
100
AcDbEntity
  8
Visible (ANSI)
100
AcDbVertex
100
AcDb2dVertex
 10
70.92228234821418
 20
23.56805939529086
 30
0.0
  0
SEQEND
  5
390
330
38D
100
AcDbEntity
  8
Visible (ANSI)
  0
LINE
  5
3A8
330
6C
100
AcDbEntity
  8
Visible (ANSI)
100
AcDbLine
 10
70.9222823486835
 20
23.66180939529086
 30
0.0
 11
71.67228234868351
 21
23.66180939529086
 31
0.0
  0
LINE
  5
3A9
330
6C
100
AcDbEntity
  8
Visible (ANSI)
100
AcDbLine
 10
70.9222823486835
 20
23.66180939529086
 30
0.0
 11
70.9222823486835
 21
23.56805939529086
 31
0.0
  0
POLYLINE
  5
3AA
330
6C
100
AcDbEntity
  8
Visible (ANSI)
100
AcDb2dPolyline
 66
     1
 10
0.0
 20
0.0
 30
0.0
 70
   128
  0
VERTEX
  5
3AB
330
3AA
100
AcDbEntity
  8
Visible (ANSI)
100
AcDbVertex
100
AcDb2dVertex
 10
70.89103234868352
 20
23.69305939341355
 30
0.0
  0
VERTEX
  5
3AC
330
3AA
100
AcDbEntity
  8
Visible (ANSI)
100
AcDbVertex
100
AcDb2dVertex
 10
70.89109925732985
 20
23.69101555249084
 30
0.0
  0
VERTEX
  5
3AE
330
3AA
100
AcDbEntity
  8
Visible (ANSI)
100
AcDbVertex
100
AcDb2dVertex
 10
70.89129969676801
 20
23.68898045280049
 30
0.0
  0
VERTEX
  5
3AF
330
3AA
100
AcDbEntity
  8
Visible (ANSI)
100
AcDbVertex
100
AcDb2dVertex
 10
70.89163280869279
 20
23.68696282384164
 30
0.0
  0
VERTEX
  5
3B0
330
3AA
100
AcDbEntity
  8
Visible (ANSI)
100
AcDbVertex
100
AcDb2dVertex
 10
70.89209716663265
 20
23.68497130124788
 30
0.0
  0
VERTEX
  5
3B1
330
3AA
100
AcDbEntity
  8
Visible (ANSI)
100
AcDbVertex
100
AcDb2dVertex
 10
70.89269078210849
 20
23.683014415054
 30
0.0
  0
VERTEX
  5
3B2
330
3AA
100
AcDbEntity
  8
Visible (ANSI)
100
AcDbVertex
100
AcDb2dVertex
 10
70.89341111337049
 20
23.68110054276321
 30
0.0
  0
VERTEX
  5
3B3
330
3AA
100
AcDbEntity
  8
Visible (ANSI)
100
AcDbVertex
100
AcDb2dVertex
 10
70.89425507568762
 20
23.67923787414758
 30
0.0
  0
VERTEX
  5
3B4
330
3AA
100
AcDbEntity
  8
Visible (ANSI)
100
AcDbVertex
100
AcDb2dVertex
 10
70.89521905468498
 20
23.67743439951481
 30
0.0
  0
VERTEX
  5
3B5
330
3AA
100
AcDbEntity
  8
Visible (ANSI)
100
AcDbVertex
100
AcDb2dVertex
 10
70.89629892321025
 20
23.67569782757584
 30
0.0
  0
VERTEX
  5
3B6
330
3AA
100
AcDbEntity
  8
Visible (ANSI)
100
AcDbVertex
100
AcDb2dVertex
 10
70.89749005655018
 20
23.67403559717807
 30
0.0
  0
VERTEX
  5
3B7
330
3AA
100
AcDbEntity
  8
Visible (ANSI)
100
AcDbVertex
100
AcDb2dVertex
 10
70.89878735443035
 20
23.67245484210575
 30
0.0
  0
VERTEX
  5
3B8
330
3AA
100
AcDbEntity
  8
Visible (ANSI)
100
AcDbVertex
100
AcDb2dVertex
 10
70.90018526154827
 20
23.67096230894762
 30
0.0
  0
VERTEX
  5
3B9
330
3AA
100
AcDbEntity
  8
Visible (ANSI)
100
AcDbVertex
100
AcDb2dVertex
 10
70.90167779177311
 20
23.66956440402967
 30
0.0
  0
VERTEX
  5
3BA
330
3AA
100
AcDbEntity
  8
Visible (ANSI)
100
AcDbVertex
100
AcDb2dVertex
 10
70.90325855417868
 20
23.66826709954958
 30
0.0
  0
VERTEX
  5
3BB
330
3AA
100
AcDbEntity
  8
Visible (ANSI)
100
AcDbVertex
100
AcDb2dVertex
 10
70.90492077944317
 20
23.66707596877629
 30
0.0
  0
VERTEX
  5
3BC
330
3AA
100
AcDbEntity
  8
Visible (ANSI)
100
AcDbVertex
100
AcDb2dVertex
 10
70.90665734844884
 20
23.66599610391765
 30
0.0
  0
VERTEX
  5
3BD
330
3AA
100
AcDbEntity
  8
Visible (ANSI)
100
AcDbVertex
100
AcDb2dVertex
 10
70.90846082748156
 20
23.66503212198698
 30
0.0
  0
VERTEX
  5
3BE
330
3AA
100
AcDbEntity
  8
Visible (ANSI)
100
AcDbVertex
100
AcDb2dVertex
 10
70.91032349169724
 20
23.66418815893651
 30
0.0
  0
VERTEX
  5
3BF
330
3AA
100
AcDbEntity
  8
Visible (ANSI)
100
AcDbVertex
100
AcDb2dVertex
 10
70.91223736545469
 20
23.66346782859116
 30
0.0
  0
VERTEX
  5
3C0
330
3AA
100
AcDbEntity
  8
Visible (ANSI)
100
AcDbVertex
100
AcDb2dVertex
 10
70.91419425311521
 20
23.66287421091535
 30
0.0
  0
VERTEX
  5
3C1
330
3AA
100
AcDbEntity
  8
Visible (ANSI)
100
AcDbVertex
100
AcDb2dVertex
 10
70.91618577570897
 20
23.6624098578796
 30
0.0
  0
VERTEX
  5
3C2
330
3AA
100
AcDbEntity
  8
Visible (ANSI)
100
AcDbVertex
100
AcDb2dVertex
 10
70.91820340466782
 20
23.66207674066113
 30
0.0
  0
VERTEX
  5
3C3
330
3AA
100
AcDbEntity
  8
Visible (ANSI)
100
AcDbVertex
100
AcDb2dVertex
 10
70.92023850142488
 20
23.66187630244327
 30
0.0
  0
VERTEX
  5
3C4
330
3AA
100
AcDbEntity
  8
Visible (ANSI)
100
AcDbVertex
100
AcDb2dVertex
 10
70.92228234821418
 20
23.66180939388287
 30
0.0
  0
SEQEND
  5
3AD
330
3AA
100
AcDbEntity
  8
Visible (ANSI)
  0
LINE
  5
3C5
330
6C
100
AcDbEntity
  8
Visible (ANSI)
100
AcDbLine
 10
70.9222823486835
 20
23.56805939529086
 30
0.0
 11
71.67228234868351
 21
23.56805939529086
 31
0.0
  0
LINE
  5
3C6
330
6C
100
AcDbEntity
  8
Visible (ANSI)
100
AcDbLine
 10
71.67228234868351
 20
23.66180939529086
 30
0.0
 11
71.67228234868351
 21
23.56805939529086
 31
0.0
  0
LINE
  5
3C7
330
6C
100
AcDbEntity
  8
Visible (ANSI)
100
AcDbLine
 10
70.79728234868352
 20
23.69305939529086
 30
0.0
 11
70.79728234868352
 21
63.32305939529086
 31
0.0
  0
LINE
  5
3C8
330
6C
100
AcDbEntity
  8
Hidden (ANSI)
100
AcDbLine
 10
70.89103234868352
 20
63.32305939529086
 30
0.0
 11
70.89103234868352
 21
23.69305939529086
 31
0.0
  0
LINE
  5
3C9
330
6C
100
AcDbEntity
  8
Visible (ANSI)
100
AcDbLine
 10
71.67228234868355
 20
63.28801813455463
 30
0.0
 11
71.67228234868357
 21
23.7281006560271
 31
0.0
  0
LINE
  5
3CA
330
6C
100
AcDbEntity
  8
Hidden (ANSI)
100
AcDbLine
 10
70.89103234868329
 20
24.16155939529086
 30
0.0
 11
70.7972823486833
 21
24.16155939529086
 31
0.0
  0
LINE
  5
3CB
330
6C
100
AcDbEntity
  8
Hidden (ANSI)
100
AcDbLine
 10
70.89103234868329
 20
24.72455939529086
 30
0.0
 11
70.7972823486833
 21
24.72455939529086
 31
0.0
  0
LINE
  5
3CC
330
6C
100
AcDbEntity
  8
Hidden (ANSI)
100
AcDbLine
 10
70.89103234868329
 20
62.29155939529083
 30
0.0
 11
70.7972823486833
 21
62.29155939529083
 31
0.0
  0
LINE
  5
3CD
330
6C
100
AcDbEntity
  8
Hidden (ANSI)
100
AcDbLine
 10
70.89103234868329
 20
62.85455939529084
 30
0.0
 11
70.7972823486833
 21
62.85455939529084
 31
0.0
  0
MTEXT
  5
3CE
330
6C
100
AcDbEntity
  8
Symbol (ANSI)
100
AcDbMText
 10
68.22620175904288
 20
18.82162820599506
 30
0.0
 40
0.9600000118646095
 41
0.0
 46
0.0
 71
     7
 72
     1
  1
SIDE VIEW
  7
Text Style153
 73
     1
 44
1.0
  0
LINE
  5
3CF
330
6C
100
AcDbEntity
  8
Symbol (ANSI)
370
    30
100
AcDbLine
 10
68.17704963260597
 20
18.6227432766774
 30
0.0
 11
74.66444019584992
 21
18.6227432766774
 31
0.0
  0
ELLIPSE
  5
3D0
330
6C
100
AcDbEntity
  8
Visible (ANSI)
100
AcDbEllipse
 10
113.510780105354
 20
21.78816421639731
 30
0.0
 11
-0.1404775675610101
 21
0.2439432372748665
 31
0.0
210
0.0
220
0.0
230
1.0
 40
0.5780931159158092
 41
0.0
 42
6.283185307179586
  0
ELLIPSE
  5
3D1
330
6C
100
AcDbEntity
  8
Visible (ANSI)
100
AcDbEllipse
 10
113.5770713660902
 20
21.82633881456534
 30
0.0
 11
-0.1404775675610107
 21
0.2439432372748675
 31
0.0
210
0.0
220
0.0
230
1.0
 40
0.578093115915809
 41
0.2372585647783723
 42
2.904334088811347
  0
ELLIPSE
  5
3D2
330
6C
100
AcDbEntity
  8
Visible (ANSI)
100
AcDbEllipse
 10
113.5107801053541
 20
52.96123608664323
 30
0.0
 11
-0.1404775675610101
 21
0.2439432372748665
 31
0.0
210
0.0
220
0.0
230
1.0
 40
0.5780931159158092
 41
0.0
 42
6.283185307179586
  0
ELLIPSE
  5
3D3
330
6C
100
AcDbEntity
  8
Visible (ANSI)
100
AcDbEllipse
 10
113.5770713660903
 20
52.99941068481127
 30
0.0
 11
-0.1404775675610095
 21
0.2439432372748654
 31
0.0
210
0.0
220
0.0
230
1.0
 40
0.5780931159158092
 41
0.237258564778382
 42
2.904334088811372
  0
ELLIPSE
  5
3D4
330
6C
100
AcDbEntity
  8
Visible (ANSI)
100
AcDbEllipse
 10
92.8279067556445
 20
33.69863884482143
 30
0.0
 11
-0.1404775675610101
 21
0.2439432372748665
 31
0.0
210
0.0
220
0.0
230
1.0
 40
0.5780931159158092
 41
0.0
 42
6.283185307179586
  0
ELLIPSE
  5
3D5
330
6C
100
AcDbEntity
  8
Visible (ANSI)
100
AcDbEllipse
 10
92.89419801638073
 20
33.73681344298946
 30
0.0
 11
-0.1404775675610101
 21
0.2439432372748665
 31
0.0
210
0.0
220
0.0
230
0.9999999999999998
 40
0.578093115915809
 41
0.2372585647784557
 42
2.904334088811347
  0
ELLIPSE
  5
3D6
330
6C
100
AcDbEntity
  8
Visible (ANSI)
100
AcDbEllipse
 10
92.82790675564458
 20
64.87171071506736
 30
0.0
 11
-0.1404775675610101
 21
0.2439432372748665
 31
0.0
210
0.0
220
0.0
230
1.0
 40
0.5780931159158092
 41
0.0
 42
6.283185307179586
  0
ELLIPSE
  5
3D7
330
6C
100
AcDbEntity
  8
Visible (ANSI)
100
AcDbEllipse
 10
92.8941980163808
 20
64.90988531323539
 30
0.0
 11
-0.1404775675610089
 21
0.2439432372748645
 31
0.0
210
0.0
220
0.0
230
0.9999999999999998
 40
0.5780931159158092
 41
0.2372585647784771
 42
2.904334088811348
  0
LINE
  5
3D8
330
6C
100
AcDbEntity
  8
Visible Narrow (ANSI)
100
AcDbLine
 10
114.2178868865407
 20
53.24035176296519
 30
0.0
 11
114.2178868865407
 21
20.89825496938698
 31
0.0
  0
LINE
  5
3D9
330
6C
100
AcDbEntity
  8
Visible Narrow (ANSI)
100
AcDbLine
 10
114.041110191244
 20
20.86960708742119
 30
0.0
 11
114.0411101912441
 21
53.26899964493094
 31
0.0
  0
LINE
  5
3DA
330
6C
100
AcDbEntity
  8
Visible Narrow (ANSI)
100
AcDbLine
 10
92.41074293049081
 20
65.92909204769515
 30
0.0
 11
114.1047206258045
 21
53.43636115093797
 31
0.0
  0
LINE
  5
3DB
330
6C
100
AcDbEntity
  8
Visible Narrow (ANSI)
100
AcDbLine
 10
114.0411101912441
 20
53.26899964493094
 30
0.0
 11
92.29757666975459
 21
65.79026784404348
 31
0.0
  0
LINE
  5
3DC
330
6C
100
AcDbEntity
  8
Visible Narrow (ANSI)
100
AcDbLine
 10
92.29757666975459
 20
65.79026784404348
 30
0.0
 11
92.29757666975451
 21
33.39087528653372
 31
0.0
  0
LINE
  5
3DD
330
6C
100
AcDbEntity
  8
Visible Narrow (ANSI)
100
AcDbLine
 10
92.29757666975451
 20
33.39087528653372
 30
0.0
 11
114.041110191244
 21
20.86960708742119
 31
0.0
  0
LINE
  5
3DE
330
6C
100
AcDbEntity
  8
Visible (ANSI)
100
AcDbLine
 10
92.2609650174029
 20
65.82684336728464
 30
0.0
 11
92.26096501740283
 21
33.45609869174066
 31
0.0
  0
LINE
  5
3DF
330
6C
100
AcDbEntity
  8
Visible (ANSI)
100
AcDbLine
 10
92.33600545002696
 20
33.32629993041301
 30
0.0
 11
114.0547000533722
 21
20.81933551295368
 31
0.0
  0
POLYLINE
  5
3E0
330
6C
100
AcDbEntity
  8
Visible (ANSI)
100
AcDb2dPolyline
 66
     1
 10
0.0
 20
0.0
 30
0.0
 70
   128
  0
VERTEX
  5
3E1
330
3E0
100
AcDbEntity
  8
Visible (ANSI)
100
AcDbVertex
100
AcDb2dVertex
 10
114.0411103621546
 20
53.26899931584201
 30
0.0
  0
VERTEX
  5
3E2
330
3E0
100
AcDbEntity
  8
Visible (ANSI)
100
AcDbVertex
100
AcDb2dVertex
 10
114.0470809610436
 20
53.26458558236333
 30
0.0
  0
VERTEX
  5
3E4
330
3E0
100
AcDbEntity
  8
Visible (ANSI)
100
AcDbVertex
100
AcDb2dVertex
 10
114.0534037557579
 20
53.26040401920874
 30
0.0
  0
VERTEX
  5
3E5
330
3E0
100
AcDbEntity
  8
Visible (ANSI)
100
AcDbVertex
100
AcDb2dVertex
 10
114.0600529520944
 20
53.25646668053513
 30
0.0
  0
VERTEX
  5
3E6
330
3E0
100
AcDbEntity
  8
Visible (ANSI)
100
AcDbVertex
100
AcDb2dVertex
 10
114.0669990306659
 20
53.25278592149501
 30
0.0
  0
VERTEX
  5
3E7
330
3E0
100
AcDbEntity
  8
Visible (ANSI)
100
AcDbVertex
100
AcDb2dVertex
 10
114.0742130072174
 20
53.24937195921663
 30
0.0
  0
VERTEX
  5
3E8
330
3E0
100
AcDbEntity
  8
Visible (ANSI)
100
AcDbVertex
100
AcDb2dVertex
 10
114.0816621971997
 20
53.2462353261569
 30
0.0
  0
VERTEX
  5
3E9
330
3E0
100
AcDbEntity
  8
Visible (ANSI)
100
AcDbVertex
100
AcDb2dVertex
 10
114.0893187695886
 20
53.24338201117265
 30
0.0
  0
VERTEX
  5
3EA
330
3E0
100
AcDbEntity
  8
Visible (ANSI)
100
AcDbVertex
100
AcDb2dVertex
 10
114.097147007419
 20
53.24081834480342
 30
0.0
  0
VERTEX
  5
3EB
330
3E0
100
AcDbEntity
  8
Visible (ANSI)
100
AcDbVertex
100
AcDb2dVertex
 10
114.1051118781971
 20
53.23855597255878
 30
0.0
  0
VERTEX
  5
3EC
330
3E0
100
AcDbEntity
  8
Visible (ANSI)
100
AcDbVertex
100
AcDb2dVertex
 10
114.1131833025137
 20
53.2365946866851
 30
0.0
  0
VERTEX
  5
3ED
330
3E0
100
AcDbEntity
  8
Visible (ANSI)
100
AcDbVertex
100
AcDb2dVertex
 10
114.1213235016927
 20
53.23493963994031
 30
0.0
  0
VERTEX
  5
3EE
330
3E0
100
AcDbEntity
  8
Visible (ANSI)
100
AcDbVertex
100
AcDb2dVertex
 10
114.129497638211
 20
53.23359278640687
 30
0.0
  0
VERTEX
  5
3EF
330
3E0
100
AcDbEntity
  8
Visible (ANSI)
100
AcDbVertex
100
AcDb2dVertex
 10
114.1376739194065
 20
53.23255294121329
 30
0.0
  0
VERTEX
  5
3F0
330
3E0
100
AcDbEntity
  8
Visible (ANSI)
100
AcDbVertex
100
AcDb2dVertex
 10
114.1458151515151
 20
53.23182070157302
 30
0.0
  0
VERTEX
  5
3F1
330
3E0
100
AcDbEntity
  8
Visible (ANSI)
100
AcDbVertex
100
AcDb2dVertex
 10
114.153885196518
 20
53.23139482647647
 30
0.0
  0
VERTEX
  5
3F2
330
3E0
100
AcDbEntity
  8
Visible (ANSI)
100
AcDbVertex
100
AcDb2dVertex
 10
114.1618511769695
 20
53.23127106018034
 30
0.0
  0
VERTEX
  5
3F3
330
3E0
100
AcDbEntity
  8
Visible (ANSI)
100
AcDbVertex
100
AcDb2dVertex
 10
114.1696793173146
 20
53.23144462975451
 30
0.0
  0
VERTEX
  5
3F4
330
3E0
100
AcDbEntity
  8
Visible (ANSI)
100
AcDbVertex
100
AcDb2dVertex
 10
114.1773329070673
 20
53.23191151834109
 30
0.0
  0
VERTEX
  5
3F5
330
3E0
100
AcDbEntity
  8
Visible (ANSI)
100
AcDbVertex
100
AcDb2dVertex
 10
114.1847851387993
 20
53.2326587252765
 30
0.0
  0
VERTEX
  5
3F6
330
3E0
100
AcDbEntity
  8
Visible (ANSI)
100
AcDbVertex
100
AcDb2dVertex
 10
114.1919979632868
 20
53.23368637410523
 30
0.0
  0
VERTEX
  5
3F7
330
3E0
100
AcDbEntity
  8
Visible (ANSI)
100
AcDbVertex
100
AcDb2dVertex
 10
114.1989455558625
 20
53.23497958391168
 30
0.0
  0
VERTEX
  5
3F8
330
3E0
100
AcDbEntity
  8
Visible (ANSI)
100
AcDbVertex
100
AcDb2dVertex
 10
114.2055931758405
 20
53.23653057979752
 30
0.0
  0
VERTEX
  5
3F9
330
3E0
100
AcDbEntity
  8
Visible (ANSI)
100
AcDbVertex
100
AcDb2dVertex
 10
114.2119163874601
 20
53.23832529014403
 30
0.0
  0
VERTEX
  5
3FA
330
3E0
100
AcDbEntity
  8
Visible (ANSI)
100
AcDbVertex
100
AcDb2dVertex
 10
114.2178862915069
 20
53.24035196537319
 30
0.0
  0
SEQEND
  5
3E3
330
3E0
100
AcDbEntity
  8
Visible (ANSI)
  0
POLYLINE
  5
3FB
330
6C
100
AcDbEntity
  8
Visible (ANSI)
100
AcDb2dPolyline
 66
     1
 10
0.0
 20
0.0
 30
0.0
 70
   128
  0
VERTEX
  5
3FC
330
3FB
100
AcDbEntity
  8
Visible (ANSI)
100
AcDbVertex
100
AcDb2dVertex
 10
114.2178862915068
 20
20.89825531410378
 30
0.0
  0
VERTEX
  5
3FD
330
3FB
100
AcDbEntity
  8
Visible (ANSI)
100
AcDbVertex
100
AcDb2dVertex
 10
114.2119163874601
 20
20.8938415212836
 30
0.0
  0
VERTEX
  5
3FF
330
3FB
100
AcDbEntity
  8
Visible (ANSI)
100
AcDbVertex
100
AcDb2dVertex
 10
114.2055931758404
 20
20.88965969334606
 30
0.0
  0
VERTEX
  5
400
330
3FB
100
AcDbEntity
  8
Visible (ANSI)
100
AcDbVertex
100
AcDb2dVertex
 10
114.1989455558624
 20
20.88572158946165
 30
0.0
  0
VERTEX
  5
401
330
3FB
100
AcDbEntity
  8
Visible (ANSI)
100
AcDbVertex
100
AcDb2dVertex
 10
114.1919979632867
 20
20.88204126206416
 30
0.0
  0
VERTEX
  5
402
330
3FB
100
AcDbEntity
  8
Visible (ANSI)
100
AcDbVertex
100
AcDb2dVertex
 10
114.1847851387992
 20
20.8786264956444
 30
0.0
  0
VERTEX
  5
403
330
3FB
100
AcDbEntity
  8
Visible (ANSI)
100
AcDbVertex
100
AcDb2dVertex
 10
114.1773329070672
 20
20.87548971545279
 30
0.0
  0
VERTEX
  5
404
330
3FB
100
AcDbEntity
  8
Visible (ANSI)
100
AcDbVertex
100
AcDb2dVertex
 10
114.1696793173145
 20
20.87263571886762
 30
0.0
  0
VERTEX
  5
405
330
3FB
100
AcDbEntity
  8
Visible (ANSI)
100
AcDbVertex
100
AcDb2dVertex
 10
114.1618511769695
 20
20.87007503170243
 30
0.0
  0
VERTEX
  5
406
330
3FB
100
AcDbEntity
  8
Visible (ANSI)
100
AcDbVertex
100
AcDb2dVertex
 10
114.1538851965179
 20
20.86781168040752
 30
0.0
  0
VERTEX
  5
407
330
3FB
100
AcDbEntity
  8
Visible (ANSI)
100
AcDbVertex
100
AcDb2dVertex
 10
114.145815151515
 20
20.86585043791306
 30
0.0
  0
VERTEX
  5
408
330
3FB
100
AcDbEntity
  8
Visible (ANSI)
100
AcDbVertex
100
AcDb2dVertex
 10
114.1376739194064
 20
20.86419556955474
 30
0.0
  0
VERTEX
  5
409
330
3FB
100
AcDbEntity
  8
Visible (ANSI)
100
AcDbVertex
100
AcDb2dVertex
 10
114.1294976382109
 20
20.8628482971573
 30
0.0
  0
VERTEX
  5
40A
330
3FB
100
AcDbEntity
  8
Visible (ANSI)
100
AcDbVertex
100
AcDb2dVertex
 10
114.1213235016926
 20
20.8618080330997
 30
0.0
  0
VERTEX
  5
40B
330
3FB
100
AcDbEntity
  8
Visible (ANSI)
100
AcDbVertex
100
AcDb2dVertex
 10
114.1131833025136
 20
20.86107596225347
 30
0.0
  0
VERTEX
  5
40C
330
3FB
100
AcDbEntity
  8
Visible (ANSI)
100
AcDbVertex
100
AcDb2dVertex
 10
114.105111878197
 20
20.86065014012857
 30
0.0
  0
VERTEX
  5
40D
330
3FB
100
AcDbEntity
  8
Visible (ANSI)
100
AcDbVertex
100
AcDb2dVertex
 10
114.0971470074189
 20
20.86052539478218
 30
0.0
  0
VERTEX
  5
40E
330
3FB
100
AcDbEntity
  8
Visible (ANSI)
100
AcDbVertex
100
AcDb2dVertex
 10
114.0893187695886
 20
20.8606994878952
 30
0.0
  0
VERTEX
  5
40F
330
3FB
100
AcDbEntity
  8
Visible (ANSI)
100
AcDbVertex
100
AcDb2dVertex
 10
114.0816621971997
 20
20.86116569488087
 30
0.0
  0
VERTEX
  5
410
330
3FB
100
AcDbEntity
  8
Visible (ANSI)
100
AcDbVertex
100
AcDb2dVertex
 10
114.0742130072173
 20
20.86191521034956
 30
0.0
  0
VERTEX
  5
411
330
3FB
100
AcDbEntity
  8
Visible (ANSI)
100
AcDbVertex
100
AcDb2dVertex
 10
114.0669990306658
 20
20.86294205503693
 30
0.0
  0
VERTEX
  5
412
330
3FB
100
AcDbEntity
  8
Visible (ANSI)
100
AcDbVertex
100
AcDb2dVertex
 10
114.0600529520943
 20
20.86423569648602
 30
0.0
  0
VERTEX
  5
413
330
3FB
100
AcDbEntity
  8
Visible (ANSI)
100
AcDbVertex
100
AcDb2dVertex
 10
114.0534037557578
 20
20.86578592716104
 30
0.0
  0
VERTEX
  5
414
330
3FB
100
AcDbEntity
  8
Visible (ANSI)
100
AcDbVertex
100
AcDb2dVertex
 10
114.0470809610435
 20
20.86758037272461
 30
0.0
  0
VERTEX
  5
415
330
3FB
100
AcDbEntity
  8
Visible (ANSI)
100
AcDbVertex
100
AcDb2dVertex
 10
114.0411103621545
 20
20.86960698861227
 30
0.0
  0
SEQEND
  5
3FE
330
3FB
100
AcDbEntity
  8
Visible (ANSI)
  0
LINE
  5
416
330
6C
100
AcDbEntity
  8
Visible (ANSI)
100
AcDbLine
 10
114.1515956258045
 20
53.27852636113322
 30
0.0
 11
114.6819257116943
 21
53.58392314647751
 31
0.0
  0
LINE
  5
417
330
6C
100
AcDbEntity
  8
Visible (ANSI)
100
AcDbLine
 10
114.7482169724305
 20
21.20365175473128
 30
0.0
 11
114.2178868865407
 21
20.89825496938698
 31
0.0
  0
LINE
  5
418
330
6C
100
AcDbEntity
  8
Visible (ANSI)
100
AcDbLine
 10
114.1515956258045
 20
53.27852636113322
 30
0.0
 11
114.2178868865407
 21
53.24035176296519
 31
0.0
  0
POLYLINE
  5
419
330
6C
100
AcDbEntity
  8
Visible (ANSI)
100
AcDb2dPolyline
 66
     1
 10
0.0
 20
0.0
 30
0.0
 70
   128
  0
VERTEX
  5
41A
330
419
100
AcDbEntity
  8
Visible (ANSI)
100
AcDbVertex
100
AcDb2dVertex
 10
114.1074016218952
 20
53.30717391343672
 30
0.0
  0
VERTEX
  5
41B
330
419
100
AcDbEntity
  8
Visible (ANSI)
100
AcDbVertex
100
AcDb2dVertex
 10
114.1088932097104
 20
53.30517600168966
 30
0.0
  0
VERTEX
  5
41D
330
419
100
AcDbEntity
  8
Visible (ANSI)
100
AcDbVertex
100
AcDb2dVertex
 10
114.1104749701826
 20
53.3032349092951
 30
0.0
  0
VERTEX
  5
41E
330
419
100
AcDbEntity
  8
Visible (ANSI)
100
AcDbVertex
100
AcDb2dVertex
 10
114.1121378006558
 20
53.30135517912771
 30
0.0
  0
VERTEX
  5
41F
330
419
100
AcDbEntity
  8
Visible (ANSI)
100
AcDbVertex
100
AcDb2dVertex
 10
114.1138743206551
 20
53.29953989961399
 30
0.0
  0
VERTEX
  5
420
330
419
100
AcDbEntity
  8
Visible (ANSI)
100
AcDbVertex
100
AcDb2dVertex
 10
114.1156767523066
 20
53.29779193033338
 30
0.0
  0
VERTEX
  5
421
330
419
100
AcDbEntity
  8
Visible (ANSI)
100
AcDbVertex
100
AcDb2dVertex
 10
114.1175390504504
 20
53.29611268248274
 30
0.0
  0
VERTEX
  5
422
330
419
100
AcDbEntity
  8
Visible (ANSI)
100
AcDbVertex
100
AcDb2dVertex
 10
114.1194526620451
 20
53.29450456925238
 30
0.0
  0
VERTEX
  5
423
330
419
100
AcDbEntity
  8
Visible (ANSI)
100
AcDbVertex
100
AcDb2dVertex
 10
114.1214107834706
 20
53.29296610940559
 30
0.0
  0
VERTEX
  5
424
330
419
100
AcDbEntity
  8
Visible (ANSI)
100
AcDbVertex
100
AcDb2dVertex
 10
114.1234020006466
 20
53.29150542608683
 30
0.0
  0
VERTEX
  5
425
330
419
100
AcDbEntity
  8
Visible (ANSI)
100
AcDbVertex
100
AcDb2dVertex
 10
114.1254187955357
 20
53.29012062665395
 30
0.0
  0
VERTEX
  5
426
330
419
100
AcDbEntity
  8
Visible (ANSI)
100
AcDbVertex
100
AcDb2dVertex
 10
114.1274554377637
 20
53.28881085739025
 30
0.0
  0
VERTEX
  5
427
330
419
100
AcDbEntity
  8
Visible (ANSI)
100
AcDbVertex
100
AcDb2dVertex
 10
114.1294995033957
 20
53.2875787485732
 30
0.0
  0
VERTEX
  5
428
330
419
100
AcDbEntity
  8
Visible (ANSI)
100
AcDbVertex
100
AcDb2dVertex
 10
114.1315425117267
 20
53.28642430886243
 30
0.0
  0
VERTEX
  5
429
330
419
100
AcDbEntity
  8
Visible (ANSI)
100
AcDbVertex
100
AcDb2dVertex
 10
114.1335778197539
 20
53.28534615899337
 30
0.0
  0
VERTEX
  5
42A
330
419
100
AcDbEntity
  8
Visible (ANSI)
100
AcDbVertex
100
AcDb2dVertex
 10
114.1355942690368
 20
53.28434521180685
 30
0.0
  0
VERTEX
  5
42B
330
419
100
AcDbEntity
  8
Visible (ANSI)
100
AcDbVertex
100
AcDb2dVertex
 10
114.137586825599
 20
53.28341856842862
 30
0.0
  0
VERTEX
  5
42C
330
419
100
AcDbEntity
  8
Visible (ANSI)
100
AcDbVertex
100
AcDb2dVertex
 10
114.1395438612037
 20
53.28256687116177
 30
0.0
  0
VERTEX
  5
42D
330
419
100
AcDbEntity
  8
Visible (ANSI)
100
AcDbVertex
100
AcDb2dVertex
 10
114.1414577896258
 20
53.28178819757614
 30
0.0
  0
VERTEX
  5
42E
330
419
100
AcDbEntity
  8
Visible (ANSI)
100
AcDbVertex
100
AcDb2dVertex
 10
114.1433208472996
 20
53.28107806745281
 30
0.0
  0
VERTEX
  5
42F
330
419
100
AcDbEntity
  8
Visible (ANSI)
100
AcDbVertex
100
AcDb2dVertex
 10
114.1451229911619
 20
53.28044050107965
 30
0.0
  0
VERTEX
  5
430
330
419
100
AcDbEntity
  8
Visible (ANSI)
100
AcDbVertex
100
AcDb2dVertex
 10
114.1468604203222
 20
53.27986840781763
 30
0.0
  0
VERTEX
  5
431
330
419
100
AcDbEntity
  8
Visible (ANSI)
100
AcDbVertex
100
AcDb2dVertex
 10
114.1485228563006
 20
53.2793607610568
 30
0.0
  0
VERTEX
  5
432
330
419
100
AcDbEntity
  8
Visible (ANSI)
100
AcDbVertex
100
AcDb2dVertex
 10
114.1501020667723
 20
53.27891526630295
 30
0.0
  0
VERTEX
  5
433
330
419
100
AcDbEntity
  8
Visible (ANSI)
100
AcDbVertex
100
AcDb2dVertex
 10
114.1515961352172
 20
53.27852592753274
 30
0.0
  0
SEQEND
  5
41C
330
419
100
AcDbEntity
  8
Visible (ANSI)
  0
LINE
  5
434
330
6C
100
AcDbEntity
  8
Visible (ANSI)
100
AcDbLine
 10
114.1074014519803
 20
53.30717424309899
 30
0.0
 11
114.0411101912441
 21
53.26899964493094
 31
0.0
  0
LINE
  5
435
330
6C
100
AcDbEntity
  8
Visible (ANSI)
100
AcDbLine
 10
114.2178868865407
 20
53.24035176296519
 30
0.0
 11
114.7482169724306
 21
53.54574854830947
 31
0.0
  0
LINE
  5
436
330
6C
100
AcDbEntity
  8
Visible (ANSI)
100
AcDbLine
 10
114.6819257116943
 20
53.58392314647751
 30
0.0
 11
114.7482169724306
 21
53.54574854830947
 31
0.0
  0
POLYLINE
  5
437
330
6C
100
AcDbEntity
  8
Visible (ANSI)
100
AcDb2dPolyline
 66
     1
 10
0.0
 20
0.0
 30
0.0
 70
   128
  0
VERTEX
  5
438
330
437
100
AcDbEntity
  8
Visible (ANSI)
100
AcDbVertex
100
AcDb2dVertex
 10
92.29757666942274
 20
65.79026761356644
 30
0.0
  0
VERTEX
  5
439
330
437
100
AcDbEntity
  8
Visible (ANSI)
100
AcDbVertex
100
AcDb2dVertex
 10
92.29879833067263
 20
65.79646638529964
 30
0.0
  0
VERTEX
  5
43B
330
437
100
AcDbEntity
  8
Visible (ANSI)
100
AcDbVertex
100
AcDb2dVertex
 10
92.30039767497595
 20
65.80285318225621
 30
0.0
  0
VERTEX
  5
43C
330
437
100
AcDbEntity
  8
Visible (ANSI)
100
AcDbVertex
100
AcDb2dVertex
 10
92.30237226312532
 20
65.80939959702849
 30
0.0
  0
VERTEX
  5
43D
330
437
100
AcDbEntity
  8
Visible (ANSI)
100
AcDbVertex
100
AcDb2dVertex
 10
92.30471807955485
 20
65.81607383011281
 30
0.0
  0
VERTEX
  5
43E
330
437
100
AcDbEntity
  8
Visible (ANSI)
100
AcDbVertex
100
AcDb2dVertex
 10
92.3074294950053
 20
65.82284563707283
 30
0.0
  0
VERTEX
  5
43F
330
437
100
AcDbEntity
  8
Visible (ANSI)
100
AcDbVertex
100
AcDb2dVertex
 10
92.31049931215567
 20
65.82968386093
 30
0.0
  0
VERTEX
  5
440
330
437
100
AcDbEntity
  8
Visible (ANSI)
100
AcDbVertex
100
AcDb2dVertex
 10
92.31391880710607
 20
65.83655401949773
 30
0.0
  0
VERTEX
  5
441
330
437
100
AcDbEntity
  8
Visible (ANSI)
100
AcDbVertex
100
AcDb2dVertex
 10
92.31767776671269
 20
65.84342811132017
 30
0.0
  0
VERTEX
  5
442
330
437
100
AcDbEntity
  8
Visible (ANSI)
100
AcDbVertex
100
AcDb2dVertex
 10
92.32176451347767
 20
65.85026995334674
 30
0.0
  0
VERTEX
  5
443
330
437
100
AcDbEntity
  8
Visible (ANSI)
100
AcDbVertex
100
AcDb2dVertex
 10
92.32616595118045
 20
65.85705236819959
 30
0.0
  0
VERTEX
  5
444
330
437
100
AcDbEntity
  8
Visible (ANSI)
100
AcDbVertex
100
AcDb2dVertex
 10
92.33086768103055
 20
65.8637400327389
 30
0.0
  0
VERTEX
  5
445
330
437
100
AcDbEntity
  8
Visible (ANSI)
100
AcDbVertex
100
AcDb2dVertex
 10
92.3358539726294
 20
65.87030425266454
 30
0.0
  0
VERTEX
  5
446
330
437
100
AcDbEntity
  8
Visible (ANSI)
100
AcDbVertex
100
AcDb2dVertex
 10
92.34110790086461
 20
65.87671072480066
 30
0.0
  0
VERTEX
  5
447
330
437
100
AcDbEntity
  8
Visible (ANSI)
100
AcDbVertex
100
AcDb2dVertex
 10
92.34661137909645
 20
65.88293430930848
 30
0.0
  0
VERTEX
  5
448
330
437
100
AcDbEntity
  8
Visible (ANSI)
100
AcDbVertex
100
AcDb2dVertex
 10
92.3523452773848
 20
65.88894186989067
 30
0.0
  0
VERTEX
  5
449
330
437
100
AcDbEntity
  8
Visible (ANSI)
100
AcDbVertex
100
AcDb2dVertex
 10
92.35828945360138
 20
65.89470708303131
 30
0.0
  0
VERTEX
  5
44A
330
437
100
AcDbEntity
  8
Visible (ANSI)
100
AcDbVertex
100
AcDb2dVertex
 10
92.36442287580509
 20
65.90020310324989
 30
0.0
  0
VERTEX
  5
44B
330
437
100
AcDbEntity
  8
Visible (ANSI)
100
AcDbVertex
100
AcDb2dVertex
 10
92.37072369276317
 20
65.90540262282271
 30
0.0
  0
VERTEX
  5
44C
330
437
100
AcDbEntity
  8
Visible (ANSI)
100
AcDbVertex
100
AcDb2dVertex
 10
92.37716936151192
 20
65.91028036268355
 30
0.0
  0
VERTEX
  5
44D
330
437
100
AcDbEntity
  8
Visible (ANSI)
100
AcDbVertex
100
AcDb2dVertex
 10
92.38373669208057
 20
65.91481315551114
 30
0.0
  0
VERTEX
  5
44E
330
437
100
AcDbEntity
  8
Visible (ANSI)
100
AcDbVertex
100
AcDb2dVertex
 10
92.39040198373746
 20
65.91898244163144
 30
0.0
  0
VERTEX
  5
44F
330
437
100
AcDbEntity
  8
Visible (ANSI)
100
AcDbVertex
100
AcDb2dVertex
 10
92.3971411071785
 20
65.92276205713186
 30
0.0
  0
VERTEX
  5
450
330
437
100
AcDbEntity
  8
Visible (ANSI)
100
AcDbVertex
100
AcDb2dVertex
 10
92.40392964323627
 20
65.92613792083828
 30
0.0
  0
VERTEX
  5
451
330
437
100
AcDbEntity
  8
Visible (ANSI)
100
AcDbVertex
100
AcDb2dVertex
 10
92.41074293227091
 20
65.9290909304336
 30
0.0
  0
SEQEND
  5
43A
330
437
100
AcDbEntity
  8
Visible (ANSI)
  0
POLYLINE
  5
452
330
6C
100
AcDbEntity
  8
Visible (ANSI)
100
AcDb2dPolyline
 66
     1
 10
0.0
 20
0.0
 30
0.0
 70
   128
  0
VERTEX
  5
453
330
452
100
AcDbEntity
  8
Visible (ANSI)
100
AcDbVertex
100
AcDb2dVertex
 10
114.1047208749143
 20
53.43635989124869
 30
0.0
  0
VERTEX
  5
454
330
452
100
AcDbEntity
  8
Visible (ANSI)
100
AcDbVertex
100
AcDb2dVertex
 10
114.0999722338795
 20
53.43221792994423
 30
0.0
  0
VERTEX
  5
456
330
452
100
AcDbEntity
  8
Visible (ANSI)
100
AcDbVertex
100
AcDb2dVertex
 10
114.0952483458216
 20
53.42765311452867
 30
0.0
  0
VERTEX
  5
457
330
452
100
AcDbEntity
  8
Visible (ANSI)
100
AcDbVertex
100
AcDb2dVertex
 10
114.0905738620838
 20
53.42268455209683
 30
0.0
  0
VERTEX
  5
458
330
452
100
AcDbEntity
  8
Visible (ANSI)
100
AcDbVertex
100
AcDb2dVertex
 10
114.0859732184268
 20
53.41732631426738
 30
0.0
  0
VERTEX
  5
459
330
452
100
AcDbEntity
  8
Visible (ANSI)
100
AcDbVertex
100
AcDb2dVertex
 10
114.081470535858
 20
53.41160456973066
 30
0.0
  0
VERTEX
  5
45A
330
452
100
AcDbEntity
  8
Visible (ANSI)
100
AcDbVertex
100
AcDb2dVertex
 10
114.0770895151091
 20
53.40553787816067
 30
0.0
  0
VERTEX
  5
45B
330
452
100
AcDbEntity
  8
Visible (ANSI)
100
AcDbVertex
100
AcDb2dVertex
 10
114.0728533378543
 20
53.39914941165643
 30
0.0
  0
VERTEX
  5
45C
330
452
100
AcDbEntity
  8
Visible (ANSI)
100
AcDbVertex
100
AcDb2dVertex
 10
114.0687866875861
 20
53.39246321663549
 30
0.0
  0
VERTEX
  5
45D
330
452
100
AcDbEntity
  8
Visible (ANSI)
100
AcDbVertex
100
AcDb2dVertex
 10
114.0649071593694
 20
53.38550905178572
 30
0.0
  0
VERTEX
  5
45E
330
452
100
AcDbEntity
  8
Visible (ANSI)
100
AcDbVertex
100
AcDb2dVertex
 10
114.061237909081
 20
53.37831253949439
 30
0.0
  0
VERTEX
  5
45F
330
452
100
AcDbEntity
  8
Visible (ANSI)
100
AcDbVertex
100
AcDb2dVertex
 10
114.0577990705524
 20
53.37090000805514
 30
0.0
  0
VERTEX
  5
460
330
452
100
AcDbEntity
  8
Visible (ANSI)
100
AcDbVertex
100
AcDb2dVertex
 10
114.054609790317
 20
53.36330458420987
 30
0.0
  0
VERTEX
  5
461
330
452
100
AcDbEntity
  8
Visible (ANSI)
100
AcDbVertex
100
AcDb2dVertex
 10
114.051688146718
 20
53.35555141257509
 30
0.0
  0
VERTEX
  5
462
330
452
100
AcDbEntity
  8
Visible (ANSI)
100
AcDbVertex
100
AcDb2dVertex
 10
114.0490510648678
 20
53.34767479632665
 30
0.0
  0
VERTEX
  5
463
330
452
100
AcDbEntity
  8
Visible (ANSI)
100
AcDbVertex
100
AcDb2dVertex
 10
114.0467142668683
 20
53.33970343454236
 30
0.0
  0
VERTEX
  5
464
330
452
100
AcDbEntity
  8
Visible (ANSI)
100
AcDbVertex
100
AcDb2dVertex
 10
114.0446921681032
 20
53.33167264080664
 30
0.0
  0
VERTEX
  5
465
330
452
100
AcDbEntity
  8
Visible (ANSI)
100
AcDbVertex
100
AcDb2dVertex
 10
114.0429978564964
 20
53.32360959727505
 30
0.0
  0
VERTEX
  5
466
330
452
100
AcDbEntity
  8
Visible (ANSI)
100
AcDbVertex
100
AcDb2dVertex
 10
114.0416430012493
 20
53.31555049177591
 30
0.0
  0
VERTEX
  5
467
330
452
100
AcDbEntity
  8
Visible (ANSI)
100
AcDbVertex
100
AcDb2dVertex
 10
114.0406378320988
 20
53.30752331620961
 30
0.0
  0
VERTEX
  5
468
330
452
100
AcDbEntity
  8
Visible (ANSI)
100
AcDbVertex
100
AcDb2dVertex
 10
114.0399931885838
 20
53.29956133444724
 30
0.0
  0
VERTEX
  5
469
330
452
100
AcDbEntity
  8
Visible (ANSI)
100
AcDbVertex
100
AcDb2dVertex
 10
114.0397120201542
 20
53.29169814965376
 30
0.0
  0
VERTEX
  5
46A
330
452
100
AcDbEntity
  8
Visible (ANSI)
100
AcDbVertex
100
AcDb2dVertex
 10
114.0398020717081
 20
53.28396278795007
 30
0.0
  0
VERTEX
  5
46B
330
452
100
AcDbEntity
  8
Visible (ANSI)
100
AcDbVertex
100
AcDb2dVertex
 10
114.0402673754046
 20
53.27638703928434
 30
0.0
  0
VERTEX
  5
46C
330
452
100
AcDbEntity
  8
Visible (ANSI)
100
AcDbVertex
100
AcDb2dVertex
 10
114.0411103621546
 20
53.26899931584201
 30
0.0
  0
SEQEND
  5
455
330
452
100
AcDbEntity
  8
Visible (ANSI)
  0
LINE
  5
46D
330
6C
100
AcDbEntity
  8
Visible (ANSI)
100
AcDbLine
 10
114.1047206258045
 20
53.359716107984
 30
0.0
 11
114.6350507116943
 21
53.66511289332832
 31
0.0
  0
LINE
  5
46E
330
6C
100
AcDbEntity
  8
Visible (ANSI)
100
AcDbLine
 10
114.6350507116943
 20
53.74175793628231
 30
0.0
 11
114.1047206258045
 21
53.43636115093797
 31
0.0
  0
LINE
  5
46F
330
6C
100
AcDbEntity
  8
Visible (ANSI)
100
AcDbLine
 10
114.1047206258045
 20
53.359716107984
 30
0.0
 11
114.1047206258045
 21
53.43636115093797
 31
0.0
  0
LINE
  5
470
330
6C
100
AcDbEntity
  8
Visible (ANSI)
100
AcDbLine
 10
114.6350507116943
 20
53.66511289332832
 30
0.0
 11
114.6350507116943
 21
53.74175793628231
 31
0.0
  0
POLYLINE
  5
471
330
6C
100
AcDbEntity
  8
Visible (ANSI)
100
AcDb2dPolyline
 66
     1
 10
0.0
 20
0.0
 30
0.0
 70
   128
  0
VERTEX
  5
472
330
471
100
AcDbEntity
  8
Visible (ANSI)
100
AcDbVertex
100
AcDb2dVertex
 10
114.1074016218952
 20
53.30717391343672
 30
0.0
  0
VERTEX
  5
473
330
471
100
AcDbEntity
  8
Visible (ANSI)
100
AcDbVertex
100
AcDb2dVertex
 10
114.1064167007157
 20
53.30946788963973
 30
0.0
  0
VERTEX
  5
475
330
471
100
AcDbEntity
  8
Visible (ANSI)
100
AcDbVertex
100
AcDb2dVertex
 10
114.1055262000645
 20
53.31180641634809
 30
0.0
  0
VERTEX
  5
476
330
471
100
AcDbEntity
  8
Visible (ANSI)
100
AcDbVertex
100
AcDb2dVertex
 10
114.1047295130284
 20
53.31418668839844
 30
0.0
  0
VERTEX
  5
477
330
471
100
AcDbEntity
  8
Visible (ANSI)
100
AcDbVertex
100
AcDb2dVertex
 10
114.1040256309395
 20
53.31659830227693
 30
0.0
  0
VERTEX
  5
478
330
471
100
AcDbEntity
  8
Visible (ANSI)
100
AcDbVertex
100
AcDb2dVertex
 10
114.1034110237951
 20
53.31903430438106
 30
0.0
  0
VERTEX
  5
479
330
471
100
AcDbEntity
  8
Visible (ANSI)
100
AcDbVertex
100
AcDb2dVertex
 10
114.1028881421781
 20
53.32148630220444
 30
0.0
  0
VERTEX
  5
47A
330
471
100
AcDbEntity
  8
Visible (ANSI)
100
AcDbVertex
100
AcDb2dVertex
 10
114.1024526809186
 20
53.32394935142065
 30
0.0
  0
VERTEX
  5
47B
330
471
100
AcDbEntity
  8
Visible (ANSI)
100
AcDbVertex
100
AcDb2dVertex
 10
114.1021020842674
 20
53.32640970194578
 30
0.0
  0
VERTEX
  5
47C
330
471
100
AcDbEntity
  8
Visible (ANSI)
100
AcDbVertex
100
AcDb2dVertex
 10
114.1018334338874
 20
53.32886321755594
 30
0.0
  0
VERTEX
  5
47D
330
471
100
AcDbEntity
  8
Visible (ANSI)
100
AcDbVertex
100
AcDb2dVertex
 10
114.1016434596122
 20
53.33130310375737
 30
0.0
  0
VERTEX
  5
47E
330
471
100
AcDbEntity
  8
Visible (ANSI)
100
AcDbVertex
100
AcDb2dVertex
 10
114.1015285550035
 20
53.33371746107941
 30
0.0
  0
VERTEX
  5
47F
330
471
100
AcDbEntity
  8
Visible (ANSI)
100
AcDbVertex
100
AcDb2dVertex
 10
114.1014847918689
 20
53.33610157176154
 30
0.0
  0
VERTEX
  5
480
330
471
100
AcDbEntity
  8
Visible (ANSI)
100
AcDbVertex
100
AcDb2dVertex
 10
114.101507937375
 20
53.33844563128141
 30
0.0
  0
VERTEX
  5
481
330
471
100
AcDbEntity
  8
Visible (ANSI)
100
AcDbVertex
100
AcDb2dVertex
 10
114.1015934724543
 20
53.34074458161606
 30
0.0
  0
VERTEX
  5
482
330
471
100
AcDbEntity
  8
Visible (ANSI)
100
AcDbVertex
100
AcDb2dVertex
 10
114.1017366104736
 20
53.34299075499632
 30
0.0
  0
VERTEX
  5
483
330
471
100
AcDbEntity
  8
Visible (ANSI)
100
AcDbVertex
100
AcDb2dVertex
 10
114.1019323174565
 20
53.3451738855524
 30
0.0
  0
VERTEX
  5
484
330
471
100
AcDbEntity
  8
Visible (ANSI)
100
AcDbVertex
100
AcDb2dVertex
 10
114.1021732130375
 20
53.34729216940099
 30
0.0
  0
VERTEX
  5
485
330
471
100
AcDbEntity
  8
Visible (ANSI)
100
AcDbVertex
100
AcDb2dVertex
 10
114.1024580827984
 20
53.34933510350189
 30
0.0
  0
VERTEX
  5
486
330
471
100
AcDbEntity
  8
Visible (ANSI)
100
AcDbVertex
100
AcDb2dVertex
 10
114.1027791631735
 20
53.3512982076362
 30
0.0
  0
VERTEX
  5
487
330
471
100
AcDbEntity
  8
Visible (ANSI)
100
AcDbVertex
100
AcDb2dVertex
 10
114.1031306589712
 20
53.35317323324467
 30
0.0
  0
VERTEX
  5
488
330
471
100
AcDbEntity
  8
Visible (ANSI)
100
AcDbVertex
100
AcDb2dVertex
 10
114.1035066453651
 20
53.35495922411183
 30
0.0
  0
VERTEX
  5
489
330
471
100
AcDbEntity
  8
Visible (ANSI)
100
AcDbVertex
100
AcDb2dVertex
 10
114.1039010917467
 20
53.35664779611093
 30
0.0
  0
VERTEX
  5
48A
330
471
100
AcDbEntity
  8
Visible (ANSI)
100
AcDbVertex
100
AcDb2dVertex
 10
114.104307889727
 20
53.35823543165455
 30
0.0
  0
VERTEX
  5
48B
330
471
100
AcDbEntity
  8
Visible (ANSI)
100
AcDbVertex
100
AcDb2dVertex
 10
114.1047208749143
 20
53.35971612524061
 30
0.0
  0
SEQEND
  5
474
330
471
100
AcDbEntity
  8
Visible (ANSI)
  0
LINE
  5
48C
330
6C
100
AcDbEntity
  8
Visible (ANSI)
100
AcDbLine
 10
92.41074293049081
 20
65.92909204769515
 30
0.0
 11
92.94107301638064
 21
66.23448883303947
 31
0.0
  0
POLYLINE
  5
48D
330
6C
100
AcDbEntity
  8
Visible (ANSI)
100
AcDb2dPolyline
 66
     1
 10
0.0
 20
0.0
 30
0.0
 70
   128
  0
VERTEX
  5
48E
330
48D
100
AcDbEntity
  8
Visible (ANSI)
100
AcDbVertex
100
AcDb2dVertex
 10
92.29757666942266
 20
33.39087528633669
 30
0.0
  0
VERTEX
  5
48F
330
48D
100
AcDbEntity
  8
Visible (ANSI)
100
AcDbVertex
100
AcDb2dVertex
 10
92.29473200604687
 20
33.39316475527433
 30
0.0
  0
VERTEX
  5
491
330
48D
100
AcDbEntity
  8
Visible (ANSI)
100
AcDbVertex
100
AcDb2dVertex
 10
92.29198504371206
 20
33.39550691277413
 30
0.0
  0
VERTEX
  5
492
330
48D
100
AcDbEntity
  8
Visible (ANSI)
100
AcDbVertex
100
AcDb2dVertex
 10
92.28933870697806
 20
33.39789989791889
 30
0.0
  0
VERTEX
  5
493
330
48D
100
AcDbEntity
  8
Visible (ANSI)
100
AcDbVertex
100
AcDb2dVertex
 10
92.28679584988345
 20
33.40034178051463
 30
0.0
  0
VERTEX
  5
494
330
48D
100
AcDbEntity
  8
Visible (ANSI)
100
AcDbVertex
100
AcDb2dVertex
 10
92.28435918127585
 20
33.40283057538671
 30
0.0
  0
VERTEX
  5
495
330
48D
100
AcDbEntity
  8
Visible (ANSI)
100
AcDbVertex
100
AcDb2dVertex
 10
92.28203131459176
 20
33.4053642807496
 30
0.0
  0
VERTEX
  5
496
330
48D
100
AcDbEntity
  8
Visible (ANSI)
100
AcDbVertex
100
AcDb2dVertex
 10
92.27981474711491
 20
33.40794080870795
 30
0.0
  0
VERTEX
  5
497
330
48D
100
AcDbEntity
  8
Visible (ANSI)
100
AcDbVertex
100
AcDb2dVertex
 10
92.27771183923476
 20
33.41055804034832
 30
0.0
  0
VERTEX
  5
498
330
48D
100
AcDbEntity
  8
Visible (ANSI)
100
AcDbVertex
100
AcDb2dVertex
 10
92.27572486007785
 20
33.41321381375792
 30
0.0
  0
VERTEX
  5
499
330
48D
100
AcDbEntity
  8
Visible (ANSI)
100
AcDbVertex
100
AcDb2dVertex
 10
92.27385592528328
 20
33.41590592163571
 30
0.0
  0
VERTEX
  5
49A
330
48D
100
AcDbEntity
  8
Visible (ANSI)
100
AcDbVertex
100
AcDb2dVertex
 10
92.27210703848568
 20
33.41863212084785
 30
0.0
  0
VERTEX
  5
49B
330
48D
100
AcDbEntity
  8
Visible (ANSI)
100
AcDbVertex
100
AcDb2dVertex
 10
92.27048007472198
 20
33.42139013242771
 30
0.0
  0
VERTEX
  5
49C
330
48D
100
AcDbEntity
  8
Visible (ANSI)
100
AcDbVertex
100
AcDb2dVertex
 10
92.2689767762832
 20
33.42417763437224
 30
0.0
  0
VERTEX
  5
49D
330
48D
100
AcDbEntity
  8
Visible (ANSI)
100
AcDbVertex
100
AcDb2dVertex
 10
92.26759875271431
 20
33.42699229523407
 30
0.0
  0
VERTEX
  5
49E
330
48D
100
AcDbEntity
  8
Visible (ANSI)
100
AcDbVertex
100
AcDb2dVertex
 10
92.26634747666601
 20
33.4298317332888
 30
0.0
  0
VERTEX
  5
49F
330
48D
100
AcDbEntity
  8
Visible (ANSI)
100
AcDbVertex
100
AcDb2dVertex
 10
92.26522428804306
 20
33.43269354773826
 30
0.0
  0
VERTEX
  5
4A0
330
48D
100
AcDbEntity
  8
Visible (ANSI)
100
AcDbVertex
100
AcDb2dVertex
 10
92.26423039815252
 20
33.43557531150683
 30
0.0
  0
VERTEX
  5
4A1
330
48D
100
AcDbEntity
  8
Visible (ANSI)
100
AcDbVertex
100
AcDb2dVertex
 10
92.26336686066559
 20
33.43847457840811
 30
0.0
  0
VERTEX
  5
4A2
330
48D
100
AcDbEntity
  8
Visible (ANSI)
100
AcDbVertex
100
AcDb2dVertex
 10
92.26263460065585
 20
33.44138888075599
 30
0.0
  0
VERTEX
  5
4A3
330
48D
100
AcDbEntity
  8
Visible (ANSI)
100
AcDbVertex
100
AcDb2dVertex
 10
92.26203440837666
 20
33.44431573291095
 30
0.0
  0
VERTEX
  5
4A4
330
48D
100
AcDbEntity
  8
Visible (ANSI)
100
AcDbVertex
100
AcDb2dVertex
 10
92.26156692889054
 20
33.44725265651106
 30
0.0
  0
VERTEX
  5
4A5
330
48D
100
AcDbEntity
  8
Visible (ANSI)
100
AcDbVertex
100
AcDb2dVertex
 10
92.2612326516983
 20
33.45019713366729
 30
0.0
  0
VERTEX
  5
4A6
330
48D
100
AcDbEntity
  8
Visible (ANSI)
100
AcDbVertex
100
AcDb2dVertex
 10
92.26103194185133
 20
33.4531466513053
 30
0.0
  0
VERTEX
  5
4A7
330
48D
100
AcDbEntity
  8
Visible (ANSI)
100
AcDbVertex
100
AcDb2dVertex
 10
92.26096501506193
 20
33.45609869157306
 30
0.0
  0
SEQEND
  5
490
330
48D
100
AcDbEntity
  8
Visible (ANSI)
  0
POLYLINE
  5
4A8
330
6C
100
AcDbEntity
  8
Visible (ANSI)
100
AcDb2dPolyline
 66
     1
 10
0.0
 20
0.0
 30
0.0
 70
   128
  0
VERTEX
  5
4A9
330
4A8
100
AcDbEntity
  8
Visible (ANSI)
100
AcDbVertex
100
AcDb2dVertex
 10
92.29757666942269
 20
65.8634187504677
 30
0.0
  0
VERTEX
  5
4AA
330
4A8
100
AcDbEntity
  8
Visible (ANSI)
100
AcDbVertex
100
AcDb2dVertex
 10
92.29198504188103
 20
65.86117424028689
 30
0.0
  0
VERTEX
  5
4AC
330
4A8
100
AcDbEntity
  8
Visible (ANSI)
100
AcDbVertex
100
AcDb2dVertex
 10
92.28679584942979
 20
65.85872649173309
 30
0.0
  0
VERTEX
  5
4AD
330
4A8
100
AcDbEntity
  8
Visible (ANSI)
100
AcDbVertex
100
AcDb2dVertex
 10
92.28203131575854
 20
65.85609109856355
 30
0.0
  0
VERTEX
  5
4AE
330
4A8
100
AcDbEntity
  8
Visible (ANSI)
100
AcDbVertex
100
AcDb2dVertex
 10
92.27771184195715
 20
65.85328445580934
 30
0.0
  0
VERTEX
  5
4AF
330
4A8
100
AcDbEntity
  8
Visible (ANSI)
100
AcDbVertex
100
AcDb2dVertex
 10
92.27385592476482
 20
65.85032369263554
 30
0.0
  0
VERTEX
  5
4B0
330
4A8
100
AcDbEntity
  8
Visible (ANSI)
100
AcDbVertex
100
AcDb2dVertex
 10
92.27048007575914
 20
65.84722905300949
 30
0.0
  0
VERTEX
  5
4B1
330
4A8
100
AcDbEntity
  8
Visible (ANSI)
100
AcDbVertex
100
AcDb2dVertex
 10
92.26759875167727
 20
65.84401399939615
 30
0.0
  0
VERTEX
  5
4B2
330
4A8
100
AcDbEntity
  8
Visible (ANSI)
100
AcDbVertex
100
AcDb2dVertex
 10
92.26522428908022
 20
65.84069986567742
 30
0.0
  0
VERTEX
  5
4B3
330
4A8
100
AcDbEntity
  8
Visible (ANSI)
100
AcDbVertex
100
AcDb2dVertex
 10
92.26336685755445
 20
65.8373059525986
 30
0.0
  0
VERTEX
  5
4B4
330
4A8
100
AcDbEntity
  8
Visible (ANSI)
100
AcDbVertex
100
AcDb2dVertex
 10
92.26203440837673
 20
65.8338519043027
 30
0.0
  0
VERTEX
  5
4B5
330
4A8
100
AcDbEntity
  8
Visible (ANSI)
100
AcDbVertex
100
AcDb2dVertex
 10
92.26123264962421
 20
65.8303576223318
 30
0.0
  0
VERTEX
  5
4B6
330
4A8
100
AcDbEntity
  8
Visible (ANSI)
100
AcDbVertex
100
AcDb2dVertex
 10
92.26096501506201
 20
65.82684318082264
 30
0.0
  0
VERTEX
  5
4B7
330
4A8
100
AcDbEntity
  8
Visible (ANSI)
100
AcDbVertex
100
AcDb2dVertex
 10
92.26123265169837
 20
65.82332874050789
 30
0.0
  0
VERTEX
  5
4B8
330
4A8
100
AcDbEntity
  8
Visible (ANSI)
100
AcDbVertex
100
AcDb2dVertex
 10
92.26203440837673
 20
65.81983445734256
 30
0.0
  0
VERTEX
  5
4B9
330
4A8
100
AcDbEntity
  8
Visible (ANSI)
100
AcDbVertex
100
AcDb2dVertex
 10
92.26336686066568
 20
65.81638041083832
 30
0.0
  0
VERTEX
  5
4BA
330
4A8
100
AcDbEntity
  8
Visible (ANSI)
100
AcDbVertex
100
AcDb2dVertex
 10
92.26522428804313
 20
65.81298649775949
 30
0.0
  0
VERTEX
  5
4BB
330
4A8
100
AcDbEntity
  8
Visible (ANSI)
100
AcDbVertex
100
AcDb2dVertex
 10
92.26759875271438
 20
65.80967481851151
 30
0.0
  0
VERTEX
  5
4BC
330
4A8
100
AcDbEntity
  8
Visible (ANSI)
100
AcDbVertex
100
AcDb2dVertex
 10
92.27048007472207
 20
65.80645976370373
 30
0.0
  0
VERTEX
  5
4BD
330
4A8
100
AcDbEntity
  8
Visible (ANSI)
100
AcDbVertex
100
AcDb2dVertex
 10
92.27385592528339
 20
65.80336267050275
 30
0.0
  0
VERTEX
  5
4BE
330
4A8
100
AcDbEntity
  8
Visible (ANSI)
100
AcDbVertex
100
AcDb2dVertex
 10
92.27771183923483
 20
65.80040190680641
 30
0.0
  0
VERTEX
  5
4BF
330
4A8
100
AcDbEntity
  8
Visible (ANSI)
100
AcDbVertex
100
AcDb2dVertex
 10
92.28203131459185
 20
65.7975952647987
 30
0.0
  0
VERTEX
  5
4C0
330
4A8
100
AcDbEntity
  8
Visible (ANSI)
100
AcDbVertex
100
AcDb2dVertex
 10
92.28679584988354
 20
65.79495987256231
 30
0.0
  0
VERTEX
  5
4C1
330
4A8
100
AcDbEntity
  8
Visible (ANSI)
100
AcDbVertex
100
AcDb2dVertex
 10
92.29198504371215
 20
65.79251212241285
 30
0.0
  0
VERTEX
  5
4C2
330
4A8
100
AcDbEntity
  8
Visible (ANSI)
100
AcDbVertex
100
AcDb2dVertex
 10
92.29757666942274
 20
65.79026761356644
 30
0.0
  0
SEQEND
  5
4AB
330
4A8
100
AcDbEntity
  8
Visible (ANSI)
  0
LINE
  5
4C3
330
6C
100
AcDbEntity
  8
Visible (ANSI)
100
AcDbLine
 10
92.73260464859603
 20
33.69548885248348
 30
0.0
 11
92.89419801638057
 21
33.78854428412385
 31
0.0
  0
LINE
  5
4C4
330
6C
100
AcDbEntity
  8
Visible (ANSI)
100
AcDbLine
 10
92.37138429474045
 20
65.90592187499585
 30
0.0
 11
92.29757666975457
 21
65.8634188905258
 31
0.0
  0
LINE
  5
4C5
330
6C
100
AcDbEntity
  8
Visible (ANSI)
100
AcDbLine
 10
92.32140750614306
 20
65.84969562454722
 30
0.0
 11
92.29757666975457
 21
65.8634188905258
 31
0.0
  0
POLYLINE
  5
4C6
330
6C
100
AcDbEntity
  8
Visible (ANSI)
100
AcDb2dPolyline
 66
     1
 10
0.0
 20
0.0
 30
0.0
 70
   128
  0
VERTEX
  5
4C7
330
4C6
100
AcDbEntity
  8
Visible (ANSI)
100
AcDbVertex
100
AcDb2dVertex
 10
114.0411103621545
 20
20.86960698861227
 30
0.0
  0
VERTEX
  5
4C8
330
4C6
100
AcDbEntity
  8
Visible (ANSI)
100
AcDbVertex
100
AcDb2dVertex
 10
114.0402673754045
 20
20.86362662716322
 30
0.0
  0
VERTEX
  5
4CA
330
4C6
100
AcDbEntity
  8
Visible (ANSI)
100
AcDbVertex
100
AcDb2dVertex
 10
114.039802071708
 20
20.8578923731746
 30
0.0
  0
VERTEX
  5
4CB
330
4C6
100
AcDbEntity
  8
Visible (ANSI)
100
AcDbVertex
100
AcDb2dVertex
 10
114.0397120201541
 20
20.85243133551596
 30
0.0
  0
VERTEX
  5
4CC
330
4C6
100
AcDbEntity
  8
Visible (ANSI)
100
AcDbVertex
100
AcDb2dVertex
 10
114.0399931885837
 20
20.84726944196333
 30
0.0
  0
VERTEX
  5
4CD
330
4C6
100
AcDbEntity
  8
Visible (ANSI)
100
AcDbVertex
100
AcDb2dVertex
 10
114.0406378320987
 20
20.84243256873832
 30
0.0
  0
VERTEX
  5
4CE
330
4C6
100
AcDbEntity
  8
Visible (ANSI)
100
AcDbVertex
100
AcDb2dVertex
 10
114.0416430012492
 20
20.83794152580386
 30
0.0
  0
VERTEX
  5
4CF
330
4C6
100
AcDbEntity
  8
Visible (ANSI)
100
AcDbVertex
100
AcDb2dVertex
 10
114.0429978564963
 20
20.83381931855434
 30
0.0
  0
VERTEX
  5
4D0
330
4C6
100
AcDbEntity
  8
Visible (ANSI)
100
AcDbVertex
100
AcDb2dVertex
 10
114.0446921681031
 20
20.83008613792611
 30
0.0
  0
VERTEX
  5
4D1
330
4C6
100
AcDbEntity
  8
Visible (ANSI)
100
AcDbVertex
100
AcDb2dVertex
 10
114.0467142668682
 20
20.8267605257694
 30
0.0
  0
VERTEX
  5
4D2
330
4C6
100
AcDbEntity
  8
Visible (ANSI)
100
AcDbVertex
100
AcDb2dVertex
 10
114.0490510648677
 20
20.82385925489651
 30
0.0
  0
VERTEX
  5
4D3
330
4C6
100
AcDbEntity
  8
Visible (ANSI)
100
AcDbVertex
100
AcDb2dVertex
 10
114.0516881467179
 20
20.82139730489708
 30
0.0
  0
VERTEX
  5
4D4
330
4C6
100
AcDbEntity
  8
Visible (ANSI)
100
AcDbVertex
100
AcDb2dVertex
 10
114.0546097903169
 20
20.81938775897302
 30
0.0
  0
VERTEX
  5
4D5
330
4C6
100
AcDbEntity
  8
Visible (ANSI)
100
AcDbVertex
100
AcDb2dVertex
 10
114.0577990705523
 20
20.81784177013361
 30
0.0
  0
VERTEX
  5
4D6
330
4C6
100
AcDbEntity
  8
Visible (ANSI)
100
AcDbVertex
100
AcDb2dVertex
 10
114.0612379090809
 20
20.81676850352968
 30
0.0
  0
VERTEX
  5
4D7
330
4C6
100
AcDbEntity
  8
Visible (ANSI)
100
AcDbVertex
100
AcDb2dVertex
 10
114.0649071593693
 20
20.81617510029227
 30
0.0
  0
VERTEX
  5
4D8
330
4C6
100
AcDbEntity
  8
Visible (ANSI)
100
AcDbVertex
100
AcDb2dVertex
 10
114.0687866875861
 20
20.81606664497758
 30
0.0
  0
VERTEX
  5
4D9
330
4C6
100
AcDbEntity
  8
Visible (ANSI)
100
AcDbVertex
100
AcDb2dVertex
 10
114.0728533378542
 20
20.81644737287348
 30
0.0
  0
VERTEX
  5
4DA
330
4C6
100
AcDbEntity
  8
Visible (ANSI)
100
AcDbVertex
100
AcDb2dVertex
 10
114.0770895151091
 20
20.81731575584928
 30
0.0
  0
VERTEX
  5
4DB
330
4C6
100
AcDbEntity
  8
Visible (ANSI)
100
AcDbVertex
100
AcDb2dVertex
 10
114.0814705358579
 20
20.8186718455006
 30
0.0
  0
VERTEX
  5
4DC
330
4C6
100
AcDbEntity
  8
Visible (ANSI)
100
AcDbVertex
100
AcDb2dVertex
 10
114.0859732184267
 20
20.82051238004109
 30
0.0
  0
VERTEX
  5
4DD
330
4C6
100
AcDbEntity
  8
Visible (ANSI)
100
AcDbVertex
100
AcDb2dVertex
 10
114.0905738620837
 20
20.82283202312809
 30
0.0
  0
VERTEX
  5
4DE
330
4C6
100
AcDbEntity
  8
Visible (ANSI)
100
AcDbVertex
100
AcDb2dVertex
 10
114.0952483458215
 20
20.82562338709871
 30
0.0
  0
VERTEX
  5
4DF
330
4C6
100
AcDbEntity
  8
Visible (ANSI)
100
AcDbVertex
100
AcDb2dVertex
 10
114.0999722338795
 20
20.82887706516511
 30
0.0
  0
VERTEX
  5
4E0
330
4C6
100
AcDbEntity
  8
Visible (ANSI)
100
AcDbVertex
100
AcDb2dVertex
 10
114.1047208749142
 20
20.83258166838258
 30
0.0
  0
SEQEND
  5
4C9
330
4C6
100
AcDbEntity
  8
Visible (ANSI)
  0
POLYLINE
  5
4E1
330
6C
100
AcDbEntity
  8
Visible (ANSI)
100
AcDb2dPolyline
 66
     1
 10
0.0
 20
0.0
 30
0.0
 70
   128
  0
VERTEX
  5
4E2
330
4E1
100
AcDbEntity
  8
Visible (ANSI)
100
AcDbVertex
100
AcDb2dVertex
 10
92.33600544823692
 20
33.3262999343086
 30
0.0
  0
VERTEX
  5
4E3
330
4E1
100
AcDbEntity
  8
Visible (ANSI)
100
AcDbVertex
100
AcDb2dVertex
 10
92.33346759815473
 20
33.32783899471052
 30
0.0
  0
VERTEX
  5
4E5
330
4E1
100
AcDbEntity
  8
Visible (ANSI)
100
AcDbVertex
100
AcDb2dVertex
 10
92.33099904562218
 20
33.32949328556899
 30
0.0
  0
VERTEX
  5
4E6
330
4E1
100
AcDbEntity
  8
Visible (ANSI)
100
AcDbVertex
100
AcDb2dVertex
 10
92.32860189798168
 20
33.33126135132477
 30
0.0
  0
VERTEX
  5
4E7
330
4E1
100
AcDbEntity
  8
Visible (ANSI)
100
AcDbVertex
100
AcDb2dVertex
 10
92.32627817131284
 20
33.33314160472622
 30
0.0
  0
VERTEX
  5
4E8
330
4E1
100
AcDbEntity
  8
Visible (ANSI)
100
AcDbVertex
100
AcDb2dVertex
 10
92.32402981117386
 20
33.33513234836596
 30
0.0
  0
VERTEX
  5
4E9
330
4E1
100
AcDbEntity
  8
Visible (ANSI)
100
AcDbVertex
100
AcDb2dVertex
 10
92.32185868015685
 20
33.33723175552376
 30
0.0
  0
VERTEX
  5
4EA
330
4E1
100
AcDbEntity
  8
Visible (ANSI)
100
AcDbVertex
100
AcDb2dVertex
 10
92.31976655788752
 20
33.33943788935145
 30
0.0
  0
VERTEX
  5
4EB
330
4E1
100
AcDbEntity
  8
Visible (ANSI)
100
AcDbVertex
100
AcDb2dVertex
 10
92.31775513687713
 20
33.34174869328973
 30
0.0
  0
VERTEX
  5
4EC
330
4E1
100
AcDbEntity
  8
Visible (ANSI)
100
AcDbVertex
100
AcDb2dVertex
 10
92.31582603081903
 20
33.34416201263263
 30
0.0
  0
VERTEX
  5
4ED
330
4E1
100
AcDbEntity
  8
Visible (ANSI)
100
AcDbVertex
100
AcDb2dVertex
 10
92.3139807496987
 20
33.3466755562133
 30
0.0
  0
VERTEX
  5
4EE
330
4E1
100
AcDbEntity
  8
Visible (ANSI)
100
AcDbVertex
100
AcDb2dVertex
 10
92.31222072883205
 20
33.34928695149576
 30
0.0
  0
VERTEX
  5
4EF
330
4E1
100
AcDbEntity
  8
Visible (ANSI)
100
AcDbVertex
100
AcDb2dVertex
 10
92.3105473039755
 20
33.35199370146441
 30
0.0
  0
VERTEX
  5
4F0
330
4E1
100
AcDbEntity
  8
Visible (ANSI)
100
AcDbVertex
100
AcDb2dVertex
 10
92.30896171962262
 20
33.35479321817913
 30
0.0
  0
VERTEX
  5
4F1
330
4E1
100
AcDbEntity
  8
Visible (ANSI)
100
AcDbVertex
100
AcDb2dVertex
 10
92.3074651248558
 20
33.35768281079396
 30
0.0
  0
VERTEX
  5
4F2
330
4E1
100
AcDbEntity
  8
Visible (ANSI)
100
AcDbVertex
100
AcDb2dVertex
 10
92.30605856919792
 20
33.36065968316817
 30
0.0
  0
VERTEX
  5
4F3
330
4E1
100
AcDbEntity
  8
Visible (ANSI)
100
AcDbVertex
100
AcDb2dVertex
 10
92.30474301505735
 20
33.36372096501407
 30
0.0
  0
VERTEX
  5
4F4
330
4E1
100
AcDbEntity
  8
Visible (ANSI)
100
AcDbVertex
100
AcDb2dVertex
 10
92.30351932113462
 20
33.36686366876791
 30
0.0
  0
VERTEX
  5
4F5
330
4E1
100
AcDbEntity
  8
Visible (ANSI)
100
AcDbVertex
100
AcDb2dVertex
 10
92.30238823412589
 20
33.37008474712611
 30
0.0
  0
VERTEX
  5
4F6
330
4E1
100
AcDbEntity
  8
Visible (ANSI)
100
AcDbVertex
100
AcDb2dVertex
 10
92.30135043435431
 20
33.37338104752741
 30
0.0
  0
VERTEX
  5
4F7
330
4E1
100
AcDbEntity
  8
Visible (ANSI)
100
AcDbVertex
100
AcDb2dVertex
 10
92.30040647354533
 20
33.37674933365254
 30
0.0
  0
VERTEX
  5
4F8
330
4E1
100
AcDbEntity
  8
Visible (ANSI)
100
AcDbVertex
100
AcDb2dVertex
 10
92.29955681216159
 20
33.3801863214607
 30
0.0
  0
VERTEX
  5
4F9
330
4E1
100
AcDbEntity
  8
Visible (ANSI)
100
AcDbVertex
100
AcDb2dVertex
 10
92.29880180280959
 20
33.3836886168387
 30
0.0
  0
VERTEX
  5
4FA
330
4E1
100
AcDbEntity
  8
Visible (ANSI)
100
AcDbVertex
100
AcDb2dVertex
 10
92.29814170268467
 20
33.38725277072966
 30
0.0
  0
VERTEX
  5
4FB
330
4E1
100
AcDbEntity
  8
Visible (ANSI)
100
AcDbVertex
100
AcDb2dVertex
 10
92.29757666942266
 20
33.39087528633669
 30
0.0
  0
SEQEND
  5
4E4
330
4E1
100
AcDbEntity
  8
Visible (ANSI)
  0
LINE
  5
4FC
330
6C
100
AcDbEntity
  8
Visible (ANSI)
100
AcDbLine
 10
92.77973499861181
 20
33.61444615192711
 30
0.0
 11
92.94107301638058
 21
33.70735453727307
 31
0.0
  0
LINE
  5
4FD
330
6C
100
AcDbEntity
  8
Visible (ANSI)
100
AcDbLine
 10
114.1047206258044
 20
20.86063687915027
 30
0.0
 11
114.1047206258044
 21
20.83258181221759
 31
0.0
  0
LINE
  5
4FE
330
6C
100
AcDbEntity
  8
Visible (ANSI)
100
AcDbLine
 10
114.1047206258044
 20
20.83258181221759
 30
0.0
 11
114.1843198704016
 21
20.8784199686085
 31
0.0
  0
LINE
  5
4FF
330
6C
100
AcDbEntity
  8
Visible (ANSI)
100
AcDbLine
 10
114.2151735855062
 20
20.89618744147033
 30
0.0
 11
114.6350507116943
 21
21.13797859756189
 31
0.0
  0
LINE
  5
500
330
6C
100
AcDbEntity
  8
Visible (ANSI)
100
AcDbLine
 10
114.6350507116943
 20
21.13848363932953
 30
0.0
 11
114.6350507116943
 21
21.13797859756189
 31
0.0
  0
LINE
  5
501
330
6C
100
AcDbEntity
  8
Visible (ANSI)
100
AcDbLine
 10
114.7482169724306
 20
53.54574854830947
 30
0.0
 11
114.7482169724305
 21
21.20365175473127
 31
0.0
  0
LINE
  5
502
330
6C
100
AcDbEntity
  8
Visible (ANSI)
100
AcDbLine
 10
92.94107301638064
 20
66.23448883303947
 30
0.0
 11
114.6350507116943
 21
53.74175793628231
 31
0.0
  0
LINE
  5
503
330
6C
100
AcDbEntity
  8
Visible (ANSI)
100
AcDbLine
 10
92.89419801638057
 20
33.78854428412385
 30
0.0
 11
92.89419801638057
 21
33.87746593800886
 31
0.0
  0
LINE
  5
504
330
6C
100
AcDbEntity
  8
Visible (ANSI)
100
AcDbLine
 10
92.89419801638064
 20
64.6797457975923
 30
0.0
 11
92.89419801638064
 21
65.05053780825479
 31
0.0
  0
LINE
  5
505
330
6C
100
AcDbEntity
  8
Visible (ANSI)
100
AcDbLine
 10
113.6992941029006
 20
21.75349003296385
 30
0.0
 11
113.378032228977
 21
21.93849244214318
 31
0.0
  0
LINE
  5
506
330
6C
100
AcDbEntity
  8
Visible (ANSI)
100
AcDbLine
 10
93.01642075319113
 20
33.66396466138797
 30
0.0
 11
92.94107301638058
 21
33.70735453727307
 31
0.0
  0
SPLINE
  5
507
330
6C
100
AcDbEntity
  8
Visible (ANSI)
100
AcDbSpline
210
0.0
220
0.0
230
1.0
 70
     8
 71
     3
 72
    11
 73
     7
 74
     0
 42
0.0000000001
 43
0.0000000001
 40
0.0
 40
0.0
 40
0.0
 40
0.0
 40
1.048975082050573
 40
1.048975082050573
 40
1.048975082050573
 40
1.570796326794813
 40
1.570796326794813
 40
1.570796326794813
 40
1.570796326794813
 10
52.67138380031648
 20
79.67904584687373
 30
0.0
 10
52.71509109540193
 20
79.67904584687373
 30
0.0
 10
52.75796156977305
 20
79.70384795528109
 30
0.0
 10
52.77974790039023
 20
79.74173836886982
 30
0.0
 10
52.79058568896651
 20
79.76058726539851
 30
0.0
 10
52.79638380031649
 20
79.78230329500937
 30
0.0
 10
52.79638380031649
 20
79.80404584687372
 30
0.0
  0
LINE
  5
508
330
6C
100
AcDbEntity
  8
Visible (ANSI)
100
AcDbLine
 10
52.70263380031646
 20
79.80404584687372
 30
0.0
 11
52.70263380031648
 21
80.55404584687371
 31
0.0
  0
LINE
  5
509
330
6C
100
AcDbEntity
  8
Visible (ANSI)
100
AcDbLine
 10
52.70263380031646
 20
79.80404584687372
 30
0.0
 11
52.79638380031649
 21
79.80404584687372
 31
0.0
  0
SPLINE
  5
50A
330
6C
100
AcDbEntity
  8
Visible (ANSI)
100
AcDbSpline
210
0.0
220
0.0
230
1.0
 70
     8
 71
     3
 72
    11
 73
     7
 74
     0
 42
0.0000000001
 43
0.0000000001
 40
0.0
 40
0.0
 40
0.0
 40
0.0
 40
1.483474787626185
 40
1.483474787626185
 40
1.483474787626185
 40
1.570796326794813
 40
1.570796326794813
 40
1.570796326794813
 40
1.570796326794813
 10
52.67138380031648
 20
79.77279584687373
 30
0.0
 10
52.68683666268758
 20
79.77279584687372
 30
0.0
 10
52.70116708102968
 20
79.78592652996002
 30
0.0
 10
52.70251473457715
 20
79.80132051532367
 30
0.0
 10
52.70259406129238
 20
79.80222664902214
 30
0.0
 10
52.70263380031648
 20
79.80313624750738
 30
0.0
 10
52.70263380031648
 20
79.80404584687372
 30
0.0
  0
LINE
  5
50B
330
6C
100
AcDbEntity
  8
Visible (ANSI)
100
AcDbLine
 10
52.6713838003165
 20
79.77279584687373
 30
0.0
 11
52.6713838003165
 21
79.67904584687373
 31
0.0
  0
LINE
  5
50C
330
6C
100
AcDbEntity
  8
Visible (ANSI)
100
AcDbLine
 10
52.79638380031649
 20
79.80404584687372
 30
0.0
 11
52.79638380031649
 21
80.55404584687371
 31
0.0
  0
LINE
  5
50D
330
6C
100
AcDbEntity
  8
Visible (ANSI)
100
AcDbLine
 10
52.70263380031648
 20
80.55404584687371
 30
0.0
 11
52.79638380031649
 21
80.55404584687371
 31
0.0
  0
SPLINE
  5
50E
330
6C
100
AcDbEntity
  8
Visible (ANSI)
100
AcDbSpline
210
0.0
220
0.0
230
1.0
 70
     8
 71
     3
 72
    11
 73
     7
 74
     0
 42
0.0000000001
 43
0.0000000001
 40
0.0
 40
0.0
 40
0.0
 40
0.0
 40
1.048975082050328
 40
1.048975082050328
 40
1.048975082050328
 40
1.570796326794967
 40
1.570796326794967
 40
1.570796326794967
 40
1.570796326794967
 10
21.9213838003165
 20
79.67904584687373
 30
0.0
 10
21.92918396484217
 20
79.67904584687374
 30
0.0
 10
21.93698412936783
 20
79.70384795528109
 30
0.0
 10
21.9447842938935
 20
79.74173836886982
 30
0.0
 10
21.94866454961324
 20
79.76058726539853
 30
0.0
 10
21.95254480533298
 20
79.78230329500942
 30
0.0
 10
21.95642506105273
 20
79.80404584687377
 30
0.0
  0
SPLINE
  5
50F
330
6C
100
AcDbEntity
  8
Visible (ANSI)
100
AcDbSpline
210
0.0
220
0.0
230
1.0
 70
     8
 71
     3
 72
    11
 73
     7
 74
     0
 42
0.0000000001
 43
0.0000000001
 40
0.0
 40
0.0
 40
0.0
 40
0.0
 40
1.048975082050325
 40
1.048975082050325
 40
1.048975082050325
 40
1.570796326795121
 40
1.570796326795121
 40
1.570796326795121
 40
1.570796326795121
 10
52.63634253958027
 20
79.80404584687377
 30
0.0
 10
52.64414270410592
 20
79.76033855178835
 30
0.0
 10
52.65194286863158
 20
79.71746807741721
 30
0.0
 10
52.65974303315725
 20
79.69568174680002
 30
0.0
 10
52.66362328887699
 20
79.68484395822369
 30
0.0
 10
52.66750354459674
 20
79.67904584687372
 30
0.0
 10
52.67138380031648
 20
79.67904584687372
 30
0.0
  0
LINE
  5
510
330
6C
100
AcDbEntity
  8
Visible (ANSI)
100
AcDbLine
 10
52.63634253958024
 20
80.55404584687376
 30
0.0
 11
52.63634253958027
 21
79.80404584687376
 31
0.0
  0
SPLINE
  5
511
330
6C
100
AcDbEntity
  8
Visible (ANSI)
100
AcDbSpline
210
0.0
220
0.0
230
1.0
 70
     8
 71
     3
 72
    11
 73
     7
 74
     0
 42
0.0000000001
 43
0.0000000001
 40
0.0
 40
0.0
 40
0.0
 40
0.0
 40
1.483474787626232
 40
1.483474787626232
 40
1.483474787626232
 40
1.570796326795121
 40
1.570796326795121
 40
1.570796326795121
 40
1.570796326795121
 10
52.67138380031648
 20
79.77279584687373
 30
0.0
 10
52.66035270185555
 20
79.77279584687373
 30
0.0
 10
52.64932160339462
 20
79.78592652996005
 30
0.0
 10
52.63829050493369
 20
79.80132051532369
 30
0.0
 10
52.63764118314923
 20
79.80222664902218
 30
0.0
 10
52.63699186136474
 20
79.80313624750741
 30
0.0
 10
52.63634253958025
 20
79.80404584687375
 30
0.0
  0
SPLINE
  5
512
330
6C
100
AcDbEntity
  8
Visible (ANSI)
100
AcDbSpline
210
0.0
220
0.0
230
1.0
 70
     8
 71
     3
 72
    11
 73
     7
 74
     0
 42
0.0000000001
 43
0.0000000001
 40
0.0
 40
0.0
 40
0.0
 40
0.0
 40
1.483474787626231
 40
1.483474787626231
 40
1.483474787626231
 40
1.570796326794967
 40
1.570796326794967
 40
1.570796326794967
 40
1.570796326794967
 10
21.9213838003165
 20
79.77279584687373
 30
0.0
 10
21.93241489877743
 20
79.77279584687373
 30
0.0
 10
21.94344599723836
 20
79.78592652996005
 30
0.0
 10
21.95447709569929
 20
79.80132051532369
 30
0.0
 10
21.95512641748377
 20
79.80222664902216
 30
0.0
 10
21.95577573926825
 20
79.80313624750741
 30
0.0
 10
21.95642506105273
 20
79.80404584687375
 30
0.0
  0
LINE
  5
513
330
6C
100
AcDbEntity
  8
Visible (ANSI)
100
AcDbLine
 10
21.9213838003165
 20
79.77279584687373
 30
0.0
 11
21.9213838003165
 21
79.67904584687373
 31
0.0
  0
LINE
  5
514
330
6C
100
AcDbEntity
  8
Visible (ANSI)
100
AcDbLine
 10
21.95642506105273
 20
79.80404584687376
 30
0.0
 11
21.95642506105273
 21
80.55404584687376
 31
0.0
  0
SPLINE
  5
515
330
6C
100
AcDbEntity
  8
Visible (ANSI)
100
AcDbSpline
210
0.0
220
0.0
230
1.0
 70
     8
 71
     3
 72
    11
 73
     7
 74
     0
 42
0.0000000001
 43
0.0000000001
 40
0.0
 40
0.0
 40
0.0
 40
0.0
 40
1.048975082050298
 40
1.048975082050298
 40
1.048975082050298
 40
1.570796326794879
 40
1.570796326794879
 40
1.570796326794879
 40
1.570796326794879
 10
21.7963838003165
 20
79.80404584687372
 30
0.0
 10
21.7963838003165
 20
79.7603385517883
 30
0.0
 10
21.82118590872384
 20
79.71746807741718
 30
0.0
 10
21.85907632231256
 20
79.6956817468
 30
0.0
 10
21.87792521884125
 20
79.68484395822369
 30
0.0
 10
21.89964124845214
 20
79.67904584687373
 30
0.0
 10
21.9213838003165
 20
79.67904584687373
 30
0.0
  0
LINE
  5
516
330
6C
100
AcDbEntity
  8
Visible (ANSI)
100
AcDbLine
 10
21.89013380031649
 20
79.80404584687372
 30
0.0
 11
21.89013380031649
 21
80.55404584687371
 31
0.0
  0
LINE
  5
517
330
6C
100
AcDbEntity
  8
Visible (ANSI)
100
AcDbLine
 10
21.7963838003165
 20
80.55404584687371
 30
0.0
 11
21.7963838003165
 21
79.80404584687372
 31
0.0
  0
LINE
  5
518
330
6C
100
AcDbEntity
  8
Visible (ANSI)
100
AcDbLine
 10
21.89013380031649
 20
79.80404584687372
 30
0.0
 11
21.7963838003165
 21
79.80404584687372
 31
0.0
  0
LINE
  5
519
330
6C
100
AcDbEntity
  8
Visible (ANSI)
100
AcDbLine
 10
21.89013380031649
 20
80.55404584687371
 30
0.0
 11
21.7963838003165
 21
80.55404584687371
 31
0.0
  0
SPLINE
  5
51A
330
6C
100
AcDbEntity
  8
Visible (ANSI)
100
AcDbSpline
210
0.0
220
0.0
230
1.0
 70
     8
 71
     3
 72
    11
 73
     7
 74
     0
 42
0.0000000001
 43
0.0000000001
 40
0.0
 40
0.0
 40
0.0
 40
0.0
 40
1.483474787626963
 40
1.483474787626963
 40
1.483474787626963
 40
1.570796326794879
 40
1.570796326794879
 40
1.570796326794879
 40
1.570796326794879
 10
21.9213838003165
 20
79.77279584687373
 30
0.0
 10
21.90593093794538
 20
79.77279584687372
 30
0.0
 10
21.89160051960328
 20
79.78592652996005
 30
0.0
 10
21.89025286605582
 20
79.80132051532371
 30
0.0
 10
21.89017353934059
 20
79.80222664902216
 30
0.0
 10
21.89013380031649
 20
79.80313624750739
 30
0.0
 10
21.89013380031649
 20
79.80404584687372
 30
0.0
  0
LINE
  5
51B
330
6C
100
AcDbEntity
  8
Visible (ANSI)
100
AcDbLine
 10
52.6713838003165
 20
79.67904584687373
 30
0.0
 11
21.9213838003165
 21
79.67904584687373
 31
0.0
  0
LINE
  5
51C
330
6C
100
AcDbEntity
  8
Hidden (ANSI)
100
AcDbLine
 10
21.9213838003165
 20
79.77279584687373
 30
0.0
 11
52.6713838003165
 21
79.77279584687373
 31
0.0
  0
LINE
  5
51D
330
6C
100
AcDbEntity
  8
Visible (ANSI)
100
AcDbLine
 10
21.95642506105273
 20
80.55404584687376
 30
0.0
 11
52.63634253958024
 21
80.55404584687376
 31
0.0
  0
LINE
  5
51E
330
6C
100
AcDbEntity
  8
Hidden (ANSI)
100
AcDbLine
 10
52.20288380031647
 20
79.77279584687351
 30
0.0
 11
52.20288380031647
 21
79.6790458468735
 31
0.0
  0
LINE
  5
51F
330
6C
100
AcDbEntity
  8
Hidden (ANSI)
100
AcDbLine
 10
51.63988380031646
 20
79.77279584687351
 30
0.0
 11
51.63988380031646
 21
79.6790458468735
 31
0.0
  0
LINE
  5
520
330
6C
100
AcDbEntity
  8
Hidden (ANSI)
100
AcDbLine
 10
22.95288380031649
 20
79.77279584687351
 30
0.0
 11
22.95288380031649
 21
79.6790458468735
 31
0.0
  0
LINE
  5
521
330
6C
100
AcDbEntity
  8
Hidden (ANSI)
100
AcDbLine
 10
22.3898838003165
 20
79.77279584687351
 30
0.0
 11
22.3898838003165
 21
79.6790458468735
 31
0.0
  0
MTEXT
  5
522
330
6C
100
AcDbEntity
  8
Symbol (ANSI)
100
AcDbMText
 10
34.14449605976681
 20
76.14088116286089
 30
0.0
 40
0.9600000118646095
 41
0.0
 46
0.0
 71
     7
 72
     1
  1
TOP VIEW
  7
Text Style153
 73
     1
 44
1.0
  0
LINE
  5
523
330
6C
100
AcDbEntity
  8
Symbol (ANSI)
370
    30
100
AcDbLine
 10
34.14526406174239
 20
75.94510806386177
 30
0.0
 11
40.20244388068424
 21
75.94510806386177
 31
0.0
  0
DIMENSION
  5
524
330
6C
100
AcDbEntity
  8
Dimension (ANSI)
100
AcDbDimension
280
     0
  2
*D4
 10
70.79728234868351
 20
50.14151113876204
 30
0.0
 11
75.21046781749241
 21
50.14151113876204
 31
0.0
 70
   160
  1
<>{\PTYP.}
 71
     4
 42
0.8750000000000284
 73
     0
 74
     0
 75
     0
  3
Default (ANSI)
100
AcDbAlignedDimension
 13
71.67228234868353
 23
61.42229046281613
 33
0.0
 14
70.79728234868351
 24
63.32305939529086
 34
0.0
 50
180.0
100
AcDbRotatedDimension
1001
ACAD
1000
DSTYLE
1002
{
1070
   289
1070
     1
1070
    73
1070
     0
1070
    74
1070
     0
1070
   271
1070
     2
1070
    76
1070
     1
1070
    75
1070
     1
1070
   272
1070
     2
1070
    48
1040
0.0
1070
    47
1040
0.0
1002
}
  0
DIMENSION
  5
615
330
6C
100
AcDbEntity
  8
Dimension (ANSI)
100
AcDbDimension
280
     0
  2
*D5
 10
12.59576328746663
 20
23.56805939529086
 30
0.0
 11
12.59576328746663
 21
43.50805939529084
 31
0.0
 70
   160
  1
<>
 42
39.87999999999998
 73
     0
 74
     0
 75
     0
  3
Default (ANSI)
100
AcDbAlignedDimension
 13
21.95642506104187
 23
63.44805939529083
 33
0.0
 14
21.95642506104189
 24
23.56805939529086
 34
0.0
 50
90.0
100
AcDbRotatedDimension
1001
ACAD
1000
DSTYLE
1002
{
1070
   289
1070
     1
1070
   271
1070
     2
1070
   272
1070
     2
1070
    48
1040
0.0
1070
    47
1040
0.0
1002
}
  0
DIMENSION
  5
6FF
330
6C
100
AcDbEntity
  8
Dimension (ANSI)
100
AcDbDimension
280
     0
  2
*D6
 10
51.92138380030562
 20
66.87529195971158
 30
0.0
 11
37.29638380030563
 21
66.87529195971158
 31
0.0
 70
   160
  1
<>
 42
29.24999999999998
 73
     0
 74
     0
 75
     0
  3
Default (ANSI)
100
AcDbAlignedDimension
 13
22.67138380030564
 23
62.57305939529083
 33
0.0
 14
51.92138380030562
 24
62.57305939529083
 34
0.0
 50
180.0
100
AcDbRotatedDimension
1001
ACAD
1000
DSTYLE
1002
{
1070
   289
1070
     1
1070
    73
1070
     0
1070
    74
1070
     0
1070
   271
1070
     2
1070
   272
1070
     2
1070
    48
1040
0.0
1070
    47
1040
0.0
1002
}
  0
DIMENSION
  5
7E9
330
6C
100
AcDbEntity
  8
Dimension (ANSI)
100
AcDbDimension
280
     0
  2
*D7
 10
51.72233324140153
 20
24.24400883638686
 30
0.0
 11
60.80432111114112
 21
29.95051812118954
 31
0.0
 70
   163
  1
<>{\P(4 PL.)}
 71
     5
 42
0.5629999999999928
 73
     0
 74
     0
 75
     0
  3
Default (ANSI)
100
AcDbDiametricDimension
 15
52.12043435920968
 25
24.64210995419484
 35
0.0
 40
0.0
1001
ACAD
1000
DSTYLE
1002
{
1070
   144
1040
0.9999999999998948
1070
   271
1070
     3
1070
   272
1070
     2
1070
    48
1040
0.0
1070
    47
1040
0.0
1002
}
1001
ACAD_DSTYLE_DIMRADIAL_EXTENSION
1070
   387
1070
     1
1070
   388
1040
0.0
1070
   390
1040
0.0
  0
LINE
  5
8A4
330
6C
100
AcDbEntity
  8
Center Mark (ANSI)
  6
Continuous
100
AcDbLine
 10
22.67138380030564
 20
63.85455939529084
 30
0.0
 11
22.67138380030564
 21
61.29155939529084
 31
0.0
  0
LINE
  5
8A5
330
6C
100
AcDbEntity
  8
Center Mark (ANSI)
  6
Continuous
100
AcDbLine
 10
51.92138380030562
 20
63.85455939529084
 30
0.0
 11
51.92138380030562
 21
61.29155939529084
 31
0.0
  0
LINE
  5
8A6
330
6C
100
AcDbEntity
  8
Centerline (ANSI)
  6
Continuous
100
AcDbLine
 10
21.38988380030564
 20
62.57305939529083
 30
0.0
 11
53.20288380030561
 21
62.57305939529083
 31
0.0
  0
LINE
  5
8A7
330
6C
100
AcDbEntity
  8
Center Mark (ANSI)
  6
Continuous
100
AcDbLine
 10
53.20288380030561
 20
62.57305939529083
 30
0.0
 11
50.63988380030561
 21
62.57305939529083
 31
0.0
  0
LINE
  5
8A8
330
6C
100
AcDbEntity
  8
Center Mark (ANSI)
  6
Continuous
100
AcDbLine
 10
53.20288380030561
 20
24.44305939529086
 30
0.0
 11
50.63988380030561
 21
24.44305939529086
 31
0.0
  0
LINE
  5
8A9
330
6C
100
AcDbEntity
  8
Centerline (ANSI)
  6
Continuous
100
AcDbLine
 10
51.92138380030562
 20
63.85455939529084
 30
0.0
 11
51.92138380030562
 21
23.16155939529086
 31
0.0
  0
LINE
  5
8AA
330
6C
100
AcDbEntity
  8
Center Mark (ANSI)
  6
Continuous
100
AcDbLine
 10
51.92138380030562
 20
23.16155939529086
 30
0.0
 11
51.92138380030562
 21
25.72455939529086
 31
0.0
  0
LINE
  5
8AB
330
6C
100
AcDbEntity
  8
Center Mark (ANSI)
  6
Continuous
100
AcDbLine
 10
22.67138380030564
 20
23.16155939529086
 30
0.0
 11
22.67138380030564
 21
25.72455939529086
 31
0.0
  0
LINE
  5
8AC
330
6C
100
AcDbEntity
  8
Centerline (ANSI)
  6
Continuous
100
AcDbLine
 10
53.20288380030561
 20
24.44305939529086
 30
0.0
 11
21.38988380030564
 21
24.44305939529086
 31
0.0
  0
LINE
  5
8AD
330
6C
100
AcDbEntity
  8
Center Mark (ANSI)
  6
Continuous
100
AcDbLine
 10
21.38988380030564
 20
24.44305939529086
 30
0.0
 11
23.95288380030564
 21
24.44305939529086
 31
0.0
  0
LINE
  5
8AE
330
6C
100
AcDbEntity
  8
Center Mark (ANSI)
  6
Continuous
100
AcDbLine
 10
21.38988380030564
 20
62.57305939529083
 30
0.0
 11
23.95288380030564
 21
62.57305939529083
 31
0.0
  0
LINE
  5
8AF
330
6C
100
AcDbEntity
  8
Centerline (ANSI)
  6
Continuous
100
AcDbLine
 10
22.67138380030564
 20
23.16155939529086
 30
0.0
 11
22.67138380030564
 21
63.85455939529084
 31
0.0
  0
DIMENSION
  5
8B0
330
6C
100
AcDbEntity
  8
Dimension (ANSI)
100
AcDbDimension
280
     0
  2
*D8
 10
18.24027750109304
 20
24.44305939529086
 30
0.0
 11
18.24027750109304
 21
43.50805939529084
 31
0.0
 70
   160
  1
<>
 42
38.12999999999998
 73
     0
 74
     0
 75
     0
  3
Default (ANSI)
100
AcDbAlignedDimension
 13
21.38988380030564
 23
62.57305939529083
 33
0.0
 14
21.38988380030564
 24
24.44305939529086
 34
0.0
 50
270.0
100
AcDbRotatedDimension
1001
ACAD
1000
DSTYLE
1002
{
1070
   289
1070
     1
1070
   271
1070
     2
1070
   272
1070
     2
1070
    48
1040
0.0
1070
    47
1040
0.0
1002
}
  0
DIMENSION
  5
99A
330
6C
100
AcDbEntity
  8
Dimension (ANSI)
100
AcDbDimension
280
     0
  2
*D9
 10
20.51011100119674
 20
24.44305939529086
 30
0.0
 11
18.24027750109304
 21
21.27207806823374
 31
0.0
 70
   160
  1
<>
 42
0.875
 73
     0
 74
     0
 75
     0
  3
Default (ANSI)
100
AcDbAlignedDimension
 13
21.95642506104189
 23
23.56805939529086
 33
0.0
 14
21.38988380030564
 24
24.44305939529086
 34
0.0
 50
90.0
100
AcDbRotatedDimension
1001
ACAD
1000
DSTYLE
1002
{
1070
   289
1070
     1
1070
   271
1070
     2
1070
   272
1070
     2
1070
    48
1040
0.0
1070
    47
1040
0.0
1002
}
  0
DIMENSION
  5
A9A
330
6C
100
AcDbEntity
  8
Dimension (ANSI)
100
AcDbDimension
280
     0
  2
*D10
 10
52.79638380030561
 20
70.46701565002321
 30
0.0
 11
37.29638380030563
 21
70.46701565002321
 31
0.0
 70
   160
  1
<>
 42
30.99999999999998
 73
     0
 74
     0
 75
     0
  3
Default (ANSI)
100
AcDbAlignedDimension
 13
21.79638380030564
 23
63.28801813455463
 33
0.0
 14
52.79638380030561
 24
63.28801813455463
 34
0.0
100
AcDbRotatedDimension
1001
ACAD
1000
DSTYLE
1002
{
1070
   289
1070
     1
1070
    73
1070
     0
1070
    74
1070
     0
1070
   271
1070
     2
1070
   272
1070
     2
1070
    48
1040
0.0
1070
    47
1040
0.0
1002
}
  0
DIMENSION
  5
B84
330
6C
100
AcDbEntity
  8
Dimension (ANSI)
100
AcDbDimension
280
     0
  2
*D11
 10
21.79638380030564
 20
66.87529195971158
 30
0.0
 11
17.70265223938144
 21
66.87529195971158
 31
0.0
 70
   160
  1
<>
 42
0.875
 73
     0
 74
     0
 75
     0
  3
Default (ANSI)
100
AcDbAlignedDimension
 13
22.67138380030564
 23
63.85455939529084
 33
0.0
 14
21.79638380030564
 24
63.28801813455463
 34
0.0
 50
180.0
100
AcDbRotatedDimension
1001
ACAD
1000
DSTYLE
1002
{
1070
   289
1070
     1
1070
    73
1070
     0
1070
    74
1070
     0
1070
   271
1070
     2
1070
   272
1070
     2
1070
    48
1040
0.0
1070
    47
1040
0.0
1002
}
  0
DIMENSION
  5
C6E
330
6C
100
AcDbEntity
  8
Dimension (ANSI)
100
AcDbDimension
280
     0
  2
*D12
 10
46.86481644596423
 20
79.67904584687372
 30
0.0
 11
49.17236653563726
 21
84.54535726459358
 31
0.0
 70
   160
  1
<>{\PTYP.}
 42
0.8750000000000426
 73
     0
 74
     0
 75
     0
  3
Default (ANSI)
100
AcDbAlignedDimension
 13
49.17236653563726
 23
80.55404584687376
 33
0.0
 14
49.17236653563727
 24
79.67904584687372
 34
0.0
 50
270.0
100
AcDbRotatedDimension
1001
ACAD
1000
DSTYLE
1002
{
1070
   289
1070
     1
1070
   145
1040
-0.25
1070
   271
1070
     2
1070
    76
1070
     1
1070
    75
1070
     1
1070
   272
1070
     2
1070
    48
1040
0.0
1070
    47
1040
0.0
1002
}
  0
MTEXT
  5
D77
102
{ACAD_XDICTIONARY
360
D7E
102
}
330
6C
100
AcDbEntity
  8
Symbol (ANSI)
100
AcDbMText
 10
74.57006024263321
 20
7.020039377620244
 30
0.0
 40
0.8000000255314382
 41
59.06709686039003
 46
0.0
 71
     4
 72
     1
  3
{\fRomanS|b0|i0|c0|p2;\H2x;PART#: WA90SP36F4\P(DATA SUBJECT TO CHANGE WITHOUT NOTICE)\H1.6157x; \H0.61894x;\P \H1.352x; \H0.73963x;\P\H0.6x;THIS DRAWING IS PROPERTY OF HUBBELL INC. WIEGMANN\H1.5633x; \H0.63966x;\PALL INFORMATION IS PROPRIETARY AND NO
  1
T TO BE DUPLICATED\H1.234x; \H0.81039x;\P\H1.2571x; }
  7
Note Text (ANSI)
 73
     1
 44
0.8026435375213623
  0
ENDSEC
  0
SECTION
  2
OBJECTS
  0
DICTIONARY
  5
C
330
0
100
AcDbDictionary
281
     1
  3
ACAD_CIP_PREVIOUS_PRODUCT_INFO
350
D79
  3
ACAD_COLOR
350
63
  3
ACAD_GROUP
350
D
  3
ACAD_LAYOUT
350
62
  3
ACAD_MATERIAL
350
10
  3
ACAD_MLEADERSTYLE
350
66
  3
ACAD_MLINESTYLE
350
5F
  3
ACAD_PLOTSETTINGS
350
61
  3
ACAD_PLOTSTYLENAME
350
E
  3
ACAD_SCALELIST
350
42
  3
ACAD_TABLESTYLE
350
64
  3
ACAD_VISUALSTYLE
350
29
  3
ACDB_RECOMPOSE_DATA
350
D80
  3
AcDbVariableDictionary
350
76
  0
DICTIONARY
  5
D7E
330
D77
100
AcDbDictionary
280
     1
281
     1
  3
ACAD_MTEXT_2008_RT
360
D7F
  0
XRECORD
  5
D79
102
{ACAD_REACTORS
330
C
102
}
330
C
100
AcDbXrecord
280
     1
300
INVNTOR
300
2012
300
PDSP_F_S
  0
DICTIONARY
  5
63
102
{ACAD_REACTORS
330
C
102
}
330
C
100
AcDbDictionary
281
     1
  0
DICTIONARY
  5
D
102
{ACAD_REACTORS
330
C
102
}
330
C
100
AcDbDictionary
281
     1
  0
DICTIONARY
  5
62
102
{ACAD_REACTORS
330
C
102
}
330
C
100
AcDbDictionary
281
     1
  3
Layout1
350
6B
  3
Layout2
350
73
  3
Model
350
6F
  0
DICTIONARY
  5
10
102
{ACAD_REACTORS
330
C
102
}
330
C
100
AcDbDictionary
281
     1
  3
ByBlock
350
19
  3
ByLayer
350
11
  3
Global
350
21
  0
DICTIONARY
  5
66
102
{ACAD_REACTORS
330
C
102
}
330
C
100
AcDbDictionary
281
     1
  3
Standard
350
67
  0
DICTIONARY
  5
5F
102
{ACAD_REACTORS
330
C
102
}
330
C
100
AcDbDictionary
281
     1
  3
Standard
350
60
  0
DICTIONARY
  5
61
102
{ACAD_REACTORS
330
C
102
}
330
C
100
AcDbDictionary
281
     1
  0
ACDBDICTIONARYWDFLT
  5
E
102
{ACAD_REACTORS
330
C
102
}
330
C
100
AcDbDictionary
281
     1
  3
Normal
350
F
100
AcDbDictionaryWithDefault
340
F
  0
DICTIONARY
  5
42
102
{ACAD_REACTORS
330
C
102
}
330
C
100
AcDbDictionary
281
     1
  3
A0
350
43
  3
A1
350
44
  3
A2
350
45
  3
A3
350
46
  3
A4
350
47
  3
A5
350
48
  3
A6
350
49
  3
A7
350
4A
  3
A8
350
4B
  3
A9
350
4C
  3
B0
350
4D
  3
B1
350
4E
  3
B2
350
4F
  3
B3
350
50
  3
B4
350
51
  3
B5
350
52
  3
B6
350
53
  0
DICTIONARY
  5
64
102
{ACAD_REACTORS
330
C
102
}
330
C
100
AcDbDictionary
281
     1
  3
Standard
350
65
  0
DICTIONARY
  5
29
102
{ACAD_REACTORS
330
C
102
}
330
C
100
AcDbDictionary
281
     1
  3
2dWireframe
350
2F
  3
Basic
350
2E
  3
Brighten
350
35
  3
ColorChange
350
39
  3
Conceptual
350
32
  3
Dim
350
34
  3
EdgeColorOff
350
41
  3
Facepattern
350
38
  3
Flat
350
2A
  3
FlatWithEdges
350
2B
  3
Gouraud
350
2C
  3
GouraudWithEdges
350
2D
  3
Hidden
350
31
  3
JitterOff
350
3F
  3
Linepattern
350
37
  3
OverhangOff
350
40
  3
Realistic
350
33
  3
Shaded
350
3E
  3
Shaded with edges
350
3D
  3
Shades of Gray
350
3A
  3
Sketchy
350
3B
  3
Thicken
350
36
  3
Wireframe
350
30
  3
X-Ray
350
3C
  0
XRECORD
  5
D80
102
{ACAD_REACTORS
330
C
102
}
330
C
100
AcDbXrecord
280
     1
 90
        1
330
65
330
D77
  0
DICTIONARY
  5
76
102
{ACAD_REACTORS
330
C
102
}
330
C
100
AcDbDictionary
281
     1
  3
CANNOSCALE
350
79
  3
CMLEADERSTYLE
350
78
  3
CTABLESTYLE
350
77
  0
XRECORD
  5
D7F
102
{ACAD_REACTORS
330
D7E
102
}
330
D7E
100
AcDbXrecord
280
     1
 40
3109741.0
  1
\pxsm0.94;{\fRomanS|b0|i0;\H1.6000;PART#: WA90SP36F4\P(DATA SUBJECT TO CHANGE WITHOUT NOTICE)\P \P\fRomanS|b0|i0;\H0.9600;THIS DRAWING IS PROPERTY OF HUBBELL INC. WIEGMANN\PALL INFORMATION IS PROPRIETARY AND NOT TO BE DUPLICATED\P}
  0
LAYOUT
  5
6B
102
{ACAD_REACTORS
330
62
102
}
330
62
100
AcDbPlotSettings
  1

  2

  4

  6

 40
0.0
 41
0.0
 42
0.0
 43
0.0
 44
0.0
 45
0.0
 46
0.0
 47
0.0
 48
0.0
 49
0.0
140
0.0
141
0.0
142
1.0
143
1.0
 70
   688
 72
     0
 73
     0
 74
     5
  7

 75
    16
147
1.0
 76
     0
 77
     2
 78
   300
148
0.0
149
0.0
100
AcDbLayout
  1
Layout1
 70
     1
 71
     1
 10
0.0
 20
0.0
 11
12.0
 21
9.0
 12
0.0
 22
0.0
 32
0.0
 14
0.0
 24
0.0
 34
0.0
 15
0.0
 25
0.0
 35
0.0
146
0.0
 13
0.0
 23
0.0
 33
0.0
 16
1.0
 26
0.0
 36
0.0
 17
0.0
 27
1.0
 37
0.0
 76
     0
330
68
  0
LAYOUT
  5
73
102
{ACAD_REACTORS
330
62
102
}
330
62
100
AcDbPlotSettings
  1

  2

  4

  6

 40
0.0
 41
0.0
 42
0.0
 43
0.0
 44
0.0
 45
0.0
 46
0.0
 47
0.0
 48
0.0
 49
0.0
140
0.0
141
0.0
142
1.0
143
1.0
 70
   688
 72
     0
 73
     0
 74
     5
  7

 75
    16
147
1.0
 76
     0
 77
     2
 78
   300
148
0.0
149
0.0
100
AcDbLayout
  1
Layout2
 70
     1
 71
     2
 10
0.0
 20
0.0
 11
12.0
 21
9.0
 12
0.0
 22
0.0
 32
0.0
 14
0.0
 24
0.0
 34
0.0
 15
0.0
 25
0.0
 35
0.0
146
0.0
 13
0.0
 23
0.0
 33
0.0
 16
1.0
 26
0.0
 36
0.0
 17
0.0
 27
1.0
 37
0.0
 76
     0
330
70
  0
LAYOUT
  5
6F
102
{ACAD_REACTORS
330
62
102
}
330
62
100
AcDbPlotSettings
  1

  2

  4

  6

 40
0.0
 41
0.0
 42
0.0
 43
0.0
 44
0.0
 45
0.0
 46
0.0
 47
0.0
 48
0.0
 49
0.0
140
0.0
141
0.0
142
1.0
143
1.0
 70
  1712
 72
     0
 73
     0
 74
     0
  7

 75
     0
147
1.0
 76
     0
 77
     2
 78
   300
148
0.0
149
0.0
100
AcDbLayout
  1
Model
 70
     1
 71
     0
 10
0.0
 20
0.0
 11
12.0
 21
9.0
 12
0.0
 22
0.0
 32
0.0
 14
0.0
 24
0.0
 34
0.0
 15
0.0
 25
0.0
 35
0.0
146
0.0
 13
0.0
 23
0.0
 33
0.0
 16
1.0
 26
0.0
 36
0.0
 17
0.0
 27
1.0
 37
0.0
 76
     0
330
6C
  0
MATERIAL
  5
19
102
{ACAD_XDICTIONARY
360
1A
102
}
102
{ACAD_REACTORS
330
10
102
}
330
10
100
AcDbMaterial
  1
ByBlock
 72
     0
 43
0.0208333333333333
 43
0.0
 43
0.0
 43
0.0
 43
0.0
 43
0.0208333333333333
 43
0.0
 43
0.0
 43
0.0
 43
0.0
 43
1.0
 43
0.0
 43
0.0
 43
0.0
 43
0.0
 43
1.0
 77
     0
 47
0.0208333333333333
 47
0.0
 47
0.0
 47
0.0
 47
0.0
 47
0.0208333333333333
 47
0.0
 47
0.0
 47
0.0
 47
0.0
 47
1.0
 47
0.0
 47
0.0
 47
0.0
 47
0.0
 47
1.0
171
     0
 49
0.0208333333333333
 49
0.0
 49
0.0
 49
0.0
 49
0.0
 49
0.0208333333333333
 49
0.0
 49
0.0
 49
0.0
 49
0.0
 49
1.0
 49
0.0
 49
0.0
 49
0.0
 49
0.0
 49
1.0
175
     0
142
0.0208333333333333
142
0.0
142
0.0
142
0.0
142
0.0
142
0.0208333333333333
142
0.0
142
0.0
142
0.0
142
0.0
142
1.0
142
0.0
142
0.0
142
0.0
142
0.0
142
1.0
179
     0
144
0.0208333333333333
144
0.0
144
0.0
144
0.0
144
0.0
144
0.0208333333333333
144
0.0
144
0.0
144
0.0
144
0.0
144
1.0
144
0.0
144
0.0
144
0.0
144
0.0
144
1.0
147
0.0208333333333333
147
0.0
147
0.0
147
0.0
147
0.0
147
0.0208333333333333
147
0.0
147
0.0
147
0.0
147
0.0
147
1.0
147
0.0
147
0.0
147
0.0
147
0.0
147
1.0
  0
MATERIAL
  5
11
102
{ACAD_XDICTIONARY
360
12
102
}
102
{ACAD_REACTORS
330
10
102
}
330
10
100
AcDbMaterial
  1
ByLayer
 72
     0
 43
0.0208333333333333
 43
0.0
 43
0.0
 43
0.0
 43
0.0
 43
0.0208333333333333
 43
0.0
 43
0.0
 43
0.0
 43
0.0
 43
1.0
 43
0.0
 43
0.0
 43
0.0
 43
0.0
 43
1.0
 77
     0
 47
0.0208333333333333
 47
0.0
 47
0.0
 47
0.0
 47
0.0
 47
0.0208333333333333
 47
0.0
 47
0.0
 47
0.0
 47
0.0
 47
1.0
 47
0.0
 47
0.0
 47
0.0
 47
0.0
 47
1.0
171
     0
 49
0.0208333333333333
 49
0.0
 49
0.0
 49
0.0
 49
0.0
 49
0.0208333333333333
 49
0.0
 49
0.0
 49
0.0
 49
0.0
 49
1.0
 49
0.0
 49
0.0
 49
0.0
 49
0.0
 49
1.0
175
     0
142
0.0208333333333333
142
0.0
142
0.0
142
0.0
142
0.0
142
0.0208333333333333
142
0.0
142
0.0
142
0.0
142
0.0
142
1.0
142
0.0
142
0.0
142
0.0
142
0.0
142
1.0
179
     0
144
0.0208333333333333
144
0.0
144
0.0
144
0.0
144
0.0
144
0.0208333333333333
144
0.0
144
0.0
144
0.0
144
0.0
144
1.0
144
0.0
144
0.0
144
0.0
144
0.0
144
1.0
147
0.0208333333333333
147
0.0
147
0.0
147
0.0
147
0.0
147
0.0208333333333333
147
0.0
147
0.0
147
0.0
147
0.0
147
1.0
147
0.0
147
0.0
147
0.0
147
0.0
147
1.0
  0
MATERIAL
  5
21
102
{ACAD_XDICTIONARY
360
22
102
}
102
{ACAD_REACTORS
330
10
102
}
330
10
100
AcDbMaterial
  1
Global
 72
     0
 43
0.0208333333333333
 43
0.0
 43
0.0
 43
0.0
 43
0.0
 43
0.0208333333333333
 43
0.0
 43
0.0
 43
0.0
 43
0.0
 43
1.0
 43
0.0
 43
0.0
 43
0.0
 43
0.0
 43
1.0
 77
     0
 47
0.0208333333333333
 47
0.0
 47
0.0
 47
0.0
 47
0.0
 47
0.0208333333333333
 47
0.0
 47
0.0
 47
0.0
 47
0.0
 47
1.0
 47
0.0
 47
0.0
 47
0.0
 47
0.0
 47
1.0
171
     0
 49
0.0208333333333333
 49
0.0
 49
0.0
 49
0.0
 49
0.0
 49
0.0208333333333333
 49
0.0
 49
0.0
 49
0.0
 49
0.0
 49
1.0
 49
0.0
 49
0.0
 49
0.0
 49
0.0
 49
1.0
175
     0
142
0.0208333333333333
142
0.0
142
0.0
142
0.0
142
0.0
142
0.0208333333333333
142
0.0
142
0.0
142
0.0
142
0.0
142
1.0
142
0.0
142
0.0
142
0.0
142
0.0
142
1.0
179
     0
144
0.0208333333333333
144
0.0
144
0.0
144
0.0
144
0.0
144
0.0208333333333333
144
0.0
144
0.0
144
0.0
144
0.0
144
1.0
144
0.0
144
0.0
144
0.0
144
0.0
144
1.0
147
0.0208333333333333
147
0.0
147
0.0
147
0.0
147
0.0
147
0.0208333333333333
147
0.0
147
0.0
147
0.0
147
0.0
147
1.0
147
0.0
147
0.0
147
0.0
147
0.0
147
1.0
  0
MLEADERSTYLE
  5
67
102
{ACAD_XDICTIONARY
360
D7C
102
}
102
{ACAD_REACTORS
330
66
102
}
330
66
100
AcDbMLeaderStyle
179
     2
170
     2
171
     1
172
     0
 90
        2
 40
0.0
 41
0.0
173
     1
 91
-1056964608
340
5B
 92
       -2
290
     1
 42
0.09
291
     1
 43
0.36
  3
Standard
 44
0.18
300

342
55
174
     1
178
     6
175
     1
176
     0
 93
-1056964608
 45
0.18
292
     0
297
     0
 46
0.18
 94
-1056964608
 47
1.0
 49
1.0
140
1.0
293
     1
141
0.0
294
     1
177
     0
142
1.0
295
     0
296
     0
143
0.125
271
     0
272
     9
273
     9
  0
MLINESTYLE
  5
60
102
{ACAD_REACTORS
330
5F
102
}
330
5F
100
AcDbMlineStyle
  2
STANDARD
 70
     0
  3

 62
   256
 51
90.0
 52
90.0
 71
     2
 49
0.5
 62
   256
  6
BYLAYER
 49
-0.5
 62
   256
  6
BYLAYER
  0
ACDBPLACEHOLDER
  5
F
102
{ACAD_REACTORS
330
E
102
}
330
E
  0
SCALE
  5
43
102
{ACAD_REACTORS
330
42
102
}
330
42
100
AcDbScale
 70
     0
300
1:1
140
1.0
141
1.0
290
     1
  0
SCALE
  5
44
102
{ACAD_REACTORS
330
42
102
}
330
42
100
AcDbScale
 70
     0
300
1/128" = 1'-0"
140
0.0078125
141
12.0
290
     0
  0
SCALE
  5
45
102
{ACAD_REACTORS
330
42
102
}
330
42
100
AcDbScale
 70
     0
300
1/64" = 1'-0"
140
0.015625
141
12.0
290
     0
  0
SCALE
  5
46
102
{ACAD_REACTORS
330
42
102
}
330
42
100
AcDbScale
 70
     0
300
1/32" = 1'-0"
140
0.03125
141
12.0
290
     0
  0
SCALE
  5
47
102
{ACAD_REACTORS
330
42
102
}
330
42
100
AcDbScale
 70
     0
300
1/16" = 1'-0"
140
0.0625
141
12.0
290
     0
  0
SCALE
  5
48
102
{ACAD_REACTORS
330
42
102
}
330
42
100
AcDbScale
 70
     0
300
3/32" = 1'-0"
140
0.09375
141
12.0
290
     0
  0
SCALE
  5
49
102
{ACAD_REACTORS
330
42
102
}
330
42
100
AcDbScale
 70
     0
300
1/8" = 1'-0"
140
0.125
141
12.0
290
     0
  0
SCALE
  5
4A
102
{ACAD_REACTORS
330
42
102
}
330
42
100
AcDbScale
 70
     0
300
3/16" = 1'-0"
140
0.1875
141
12.0
290
     0
  0
SCALE
  5
4B
102
{ACAD_REACTORS
330
42
102
}
330
42
100
AcDbScale
 70
     0
300
1/4" = 1'-0"
140
0.25
141
12.0
290
     0
  0
SCALE
  5
4C
102
{ACAD_REACTORS
330
42
102
}
330
42
100
AcDbScale
 70
     0
300
3/8" = 1'-0"
140
0.375
141
12.0
290
     0
  0
SCALE
  5
4D
102
{ACAD_REACTORS
330
42
102
}
330
42
100
AcDbScale
 70
     0
300
1/2" = 1'-0"
140
0.5
141
12.0
290
     0
  0
SCALE
  5
4E
102
{ACAD_REACTORS
330
42
102
}
330
42
100
AcDbScale
 70
     0
300
3/4" = 1'-0"
140
0.75
141
12.0
290
     0
  0
SCALE
  5
4F
102
{ACAD_REACTORS
330
42
102
}
330
42
100
AcDbScale
 70
     0
300
1" = 1'-0"
140
1.0
141
12.0
290
     0
  0
SCALE
  5
50
102
{ACAD_REACTORS
330
42
102
}
330
42
100
AcDbScale
 70
     0
300
1-1/2" = 1'-0"
140
1.5
141
12.0
290
     0
  0
SCALE
  5
51
102
{ACAD_REACTORS
330
42
102
}
330
42
100
AcDbScale
 70
     0
300
3" = 1'-0"
140
3.0
141
12.0
290
     0
  0
SCALE
  5
52
102
{ACAD_REACTORS
330
42
102
}
330
42
100
AcDbScale
 70
     0
300
6" = 1'-0"
140
6.0
141
12.0
290
     0
  0
SCALE
  5
53
102
{ACAD_REACTORS
330
42
102
}
330
42
100
AcDbScale
 70
     0
300
1'-0" = 1'-0"
140
12.0
141
12.0
290
     0
  0
TABLESTYLE
  5
65
102
{ACAD_XDICTIONARY
360
D7A
102
}
102
{ACAD_REACTORS
330
64
102
}
330
64
100
AcDbTableStyle
280
     0
  3
Standard
 70
     0
 71
     0
 40
0.06
 41
0.06
280
     0
281
     0
  7
Standard
140
0.18
170
     2
 62
     0
 63
     7
283
     0
 90
      512
 91
        0
  1

274
    -2
284
     1
 64
     0
275
    -2
285
     1
 65
     0
276
    -2
286
     1
 66
     0
277
    -2
287
     1
 67
     0
278
    -2
288
     1
 68
     0
279
    -2
289
     1
 69
     0
  7
Standard
140
0.25
170
     5
 62
     0
 63
     7
283
     0
 90
      512
 91
        0
  1

274
    -2
284
     1
 64
     0
275
    -2
285
     1
 65
     0
276
    -2
286
     1
 66
     0
277
    -2
287
     1
 67
     0
278
    -2
288
     1
 68
     0
279
    -2
289
     1
 69
     0
  7
Standard
140
0.18
170
     5
 62
     0
 63
     7
283
     0
 90
      512
 91
        0
  1

274
    -2
284
     1
 64
     0
275
    -2
285
     1
 65
     0
276
    -2
286
     1
 66
     0
277
    -2
287
     1
 67
     0
278
    -2
288
     1
 68
     0
279
    -2
289
     1
 69
     0
  0
VISUALSTYLE
  5
2F
102
{ACAD_REACTORS
330
29
102
}
330
29
100
AcDbVisualStyle
  2
2dWireframe
 70
     4
177
     2
291
     0
 71
     0
176
     1
 72
     2
176
     1
 73
     0
176
     1
 90
        0
176
     1
 40
0.6
176
     1
 41
30.0
176
     1
 63
     7
421
 16777215
176
     1
 74
     1
176
     1
 91
        4
176
     1
 64
     7
176
     1
 65
   257
176
     1
 75
     1
176
     1
175
     1
176
     1
 42
1.0
176
     1
 92
        0
176
     1
 66
   257
176
     1
 43
1.0
176
     1
 76
     1
176
     1
 77
     6
176
     1
 78
     2
176
     1
 67
     7
176
     1
 79
     5
176
     1
170
     0
176
     1
171
     0
176
     1
290
     0
176
     1
 93
        1
176
     1
 44
0.0
176
     1
173
     0
176
     1
  0
VISUALSTYLE
  5
2E
102
{ACAD_REACTORS
330
29
102
}
330
29
100
AcDbVisualStyle
  2
Basic
 70
     7
177
     2
291
     1
 71
     1
176
     1
 72
     0
176
     1
 73
     1
176
     1
 90
        0
176
     1
 40
0.6
176
     1
 41
30.0
176
     1
 63
     7
421
 16777215
176
     1
 74
     0
176
     1
 91
        4
176
     1
 64
     7
176
     1
 65
   257
176
     1
 75
     1
176
     1
175
     1
176
     1
 42
1.0
176
     1
 92
        8
176
     1
 66
     7
176
     1
 43
1.0
176
     1
 76
     1
176
     1
 77
     6
176
     1
 78
     2
176
     1
 67
     7
176
     1
 79
     5
176
     1
170
     0
176
     1
171
     0
176
     1
290
     0
176
     1
 93
        1
176
     1
 44
0.0
176
     1
173
     0
176
     1
  0
VISUALSTYLE
  5
35
102
{ACAD_REACTORS
330
29
102
}
330
29
100
AcDbVisualStyle
  2
Brighten
 70
    12
177
     2
291
     1
 71
     2
176
     1
 72
     2
176
     1
 73
     0
176
     1
 90
        0
176
     1
 40
0.6
176
     1
 41
30.0
176
     1
 63
     7
421
 16777215
176
     1
 74
     1
176
     1
 91
        4
176
     1
 64
     7
176
     1
 65
   257
176
     1
 75
     1
176
     1
175
     1
176
     1
 42
1.0
176
     1
 92
        8
176
     1
 66
     7
176
     1
 43
1.0
176
     1
 76
     1
176
     1
 77
     6
176
     1
 78
     2
176
     1
 67
     7
176
     1
 79
     5
176
     1
170
     0
176
     1
171
     0
176
     1
290
     0
176
     1
 93
        1
176
     1
 44
50.0
176
     1
173
     0
176
     1
  0
VISUALSTYLE
  5
39
102
{ACAD_REACTORS
330
29
102
}
330
29
100
AcDbVisualStyle
  2
ColorChange
 70
    16
177
     2
291
     1
 71
     2
176
     1
 72
     2
176
     1
 73
     3
176
     1
 90
        0
176
     1
 40
0.6
176
     1
 41
30.0
176
     1
 63
     8
421
  8421504
176
     1
 74
     1
176
     1
 91
        4
176
     1
 64
     7
176
     1
 65
   257
176
     1
 75
     1
176
     1
175
     1
176
     1
 42
1.0
176
     1
 92
        8
176
     1
 66
     8
424
  8421504
176
     1
 43
1.0
176
     1
 76
     1
176
     1
 77
     6
176
     1
 78
     2
176
     1
 67
     7
176
     1
 79
     5
176
     1
170
     0
176
     1
171
     0
176
     1
290
     0
176
     1
 93
        1
176
     1
 44
0.0
176
     1
173
     0
176
     1
  0
VISUALSTYLE
  5
32
102
{ACAD_REACTORS
330
29
102
}
330
29
100
AcDbVisualStyle
  2
Conceptual
 70
     9
177
     2
291
     0
 71
     3
176
     1
 72
     2
176
     1
 73
     0
176
     1
 90
        0
176
     1
 40
0.6
176
     1
 41
30.0
176
     1
 63
     7
421
 16777215
176
     1
 74
     2
176
     1
 91
        2
176
     1
 64
     7
176
     1
 65
   257
176
     1
 75
     1
176
     1
175
     1
176
     1
 42
179.0
176
     1
 92
        8
176
     1
 66
     7
176
     1
 43
1.0
176
     1
 76
     1
176
     1
 77
     6
176
     1
 78
     2
176
     1
 67
     7
176
     1
 79
     3
176
     1
170
     0
176
     1
171
     0
176
     1
290
     0
176
     1
 93
        1
176
     1
 44
0.0
176
     1
173
     0
176
     1
  0
VISUALSTYLE
  5
34
102
{ACAD_REACTORS
330
29
102
}
330
29
100
AcDbVisualStyle
  2
Dim
 70
    11
177
     2
291
     1
 71
     2
176
     1
 72
     2
176
     1
 73
     0
176
     1
 90
        0
176
     1
 40
0.6
176
     1
 41
30.0
176
     1
 63
     7
421
 16777215
176
     1
 74
     1
176
     1
 91
        4
176
     1
 64
     7
176
     1
 65
   257
176
     1
 75
     1
176
     1
175
     1
176
     1
 42
1.0
176
     1
 92
        8
176
     1
 66
     7
176
     1
 43
1.0
176
     1
 76
     1
176
     1
 77
     6
176
     1
 78
     2
176
     1
 67
     7
176
     1
 79
     5
176
     1
170
     0
176
     1
171
     0
176
     1
290
     0
176
     1
 93
        1
176
     1
 44
-50.0
176
     1
173
     0
176
     1
  0
VISUALSTYLE
  5
41
102
{ACAD_REACTORS
330
29
102
}
330
29
100
AcDbVisualStyle
  2
EdgeColorOff
 70
    22
177
     2
291
     1
 71
     2
176
     0
 72
     2
176
     0
 73
     0
176
     0
 90
        0
176
     0
 40
0.6
176
     0
 41
30.0
176
     0
 63
     7
421
 16777215
176
     0
 74
     1
176
     0
 91
        4
176
     0
 64
     7
176
     0
 65
   257
176
     0
 75
     1
176
     0
175
     1
176
     0
 42
1.0
176
     0
 92
        8
176
     2
 66
     7
176
     0
 43
1.0
176
     0
 76
     1
176
     0
 77
     6
176
     0
 78
     2
176
     0
 67
     7
176
     0
 79
     5
176
     0
170
     0
176
     0
171
     0
176
     0
290
     0
176
     0
 93
        1
176
     0
 44
0.0
176
     0
173
     0
176
     0
  0
VISUALSTYLE
  5
38
102
{ACAD_REACTORS
330
29
102
}
330
29
100
AcDbVisualStyle
  2
Facepattern
 70
    15
177
     2
291
     1
 71
     2
176
     1
 72
     2
176
     1
 73
     0
176
     1
 90
        0
176
     1
 40
0.6
176
     1
 41
30.0
176
     1
 63
     7
421
 16777215
176
     1
 74
     1
176
     1
 91
        4
176
     1
 64
     7
176
     1
 65
   257
176
     1
 75
     1
176
     1
175
     1
176
     1
 42
1.0
176
     1
 92
        8
176
     1
 66
     7
176
     1
 43
1.0
176
     1
 76
     1
176
     1
 77
     6
176
     1
 78
     2
176
     1
 67
     7
176
     1
 79
     5
176
     1
170
     0
176
     1
171
     0
176
     1
290
     0
176
     1
 93
        1
176
     1
 44
0.0
176
     1
173
     0
176
     1
  0
VISUALSTYLE
  5
2A
102
{ACAD_REACTORS
330
29
102
}
330
29
100
AcDbVisualStyle
  2
Flat
 70
     0
177
     2
291
     1
 71
     2
176
     1
 72
     1
176
     1
 73
     1
176
     1
 90
        2
176
     1
 40
0.6
176
     1
 41
30.0
176
     1
 63
     7
421
 16777215
176
     1
 74
     0
176
     1
 91
        0
176
     1
 64
     7
176
     1
 65
   257
176
     1
 75
     1
176
     1
175
     1
176
     1
 42
1.0
176
     1
 92
        8
176
     1
 66
     7
176
     1
 43
1.0
176
     1
 76
     1
176
     1
 77
     6
176
     1
 78
     2
176
     1
 67
     7
176
     1
 79
     5
176
     1
170
     0
176
     1
171
     0
176
     1
290
     0
176
     1
 93
       13
176
     1
 44
0.0
176
     1
173
     0
176
     1
  0
VISUALSTYLE
  5
2B
102
{ACAD_REACTORS
330
29
102
}
330
29
100
AcDbVisualStyle
  2
FlatWithEdges
 70
     1
177
     2
291
     1
 71
     2
176
     1
 72
     1
176
     1
 73
     1
176
     1
 90
        2
176
     1
 40
0.6
176
     1
 41
30.0
176
     1
 63
     7
421
 16777215
176
     1
 74
     1
176
     1
 91
        0
176
     1
 64
     7
176
     1
 65
   257
176
     1
 75
     1
176
     1
175
     1
176
     1
 42
1.0
176
     1
 92
        0
176
     1
 66
   257
176
     1
 43
1.0
176
     1
 76
     1
176
     1
 77
     6
176
     1
 78
     2
176
     1
 67
     7
176
     1
 79
     5
176
     1
170
     0
176
     1
171
     0
176
     1
290
     0
176
     1
 93
       13
176
     1
 44
0.0
176
     1
173
     0
176
     1
  0
VISUALSTYLE
  5
2C
102
{ACAD_REACTORS
330
29
102
}
330
29
100
AcDbVisualStyle
  2
Gouraud
 70
     2
177
     2
291
     1
 71
     2
176
     1
 72
     2
176
     1
 73
     1
176
     1
 90
        2
176
     1
 40
0.6
176
     1
 41
30.0
176
     1
 63
     7
421
 16777215
176
     1
 74
     0
176
     1
 91
        0
176
     1
 64
     7
176
     1
 65
   257
176
     1
 75
     1
176
     1
175
     1
176
     1
 42
1.0
176
     1
 92
        0
176
     1
 66
     7
176
     1
 43
1.0
176
     1
 76
     1
176
     1
 77
     6
176
     1
 78
     2
176
     1
 67
     7
176
     1
 79
     5
176
     1
170
     0
176
     1
171
     0
176
     1
290
     0
176
     1
 93
       13
176
     1
 44
0.0
176
     1
173
     0
176
     1
  0
VISUALSTYLE
  5
2D
102
{ACAD_REACTORS
330
29
102
}
330
29
100
AcDbVisualStyle
  2
GouraudWithEdges
 70
     3
177
     2
291
     1
 71
     2
176
     1
 72
     2
176
     1
 73
     1
176
     1
 90
        2
176
     1
 40
0.6
176
     1
 41
30.0
176
     1
 63
     7
421
 16777215
176
     1
 74
     1
176
     1
 91
        0
176
     1
 64
     7
176
     1
 65
   257
176
     1
 75
     1
176
     1
175
     1
176
     1
 42
1.0
176
     1
 92
        0
176
     1
 66
   257
176
     1
 43
1.0
176
     1
 76
     1
176
     1
 77
     6
176
     1
 78
     2
176
     1
 67
     7
176
     1
 79
     5
176
     1
170
     0
176
     1
171
     0
176
     1
290
     0
176
     1
 93
       13
176
     1
 44
0.0
176
     1
173
     0
176
     1
  0
VISUALSTYLE
  5
31
102
{ACAD_REACTORS
330
29
102
}
330
29
100
AcDbVisualStyle
  2
Hidden
 70
     6
177
     2
291
     0
 71
     1
176
     1
 72
     2
176
     1
 73
     2
176
     1
 90
        0
176
     1
 40
0.6
176
     1
 41
30.0
176
     1
 63
     7
421
 16777215
176
     1
 74
     2
176
     1
 91
        2
176
     1
 64
     7
176
     1
 65
   257
176
     1
 75
     2
176
     1
175
     1
176
     1
 42
40.0
176
     1
 92
        0
176
     1
 66
   257
176
     1
 43
1.0
176
     1
 76
     1
176
     1
 77
     6
176
     1
 78
     2
176
     1
 67
     7
176
     1
 79
     3
176
     1
170
     0
176
     1
171
     0
176
     1
290
     0
176
     1
 93
        1
176
     1
 44
0.0
176
     1
173
     0
176
     1
  0
VISUALSTYLE
  5
3F
102
{ACAD_REACTORS
330
29
102
}
330
29
100
AcDbVisualStyle
  2
JitterOff
 70
    20
177
     2
291
     1
 71
     2
176
     0
 72
     2
176
     0
 73
     0
176
     0
 90
        0
176
     0
 40
0.6
176
     0
 41
30.0
176
     0
 63
     7
421
 16777215
176
     0
 74
     1
176
     0
 91
        4
176
     0
 64
     7
176
     0
 65
   257
176
     0
 75
     1
176
     0
175
     1
176
     0
 42
1.0
176
     0
 92
       10
176
     2
 66
     7
176
     0
 43
1.0
176
     0
 76
     1
176
     0
 77
     6
176
     0
 78
     2
176
     0
 67
     7
176
     0
 79
     5
176
     0
170
     0
176
     0
171
     0
176
     0
290
     0
176
     0
 93
        1
176
     0
 44
0.0
176
     0
173
     0
176
     0
  0
VISUALSTYLE
  5
37
102
{ACAD_REACTORS
330
29
102
}
330
29
100
AcDbVisualStyle
  2
Linepattern
 70
    14
177
     2
291
     1
 71
     2
176
     1
 72
     2
176
     1
 73
     0
176
     1
 90
        0
176
     1
 40
0.6
176
     1
 41
30.0
176
     1
 63
     7
421
 16777215
176
     1
 74
     1
176
     1
 91
        4
176
     1
 64
     7
176
     1
 65
   257
176
     1
 75
     7
176
     1
175
     7
176
     1
 42
1.0
176
     1
 92
        8
176
     1
 66
     7
176
     1
 43
1.0
176
     1
 76
     1
176
     1
 77
     6
176
     1
 78
     2
176
     1
 67
     7
176
     1
 79
     5
176
     1
170
     0
176
     1
171
     0
176
     1
290
     0
176
     1
 93
        1
176
     1
 44
0.0
176
     1
173
     0
176
     1
  0
VISUALSTYLE
  5
40
102
{ACAD_REACTORS
330
29
102
}
330
29
100
AcDbVisualStyle
  2
OverhangOff
 70
    21
177
     2
291
     1
 71
     2
176
     0
 72
     2
176
     0
 73
     0
176
     0
 90
        0
176
     0
 40
0.6
176
     0
 41
30.0
176
     0
 63
     7
421
 16777215
176
     0
 74
     1
176
     0
 91
        4
176
     0
 64
     7
176
     0
 65
   257
176
     0
 75
     1
176
     0
175
     1
176
     0
 42
1.0
176
     0
 92
        9
176
     2
 66
     7
176
     0
 43
1.0
176
     0
 76
     1
176
     0
 77
     6
176
     0
 78
     2
176
     0
 67
     7
176
     0
 79
     5
176
     0
170
     0
176
     0
171
     0
176
     0
290
     0
176
     0
 93
        1
176
     0
 44
0.0
176
     0
173
     0
176
     0
  0
VISUALSTYLE
  5
33
102
{ACAD_REACTORS
330
29
102
}
330
29
100
AcDbVisualStyle
  2
Realistic
 70
     8
177
     2
291
     0
 71
     2
176
     1
 72
     3
176
     1
 73
     0
176
     1
 90
        2
176
     1
 40
0.6
176
     1
 41
30.0
176
     1
 63
     7
421
 16777215
176
     1
 74
     0
176
     1
 91
        0
176
     1
 64
     7
176
     1
 65
   257
176
     1
 75
     1
176
     1
175
     1
176
     1
 42
1.0
176
     1
 92
        8
176
     1
 66
   257
176
     1
 43
1.0
176
     1
 76
     1
176
     1
 77
     6
176
     1
 78
     2
176
     1
 67
     7
176
     1
 79
     3
176
     1
170
     0
176
     1
171
     0
176
     1
290
     0
176
     1
 93
       13
176
     1
 44
0.0
176
     1
173
     0
176
     1
  0
VISUALSTYLE
  5
3E
102
{ACAD_REACTORS
330
29
102
}
330
29
100
AcDbVisualStyle
  2
Shaded
 70
    27
177
     2
291
     0
 71
     2
176
     1
 72
     2
176
     1
 73
     1
176
     1
 90
        2
176
     1
 40
0.6
176
     1
 41
30.0
176
     1
 63
     7
421
 16777215
176
     1
 74
     0
176
     1
 91
        4
176
     1
 64
     7
176
     1
 65
   257
176
     1
 75
     1
176
     1
175
     1
176
     1
 42
1.0
176
     1
 92
        8
176
     1
 66
   257
176
     1
 43
1.0
176
     1
 76
     1
176
     1
 77
     6
176
     1
 78
     2
176
     1
 67
     8
425
  7895160
176
     1
 79
     3
176
     1
170
     0
176
     1
171
     0
176
     1
290
     0
176
     1
 93
        5
176
     1
 44
0.0
176
     1
173
     0
176
     1
  0
VISUALSTYLE
  5
3D
102
{ACAD_REACTORS
330
29
102
}
330
29
100
AcDbVisualStyle
  2
Shaded with edges
 70
    26
177
     2
291
     0
 71
     2
176
     1
 72
     2
176
     1
 73
     1
176
     1
 90
        2
176
     1
 40
0.6
176
     1
 41
30.0
176
     1
 63
     7
421
 16777215
176
     1
 74
     1
176
     1
 91
       10
176
     1
 64
     7
176
     1
 65
   257
176
     1
 75
     2
176
     1
175
     1
176
     1
 42
1.0
176
     1
 92
        8
176
     1
 66
   257
176
     1
 43
1.0
176
     1
 76
     1
176
     1
 77
     6
176
     1
 78
     2
176
     1
 67
     7
176
     1
 79
     3
176
     1
170
     0
176
     1
171
     0
176
     1
290
     0
176
     1
 93
        5
176
     1
 44
0.0
176
     1
173
     0
176
     1
  0
VISUALSTYLE
  5
3A
102
{ACAD_REACTORS
330
29
102
}
330
29
100
AcDbVisualStyle
  2
Shades of Gray
 70
    23
177
     2
291
     0
 71
     2
176
     1
 72
     2
176
     1
 73
     3
176
     1
 90
        0
176
     1
 40
0.6
176
     1
 41
30.0
176
     1
 63
     7
421
 16777215
176
     1
 74
     2
176
     1
 91
        2
176
     1
 64
     7
176
     1
 65
     7
176
     1
 75
     1
176
     1
175
     1
176
     1
 42
40.0
176
     1
 92
        8
176
     1
 66
     7
176
     1
 43
1.0
176
     1
 76
     1
176
     1
 77
     6
176
     1
 78
     2
176
     1
 67
     7
176
     1
 79
     3
176
     1
170
     0
176
     1
171
     0
176
     1
290
     0
176
     1
 93
        1
176
     1
 44
0.0
176
     1
173
     0
176
     1
  0
VISUALSTYLE
  5
3B
102
{ACAD_REACTORS
330
29
102
}
330
29
100
AcDbVisualStyle
  2
Sketchy
 70
    24
177
     2
291
     0
 71
     1
176
     1
 72
     2
176
     1
 73
     2
176
     1
 90
        0
176
     1
 40
0.6
176
     1
 41
30.0
176
     1
 63
     7
421
 16777215
176
     1
 74
     2
176
     1
 91
        2
176
     1
 64
     7
176
     1
 65
     7
176
     1
 75
     1
176
     1
175
     1
176
     1
 42
40.0
176
     1
 92
       11
176
     1
 66
     7
176
     1
 43
1.0
176
     1
 76
     1
176
     1
 77
     6
176
     1
 78
     2
176
     1
 67
     7
176
     1
 79
     6
176
     1
170
     0
176
     1
171
     0
176
     1
290
     0
176
     1
 93
        1
176
     1
 44
0.0
176
     1
173
     0
176
     1
  0
VISUALSTYLE
  5
36
102
{ACAD_REACTORS
330
29
102
}
330
29
100
AcDbVisualStyle
  2
Thicken
 70
    13
177
     2
291
     1
 71
     2
176
     1
 72
     2
176
     1
 73
     0
176
     1
 90
        0
176
     1
 40
0.6
176
     1
 41
30.0
176
     1
 63
     7
421
 16777215
176
     1
 74
     1
176
     1
 91
        4
176
     1
 64
     7
176
     1
 65
   257
176
     1
 75
     1
176
     1
175
     1
176
     1
 42
1.0
176
     1
 92
       12
176
     1
 66
     7
176
     1
 43
1.0
176
     1
 76
     1
176
     1
 77
     6
176
     1
 78
     2
176
     1
 67
     7
176
     1
 79
     5
176
     1
170
     0
176
     1
171
     0
176
     1
290
     0
176
     1
 93
        1
176
     1
 44
0.0
176
     1
173
     0
176
     1
  0
VISUALSTYLE
  5
30
102
{ACAD_REACTORS
330
29
102
}
330
29
100
AcDbVisualStyle
  2
Wireframe
 70
     5
177
     2
291
     0
 71
     0
176
     1
 72
     2
176
     1
 73
     0
176
     1
 90
        0
176
     1
 40
0.6
176
     1
 41
30.0
176
     1
 63
     7
421
 16777215
176
     1
 74
     1
176
     1
 91
        4
176
     1
 64
     7
176
     1
 65
   257
176
     1
 75
     1
176
     1
175
     1
176
     1
 42
1.0
176
     1
 92
        0
176
     1
 66
   257
176
     1
 43
1.0
176
     1
 76
     1
176
     1
 77
     6
176
     1
 78
     2
176
     1
 67
     7
176
     1
 79
     3
176
     1
170
     0
176
     1
171
     0
176
     1
290
     0
176
     1
 93
        1
176
     1
 44
0.0
176
     1
173
     0
176
     1
  0
VISUALSTYLE
  5
3C
102
{ACAD_REACTORS
330
29
102
}
330
29
100
AcDbVisualStyle
  2
X-Ray
 70
    25
177
     2
291
     0
 71
     2
176
     1
 72
     2
176
     1
 73
     1
176
     1
 90
        1
176
     1
 40
0.5
176
     1
 41
30.0
176
     1
 63
     7
421
 16777215
176
     1
 74
     1
176
     1
 91
        0
176
     1
 64
     7
176
     1
 65
   257
176
     1
 75
     1
176
     1
175
     1
176
     1
 42
1.0
176
     1
 92
        8
176
     1
 66
     7
176
     1
 43
1.0
176
     1
 76
     1
176
     1
 77
     6
176
     1
 78
     2
176
     1
 67
     7
176
     1
 79
     3
176
     1
170
     0
176
     1
171
     0
176
     1
290
     0
176
     1
 93
       13
176
     1
 44
0.0
176
     1
173
     0
176
     1
  0
DICTIONARYVAR
  5
79
102
{ACAD_REACTORS
330
76
102
}
330
76
100
DictionaryVariables
280
     0
  1
1:1
  0
DICTIONARYVAR
  5
78
102
{ACAD_REACTORS
330
76
102
}
330
76
100
DictionaryVariables
280
     0
  1
STANDARD
  0
DICTIONARYVAR
  5
77
102
{ACAD_REACTORS
330
76
102
}
330
76
100
DictionaryVariables
280
     0
  1
STANDARD
  0
DICTIONARY
  5
1A
330
19
100
AcDbDictionary
280
     1
281
     1
  3
BUMPTILE
360
1C
  3
DIFFUSETILE
360
1B
  3
OPACITYTILE
360
1F
  3
REFLECTIONTILE
360
1E
  3
REFRACTIONTILE
360
20
  3
SPECULARTILE
360
1D
  0
DICTIONARY
  5
12
330
11
100
AcDbDictionary
280
     1
281
     1
  3
BUMPTILE
360
14
  3
DIFFUSETILE
360
13
  3
FBXASSET
360
109
  3
OPACITYTILE
360
17
  3
REFLECTIONTILE
360
16
  3
REFRACTIONTILE
360
18
  3
SPECULARTILE
360
15
  0
DICTIONARY
  5
22
330
21
100
AcDbDictionary
280
     1
281
     1
  3
BUMPTILE
360
24
  3
DIFFUSETILE
360
23
  3
FBXASSET
360
BA
  3
OPACITYTILE
360
27
  3
REFLECTIONTILE
360
26
  3
REFRACTIONTILE
360
28
  3
SPECULARTILE
360
25
  0
DICTIONARY
  5
D7C
330
67
100
AcDbDictionary
280
     1
281
     1
  3
ACAD_XREC_ROUNDTRIP
360
D7D
  0
DICTIONARY
  5
D7A
330
65
100
AcDbDictionary
280
     1
281
     1
  3
ACAD_ROUNDTRIP_2008_TABLESTYLE_CELLSTYLEMAP
360
D7B
  0
XRECORD
  5
1C
102
{ACAD_REACTORS
330
1A
102
}
330
1A
100
AcDbXrecord
280
     1
270
     1
271
     1
  0
XRECORD
  5
1B
102
{ACAD_REACTORS
330
1A
102
}
330
1A
100
AcDbXrecord
280
     1
270
     1
271
     1
  0
XRECORD
  5
1F
102
{ACAD_REACTORS
330
1A
102
}
330
1A
100
AcDbXrecord
280
     1
270
     1
271
     1
  0
XRECORD
  5
1E
102
{ACAD_REACTORS
330
1A
102
}
330
1A
100
AcDbXrecord
280
     1
270
     1
271
     1
  0
XRECORD
  5
20
102
{ACAD_REACTORS
330
1A
102
}
330
1A
100
AcDbXrecord
280
     1
270
     1
271
     1
  0
XRECORD
  5
1D
102
{ACAD_REACTORS
330
1A
102
}
330
1A
100
AcDbXrecord
280
     1
270
     1
271
     1
  0
XRECORD
  5
14
102
{ACAD_REACTORS
330
12
102
}
330
12
100
AcDbXrecord
280
     1
270
     1
271
     1
  0
XRECORD
  5
13
102
{ACAD_REACTORS
330
12
102
}
330
12
100
AcDbXrecord
280
     1
270
     1
271
     1
  0
XRECORD
  5
109
102
{ACAD_REACTORS
330
12
102
}
330
12
100
AcDbXrecord
280
     1
 70
     1
 90
1959938040
 71
     1
  1
E418AF7D-06BF-4AE3-9161-E66B2ECA0DDB
311
504B03040A000008000052A1E4423DEE336E79000000790000001B0000006175746F6465736B2D64657369676E2D7061636B6167652E786D6C3C3F786D6C2076657273696F6E3D22312E302220656E636F64696E673D227574662D3822203F3E3C666F726D6174733E3C666F726D61743E687474703A2F2F736368656D612E
311
6175746F6465736B2E636F6D2F64657369676E2D7061636B6167652F323030393C2F666F726D61743E3C2F666F726D6174733E504B030414000608080052A1E442D486FD9CA0000000F4000000130000005B436F6E74656E745F54797065735D2E786D6C7D8EC10E82300C865F65E91D8A1E8C310C0EEA1BF002731658846E
311
D98AC1B77784ABF1D8FE5FBFBF75BBCE937A534CCEB38643598122B6FEE978D0B0485F9C41B54DDD7D022595594E1A469170414C76A4D9A4D207E29CF43ECE46F218070CC6BECC4078ACAA135ACF422C856C0E68EA1BF5669944DDD7BCDE7B1F8E415D77AECB980613C2E4AC91FC167A2B244592486606FC29C8FD7F045B9A
311
EF7053A7E60B504B030414000608080052A1E44267BFFE0AEC0000007C01000008000000636F72652E786D6C75904D6EC3201085AF82665BE100FE958589D2BA3D412F8080B828315806AA1EBF3871A466D1D58CDEBC6F66F4F8F167BEA26FB306EBDD00B420808C535E5B370D90E21977808E82AFDEC73F36404ECE66804D
311
06C1A7D5A765979477D1B89855E7B5D94519828980D435370304F5656659C814B3235C8A45AA8B9C4C411F5D8653B21ADD8F589DF7D9B3352B888F86D4B4A5236EDAB70A57DD78C2A7A6AB307BAF5B4AC6F29575841F3658F068E7C77DB51A198D06C1082D316931A93E19E929E9CBE685D47D99A1CDFE04A545FF07B5CF50
311
B22E966C7FF78E0510343F721B087ED8B2C8E51654AE5B6EE217504B030414000608080052A1E44255019EA25F0000007C00000007000000636E782E786D6C4DCB3B0E80201045D1AD90E915ED2CF8AC45050C11660C8261F98AB1B07AC9C97D42D718D865D3E909258CFD00CCE24AC6E326A164D74DC0B4128928FF326038
311
472BA13128B1252AC747C6BAB984FC68F0B87FE8960A5C09FE86CFB69FBA01504B030414000608080052A1E442E84C330E6A010000020300000C0000006662782F636F72652E786D6C8D525B6E833010BC8AE5DF0A6C1E8128328ED2A63D412FE01887A2808D8C8D72FC2E8F88A64AA30AC958333BBBB3036C7F6D1B3428DB
311
D74617380A29464A4B53D6BA2AB077E7608BD19E336B8CFB51869116AD2AF00863CE2A6B7CB740D268A7B403549B522DA0E87BE530920D5C0ADCCB2FD58A50780715FD25EC84BC884A85510834D471D63B0B06D03C643C313F9FAE8CCC3867DED7E5C2D6254CABCFB5B2987F647413E5D131C8F2B73448B7C74370C8B66910
311
BF6FF2881E93D7784B1919C59CB9BABDB9935609A74ACC631A2501CD039A7EC67417D15D92BDD0CD2E01D1587E27F25DF99728BF17F95ABB245EECCEB21EF3088C4CC4AF6D2122877A31801FC219194384D794F07DD0100884ECC4A9B9ED71016850D2199B02531ABF528368BC82A9144D0F23330B9DA706B0D9C33EF1933E
311
CF7BC00714BA026BC2C1F5E4DD389DCD5397283A6583C15D9136B615CD6A6EB6B89EEBA08772691A63FFA326CBAA6409938C7F2FFF06504B030414000608080052A1E44272678C517C0000009D0000000B0000006662782F636E782E786D6C4DCCD10A83201805E05791FFDEF587B20CCC90A2F7886521330DA7638F3F1B5D
311
ECEA1C3E0E47F69FDD91B7892F1B7C07F50D8118FF088BF55B0739AD5400E9958C21A4BF19103FEFA6839341C92D867C5CB49875CE2E1575D63F2FBC371C398E0D6D27869423D354E8D2A641A31874CBF45843A564F57B2A791EAB2F504B030414000608080052A1E4423F036A103001000014020000310000006662782F36
311
373430343044372D394633302D343033412D384133302D4643413038434139334144312F636F72652E786D6C8D51DB6E83300CFD1594A74E13E0105A4A1552A156FD82FD0085B48B5A1294CBD4CF9F33A8B43E4CDA4B6CD9E71C9FD87CFF18EFC997B44E19DD109A0149A4EECDA0F4B521C15FD22D49F6825B63FC2F184974
311
37CA86C43211FC6A4D9896526FB497DA63559B412EC5CE39E949D2DF316988EB3FE5D8655DF08870B76CEAFA5B779519CDB08D38C19DB768209987C497884D554209C72AAD4F0CD212589B6E5BCC4E8716B687B666ED91F27C260A1E821A16BA1AD08EBA2869FF2B12C9827B353EEDF756765E0E441440590A550AE547013B
311
0A3BB67987F58E01CF23FC8514A6E12F52F54A0A4A7B562C76679A23027F3337041F4C38DF9F66E46332D62771DECAC9FE8D08C88016B46665CDF3198A0B40CD4DB9683A6F2C2E78753B239AAE791E8537A5E079BC11869F03628CF714DF504B030414000608080052A1E442819F9705520100003303000030000000666278
311
2F36373430343044372D394633302D343033412D384133302D4643413038434139334144312F636E782E786D6CC593BD6E032110845F05D146F7E7BBD891C56129459E20455A0CEB989883133F51FCF6596CECB871913469D0697698597DE2D8E66B32E4137CD0CE8EB4AB5B4AC04AA7B47D1F698ABBEA89920D67DEB97863
311
A3C48A09469A65CAD9BB77692E92829D4826A26AB43D14D14370C94B0828E79BC438290C0680AD128A306D412950E46AC4AF1D785C05C5ED91C43D9097E737E2B61F2063604D4EE1ACC91D9CE5B334DD982891468430D220F730895AA4E8148443AD441475575FBAEEECF49344F2854B65F29AE4F291E693F2B2518D1C5983
311
43CE42F448AF98E27106CAC53C1B2D4544C8CDC978F67096B48DCBA1783582F7E8EE96FD3060D869C659D4131487F4202228CA176DD757EDAA6A87D745BBEEDA75BF7C681FD77DCB9A6CE76CEB9C29973006BC9B897436828D9477ACC9E37BF88A8F28ED91B5F3C75F804400A5F54CE79AF1EF7C567FE7D39CDE37E2F2F817
311
F06F504B030414000608080052A1E4429099DC77A405000081100000340000006662782F36373430343044372D394633302D343033412D384133302D4643413038434139334144312F6F626A656374732E786D6CAD57D96EDB3814FD1541F332F3E045B6EB2603458597A430DAB4458D16F360C0A0254AE1845A405289335F
311
3F8722254BAE9D7A067DD1C2E5F2DE73CF5DE8BFDBA7DC79A242B23CBB71BDFED0756816E611CB921BB75471EFCA75DE05BEC873D55AE63A1949E98DAB87DDC04F445E167628A23129B93A1ABD9BFFE5C89066D475424EA4BC7165F84053D227A5CA232A1FFB1151A49FC4FBBED7370BBB6213418A8723A105113453D014E3
311
19A4384629AFFB3B7407813FD0F381AF9F76D5F8FCAA41654FF77C964945B2F087C38EC48CBDC9F276F4E6BAF7663219F726D391D79BDFCD973DEFED78B8982E16D7B3DB6B1C2C958024AB89A0B11BBC07368285FEC04C057EC932351ED925D64103419F98F6941B8C1CCF1F98358D75D6C853EA877996D1B0C20A6854F659
311
D1112D6816C1E78C4A68D64268D8FDF5348EADE9B1FEB747B6872F43A0BDA325A8D6BD7EB735CD777FC30479098384A49A81064B6BA8E1EAF080F02ECFB99D63D24989A28211EE70B61344BCB80196EA2581DF11A3992C7434680BDC005E30D35DBA208C7ECEF3535AC625E79AC66E5045C116B14295AC3463FF5071D0BE8D
311
0C7482AF341BAEAC41EAA5A06E706D287275C42603A4137392C0E53053EF1C8F8E0C5DE8385D2DDDE0C3DD6EBFD6B17BFAF042E405154AD307D4AA1D57BF354A5627EF22CFE90DEE912A0750BE02F94F08F5832AF09B60FBC97E624F51826432CE450ADF3843A737C463E878D5537FB7BEFC41B3B9EBBD7378C2D91AAA5F80
311
67D786B62F5B7006FE13089F8BB1356D1D128EB471CF3200A449E2F01C43C8C3F16EEF062B64396465EC223CF06032D47DC2A73FB0629028AA935AEF0C581EA5C50B123460AB1809350CF9AD82073FFD90CEAA83EDB273F0BEF925749D2DD71FD6A5884948EF6D4C2F69CC32A650E20EBC692BD4C1BC63D1237D79CE450443
311
7FC47BDDC63BB54749A0AD31D7C027754ED73F87933B0784D897E43ADDF83F390146E8C2DA927FCF6448392719CDCBFADC57EB07CA86815807BB667253600E8505A43133473188221D0A5668109B6AD524CDFE19EBBEAD3E81916E307FF9485EDAD96B77C8BD61CE73B1DDBD6C4D5A3A09F5F72EB72D06032D0574AF82A48E
311
7F0BFA3662715C4A24C113B87E5F2DDABED3690129A2966AA26502FB115C4458D2D67251AD054125CDB32D43DD44DC9D3CA02D1F905A065402CF692C298FB78CF332DDC68CA31A6D53529C81E3FFEBBF2BD3624BD2BCCCD419D91DD5511DBABA77D82B9F890A1FDC605DBD7B73E4DE884667C8A06BC909AC3AAEBD9D7857B3
311
BBB7CBDE703ABFEB4D66B7E3DEB537F57AB7D3E97C74BB980D97CB79ED27A349E0D7A5A61DD1F0124A9B5F0A66DDF76D85F8B149C00DEE89929BF7263CEBF7B7551FBDB03FC01ED4CB66E32C7A42DF47A39F0B38AC3C296895169CA6345344C7D0BDFEE05F09FA8C8E32667C9592845E20E5F3FBF5913118B960DF171DEFF4
311
F968AF1D5DE8803C29443D94E92E238C1F6D4C0C92FD224B2C7EB54F9AB72934F5AFFEB38E41672A73CE22E4C1C849689E52856C784111122995A05EBBA78FECDDE382DD4FA6435464C769ADC9034193CC25C202D42A43D51D777E4353A7FBAA1B17E5B6FF8887CD14AE03CEDCB868D2150BA9ECEF50A0752B54090797DA9D
311
3C1A7F92251CBDB6D9D4FC37BB34369D92DC2CB9A47FB27699146E0D401A29D037A02182772A6502BFD2CDCE87FFC9F05A1D87287CEE4AD5D87218688CA98E41881AA3EC6D014DCCA33D7A8F407DDD2CAF5FADE92072D12DEB551218A93D454452DD14B47E56A5D9F2CB001D8AB3FAEC14BC4CE0CBCB25F50405994B1DE060
311
11586165164481AA8B3F375F448E9B6CEADC3150C0F97D7F35FD63B3C8D334CFCCD06666EFC3CEFA01B7DB6883E440F5B5446E46436FB4A9AE03F686B2DD1149FB24928F188067056B80EEB81FBC347746D42133D1AC1B68571C3174B5746C619B40A8A54B3BB76A70D07864D4410CE92BA58E98F682E2D51BC1A05A0A1504
311
7AF9E05F504B030414000608000052A1E442000000000000000000000000350000006662782F36373430343044372D394633302D343033412D384133302D4643413038434139334144312F76657274696365732E62696E504B030414000608080052A1E442F270F1330600000004000000360000006662782F363734303430
311
44372D394633302D343033412D384133302D4643413038434139334144312F747269616E676C65732E62696E636660600000504B030414000608000052A1E442000000000000000000000000370000006662782F36373430343044372D394633302D343033412D384133302D4643413038434139334144312F617474726962
311
757465732E62696E504B030414000608080052A1E442D5987DFC8F00000041010000360000006662782F36373430343044372D394633302D343033412D384133302D4643413038434139334144312F6469726563746F72792E786D6C858F410EC2201045AF4266AF15DDB800BA74E7C21B903225242D6328188F2FA5C41834
311
71359997F9FF81E89FF3C41E1816475E02DF1F80A11FC8386F25A438EECEC07A250251FC3803E6F58C12560C4AD840E95E91C151A72936F496F35732D860FE635F62C8F2DA16B505C545B74125BAA2FA9E05D7CC053D063734D5C7665FD55B6B8D15D5E9BFEAFD8490FFA45E504B030414000608080052A1E442B8D134B200
311
010000A00100003B0000006662782F36373430343044372D394633302D343033412D384133302D4643413038434139334144312F7265736F75726365732F636F72652E786D6C75905D6EC3201084AF62ED6B8503FE978589D2A43D412F80F0C64589C1E2A7EAF18B63576A1EFAC2A299F9B4A3E5C7EFF99E7DA1F3DA9A0158
311
4E2143A3ECA8CD34400C57D2417614DC591BFEC4203372C6015619049F9C8DCB2E296B029A90546347DC45E93D06C8D43D7D06F0EA136799CB1852C2DFF245AA9B9C306779B2534E701F5C2A906D4BD61784436FA353E8F96173058F518F7B468F69A7BE6A7420DE1B5AB3969D49D39E2B5275971339355D458AB7BA65F452
311
BE161DE58715163CE8F9B7A37228038E200ACA4A425B42AB8F82F68CF665F342EBBE4CD01A7F82E232FE07B5CF50D42694C55E77C33C08968A3C0CC10FEBBDD2781C33CDF5B6E207504B010214000A000008000052A1E4423DEE336E79000000790000001B00000000000000000000000000000000006175746F6465736B2D
311
64657369676E2D7061636B6167652E786D6C504B0102140014000608080052A1E442D486FD9CA0000000F40000001300000000000000000000000000B20000005B436F6E74656E745F54797065735D2E786D6C504B0102140014000608080052A1E44267BFFE0AEC0000007C01000008000000000000000000000000008301
311
0000636F72652E786D6C504B0102140014000608080052A1E44255019EA25F0000007C000000070000000000000000000000000095020000636E782E786D6C504B0102140014000608080052A1E442E84C330E6A010000020300000C00000000000000000000000000190300006662782F636F72652E786D6C504B01021400
311
14000608080052A1E44272678C517C0000009D0000000B00000000000000000000000000AD0400006662782F636E782E786D6C504B0102140014000608080052A1E4423F036A1030010000140200003100000000000000000000000000520500006662782F36373430343044372D394633302D343033412D384133302D4643
311
413038434139334144312F636F72652E786D6C504B0102140014000608080052A1E442819F970552010000330300003000000000000000000000000000D10600006662782F36373430343044372D394633302D343033412D384133302D4643413038434139334144312F636E782E786D6C504B0102140014000608080052A1
311
E4429099DC77A4050000811000003400000000000000000000000000710800006662782F36373430343044372D394633302D343033412D384133302D4643413038434139334144312F6F626A656374732E786D6C504B0102140014000608000052A1E442000000000000000000000000350000000000000000000000000067
311
0E00006662782F36373430343044372D394633302D343033412D384133302D4643413038434139334144312F76657274696365732E62696E504B0102140014000608080052A1E442F270F13306000000040000003600000000000000000000000000BA0E00006662782F36373430343044372D394633302D343033412D3841
311
33302D4643413038434139334144312F747269616E676C65732E62696E504B0102140014000608000052A1E4420000000000000000000000003700000000000000000000000000140F00006662782F36373430343044372D394633302D343033412D384133302D4643413038434139334144312F617474726962757465732E
311
62696E504B0102140014000608080052A1E442D5987DFC8F000000410100003600000000000000000000000000690F00006662782F36373430343044372D394633302D343033412D384133302D4643413038434139334144312F6469726563746F72792E786D6C504B0102140014000608080052A1E442B8D134B200010000
311
A00100003B000000000000000000000000004C1000006662782F36373430343044372D394633302D343033412D384133302D4643413038434139334144312F7265736F75726365732F636F72652E786D6C504B0506000000000E000E0080040000A51100000000
310
504B03040A000008000052A1E4423DEE336E79000000790000001B0000006175746F6465736B2D64657369676E2D7061636B6167652E786D6C3C3F786D6C2076657273696F6E3D22312E302220656E636F64696E673D227574662D3822203F3E3C666F726D6174733E3C666F726D61743E687474703A2F2F736368656D612E
310
6175746F6465736B2E636F6D2F64657369676E2D7061636B6167652F323030393C2F666F726D61743E3C2F666F726D6174733E504B030414000608080052A1E442D486FD9CA0000000F4000000130000005B436F6E74656E745F54797065735D2E786D6C7D8EC10E82300C865F65E91D8A1E8C310C0EEA1BF002731658846E
310
D98AC1B77784ABF1D8FE5FBFBF75BBCE937A534CCEB38643598122B6FEE978D0B0485F9C41B54DDD7D022595594E1A469170414C76A4D9A4D207E29CF43ECE46F218070CC6BECC4078ACAA135ACF422C856C0E68EA1BF5669944DDD7BCDE7B1F8E415D77AECB980613C2E4AC91FC167A2B244592486606FC29C8FD7F045B9A
310
EF7053A7E60B504B030414000608080052A1E442144FD455EA0000007C01000008000000636F72652E786D6C8D90416EC3201045AF82665B61634813C7C244294D4FD00B20200E4A0C9681AAC72F4E1CA9DD7535A33FFFCD8C3E3F7C8F37F465E7E882EFA1A90820EB7530CE0F3DE474C62DA083E07308E9970D9057A3ED61
310
9141F0610E795A251D7CB23E15D507635751C56813207D2B4D0F515FECA82A955371C46B35297D5583AD9A6757E09C9D418F23CE947DEEECEC0CE2BDDD4AD6EE77584AC9F086D20F7C648462B2DB3349D9491E4F6FBC5E60C1931B9FF7F56C55B20604250D2B664C369F94740DE9D8F685BC768CF07AB1FF81F264FE0965E7
310
13A3EBBB0F2C8268CA23F781E0F5924529F7A04A5D72133F504B030414000608080052A1E44255019EA25F0000007C00000007000000636E782E786D6C4DCB3B0E80201045D1AD90E915ED2CF8AC45050C11660C8261F98AB1B07AC9C97D42D718D865D3E909258CFD00CCE24AC6E326A164D74DC0B4128928FF326038472B
310
A13128B1252AC747C6BAB984FC68F0B87FE8960A5C09FE86CFB69FBA01504B030414000608080052A1E442D1E4107467010000020300000C0000006662782F636F72652E786D6C8D525B6E833010BC8AE5DF0A6CEC342F1947294D4FD00B38E05014B091B1518EDFE511A5A9A2284232D6CCCEEEEC80D85D9A1AF5DA759535
310
294E628A9136B92D2A53A638F853B4C6682785B3D6FF29C3C8A846A77880B114A5B3A19DA1DC1AAF8D07D4D842CFA0EA3AED31CA6BB8A4B8CB7F74A362153C5474E7B855F959953A4E62A0A14E8ACE3B3080A621C389E5E9781164C2A508A12A66B62A605A75AAB4C3F273BDCCF87AB38AB22CE3D182B1AF68CF298BE86AC3
310
33C60FD9FEF021C82096C257CDD55DEEB4F2BAC092D18443714417DF8C6E13BAE5CB37FABEE55490A1FC4E14DAE24551A88CE76CB63BC93A2C13303212FFB685883CEA540F7E88146408115E63C2F741432010B257C7FABAC719A05EE7DEBA0530850D37AA5775D03095A2F1116462A1F3D800367BD8873DE9F3BC077C4065
310
4AB0A63C5C8FC10FD3C534758EA2D52EEAFD0519EB1A55DFCC4D166FE76DD043796E6BEB5E5193795532874986BF57FE02504B030414000608080052A1E442506299E97E0000009D0000000B0000006662782F636E782E786D6C4DCCD10E82201886E15B61FF394984691BE080EC3E5CA263213482D6E5A7CD838EBEEDD9B7
310
97779FC5A3B74D2F178380E38100B2E11E47176601254FB805D4499E62CC7F37406158AC808D41F239C5F2DC69B4D3507C5ED5BBF0D8515F0C69CC4D61657A8DD99951AC69D362D65F153991BA6654412579F52BADBB85E517504B030414000608080052A1E442E54564F92C01000014020000310000006662782F42394330
310
374346412D414345422D343634322D423237382D3445444130333035353432412F636F72652E786D6C8D515B6EC32010BC0AE2AB55850DB66327112672D2F404BD000192A2C460F1A872FC42ED48ED5F7E58343B333BDAA5BBFB7803DFCA796D4D0F498121504658A9CDA587319CD11A821DA3CEDAF0870681E1A3EA618621
310
A31767E3B440C29AA04C48A8B1522D20F75E0508C42D7D7AE8C5971A79C163480C7F2D262EAEFCA20A52A476E231EA834B01C03C24BF90ED3707DC1D3E06341C8E7BD4B44D85F655B746CDF17DC0355EAD9A6AA0E52C6434462D17B996298E3E6BE59E35C96246831E1FF185533C28095985498D708770F359E12DC1DBBA7D
310
C3AB6D8D6999E9FF4471924F8AA236A1AE96B8B3CC43466839371895369E6E8F30EA3E5917409EF7E29578850C1798908EACDB0D2D676A5A40F26C9BC5D307EBD2825FAEA7C4AE17E3B661B4CC374AE5F780A9E67BB21F504B030414000608080052A1E442E96494E55601000033030000300000006662782F423943303743
310
46412D414345422D343634322D423237382D3445444130333035353432412F636E782E786D6CBD93CD6EC32010845F0571ADFC17BB6E146122F5D027E8A1570C9B86068305B86ADEBE4B42D25C72A854F582ACD96166F509B3EDD764C827F8A09D1D6853D69480954E69FB3ED025EE8A35255BCEBC73F1C6468915130C34C9
310
94B377EF96394B0A7662311155A3ED218B1E825BBC848072BA498C93C26000D8624111A611940245AE46FCDA81C755501C8F24EE81BC3CBF11377E808C81552985B32A757096CEDC7463A2441A11C24083DCC3244AB144A7201C4A25A2289BF2D27567A79F24922E5C2A17AF492A1F683A29CF1B95C8915538E42C448FF4B2
310
291E67A05CCCB3D15244845C9D8C670F678BB6B1EFB25723788FEE76D5AFD718769A7116F504D9213D88088AF255DDB445FD54D4DDEBAADE34F5A6ED1FEAC74D5BB32AD9391B9D33F912C680773391CE46B091F28655697C0F5FF611A53DB276FEF80B900820B79EE95C33FE924FD3B75DF78F7CAAD3FB465C1EFF02FE0D50
310
4B030414000608080052A1E442695FC6FD640700009A1B0000340000006662782F42394330374346412D414345422D343634322D423237382D3445444130333035353432412F6F626A656374732E786D6CED59DD73A33610FF5718FAD23E189BD8C9251D4227B1931BCF35D79BBA77D307CF3032C8448D108C2492B87F7D57
310
1F602026C1BDF4AD0F3620A4D5EE6F3FB504BF3C67D479C45C909C5DBABE37711DCCE23C212CBD744BB91D9DBBCE2F61C0F35C36A6B90E4319BE74D5B01B0629CFCBC20E25788B4A2A3BA3B7D77F3A22C60CBB4E4C911097AE88EF71863C54CA3CC1E2C14B90445EBA7DF67CCF4C6C934D392AEE3B440BC43193C0298C33A0
310
E218A6FCF6E3C41D87C158BD0F03F56F674D07CD9AF5CF1A6BA9DB5C12262462F10B963A64A683589AFAB3C5CDC9E9C5E874369B8E666727FEE8FAF67A31F23F4C27F3B3F9FCE2EAE602D8DBE439B53225B8C02C01FDEDDCD00FC6EA4D2DBA45E010D771CE188E3590009516AB4B9060015B35E09BB41F7D2551E3B596B0F1
310
3C53EF2D0B8DE1699B4ADFAC6140B4E8822076BB4AE2EADA942FDFFC05828B2146C90596C0AD901CB46BE1E1E0156E3809C666340C367B5D10E16448624E107528D970C4412930554D0903B3C09251CEC18194A324D09A33AFDBB6059EF9B6EB1CE2725B52AA3CC30DB56345E07E580ACD19F91BF33DF74D64802790B6244C
310
9E5B2EE5AEC06E78118CF56018A8CBF4C4BE34403A5B8A52A111316F3B82CE95EB2F176EF8E976F3BC52E1E0F0E605CF0BCCA5323AA547CD1718B2BD2A94ECB6FE20CDA905208C01D5AEDC83F23B20FF19A2C79E15D01B27CFB3E7999D2B3962629BF30C74E34C9CD104FE268EAFFFD57DE32E18D78BDBDAEBC313DC544175
310
FEFD78B665D05859FE1B7086C123187CCEA7F6D52A4614ECF98E300048198943731882D0BEDD3CBBE1120227047A588568E883C8C0EE23DC06634B66AF95CABDACD73140D4EE311DA224804D5B24B0D1A3A78F903D3889F76A6A8AD807EFE9BB98EBD562F56955F22D8AF19DF5E905DE12462464CDC30CB5306F49F480774F
310
394F40D09778AF9A7867762B01682BCC15F06905827AD8EFDCDA20867569AEC24DF0C60E2084CAD50DFA7744C49852C4705E56FBD6D14D196AEDF1B66670C31303F1F4A463C21C3F12555580D3EC67B41885BC1F73522810DDF0A391AC0E9A5E8F745F979FC122EBF93DB3960C422F43F40F1DB40EE0D0B2EC0A690B442DF0
310
661FCEE39CE63CDAEC2213E95CA825808DB6B77C6B1185586F94A4A8800769BFAB424A6AA48D12B2DD9602E2EA0116BF2DE74D73987853FFD469FE779C7106D1167C1771EB779D3D2292A114475B94F46DD7DCADA62D34C91ED21C6F29C8451E89DC4548469304A7C7407314F18B77A59ED25C08C2B0807C7510FC261A130F
310
0289D166C5B2D26A076822A20C4B448F414091E90157A71D5DE3C6503ABCCD636DBDAF69AC49F43FB2088EA096CC5944A014851CF226E3BE770A31A48DAE41B9832F585B455B8B414B2821E25DF484497A2F8F41DD90EFC13D86234929A3BC403198F500B22F7C4529B5C3FB06C50F2A7F447149DFCB4004A6DB88505A6611
310
FC088393C710D7AE03D3AB2834889BD8277106451992251FB2C9D9E9E4C53EA666E886C0C6465B42216C47192A7A506F05445D8F3835F8967A8F523765564428CB4B36C850BC69D79B2CF9AE5A15D981FCAA5211CAC68AB025180684C93AAB56311B4C5D075670231DA87691405941CD29EC8DC4E3D7DEA429F76EC0AD9FBE
310
EF0619147E3DDA6B46D4590583E5B15518882724E37B375CE9EBE81AEAEF0427FB545FD59ACD0A10105391BCE4C4AAE8EB12CA1B5BA3B9E11D9262FDD164DDEAFA75E941F72318C31AA85DEA854B0574869944AA32B95337F4770421B845C38C2F554E3D86CA5592E8AA11D15BD2A7CE5619D1DA34235E718F599EC18FAD09
310
8B6999E0354AC443742769B4228A752BA597910AE35705FCEDE3AA030F8C0C10E98B2AF0F05367AD1D9DAB72E92011795F661B860804C19668A9D18D57B0D46AA4D2727D55670AA8BBC0C0AC8A67FF9F2C9AED88FF4F16A9358CEF3A595CEF7E45BB665FA491CE6365D7471D03EAFCA4A8BCC73140B71D6AAA751631C9DCCA
310
6F9D2982A05845F9C1D55815340CC13E8EFF75D6EECB8266BB0EFFC7656DFF45C5715456694D565DAA0395EBB299C36E66FEF9D5ED87C56872767D3B9A5DDD4C4717FE993FBA393BBB3EB9995F4D168BEB1A4DEDA8615007339DBBE0D904B56A583D590CA02B2B724A1238CD274E8A21E64B38D30F689FF30C0B489ECD6677
310
629BF203563F9A3EA7441B8A2B4EEE113488A980B40E1895B16C8F3B3F406B52C241FBD285A691F7007FD62A5D0732CFA50BAD0249622CBC0DB49954434F138794AB73BF2506F82096AA946816D5CFF52A854D2BFCD75386A4012B57AB8701855B01DDAF568742F366798A8F12BC62C741126E37A5846ACDC8B21FA885D1DB
310
ECD56F64A3843DD8AD9FC1755F17CBF7F49C1622833E19BC6A0486EA48229EEA7EB762CCB274B5F832863E9BB3FCCD296899822E87531A710CC65CAA820AAC08ACC2D22C9004539DFFBCFEC273F8C49339BA2A727E7C3E3FFB693DCFB32C6766687D05A7B2043E1439AB7BF8EC93ACA178C0AAB92ED62713FF64AD9BDAB6CF
310
1E6D90C09EAA8A60A02A2694201D9303BB7CD1A0B2EDCBB1524567FA72E1D8200ACD0063472F7ABCE62397033EA43EA7288FD17E5E49FB6A5F7BACA7824D70E84887FF00504B030414000608000052A1E442000000000000000000000000350000006662782F42394330374346412D414345422D343634322D423237382D34
310
45444130333035353432412F76657274696365732E62696E504B030414000608080052A1E442F270F1330600000004000000360000006662782F42394330374346412D414345422D343634322D423237382D3445444130333035353432412F747269616E676C65732E62696E636660600000504B030414000608000052A1E4
310
42000000000000000000000000370000006662782F42394330374346412D414345422D343634322D423237382D3445444130333035353432412F617474726962757465732E62696E504B030414000608080052A1E442D5987DFC8F00000041010000360000006662782F42394330374346412D414345422D343634322D4232
310
37382D3445444130333035353432412F6469726563746F72792E786D6C858F410EC2201045AF4266AF15DDB800BA74E7C21B903225242D6328188F2FA5C4183471359997F9FF81E89FF3C41E1816475E02DF1F80A11FC8386F25A438EECEC07A250251FC3803E6F58C12560C4AD840E95E91C151A72936F496F35732D860FE
310
635F62C8F2DA16B505C545B74125BAA2FA9E05D7CC053D063734D5C7665FD55B6B8D15D5E9BFEAFD8490FFA45E504B030414000608080052A1E44207E4FACDFF000000A00100003B0000006662782F42394330374346412D414345422D343634322D423237382D3445444130333035353432412F7265736F75726365732F63
310
6F72652E786D6C8D905D6EC3201084AF62ED6B858D2175130B13A56E7A825E00E18D831283C54FD5E317C7AED4BEF5854533DF68472B8E5FD3BDF8441F8CB31DD4258502AD7683B16307295EC81E8AA314DEB9F80B83C2AA093B58649062F42ECD9BA49D8D686356AD1B7013550818A1D0F7FCE920E82B4EAA54296622DCCA
310
59E99B1AB1ACCB6C674E8A107D2E50AC4B9617A4C7E092D71844B5BA52A464868D3143DE692E063DC8B77DD3F3FDA1217DDF73B263EC9D9C386584BE1C78CFF8B93F9D5F45B584A58866FAE9A83DAA880348466B9E6142771F8CB6356D79F3449F5B4E45B5E07F42691EFE194AC646CEB6BA6B2C80AC7391872145B5DC2B8F
310
C731F35C6E2BBF01504B010214000A000008000052A1E4423DEE336E79000000790000001B00000000000000000000000000000000006175746F6465736B2D64657369676E2D7061636B6167652E786D6C504B0102140014000608080052A1E442D486FD9CA0000000F40000001300000000000000000000000000B2000000
310
5B436F6E74656E745F54797065735D2E786D6C504B0102140014000608080052A1E442144FD455EA0000007C010000080000000000000000000000000083010000636F72652E786D6C504B0102140014000608080052A1E44255019EA25F0000007C000000070000000000000000000000000093020000636E782E786D6C50
310
4B0102140014000608080052A1E442D1E4107467010000020300000C00000000000000000000000000170300006662782F636F72652E786D6C504B0102140014000608080052A1E442506299E97E0000009D0000000B00000000000000000000000000A80400006662782F636E782E786D6C504B0102140014000608080052
310
A1E442E54564F92C0100001402000031000000000000000000000000004F0500006662782F42394330374346412D414345422D343634322D423237382D3445444130333035353432412F636F72652E786D6C504B0102140014000608080052A1E442E96494E556010000330300003000000000000000000000000000CA0600
310
006662782F42394330374346412D414345422D343634322D423237382D3445444130333035353432412F636E782E786D6C504B0102140014000608080052A1E442695FC6FD640700009A1B000034000000000000000000000000006E0800006662782F42394330374346412D414345422D343634322D423237382D34454441
310
30333035353432412F6F626A656374732E786D6C504B0102140014000608000052A1E4420000000000000000000000003500000000000000000000000000241000006662782F42394330374346412D414345422D343634322D423237382D3445444130333035353432412F76657274696365732E62696E504B010214001400
310
0608080052A1E442F270F13306000000040000003600000000000000000000000000771000006662782F42394330374346412D414345422D343634322D423237382D3445444130333035353432412F747269616E676C65732E62696E504B0102140014000608000052A1E44200000000000000000000000037000000000000
310
00000000000000D11000006662782F42394330374346412D414345422D343634322D423237382D3445444130333035353432412F617474726962757465732E62696E504B0102140014000608080052A1E442D5987DFC8F000000410100003600000000000000000000000000261100006662782F42394330374346412D4143
310
45422D343634322D423237382D3445444130333035353432412F6469726563746F72792E786D6C504B0102140014000608080052A1E44207E4FACDFF000000A00100003B00000000000000000000000000091200006662782F42394330374346412D414345422D343634322D423237382D3445444130333035353432412F72
310
65736F75726365732F636F72652E786D6C504B0506000000000E000E0080040000611300000000
  0
XRECORD
  5
17
102
{ACAD_REACTORS
330
12
102
}
330
12
100
AcDbXrecord
280
     1
270
     1
271
     1
  0
XRECORD
  5
16
102
{ACAD_REACTORS
330
12
102
}
330
12
100
AcDbXrecord
280
     1
270
     1
271
     1
  0
XRECORD
  5
18
102
{ACAD_REACTORS
330
12
102
}
330
12
100
AcDbXrecord
280
     1
270
     1
271
     1
  0
XRECORD
  5
15
102
{ACAD_REACTORS
330
12
102
}
330
12
100
AcDbXrecord
280
     1
270
     1
271
     1
  0
XRECORD
  5
24
102
{ACAD_REACTORS
330
22
102
}
330
22
100
AcDbXrecord
280
     1
270
     1
271
     1
  0
XRECORD
  5
23
102
{ACAD_REACTORS
330
22
102
}
330
22
100
AcDbXrecord
280
     1
270
     1
271
     1
  0
XRECORD
  5
BA
102
{ACAD_REACTORS
330
22
102
}
330
22
100
AcDbXrecord
280
     1
 70
     1
 90
1959938040
 71
     1
  1
D96ECF55-1D01-4CDB-AB4D-997A1A09360D
311
504B03040A000008000051A1E4423DEE336E79000000790000001B0000006175746F6465736B2D64657369676E2D7061636B6167652E786D6C3C3F786D6C2076657273696F6E3D22312E302220656E636F64696E673D227574662D3822203F3E3C666F726D6174733E3C666F726D61743E687474703A2F2F736368656D612E
311
6175746F6465736B2E636F6D2F64657369676E2D7061636B6167652F323030393C2F666F726D61743E3C2F666F726D6174733E504B030414000608080051A1E442D486FD9CA0000000F4000000130000005B436F6E74656E745F54797065735D2E786D6C7D8EC10E82300C865F65E91D8A1E8C310C0EEA1BF002731658846E
311
D98AC1B77784ABF1D8FE5FBFBF75BBCE937A534CCEB38643598122B6FEE978D0B0485F9C41B54DDD7D022595594E1A469170414C76A4D9A4D207E29CF43ECE46F218070CC6BECC4078ACAA135ACF422C856C0E68EA1BF5669944DDD7BCDE7B1F8E415D77AECB980613C2E4AC91FC167A2B244592486606FC29C8FD7F045B9A
311
EF7053A7E60B504B030414000608080051A1E4424226E8E4EC0000007C01000008000000636F72652E786D6C8D90416EC3201045AF82665B6183715BDBC244719A9CA01740401C94182C03558F5F9C3852BBEB6A467FFE9B197DBEFB9E6EE8CB2CC17AD7032D0820E394D7D68D3DA478C60DA09DE08BF7F1970D909393E961
311
9541F071F169DE24E55D342E66D5796D36518660222075CB4D0F415DCC240B996276846B314B7595A329E8B3CB704A56A3C711ABF33E7BB66601310CAC6EF7C7233E0D0DC3F5DBD0E2E6C03E70BB6FE8409AD3A16D2A5EAEB0E0D14ECFFB6A31321A0DA2229461F28E49FD59918E928ED52FE4B5638497ABFD0F9466FD4F28
311
591759B5BDFBC002089A1FB90F042FD72C72B90795EB9A9BF801504B030414000608080051A1E44255019EA25F0000007C00000007000000636E782E786D6C4DCB3B0E80201045D1AD90E915ED2CF8AC45050C11660C8261F98AB1B07AC9C97D42D718D865D3E909258CFD00CCE24AC6E326A164D74DC0B4128928FF326038
311
472BA13128B1252AC747C6BAB984FC68F0B87FE8960A5C09FE86CFB69FBA01504B030414000608080051A1E4420C22128668010000020300000C0000006662782F636F72652E786D6C8D525B6E833010BC8AE5DF0A6C1E6D21328E429A9CA01770C0A128602363A31CBFCB23A2A9A2284232D6CCCEEEEC00DB5EDB060DD2F4
311
B556190E7C8A9154852E6B5565D8D9B39760B4E5CC686DFF9461A4442B333CC298B3CA68D72D50A19595CA02AA74291750F4BDB418150D5C32DC173FB215BE70162AFA8BDF89E2222AE9073ED050C7596F0D1840F390F1C4FC7CBA3232E39C3957970B5B9730AD3ED7D2609EE7519CEE0E07EF982791177FE4A997ECA32F2F
311
DD25414E93E33E4D4246463167B66E6FEE0A23859525E6210D228F7E7A34FE0EE926A09B287EA3EF9B88323296DF895C57BE2872B5B251B8D89D653DE6011899887FDB424416F562003F8433328608AF29E1FBA0211008D98A5373DBE302D0200BAB4D0C4CA9DD4A0DA27112A652343D8CCC2C749E1AC0660FFB844FFA3CEF
311
011F50A80AAC090BD793B3E374364F5DA2E8A4F1067B454A9B5634ABB9D9E27AAE831ECA0BDD68F38A9A2CAB92254C32FEBDFC17504B030414000608080051A1E442E5D1DEB27D0000009D0000000B0000006662782F636E782E786D6C4DCCD10AC2201886E15B91FFDC3653A3813AA67921A3B921390DD3E8F2DB62071D7D
311
F0F0F18AFEB306F476F9E55394404E2D2017EF69F2719150CB8CAF807A25724AE5EF06288EAB93B03328B1E4549F074D6E1E6B289B061F1F070E94106B2CC1ECC63566B4A3589BCE60C62D3597B31E346FA151A2F995B6DDC3EA0B504B030414000608080051A1E4427D68E7142B01000014020000310000006662782F4133
311
3131454345312D344435422D343339332D424339432D3435453343363242414235302F636F72652E786D6C8D515B6EC32010BC8AC557AACA3618EC3611268ADDDCA0177080A42831583CAA1CBFEBDA91DABFFCB068766676B4CBF7F7F1967D6B1F8CB32D22054699B6D229632F2D4AF19CBFA36C2FB8772EFEA1A1CC0EA36E
311
D10C23C12FDEA56985A4B351DB08A8754AAFE010828E289337F8B428C82F3D0EC5902230C2B59806791D2EBA2005B4812778881E0264CB90F945E2400939F64792B38FBACB19DDD2BCEBB77DCEEA23ED9BAA3B7435E6E522143C25A356B95110C79C8DF6CF9ACC62C1A3191FF1A5D743D40A890A139AE3B71CB3CF0AEF08DE
311
51F68AEB1D85C933FD9F284DEA49513236D26A8DBBC8021284974B4370E5D2E9F608A3EF93F3319BE76D82962F48E00213C29A7A4B79B9506101E0D9B0D53344E761C19BEB09D8A45E8C1B267839DF08CAEF01A1CEF7143F504B030414000608080051A1E4428DE953114E01000033030000300000006662782F4133313145
311
4345312D344435422D343339332D424339432D3435453343363242414235302F636E782E786D6CD593CD6EC32010845F0571ADFC17BB69156122F5D027E8A1570C9B860683C54FD5BC7D9784A4B9E4D0632FC89A1D66569F30DB7ECF867C810FDAD99176754B0958E994B61F234D71573D53B2E5CC3B176F6C945831C348B3
311
4C39FBF02E2D4552B013C944548DB687227A082E790901E57C93182785C100B0554211E609940245AE46FCDA81C755509C8E24EE81BCBEBC13377D828C81353985B326777096CFD27463A2441A11C24883DCC32C6A91A253100EB51251D45D7DE9BAB3D36F12C9172E95C96B92CB479A4FCACB463572640D0E390BD123BD62
311
8AC7052817CB62B41411213727E3D9C359D236AE87E2D508DEA3BB5BF7C38061A7196751CF501CD28388A0285FB55D5FB54F553BBCADDA4DD76EFAE1A17DDCF42D6BB29DB3C939532E610C78B710E96C041B29EF5893C7F7F0151F51DA236BE78F7F0089004AEB99CE35E33FF3694EEF1B7179FC0BF80F504B030414000608
311
080051A1E442D6A78B03A405000080100000340000006662782F41333131454345312D344435422D343339332D424339432D3435453343363242414235302F6F626A656374732E786D6CAD57DB6EDB3810FD1541FBB2FBE08B6C278D178A0AC76E0AA3485BD468B10F060C4AA2146EA80B482A75F6EBF750A464C9B553EFA2
311
2F96450D873367CE5CE8BFDD67DC79A642B222BF75BDE1D875681E1531CBD35BB752C9E0C675DE06BE280AD511739D9C64F4D6D5CB6EE0A7A2A84ABB14D384545C1DADDEDFFDE5C888E6D475224EA4BC7565F448333224952A622A9F863151649826FBA13734827DB5A920E5E391D292089A2B588AF51C5A1C6394D77F1DBB
311
A3C01FE9EF81AF7FADD4F4BCD4A8F6A77F3ECBA52279F4C361476AA6DE6CF56E72351F5CCD66D3C1EC7AE20DEEEEEF5603EFCD74BCBC5E2EE78B77731C2C9580266B89A0891BBC07368245FEC87C0AFC8AE56A3AB122364023419F998E941B4C1CCF1F1999D63BEBE429F3A322CF69546305346AFFACEA9896348F11734625
311
2CEB2034EEBF7A1AC7CEE7A97EB74776972F43A0BBA3A3A8B1BD79762D2DC2BFE182BC84414252CD4083A575D470757C40382C0A6EBF31E9644451C10877380B05112F6E00512D12F83D359AC9426783F6C00D1005F3B94F17A4D1CF797ECACAA4E25CD3D80DEA2CD82157A892B565EC1F2A0ED67791814D889566C38D7548
311
BD94D40DE6862237476C32403A092729420E37F5CEE9E4C8D1A5CED3F5CA0D3EDC87FB8DCEDDD38797A228A9509A3EA05613B8E6A951B2367917454E6F708F4C3980F205C87F44AA1F4C41DC04DBCFF6337B8A122497492132C4C6193B83317EC68E57FFEAFF9D7FFEA8DDDC8FDE393C116C0DD52FC0B3EF4337961D3803FF
311
19842FC4D4BAB6890847D978603900D22471788125D4E124DCBBC11A550E5519BB080F3CB80C739FF1D71F59352814F5499D670E2C8FCAE205051AB0D58C841986FCD6C0439C7E2867F5C156EC1CBC57BF84AE8BD5E6C3A6120989E883CDE9154D58CE145ADC81375D837A98F73C7AA22FDF0B11C3D11FF1DE74F1CEEC5112
311
686BCC35F06953D3F5CBE1E4DE0111F6A5852E37FE4F4E8013BAB176F43F301951CE494E8BAA39F7D5FE81B66120D6C9AE99DC369843630169CC97A31C44938E042B35886DB76A8BE6F08C775FD71FC148C8F32224FC20141E4A6F54F042ECC2979DA94A2791FED6A7B68560A4B580ED758E34E96F31DFC52C492A891A7802
311
D66FEB653774BA2AA042345A4DB2CCE03E728B08CBD9462F9AB52068A445BE63689B48BB930774F503514B805AE1398B25E5C98E715E65BB847134A35D46CA3370FC7FFBC32A2B77242BAA5C9DD1DD331DCDA16F7B8FBCF23B51D1A31B6CEAE7E00EA537A6F121CC3D61DD4A4E60D50BED6A7EFD6E797F7535F056636F305B
311
AEEE068BBBD96A309FBF59788BF17C7A3D5E357132CA03BFE934DD844694D0D9FC4A301BBEAF6BA48FAD016EF04094DCBE37D9D93CBFAE871885FD11F6A05DB61B17F133C63E1AFF5CC141F2A4A27556729AD15C119D420FFA0FFF423066F48C31EBEB8CA4F4022D9FDE6F8E9CC1CA05FB3EEB74A7DF8FF6DAD5A54EC8934A
311
D46395853961FC68636A901C96796AF16B62D23E4D9F695EF59B0D0C0653597016A30CC64E4A8B8C2A14C30B7A90C8A804F5BA237D6CAF1E17EC7E3603A22221A78D258F04333297480B50AB8A547FDDF90D339D1EAB6E5D74DBE1137E6CA5701D70E6D6C58CAE5844E530447FD69350AD1C5CEA0EF298FB499E728CDA6653
311
FBDEEED2D8F43A722B72C9F864FD3215DC3A803252626CC03C84E8D4C6047E6D9BFD1EFD27C71B731CA2F037AC54EBCB61A175A63E06296A9CB29705CC304FF6E83D12F575B7BC612DD343E4A24BD6AB24305A078A88B4BE2868FBAC498BD5E711061467FDC92979952296976B1A080A32573AC1C122B0C2EA2C890255977F
311
6E3F8B0217D9CCB967A080F3FBFEE6FA8FEDB2C8B222374BDB85BD0E3B9B475C6EE32D8A03D5B712B99D8CBDC9B6BE0DD80BCA2E24920E492C9FB080C80AD602DD0B3F7869AE8CE843E6432B37D2A13862E87AE5D8C63683524B976E6DD5E060EEC8A9831CD2374A9D315D81F2D50BC1A816850902A37CF02F504B03041400
311
0608000051A1E442000000000000000000000000350000006662782F41333131454345312D344435422D343339332D424339432D3435453343363242414235302F76657274696365732E62696E504B030414000608080051A1E442F270F1330600000004000000360000006662782F41333131454345312D344435422D3433
311
39332D424339432D3435453343363242414235302F747269616E676C65732E62696E636660600000504B030414000608000051A1E442000000000000000000000000370000006662782F41333131454345312D344435422D343339332D424339432D3435453343363242414235302F617474726962757465732E62696E504B
311
030414000608080051A1E442D5987DFC8F00000041010000360000006662782F41333131454345312D344435422D343339332D424339432D3435453343363242414235302F6469726563746F72792E786D6C858F410EC2201045AF4266AF15DDB800BA74E7C21B903225242D6328188F2FA5C4183471359997F9FF81E89FF3
311
C41E1816475E02DF1F80A11FC8386F25A438EECEC07A250251FC3803E6F58C12560C4AD840E95E91C151A72936F496F35732D860FE635F62C8F2DA16B505C545B74125BAA2FA9E05D7CC053D063734D5C7665FD55B6B8D15D5E9BFEAFD8490FFA45E504B030414000608080051A1E442518DC67CFE000000A00100003B0000
311
006662782F41333131454345312D344435422D343339332D424339432D3435453343363242414235302F7265736F75726365732F636F72652E786D6C8D504B6E833010BD0A9A6D653098B6808CA3903427E8052C33A156828DFCA97AFC9A40A576D7CDCCE87D344F8F1FBEE67BF689CE6B6B7A28730A191A65476DA61E62B8
311
9206B283E0CEDAF04B06999133F6B0C220F8E46C5C76485913D084841A3BE20E4AEF3140A6EEE9E8C1AB0F9C652E63480A7FCB17A96E72C2BCCC139D7482FBE052806C7BB24E100EBD8D4EA1E7C5C60A1EA31E778D1ED34F7DD5E8400C03ABDBE3DB995C868691FA656849736267D21E9B72A0CDE5D436152F56B3E041CF3F
311
19954319700451D19211FA4A68FD5ED1AEA41DAB9FE873C7282F56F91F535CC67F9AA23681557BDCCDE6419429C88310BC58FB4AEB5166DA6BB7E21B504B010214000A000008000051A1E4423DEE336E79000000790000001B00000000000000000000000000000000006175746F6465736B2D64657369676E2D7061636B61
311
67652E786D6C504B0102140014000608080051A1E442D486FD9CA0000000F40000001300000000000000000000000000B20000005B436F6E74656E745F54797065735D2E786D6C504B0102140014000608080051A1E4424226E8E4EC0000007C010000080000000000000000000000000083010000636F72652E786D6C504B
311
0102140014000608080051A1E44255019EA25F0000007C000000070000000000000000000000000095020000636E782E786D6C504B0102140014000608080051A1E4420C22128668010000020300000C00000000000000000000000000190300006662782F636F72652E786D6C504B0102140014000608080051A1E442E5D1
311
DEB27D0000009D0000000B00000000000000000000000000AB0400006662782F636E782E786D6C504B0102140014000608080051A1E4427D68E7142B010000140200003100000000000000000000000000510500006662782F41333131454345312D344435422D343339332D424339432D3435453343363242414235302F63
311
6F72652E786D6C504B0102140014000608080051A1E4428DE953114E010000330300003000000000000000000000000000CB0600006662782F41333131454345312D344435422D343339332D424339432D3435453343363242414235302F636E782E786D6C504B0102140014000608080051A1E442D6A78B03A40500008010
311
00003400000000000000000000000000670800006662782F41333131454345312D344435422D343339332D424339432D3435453343363242414235302F6F626A656374732E786D6C504B0102140014000608000051A1E44200000000000000000000000035000000000000000000000000005D0E00006662782F4133313145
311
4345312D344435422D343339332D424339432D3435453343363242414235302F76657274696365732E62696E504B0102140014000608080051A1E442F270F13306000000040000003600000000000000000000000000B00E00006662782F41333131454345312D344435422D343339332D424339432D343545334336324241
311
4235302F747269616E676C65732E62696E504B0102140014000608000051A1E44200000000000000000000000037000000000000000000000000000A0F00006662782F41333131454345312D344435422D343339332D424339432D3435453343363242414235302F617474726962757465732E62696E504B01021400140006
311
08080051A1E442D5987DFC8F0000004101000036000000000000000000000000005F0F00006662782F41333131454345312D344435422D343339332D424339432D3435453343363242414235302F6469726563746F72792E786D6C504B0102140014000608080051A1E442518DC67CFE000000A00100003B00000000000000
311
000000000000421000006662782F41333131454345312D344435422D343339332D424339432D3435453343363242414235302F7265736F75726365732F636F72652E786D6C504B0506000000000E000E0080040000991100000000
310
504B03040A000008000051A1E4423DEE336E79000000790000001B0000006175746F6465736B2D64657369676E2D7061636B6167652E786D6C3C3F786D6C2076657273696F6E3D22312E302220656E636F64696E673D227574662D3822203F3E3C666F726D6174733E3C666F726D61743E687474703A2F2F736368656D612E
310
6175746F6465736B2E636F6D2F64657369676E2D7061636B6167652F323030393C2F666F726D61743E3C2F666F726D6174733E504B030414000608080051A1E442D486FD9CA0000000F4000000130000005B436F6E74656E745F54797065735D2E786D6C7D8EC10E82300C865F65E91D8A1E8C310C0EEA1BF002731658846E
310
D98AC1B77784ABF1D8FE5FBFBF75BBCE937A534CCEB38643598122B6FEE978D0B0485F9C41B54DDD7D022595594E1A469170414C76A4D9A4D207E29CF43ECE46F218070CC6BECC4078ACAA135ACF422C856C0E68EA1BF5669944DDD7BCDE7B1F8E415D77AECB980613C2E4AC91FC167A2B244592486606FC29C8FD7F045B9A
310
EF7053A7E60B504B030414000608080051A1E4425BE1CC74EB0000007C01000008000000636F72652E786D6C8D905B6EC3201045B782E6B7C2063FE4873051ACD62BE8061010072506CB40D5E517278ED4FEF56B4677EE99195D76FA5EEEE84B6FDE383B00CD08206DA553C6CE03C470C12DA013679B73E1970D90158B1E60
310
9781B37973713D24E96CD03624D53AA50F5178AF0320794FCD005E5EF52232114372F85BB60A7913B3CEE8AB4B708C46A1E711A3D23E73317A033E56E3D84C6D833FC87B8D2B324D782C1A8ADBE97CEEDA89D45DD7B27C87390B6679DD979B16412BE005A125260D26D567417A4AFAB27A23755F1296EFF63F505CD53FA168
310
6C288BE3DD27E681D3F4C863C059BE6791CA23A854F7DCF80F504B030414000608080051A1E44255019EA25F0000007C00000007000000636E782E786D6C4DCB3B0E80201045D1AD90E915ED2CF8AC45050C11660C8261F98AB1B07AC9C97D42D718D865D3E909258CFD00CCE24AC6E326A164D74DC0B4128928FF32603847
310
2BA13128B1252AC747C6BAB984FC68F0B87FE8960A5C09FE86CFB69FBA01504B030414000608080051A1E4426030CE0967010000020300000C0000006662782F636F72652E786D6C8D52ED8A8330107C9590BF87267E146D8929953B9FE05E20D5D4936A2231913EFEAD1FC5EB514A116298D9D99D1D65C75BD7A2519AA1D1
310
2AC3814F3192AAD455A3EA0C3B7BF1528C8E9C19ADED9F328C94E86486271873561BEDFA152AB5B252594095AEE40A8A619016A3B2854B8687F24776C217CE42C570F57B515E452DFDC0071AEA381BAC01036819329D985FCE3746169C33E79A6A659B0AA63597461ACCF338CF93224DBC2FFAB9F3625A145E1E26819716A7
310
D33E2DE86EBF4F1999C49CD9A6BBBB2B8D145656988734883C9A7834FE0EE921A08728FEA0BB43441999CA1F44AEAFDE14B946D9285CED2EB201F3008CCCC4BF6D21228B0631821FC219994284D79CF063D01008846CC5B9BDEF71056894A5D52606A6D26EA346D13A0953299A1F4616163ACF0D60B3A77DC2177D5EF7800F
310
28540DD68485EBD9D9693A5BA6AE51F4D278A3BD21A54D27DACDDC62713BB7414FE5A56EB579474DD655C91A2699FE5EFE0B504B030414000608080051A1E44290E963157D0000009D0000000B0000006662782F636E782E786D6C4DCCDD0A832018C6F15B91F7DCF5F526096AB4D985C4B290990EA76397BF1A1DECE8811F
310
0F7FD17F3647DE26BE6CF012AA4B09C4F87B98AD5F25E4B4D00E48AF440C21FDDD80F86933120E0625D618F2F3A4D92C5376695767FDE3C47A6846AC18A737DD5414355E69C74AA438B488236FB946068512C5AFB4EF11565F504B030414000608080051A1E4429380FB252A01000014020000310000006662782F32413345
310
343136392D434433312D344434422D383630342D3441353434453935394434362F636F72652E786D6C8D515B6EC32010BC0AE22B55850D86B8718489D22637E805884D5294182C1E558EDF75ED48ED5F7E58343B333BDA95BBFB7043DF2644EB5D8B59413132AEF3BD759716E774261B8C764A06EFD31F1A464E0FA6C5138C
310
95BC049FC705EABC4BC625409DEFCD02EA184DC2A8BBC1A7C5B1FB32832E744EC088D762D4DD555F4CC10A68034FC998020440F390E9C5AADAF3A36075433E0E9C117110EF64535341C47E2DC4B159370751CB72162A99B3ED17B9ED218E3D5B139E3599C44A263B3CE277C1E8647AD053C6097D23547C5674CBE8968B57BA
310
DE722ACB89FE4F94C7FE4951B62EF16A893BCB22564C967343C9DEE7D3ED11C6DC471F129AE6ADA2E95EB0A2056555D5881A1630536101E0598BC533261F60C1ABEB09D87C31AE8592E5742328BF07843ADD53FD00504B030414000608080051A1E442EB4E9C065601000033030000300000006662782F3241334534313639
310
2D434433312D344434422D383630342D3441353434453935394434362F636E782E786D6CBD93CD6EC32010845F0571ADFC17BB69146122F5D027E8A157029B860683C54FD5BC7D9784A4B9E450A9EA0559B3C3CCEA13669BAFC9904FF0413B3BD2AE6E29012B9DD2F67DA429EEAA15251BCEBC73F1C6468915138C34CB94B3
310
77EFD25C24053B914C44D5687B28A287E092971050CE37897152180C005B251461DA8252A0C8D5885F3BF0B80A8ADB23897B202FCF6FC46D3F40C6C09A9CC259933B38CB6769BA3151228D0861A441EE6112B548D12908875A8928EAAEBE74DDD9E92789E40B97CAE435C9E523CD27E565A31A39B206879C85E8915E31C5E3
310
0C948B79365A8A88909B93F1ECE12C691B9743F16A04EFD1DD2F96AB15869D669C453D4171480F2282A27CD1767DD53E55EDF0BA68D75DBBEE8787F671DDB7ACC976CEB6CE99720963C0BB99486723D84879C79A3CBE87AFF888D21E593B7FFC054804505ACF74AE197FC9A75BF6C3F08F7C9AD3FB465C1EFF02FE0D504B03
310
0414000608080051A1E442F834235A62070000991B0000340000006662782F32413345343136392D434433312D344434422D383630342D3441353434453935394434362F6F626A656374732E786D6CED595B739B3814FE2B0CFBB2FB606C62278D77083B89DD743C9DB49D7ADBD907CF3032C8441B211849E4B2BF7E8F2E60
310
2026C1DBEC5B1F6C404847E77CE7AA43F0C763469D7BCC05C9D985EB7B13D7C12CCE13C2D20BB794BBD1B9EBFC11063CCF65639AEB3094E10B570DBB6190F2BC2CEC508277A8A4B2337A7DF5972362CCB0EBC4140971E18AF81667C843A5CC132CEEBC0449E4A5BB47CFF7CCC436D994A3E2B643B4401C33099CC238032A8E
310
61CA6F3F4EDC71188CD5FB3050FF76D674D0AC59FFACB196BACD25614222163F63A943663A88A5A93F5BBE3F399D8F4E67B3E9687676E28FAEAEAF9623FFDD74B2385B2CE697EFE7C0DE36CFA99529C1056609E8EFC90DFD60ACDED4A25B040E711DE78CE15803095069B1BA040916B05503BE49FBD15712355E6B091BCF33
310
F5DEB2D0189EB6A9F4CD1A06448B2E0862B7AB24AEAE4DF9F2EDDF20B81862945C6009DC0AC941BB161E0E5EE18693606C46C360BBD705114E8624E6045187922D471C940253D59430300B2C19E51C1C48394A02AD39F3BA6D5BE099AFBBCE212E7725A5CA33DC503B5604EE87A5D09C917F30DF73DF44067802694BC2E4B9
310
E5523E15D80DE7C1580F8681BA4C4FEC4B03A4B3A328151A11F3B623E842B9FE6AE9861FAFB78F6B150E0E6F5EF0BCC05C2AA3537AD47C8121DBAB42C96EEB0FD29C5A00C21850EDCA3D285F01F94F103DF6AC80DE38799C3DCEEC5CC91113BB9C67A01B67E28C26F037717CFDAFEE1B77C1B85EDCD65E1F9EE0A60AAAF31F
310
C7B32D83C6CAF2DF80330CEEC1E0733EB5AFD631A260CF37840140CA481C9AC31084F6DDF6D10D57103821D0C32A44431F440676EFE136185B327BAD54EE65BD8E01A2768FE91025016CDA22818D1E3D7D80ECC149BC575353C43E784FDFC45C2F97EB8FEB92EF508C6FAC4F2FF18E3022216B1E66A885794BA23BFCF490F3
310
04047D8EF7BA897766B71280B6C25C019F5620A887FDCEAD0D625897E62ADC04AFEC0042A85CDDA07F43448C29450CE765B56F1DDD94A1D61E6F6B06373C31104F4F3A26CCF13D51550538CD7E468B51C8FB31278502D10D3F18C9EAA0E9F548F76DF5092CB29EDF336BC520F43244FFD441EB000E2DCBAE90B640D4026FF7
310
E13CCE69CEA3ED5364229D0BB504B0D1F696EF2DA210EB8D921415F020ED775548498DB4514276BB52405C3DC0E2F7D5A2690E136FEA9F3ACDFF8E33CE20DA82EF226EFDAEB347443294E2688792BEED9ABBD5B48526D9439AE31D05B9C83D914F1192D124C1E931D01C457CFEA6D4539A0B41181690AF0E82DF4463E24120
310
31DAAC58565AED004D44946189E8310828323DE0EAB4A36BDC184A87D779ACADF7258D3589FE4F16C111D492398B0894A290435E65DCF74E2186B4D1352877F0056BAB686B3168092544FC143D6092DECA635037E47B708FE14852CA282F500C663D80EC335F514AEDF0BE45F19DCA1F515CD2B7321081E92E22949659043F
310
C2E0E431C4B5EBC0F4220A0DE226F6499C41518664C9876C72763A79B68FA919BA21B0B1D18E5008DB51868A1ED45B0151D7234E0DBEA5DEA3D46D991511CAF2920D32146FDAF5264BBEAB56457620BFAA5484B2B1226C09860161B2CEAA55CC0653D78115DC4807AAA748A0ACA0E614F64AE2F16B6FD2947B37E0D64FDF76
310
830C0ABF1EED3523EAAC82C1F2D82A0CC40392F1AD1BAEF5757405F57782937DAAAF6ACD66050888A9485E726255F46D05E58DADD1DCF00649B1F960B26E75FDB6F2A0FB118C610DD42EF5C295023AC34C225599DCA81BFA1541086ED130E32B95538FA1729924BA6A44F49AF4A9B35546B436CD8857DC629667F0631BC262
310
5A267883127117DD481AAD8962DD4AE965A4C2F845013F7F5877E0819101227D51051E7EE8ACB5A30B552E1D24226FCB6CCB108120D8122D35BAF10A965A8D545AAEAFEA4C017517189855F1ECE7C9A2D98EF879B248AD61FCD8C982E65B44F7D1A691CD6365D6479D02EAF4A4A8BCC52940771D6AAA751231B9DC8A6F7D29
310
82985805F9C1C55815330CC13E8EFF73D2EE4B8266BB0EFFC7256DFF59C1715452694D564DAA0385EBAA99C296F3B3F78BEBD3D391BF9CF8A3D9627935BABC9A2D47F3F9BB4BFF72329F9E4D96359ADA4FC3A08E653A75C1B38969D5B07AB218405356E4942470984F9C1443C89770A41FD03DE71916903B9BBDEEC4F6E407
310
ACBE376D4E89B614579CDC22E80F5301591D302A63D91E777E81CEA48473F6850B3D23EF0EFEAC55BA0E249E0B173A0592C458785BE832A97E9E260E1957A77E4B0CF0412C5519D12CAA9FEB550A9B56F4AFA70CC90256AE560B03EAB6029A5FAD0685E6CDF2141F2578C58E8324DC6E4B09C59A91653F500BA3B7D9ABDFC8
310
4609BBB35B3F82EBBE2C96EFE9392D44067D3178D1080CD591443CD5ED6EC59865E972F9650C6D3667F5D9296899822E87531A710CC65CAA7A0AAC08ACC2D22C9004535DFCBEF9C273F8C29339BA28727E7D3C3FFB6DB3C8B32C676668730987B204BE1339EB5BF8EA936CA076C0AAB72E362713FF64A37BDAB6CD1E6D91C0
310
9E2A8A60A0AA2594201D9303BB7CD69FB2DDCBB1524567FA6AE9D8200ABD006347CF5ABCE61B97033EA4BEA6288FD17E5E49FB625B7BACA7824D70684887FF02504B030414000608000051A1E442000000000000000000000000350000006662782F32413345343136392D434433312D344434422D383630342D3441353434
310
453935394434362F76657274696365732E62696E504B030414000608080051A1E442F270F1330600000004000000360000006662782F32413345343136392D434433312D344434422D383630342D3441353434453935394434362F747269616E676C65732E62696E636660600000504B030414000608000051A1E442000000
310
000000000000000000370000006662782F32413345343136392D434433312D344434422D383630342D3441353434453935394434362F617474726962757465732E62696E504B030414000608080051A1E442D5987DFC8F00000041010000360000006662782F32413345343136392D434433312D344434422D383630342D34
310
41353434453935394434362F6469726563746F72792E786D6C858F410EC2201045AF4266AF15DDB800BA74E7C21B903225242D6328188F2FA5C4183471359997F9FF81E89FF3C41E1816475E02DF1F80A11FC8386F25A438EECEC07A250251FC3803E6F58C12560C4AD840E95E91C151A72936F496F35732D860FE635F62C8
310
F2DA16B505C545B74125BAA2FA9E05D7CC053D063734D5C7665FD55B6B8D15D5E9BFEAFD8490FFA45E504B030414000608080051A1E442484AE2ECFD000000A00100003B0000006662782F32413345343136392D434433312D344434422D383630342D3441353434453935394434362F7265736F75726365732F636F72652E
310
786D6C8D50596E833010BD0A9ADFCA60B606907114D472825EC032136225D8C84BD5E3D7042AB57FFD9919BD45F3F4D8F96B79249F689D32BA873CA590A09666527AEE21F82B69203973668DF1BF649068B1600F1B0C9CCDD684F580A4D11EB58FA836131EA0700E3D24F2118F1E9CBCE12252117C54B87BBA0A791733A679
310
1AE9A8E3CC791B0324FB936D02B7E84CB0121DCB7696B310D47468D4147FAAAB420B7CA886E13436AFE49DBED5A4A2E34886E2949366BC5CDA66A475DB362CDBCC9C79B5FC64941685C7097841F392D013A1D54741BB9C7665F542EBAEA42CDBE47F4C619DFE690A4AFBB238E2EE36073C8F419E0467D9D6575CCF32E3DEBA
310
E5DF504B010214000A000008000051A1E4423DEE336E79000000790000001B00000000000000000000000000000000006175746F6465736B2D64657369676E2D7061636B6167652E786D6C504B0102140014000608080051A1E442D486FD9CA0000000F40000001300000000000000000000000000B20000005B436F6E7465
310
6E745F54797065735D2E786D6C504B0102140014000608080051A1E4425BE1CC74EB0000007C010000080000000000000000000000000083010000636F72652E786D6C504B0102140014000608080051A1E44255019EA25F0000007C000000070000000000000000000000000094020000636E782E786D6C504B0102140014
310
000608080051A1E4426030CE0967010000020300000C00000000000000000000000000180300006662782F636F72652E786D6C504B0102140014000608080051A1E44290E963157D0000009D0000000B00000000000000000000000000A90400006662782F636E782E786D6C504B0102140014000608080051A1E4429380FB
310
252A0100001402000031000000000000000000000000004F0500006662782F32413345343136392D434433312D344434422D383630342D3441353434453935394434362F636F72652E786D6C504B0102140014000608080051A1E442EB4E9C0656010000330300003000000000000000000000000000C80600006662782F32
310
413345343136392D434433312D344434422D383630342D3441353434453935394434362F636E782E786D6C504B0102140014000608080051A1E442F834235A62070000991B000034000000000000000000000000006C0800006662782F32413345343136392D434433312D344434422D383630342D34413534344539353944
310
34362F6F626A656374732E786D6C504B0102140014000608000051A1E4420000000000000000000000003500000000000000000000000000201000006662782F32413345343136392D434433312D344434422D383630342D3441353434453935394434362F76657274696365732E62696E504B0102140014000608080051A1
310
E442F270F13306000000040000003600000000000000000000000000731000006662782F32413345343136392D434433312D344434422D383630342D3441353434453935394434362F747269616E676C65732E62696E504B0102140014000608000051A1E44200000000000000000000000037000000000000000000000000
310
00CD1000006662782F32413345343136392D434433312D344434422D383630342D3441353434453935394434362F617474726962757465732E62696E504B0102140014000608080051A1E442D5987DFC8F000000410100003600000000000000000000000000221100006662782F32413345343136392D434433312D344434
310
422D383630342D3441353434453935394434362F6469726563746F72792E786D6C504B0102140014000608080051A1E442484AE2ECFD000000A00100003B00000000000000000000000000051200006662782F32413345343136392D434433312D344434422D383630342D3441353434453935394434362F7265736F757263
310
65732F636F72652E786D6C504B0506000000000E000E00800400005B1300000000
  0
XRECORD
  5
27
102
{ACAD_REACTORS
330
22
102
}
330
22
100
AcDbXrecord
280
     1
270
     1
271
     1
  0
XRECORD
  5
26
102
{ACAD_REACTORS
330
22
102
}
330
22
100
AcDbXrecord
280
     1
270
     1
271
     1
  0
XRECORD
  5
28
102
{ACAD_REACTORS
330
22
102
}
330
22
100
AcDbXrecord
280
     1
270
     1
271
     1
  0
XRECORD
  5
25
102
{ACAD_REACTORS
330
22
102
}
330
22
100
AcDbXrecord
280
     1
270
     1
271
     1
  0
XRECORD
  5
D7D
102
{ACAD_REACTORS
330
D7C
102
}
330
D7C
100
AcDbXrecord
280
     1
102
ACAD_ROUNDTRIP_2012_MLEADER_STYLE
298
     1
  0
CELLSTYLEMAP
  5
D7B
102
{ACAD_REACTORS
330
D7A
102
}
330
D7A
100
AcDbCellStyleMap
 90
        3
300
CELLSTYLE
  1
TABLEFORMAT_BEGIN
 90
        5
170
     1
 91
        0
 92
    32768
 62
   257
 93
        1
300
CONTENTFORMAT
  1
CONTENTFORMAT_BEGIN
 90
        0
 91
        0
 92
      512
 93
        0
300

 40
0.0
140
1.0
 94
        5
 62
     0
340
55
144
0.25
309
CONTENTFORMAT_END
171
     0
 94
        0
309
TABLEFORMAT_END
  1
CELLSTYLE_BEGIN
 90
        1
 91
        1
300
_TITLE
309
CELLSTYLE_END
300
CELLSTYLE
  1
TABLEFORMAT_BEGIN
 90
        5
170
     1
 91
        0
 92
        0
 62
   257
 93
        1
300
CONTENTFORMAT
  1
CONTENTFORMAT_BEGIN
 90
        0
 91
        0
 92
      512
 93
        0
300

 40
0.0
140
1.0
 94
        5
 62
     0
340
55
144
0.18
309
CONTENTFORMAT_END
171
     0
 94
        0
309
TABLEFORMAT_END
  1
CELLSTYLE_BEGIN
 90
        2
 91
        1
300
_HEADER
309
CELLSTYLE_END
300
CELLSTYLE
  1
TABLEFORMAT_BEGIN
 90
        5
170
     1
 91
        0
 92
        0
 62
   257
 93
        1
300
CONTENTFORMAT
  1
CONTENTFORMAT_BEGIN
 90
        0
 91
        0
 92
      512
 93
        0
300

 40
0.0
140
1.0
 94
        2
 62
     0
340
55
144
0.18
309
CONTENTFORMAT_END
171
     0
 94
        0
309
TABLEFORMAT_END
  1
CELLSTYLE_BEGIN
 90
        3
 91
        2
300
_DATA
309
CELLSTYLE_END
  0
ENDSEC
  0
EOF
