  0
SECTION
  2
HEADER
  9
$ACADVER
  1
AC1015
  9
$ACADMAINTVER
 70
    20
  9
$DWGCODEPAGE
  3
ANSI_1252
  9
$INSBASE
 10
0.0
 20
0.0
 30
0.0
  9
$EXTMIN
 10
41.58633324804739
 20
14.60930685157508
 30
0.0
  9
$EXTMAX
 10
132.4384317797052
 20
111.2213866865325
 30
0.0
  9
$LIMMIN
 10
0.0
 20
0.0
  9
$LIMMAX
 10
12.0
 20
9.0
  9
$ORTHOMODE
 70
     1
  9
$REGENMODE
 70
     1
  9
$FILLMODE
 70
     1
  9
$QTEXTMODE
 70
     0
  9
$MIRRTEXT
 70
     0
  9
$LTSCALE
 40
1.0
  9
$ATTMODE
 70
     1
  9
$TEXTSIZE
 40
0.2
  9
$TRACEWID
 40
0.05
  9
$TEXTSTYLE
  7
Standard
  9
$CLAYER
  8
0
  9
$CELTYPE
  6
ByLayer
  9
$CECOLOR
 62
   256
  9
$CELTSCALE
 40
1.0
  9
$DISPSILH
 70
     0
  9
$DIMSCALE
 40
1.0
  9
$DIMASZ
 40
0.18
  9
$DIMEXO
 40
0.0625
  9
$DIMDLI
 40
0.38
  9
$DIMRND
 40
0.0
  9
$DIMDLE
 40
0.0
  9
$DIMEXE
 40
0.18
  9
$DIMTP
 40
0.0
  9
$DIMTM
 40
0.0
  9
$DIMTXT
 40
0.18
  9
$DIMCEN
 40
0.09
  9
$DIMTSZ
 40
0.0
  9
$DIMTOL
 70
     0
  9
$DIMLIM
 70
     0
  9
$DIMTIH
 70
     1
  9
$DIMTOH
 70
     1
  9
$DIMSE1
 70
     0
  9
$DIMSE2
 70
     0
  9
$DIMTAD
 70
     0
  9
$DIMZIN
 70
     0
  9
$DIMBLK
  1

  9
$DIMASO
 70
     1
  9
$DIMSHO
 70
     1
  9
$DIMPOST
  1

  9
$DIMAPOST
  1

  9
$DIMALT
 70
     0
  9
$DIMALTD
 70
     2
  9
$DIMALTF
 40
25.4
  9
$DIMLFAC
 40
1.0
  9
$DIMTOFL
 70
     0
  9
$DIMTVP
 40
0.0
  9
$DIMTIX
 70
     0
  9
$DIMSOXD
 70
     0
  9
$DIMSAH
 70
     0
  9
$DIMBLK1
  1

  9
$DIMBLK2
  1

  9
$DIMSTYLE
  2
Standard
  9
$DIMCLRD
 70
     0
  9
$DIMCLRE
 70
     0
  9
$DIMCLRT
 70
     0
  9
$DIMTFAC
 40
1.0
  9
$DIMGAP
 40
0.09
  9
$DIMJUST
 70
     0
  9
$DIMSD1
 70
     0
  9
$DIMSD2
 70
     0
  9
$DIMTOLJ
 70
     1
  9
$DIMTZIN
 70
     0
  9
$DIMALTZ
 70
     0
  9
$DIMALTTZ
 70
     0
  9
$DIMUPT
 70
     0
  9
$DIMDEC
 70
     4
  9
$DIMTDEC
 70
     4
  9
$DIMALTU
 70
     2
  9
$DIMALTTD
 70
     2
  9
$DIMTXSTY
  7
Standard
  9
$DIMAUNIT
 70
     0
  9
$DIMADEC
 70
     0
  9
$DIMALTRND
 40
0.0
  9
$DIMAZIN
 70
     0
  9
$DIMDSEP
 70
    46
  9
$DIMATFIT
 70
     3
  9
$DIMFRAC
 70
     0
  9
$DIMLDRBLK
  1

  9
$DIMLUNIT
 70
     2
  9
$DIMLWD
 70
    -2
  9
$DIMLWE
 70
    -2
  9
$DIMTMOVE
 70
     0
  9
$LUNITS
 70
     2
  9
$LUPREC
 70
     4
  9
$SKETCHINC
 40
0.1
  9
$FILLETRAD
 40
0.0
  9
$AUNITS
 70
     0
  9
$AUPREC
 70
     0
  9
$MENU
  1
.
  9
$ELEVATION
 40
0.0
  9
$PELEVATION
 40
0.0
  9
$THICKNESS
 40
0.0
  9
$LIMCHECK
 70
     0
  9
$CHAMFERA
 40
0.0
  9
$CHAMFERB
 40
0.0
  9
$CHAMFERC
 40
0.0
  9
$CHAMFERD
 40
0.0
  9
$SKPOLY
 70
     0
  9
$TDCREATE
 40
2454531.574078901
  9
$TDUCREATE
 40
2454531.782412234
  9
$TDUPDATE
 40
2454663.895328542
  9
$TDUUPDATE
 40
2454664.103661875
  9
$TDINDWG
 40
0.0462388426
  9
$TDUSRTIMER
 40
0.0462386690
  9
$USRTIMER
 70
     1
  9
$ANGBASE
 50
0.0
  9
$ANGDIR
 70
     0
  9
$PDMODE
 70
     0
  9
$PDSIZE
 40
0.0
  9
$PLINEWID
 40
0.0
  9
$SPLFRAME
 70
     0
  9
$SPLINETYPE
 70
     6
  9
$SPLINESEGS
 70
     8
  9
$HANDSEED
  5
944
  9
$SURFTAB1
 70
     6
  9
$SURFTAB2
 70
     6
  9
$SURFTYPE
 70
     6
  9
$SURFU
 70
     6
  9
$SURFV
 70
     6
  9
$UCSBASE
  2

  9
$UCSNAME
  2

  9
$UCSORG
 10
0.0
 20
0.0
 30
0.0
  9
$UCSXDIR
 10
1.0
 20
0.0
 30
0.0
  9
$UCSYDIR
 10
0.0
 20
1.0
 30
0.0
  9
$UCSORTHOREF
  2

  9
$UCSORTHOVIEW
 70
     0
  9
$UCSORGTOP
 10
0.0
 20
0.0
 30
0.0
  9
$UCSORGBOTTOM
 10
0.0
 20
0.0
 30
0.0
  9
$UCSORGLEFT
 10
0.0
 20
0.0
 30
0.0
  9
$UCSORGRIGHT
 10
0.0
 20
0.0
 30
0.0
  9
$UCSORGFRONT
 10
0.0
 20
0.0
 30
0.0
  9
$UCSORGBACK
 10
0.0
 20
0.0
 30
0.0
  9
$PUCSBASE
  2

  9
$PUCSNAME
  2

  9
$PUCSORG
 10
0.0
 20
0.0
 30
0.0
  9
$PUCSXDIR
 10
1.0
 20
0.0
 30
0.0
  9
$PUCSYDIR
 10
0.0
 20
1.0
 30
0.0
  9
$PUCSORTHOREF
  2

  9
$PUCSORTHOVIEW
 70
     0
  9
$PUCSORGTOP
 10
0.0
 20
0.0
 30
0.0
  9
$PUCSORGBOTTOM
 10
0.0
 20
0.0
 30
0.0
  9
$PUCSORGLEFT
 10
0.0
 20
0.0
 30
0.0
  9
$PUCSORGRIGHT
 10
0.0
 20
0.0
 30
0.0
  9
$PUCSORGFRONT
 10
0.0
 20
0.0
 30
0.0
  9
$PUCSORGBACK
 10
0.0
 20
0.0
 30
0.0
  9
$USERI1
 70
     0
  9
$USERI2
 70
     0
  9
$USERI3
 70
     0
  9
$USERI4
 70
     0
  9
$USERI5
 70
     0
  9
$USERR1
 40
0.0
  9
$USERR2
 40
0.0
  9
$USERR3
 40
0.0
  9
$USERR4
 40
0.0
  9
$USERR5
 40
0.0
  9
$WORLDVIEW
 70
     1
  9
$SHADEDGE
 70
     3
  9
$SHADEDIF
 70
    70
  9
$TILEMODE
 70
     0
  9
$MAXACTVP
 70
    64
  9
$PINSBASE
 10
0.0
 20
0.0
 30
0.0
  9
$PLIMCHECK
 70
     0
  9
$PEXTMIN
 10
0.0047910398117885
 20
-0.0025329421469742
 30
-0.0000000349181948
  9
$PEXTMAX
 10
10.53465225943411
 20
8.027824191127088
 30
0.0000000814935746
  9
$PLIMMIN
 10
-0.2500002402958907
 20
-0.2499999962453767
  9
$PLIMMAX
 10
10.74999951940821
 20
8.249999763458731
  9
$UNITMODE
 70
     0
  9
$VISRETAIN
 70
     1
  9
$PLINEGEN
 70
     0
  9
$PSLTSCALE
 70
     1
  9
$TREEDEPTH
 70
  3020
  9
$CMLSTYLE
  2
Standard
  9
$CMLJUST
 70
     0
  9
$CMLSCALE
 40
1.0
  9
$PROXYGRAPHICS
 70
     1
  9
$MEASUREMENT
 70
     0
  9
$CELWEIGHT
370
    -1
  9
$ENDCAPS
280
     0
  9
$JOINSTYLE
280
     0
  9
$LWDISPLAY
290
     0
  9
$INSUNITS
 70
     1
  9
$HYPERLINKBASE
  1

  9
$STYLESHEET
  1

  9
$XEDIT
290
     1
  9
$CEPSNTYPE
380
     0
  9
$PSTYLEMODE
290
     1
  9
$FINGERPRINTGUID
  2
{ED5879C0-AA01-4708-A51A-0ECADFF4E8E2}
  9
$VERSIONGUID
  2
{E6E38145-7609-4BD6-A96E-9A8F5888F82C}
  9
$EXTNAMES
290
     1
  9
$PSVPSCALE
 40
0.0
  9
$OLESTARTUP
290
     0
  0
ENDSEC
  0
SECTION
  2
CLASSES
  0
CLASS
  1
ACDBDICTIONARYWDFLT
  2
AcDbDictionaryWithDefault
  3
ObjectDBX Classes
 90
        0
280
     0
281
     0
  0
CLASS
  1
ACDBPLACEHOLDER
  2
AcDbPlaceHolder
  3
ObjectDBX Classes
 90
        0
280
     0
281
     0
  0
CLASS
  1
LAYOUT
  2
AcDbLayout
  3
ObjectDBX Classes
 90
        0
280
     0
281
     0
  0
CLASS
  1
DICTIONARYVAR
  2
AcDbDictionaryVar
  3
ObjectDBX Classes
 90
        0
280
     0
281
     0
  0
CLASS
  1
TABLESTYLE
  2
AcDbTableStyle
  3
ObjectDBX Classes
 90
     2047
280
     0
281
     0
  0
CLASS
  1
SORTENTSTABLE
  2
AcDbSortentsTable
  3
ObjectDBX Classes
 90
        0
280
     0
281
     0
  0
CLASS
  1
ACAD_EVALUATION_GRAPH
  2
AcDbEvalGraph
  3
ObjectDBX Classes
 90
    33921
280
     0
281
     0
  0
CLASS
  1
ACAECUSTOBJ
  2
AcAeEditorObj
  3
AcAeEditorObj
 90
    33792
280
     0
281
     0
  0
ENDSEC
  0
SECTION
  2
TABLES
  0
TABLE
  2
VPORT
  5
8
330
0
100
AcDbSymbolTable
 70
     1
  0
VPORT
  5
912
330
8
100
AcDbSymbolTableRecord
100
AcDbViewportTableRecord
  2
*Active
 70
     0
 10
0.0
 20
0.0
 11
1.0
 21
1.0
 12
119.7868359781524
 22
62.44238851273789
 13
0.0
 23
0.0
 14
0.5
 24
0.5
 15
0.5
 25
0.5
 16
0.0
 26
0.0
 36
1.0
 17
0.0
 27
0.0
 37
0.0
 40
103.7876489275018
 41
1.658038147138964
 42
50.0
 43
0.0
 44
0.0
 50
0.0
 51
0.0
 71
     0
 72
  1000
 73
     1
 74
     3
 75
     0
 76
     0
 77
     0
 78
     0
281
     0
 65
     1
110
0.0
120
0.0
130
0.0
111
1.0
121
0.0
131
0.0
112
0.0
122
1.0
132
0.0
 79
     0
146
0.0
  0
ENDTAB
  0
TABLE
  2
LTYPE
  5
5
330
0
100
AcDbSymbolTable
 70
     3
  0
LTYPE
  5
14
330
5
100
AcDbSymbolTableRecord
100
AcDbLinetypeTableRecord
  2
ByBlock
 70
     0
  3

 72
    65
 73
     0
 40
0.0
  0
LTYPE
  5
15
330
5
100
AcDbSymbolTableRecord
100
AcDbLinetypeTableRecord
  2
ByLayer
 70
     0
  3

 72
    65
 73
     0
 40
0.0
  0
LTYPE
  5
16
330
5
100
AcDbSymbolTableRecord
100
AcDbLinetypeTableRecord
  2
Continuous
 70
     0
  3
Solid line
 72
    65
 73
     0
 40
0.0
  0
LTYPE
  5
90
330
5
100
AcDbSymbolTableRecord
100
AcDbLinetypeTableRecord
  2
CENTER
 70
     0
  3
Center ____ _ ____ _ ____ _ ____ _ ____ _ ____
 72
    65
 73
     4
 40
2.0
 49
1.25
 74
     0
 49
-0.25
 74
     0
 49
0.25
 74
     0
 49
-0.25
 74
     0
  0
LTYPE
  5
91
330
5
100
AcDbSymbolTableRecord
100
AcDbLinetypeTableRecord
  2
HIDDEN
 70
     0
  3
Hidden __ __ __ __ __ __ __ __ __ __ __ __ __ _
 72
    65
 73
     2
 40
0.375
 49
0.25
 74
     0
 49
-0.125
 74
     0
  0
ENDTAB
  0
TABLE
  2
LAYER
  5
2
102
{ACAD_XDICTIONARY
360
93
102
}
330
0
100
AcDbSymbolTable
 70
    12
  0
LAYER
  5
10
330
2
100
AcDbSymbolTableRecord
100
AcDbLayerTableRecord
  2
0
 70
     0
 62
     7
  6
Continuous
370
    -3
390
F
  0
LAYER
  5
8B
330
2
100
AcDbSymbolTableRecord
100
AcDbLayerTableRecord
  2
dim
 70
     0
 62
     7
  6
Continuous
370
    -3
390
F
1001
AcAecLayerStandard
1000

1000

  0
LAYER
  5
8D
330
2
100
AcDbSymbolTableRecord
100
AcDbLayerTableRecord
  2
center
 70
     0
 62
     7
  6
CENTER
370
    -3
390
F
1001
AcAecLayerStandard
1000

1000

  0
LAYER
  5
92
330
2
100
AcDbSymbolTableRecord
100
AcDbLayerTableRecord
  2
hidden
 70
     0
 62
     7
  6
HIDDEN
370
    -3
390
F
1001
AcAecLayerStandard
1000

1000

  0
LAYER
  5
96
330
2
100
AcDbSymbolTableRecord
100
AcDbLayerTableRecord
  2
text
 70
     0
 62
     7
  6
Continuous
370
    -3
390
F
1001
AcAecLayerStandard
1000

1000

  0
LAYER
  5
137
330
2
100
AcDbSymbolTableRecord
100
AcDbLayerTableRecord
  2
TTLBLK
 70
     0
 62
     7
  6
Continuous
370
    -3
390
F
  0
LAYER
  5
138
330
2
100
AcDbSymbolTableRecord
100
AcDbLayerTableRecord
  2
BOM
 70
     0
 62
     7
  6
Continuous
370
    -3
390
F
  0
LAYER
  5
1A0
330
2
100
AcDbSymbolTableRecord
100
AcDbLayerTableRecord
  2
VP
 70
     4
 62
     7
  6
HIDDEN
370
    -3
390
F
1001
AcAecLayerStandard
1000

1000

  0
LAYER
  5
1C9
330
2
100
AcDbSymbolTableRecord
100
AcDbLayerTableRecord
  2
title
 70
     0
 62
     7
  6
Continuous
370
    -3
390
F
  0
LAYER
  5
43C
330
2
100
AcDbSymbolTableRecord
100
AcDbLayerTableRecord
  2
PV
 70
     0
 62
     3
  6
Continuous
370
    -3
390
F
  0
LAYER
  5
655
330
2
100
AcDbSymbolTableRecord
100
AcDbLayerTableRecord
  2
DEFPOINTS
 70
     0
 62
     7
  6
Continuous
290
     0
370
    -3
390
F
  0
LAYER
  5
88B
330
2
100
AcDbSymbolTableRecord
100
AcDbLayerTableRecord
  2
99
 70
     0
 62
     7
  6
Continuous
370
    -3
390
F
  0
ENDTAB
  0
TABLE
  2
STYLE
  5
3
330
0
100
AcDbSymbolTable
 70
     9
  0
STYLE
  5
11
330
3
100
AcDbSymbolTableRecord
100
AcDbTextStyleTableRecord
  2
Standard
 70
     0
 40
0.0
 41
1.0
 50
0.0
 71
     0
 42
0.2
  3
txt
  4

  0
STYLE
  5
8F
330
3
100
AcDbSymbolTableRecord
100
AcDbTextStyleTableRecord
  2

 70
     1
 40
0.0
 41
1.0
 50
0.0
 71
     0
 42
0.2
  3
ltypeshp.shx
  4

  0
STYLE
  5
139
330
3
100
AcDbSymbolTableRecord
100
AcDbTextStyleTableRecord
  2
ROMANS
 70
     0
 40
0.0
 41
1.0
 50
0.0
 71
     0
 42
0.07
  3
romans.shx
  4

  0
STYLE
  5
13A
330
3
100
AcDbSymbolTableRecord
100
AcDbTextStyleTableRecord
  2
STD
 70
     0
 40
0.1
 41
0.88
 50
0.0
 71
     0
 42
0.1
  3
simplex.shx
  4

  0
STYLE
  5
13B
330
3
100
AcDbSymbolTableRecord
100
AcDbTextStyleTableRecord
  2
ROMANTIC
 70
     0
 40
0.0
 41
1.0
 50
0.0
 71
     0
 42
0.1
  3
romab___.ttf
  4

1001
ACAD
1000
Romantic
1071
 33554946
  0
STYLE
  5
13C
330
3
100
AcDbSymbolTableRecord
100
AcDbTextStyleTableRecord
  2
ADESK1
 70
     0
 40
0.0
 41
1.0
 50
0.0
 71
     0
 42
0.4106500343966673
  3
romans
  4

  0
STYLE
  5
13D
330
3
100
AcDbSymbolTableRecord
100
AcDbTextStyleTableRecord
  2
BOLD
 70
     0
 40
0.0
 41
1.0
 50
0.0
 71
     0
 42
0.09375
  3
txt.shx
  4

  0
STYLE
  5
13E
330
3
100
AcDbSymbolTableRecord
100
AcDbTextStyleTableRecord
  2
MONOTXT
 70
     0
 40
0.0
 41
1.0
 50
0.0
 71
     0
 42
0.125
  3
MONOTXT
  4

  0
ENDTAB
  0
TABLE
  2
VIEW
  5
6
330
0
100
AcDbSymbolTable
 70
     0
  0
ENDTAB
  0
TABLE
  2
UCS
  5
7
330
0
100
AcDbSymbolTable
 70
     0
  0
ENDTAB
  0
TABLE
  2
APPID
  5
9
330
0
100
AcDbSymbolTable
 70
     5
  0
APPID
  5
12
330
9
100
AcDbSymbolTableRecord
100
AcDbRegAppTableRecord
  2
ACAD
 70
     0
  0
APPID
  5
8C
330
9
100
AcDbSymbolTableRecord
100
AcDbRegAppTableRecord
  2
AcAecLayerStandard
 70
     0
  0
APPID
  5
9D
330
9
100
AcDbSymbolTableRecord
100
AcDbRegAppTableRecord
  2
ACAD_PSEXT
 70
     0
  0
APPID
  5
3F7
330
9
100
AcDbSymbolTableRecord
100
AcDbRegAppTableRecord
  2
ACAD_EXEMPT_FROM_CAD_STANDARDS
 70
     0
  0
APPID
  5
62F
330
9
100
AcDbSymbolTableRecord
100
AcDbRegAppTableRecord
  2
ACAUTHENVIRON
 70
     0
  0
ENDTAB
  0
TABLE
  2
DIMSTYLE
  5
A
330
0
100
AcDbSymbolTable
 70
     2
100
AcDbDimStyleTable
 71
     1
340
27
  0
DIMSTYLE
105
27
102
{ACAD_REACTORS
330
761
102
}
330
A
100
AcDbSymbolTableRecord
100
AcDbDimStyleTableRecord
  2
Standard
 70
     0
340
11
  0
ENDTAB
  0
TABLE
  2
BLOCK_RECORD
  5
1
330
0
100
AcDbSymbolTable
 70
     5
  0
BLOCK_RECORD
  5
1F
330
1
100
AcDbSymbolTableRecord
100
AcDbBlockTableRecord
  2
*Model_Space
340
22
  0
BLOCK_RECORD
  5
58
102
{ACAD_XDICTIONARY
360
57B
102
}
330
1
100
AcDbSymbolTableRecord
100
AcDbBlockTableRecord
  2
*Paper_Space
340
59
  0
BLOCK_RECORD
  5
A0
330
1
100
AcDbSymbolTableRecord
100
AcDbBlockTableRecord
  2
BOM DETAIL HEADER
340
0
1001
ACAD
1000
DesignCenter Data
1002
{
1070
     1
1070
     1
1002
}
  0
BLOCK_RECORD
  5
B3
330
1
100
AcDbSymbolTableRecord
100
AcDbBlockTableRecord
  2
TITLEBLOCKCHANCE-A
340
0
1001
ACAD
1000
DesignCenter Data
1002
{
1070
     1
1070
     1
1002
}
  0
BLOCK_RECORD
  5
599
330
1
100
AcDbSymbolTableRecord
100
AcDbBlockTableRecord
  2
TITLE
340
0
310
2800000020000000200000000100080000000000000400000000000000000000000000000000000000000000000080000080000000808000800000008000800080800000C0C0C000C0DCC000F0CAA6000020400000206000002080000020A0000020C0000020E00000400000004020000040400000406000004080000040A0
310
000040C0000040E00000600000006020000060400000606000006080000060A0000060C0000060E00000800000008020000080400000806000008080000080A0000080C0000080E00000A0000000A0200000A0400000A0600000A0800000A0A00000A0C00000A0E00000C0000000C0200000C0400000C0600000C0800000C0
310
A00000C0C00000C0E00000E0000000E0200000E0400000E0600000E0800000E0A00000E0C00000E0E00040000000400020004000400040006000400080004000A0004000C0004000E00040200000402020004020400040206000402080004020A0004020C0004020E000404000004040200040404000404060004040800040
310
40A0004040C0004040E00040600000406020004060400040606000406080004060A0004060C0004060E00040800000408020004080400040806000408080004080A0004080C0004080E00040A0000040A0200040A0400040A0600040A0800040A0A00040A0C00040A0E00040C0000040C0200040C0400040C0600040C08000
310
40C0A00040C0C00040C0E00040E0000040E0200040E0400040E0600040E0800040E0A00040E0C00040E0E00080000000800020008000400080006000800080008000A0008000C0008000E00080200000802020008020400080206000802080008020A0008020C0008020E00080400000804020008040400080406000804080
310
008040A0008040C0008040E00080600000806020008060400080606000806080008060A0008060C0008060E00080800000808020008080400080806000808080008080A0008080C0008080E00080A0000080A0200080A0400080A0600080A0800080A0A00080A0C00080A0E00080C0000080C0200080C0400080C0600080C0
310
800080C0A00080C0C00080C0E00080E0000080E0200080E0400080E0600080E0800080E0A00080E0C00080E0E000C0000000C0002000C0004000C0006000C0008000C000A000C000C000C000E000C0200000C0202000C0204000C0206000C0208000C020A000C020C000C020E000C0400000C0402000C0404000C0406000C0
310
408000C040A000C040C000C040E000C0600000C0602000C0604000C0606000C0608000C060A000C060C000C060E000C0800000C0802000C0804000C0806000C0808000C080A000C080C000C080E000C0A00000C0A02000C0A04000C0A06000C0A08000C0A0A000C0A0C000C0A0E000C0C00000C0C02000C0C04000C0C06000
310
C0C08000C0C0A000F0FBFF00A4A0A000808080000000FF0000FF000000FFFF00FF000000FF00FF00FFFF0000FFFFFF00FFFFFFFFFFFFFFFFFFFFFFFFFFFFFFFFFFFFFFFFFFFFFFFFFFFFFFFFFFFFFFFFFFFFFFFFFFFFFFFFFFFFFFFFFFFFFFFFFFFFFFFFFFFFFFFFFFFFFFFFFFFFFFFFFFFFFFFFFFFFFFFFFFFFFFFFFFFFFF
310
FFFFFFFFFFFFFFFFFFFFFFFFFFFFFFFFFFFFFFFFFFFFFFFFFFFFFFFFFFFFFFFFFFFFFFFFFFFFFFFFFFFFFFFFFFFFFFFFFFFFFFFFFFFFFFFFFFFFFFFFFFFFFFFFFFFFFFFFFFFFFFFFFFFFFFFFFFFFFFFFFFFF000000000000000000000000000000000000000000000000000000000000FFFF00FFFFFFFFFFFFFFFFFFFFFFFF
310
FFFFFFFFFF000000000000000000000000FFFF00FFFFFFFFFFFFFFFFFFFFFFFFFFFFFFFFFF000000000000000000000000FFFF00FFFFFFFFFFFFFFFFFFFFFFFFFFFFFFFFFF000000000000000000000000FFFF00FFFFFFFFFFFFFFFFFFFFFFFFFFFFFFFFFFFFFFFFFFFFFFFFFFFFFFFF00FFFF00FFFFFFFFFFFFFFFFFFFFFF
310
FFFFFFFFFFFFFFFFFFFFFFFFFFFFFFFFFF00FFFF00FFFFFFFFFFFFFFFFFFFFFFFFFFFFFFFFFFFFFFFFFFFFFFFFFFFFFFFF00FFFF00FFFFFFFFFFFFFFFFFFFFFFFFFFFFFFFFFFFFFFFFFFFFFFFFFFFFFFFF00FFFF00FFFFFFFFFFFFFFFFFFFFFFFFFFFFFFFFFFFFFFFFFFFFFFFFFFFFFFFF00FFFF00FFFFFFFFFFFFFFFFFFFF
310
FFFFFFFFFFFFFFFFFFFFFFFFFFFFFFFFFFFF00FFFF00FFFFFFFFFFFFFFFFFFFFFFFFFFFFFFFFFFFFFFFFFFFFFFFFFFFFFFFF00FFFF00FFFFFFFFFFFFFFFFFFFFFFFFFFFFFFFFFFFFFFFFFFFFFFFFFFFFFFFF00FFFF00FFFFFFFFFFFFFFFFFFFFFFFFFFFFFFFFFFFFFFFFFFFFFFFFFFFFFFFF00FFFF00FFFFFFFFFFFFFFFFFF
310
FFFFFFFFFFFFFFFFFFFFFFFFFFFFFFFFFFFFFF00FFFF00FFFFFFFFFFFFFFFFFFFFFFFFFFFFFFFFFFFFFFFFFFFFFFFFFFFFFFFF00FFFF00FFFFFFFFFFFFFFFFFFFFFFFFFFFFFFFFFFFFFFFFFFFFFFFFFFFFFFFF00FFFF00FFFFFFFFFFFFFFFFFFFFFFFFFFFFFFFFFFFFFFFFFFFFFFFFFFFFFFFF00FFFF00FFFFFFFFFFFFFFFF
310
FFFFFFFFFFFFFFFFFFFFFFFFFFFFFFFFFFFFFFFF00FFFF00FFFFFFFFFFFFFFFFFFFFFFFFFFFFFFFFFFFFFFFFFFFFFFFFFFFFFFFF00FFFF00FFFFFFFFFFFFFFFFFFFFFFFFFFFFFFFFFFFFFFFFFFFFFFFFFFFFFFFF00FFFF00FFFFFFFFFFFFFFFFFFFFFFFFFFFFFFFFFFFFFFFFFFFFFFFFFFFFFFFF00FFFF0000000000000000
310
00000000000000000000000000000000000000000000FFFFFFFFFFFFFFFFFFFFFFFFFFFFFFFFFFFFFFFFFFFFFFFFFFFFFFFFFFFFFFFFFFFFFFFFFFFFFFFFFFFFFFFFFFFFFFFFFFFFFFFFFFFFFFFFFFFFFFFFFFFFFFFFFFFFFFFFFFFFFFFFFFFFFFFFFFFFFFFFFFFFFFFFFFFFFFFFFFFFFFFFFFFFFFFFFFFFFFFFFFFFFFFFFF
310
FFFFFFFFFFFFFFFFFFFFFFFFFFFFFFFFFFFFFFFFFFFFFFFFFFFFFFFFFFFFFFFFFFFFFFFFFFFFFFFFFFFFFFFFFFFFFFFFFFFFFFFFFFFFFFFF
102
{BLKREFS
331
5DF
102
}
1001
ACAD
1000
DesignCenter Data
1002
{
1070
     1
1070
     1
1002
}
  0
BLOCK_RECORD
  5
866
330
1
100
AcDbSymbolTableRecord
100
AcDbBlockTableRecord
  2
*D3
340
0
  0
ENDTAB
  0
ENDSEC
  0
SECTION
  2
BLOCKS
  0
BLOCK
  5
20
330
1F
100
AcDbEntity
  8
0
100
AcDbBlockBegin
  2
*Model_Space
 70
     0
 10
0.0
 20
0.0
 30
0.0
  3
*Model_Space
  1

  0
ENDBLK
  5
21
330
1F
100
AcDbEntity
  8
0
100
AcDbBlockEnd
  0
BLOCK
  5
5A
330
58
100
AcDbEntity
 67
     1
  8
0
100
AcDbBlockBegin
  2
*Paper_Space
 70
     0
 10
0.0
 20
0.0
 30
0.0
  3
*Paper_Space
  1

  0
ENDBLK
  5
5B
330
58
100
AcDbEntity
 67
     1
  8
0
100
AcDbBlockEnd
  0
BLOCK
  5
A1
330
A0
100
AcDbEntity
  8
0
100
AcDbBlockBegin
  2
BOM DETAIL HEADER
 70
     2
 10
0.0
 20
0.0
 30
0.0
  3
BOM DETAIL HEADER
  1

  0
LINE
  5
A2
330
A0
100
AcDbEntity
  8
BOM
100
AcDbLine
 10
0.0
 20
0.0
 30
0.0
 11
6.344437361778723
 21
0.0
 31
0.0
  0
LINE
  5
A3
330
A0
100
AcDbEntity
  8
BOM
100
AcDbLine
 10
1.100000418933348
 20
0.5
 30
0.0
 11
1.100000418933348
 21
0.0
 31
0.0
  0
LINE
  5
A4
330
A0
100
AcDbEntity
  8
BOM
100
AcDbLine
 10
1.899999999999998
 20
0.5
 30
0.0
 11
1.899999999999998
 21
0.0
 31
0.0
  0
LINE
  5
A5
330
A0
100
AcDbEntity
  8
BOM
100
AcDbLine
 10
0.0
 20
0.5
 30
0.0
 11
0.0
 21
0.0
 31
0.0
  0
LINE
  5
A6
330
A0
100
AcDbEntity
  8
BOM
100
AcDbLine
 10
0.5
 20
0.5
 30
0.0
 11
0.5
 21
0.0
 31
0.0
  0
LINE
  5
A7
330
A0
100
AcDbEntity
  8
BOM
100
AcDbLine
 10
0.0
 20
0.25
 30
0.0
 11
6.344437361778723
 21
0.25
 31
0.0
  0
LINE
  5
A8
330
A0
100
AcDbEntity
  8
BOM
100
AcDbLine
 10
0.0
 20
0.5
 30
0.0
 11
6.344437361778723
 21
0.5
 31
0.0
  0
LINE
  5
A9
330
A0
100
AcDbEntity
  8
BOM
100
AcDbLine
 10
6.344437361778723
 20
0.5
 30
0.0
 11
6.344437361778723
 21
0.0
 31
0.0
  0
ATTDEF
  5
AA
330
A0
100
AcDbEntity
  8
BOM
  6
CENTER
100
AcDbText
 10
0.0597182648069676
 20
0.3146577199271707
 30
0.0
 40
0.1
  1
ITEM
  7
ROMANTIC
100
AcDbAttributeDefinition
  3

  2
ITEM
 70
     2
  0
ATTDEF
  5
AB
330
A0
100
AcDbEntity
  8
BOM
  6
CENTER
100
AcDbText
 10
0.6433450184640961
 20
0.3146577199271707
 30
0.0
 40
0.1
  1
QTY
  7
ROMANTIC
100
AcDbAttributeDefinition
  3

  2
QTY
 70
     2
  0
ATTDEF
  5
AC
330
A0
100
AcDbEntity
  8
BOM
  6
CENTER
100
AcDbText
 10
1.204955743543226
 20
0.3232519563652723
 30
0.0
 40
0.1
  1
PART NO.
  7
ROMANTIC
100
AcDbAttributeDefinition
  3

  2
PARTNO.
 70
     2
  0
ATTDEF
  5
AD
330
A0
100
AcDbEntity
  8
BOM
  6
CENTER
100
AcDbText
 10
3.679634992049805
 20
0.31895484287854
 30
0.0
 40
0.1
  1
DESCRIPTION
  7
ROMANTIC
100
AcDbAttributeDefinition
  3

  2
DESCRIPTION
 70
     2
  0
ATTDEF
  5
AE
330
A0
100
AcDbEntity
  8
BOM
  6
CENTER
100
AcDbText
 10
0.25
 20
0.0798585246700583
 30
0.0
 40
0.1
  1

 41
0.88
  7
STD
 72
     1
 11
0.25
 21
0.0798585246700583
 31
0.0
100
AcDbAttributeDefinition
  3
ITEM
  2
BUBBLE#
 70
     0
  0
ATTDEF
  5
AF
330
A0
100
AcDbEntity
  8
BOM
  6
CENTER
100
AcDbText
 10
0.800000209466674
 20
0.0798585246700583
 30
0.0
 40
0.1
  1

 41
0.88
  7
STD
 72
     1
 11
0.800000209466674
 21
0.0798585246700583
 31
0.0
100
AcDbAttributeDefinition
  3
QTY
  2
QTY
 70
     0
  0
ATTDEF
  5
B0
330
A0
100
AcDbEntity
  8
BOM
  6
CENTER
100
AcDbText
 10
4.122218680889361
 20
0.0798585246700583
 30
0.0
 40
0.1
  1

 41
0.88
  7
STD
 72
     1
 11
4.122218680889361
 21
0.0798585246700583
 31
0.0
100
AcDbAttributeDefinition
  3
DESCRIPTION/S
  2
DESCRIPTION
 70
     0
  0
ATTDEF
  5
B1
330
A0
100
AcDbEntity
  8
BOM
  6
CENTER
100
AcDbText
 10
1.500000209466676
 20
0.0798585246700583
 30
0.0
 40
0.1
  1

 41
0.88
  7
STD
 72
     1
 11
1.500000209466676
 21
0.0798585246700583
 31
0.0
100
AcDbAttributeDefinition
  3
PART#
  2
PARTNO.
 70
     0
  0
ENDBLK
  5
B2
330
A0
100
AcDbEntity
  8
0
100
AcDbBlockEnd
  0
BLOCK
  5
B4
330
B3
100
AcDbEntity
  8
0
100
AcDbBlockBegin
  2
TITLEBLOCKCHANCE-A
 70
     2
 10
0.0
 20
0.0
 30
0.0
  3
TITLEBLOCKCHANCE-A
  1

  0
LWPOLYLINE
  5
B5
330
B3
100
AcDbEntity
  8
TTLBLK
100
AcDbPolyline
 90
        2
 70
     0
 43
0.015
 10
3.265441173625
 20
0.0301470586250002
 10
3.265441173625
 20
1.162499998875
  0
LWPOLYLINE
  5
B6
330
B3
100
AcDbEntity
  8
TTLBLK
100
AcDbPolyline
 90
        2
 70
     0
 43
0.015
 10
3.750735290874999
 20
0.8389705873749997
 10
3.750735290874999
 20
1.162499998875
  0
LWPOLYLINE
  5
B7
330
B3
100
AcDbEntity
  8
TTLBLK
100
AcDbPolyline
 90
        2
 70
     0
 43
0.015
 10
4.397794113874999
 20
0.8389705873749997
 10
4.397794113874999
 20
1.162499998875
  0
LWPOLYLINE
  5
B8
330
B3
100
AcDbEntity
  8
TTLBLK
100
AcDbPolyline
 90
        2
 70
     0
 43
0.015
 10
5.206617642624999
 20
0.8389705873749996
 10
5.206617642624999
 20
1.162499998875
  0
LWPOLYLINE
  5
B9
330
B3
100
AcDbEntity
  8
TTLBLK
100
AcDbPolyline
 90
        2
 70
     0
 43
0.015
 10
5.691911759875003
 20
0.838970587374998
 10
5.691911759875003
 20
0.030147058625
  0
LWPOLYLINE
  5
BA
330
B3
100
AcDbEntity
  8
TTLBLK
100
AcDbPolyline
 90
        2
 70
     0
 43
0.015
 10
3.265441173625
 20
0.8389705873749997
 10
6.500735288624999
 20
0.8389705873749996
  0
LWPOLYLINE
  5
BB
330
B3
100
AcDbEntity
  8
TTLBLK
100
AcDbPolyline
 90
        2
 70
     0
 43
0.015
 10
6.500735288624999
 20
1.000735293125
 10
3.265441173625
 20
1.000735293125
  0
LWPOLYLINE
  5
BC
330
B3
100
AcDbEntity
  8
TTLBLK
100
AcDbPolyline
 90
        2
 70
     0
 43
0.015
 10
3.265441173625
 20
1.162499998875
 10
6.500735288624999
 20
1.162499998875
  0
LWPOLYLINE
  5
BD
330
B3
100
AcDbEntity
  8
TTLBLK
100
AcDbPolyline
 90
        2
 70
     0
 43
0.015
 10
6.500735288624999
 20
0.030147058625
 10
6.500735288624999
 20
1.162499998874999
  0
LWPOLYLINE
  5
BE
330
B3
100
AcDbEntity
  8
TTLBLK
100
AcDbPolyline
 90
        2
 70
     0
 43
0.015
 10
6.500735288624999
 20
0.7580882344999997
 10
7.794852934625
 20
0.7580882344999999
  0
LWPOLYLINE
  5
BF
330
B3
100
AcDbEntity
  8
TTLBLK
100
AcDbPolyline
 90
        2
 70
     0
 43
0.015
 10
8.441911757624998
 20
0.030147058625
 10
8.441911757624998
 20
0.1919117643749999
  0
LWPOLYLINE
  5
C0
330
B3
100
AcDbEntity
  8
TTLBLK
100
AcDbPolyline
 90
        2
 70
     0
 43
0.015
 10
9.088970580624998
 20
0.030147058625
 10
9.088970580624998
 20
0.1919117643749999
  0
LWPOLYLINE
  5
C1
330
B3
100
AcDbEntity
  8
TTLBLK
100
AcDbPolyline
 90
        2
 70
     0
 43
0.015
 10
9.816911756499999
 20
0.030147058625
 10
9.816911756499999
 20
0.1919117643749999
  0
LWPOLYLINE
  5
C2
330
B3
100
AcDbEntity
  8
TTLBLK
100
AcDbPolyline
 90
        2
 70
     0
 43
0.015
 10
10.298970579635
 20
0.1919117643749999
 10
10.298970579635
 20
0.4377941171149999
  0
LWPOLYLINE
  5
C3
330
B3
100
AcDbEntity
  8
TTLBLK
100
AcDbPolyline
 90
        2
 70
     0
 43
0.015
 10
8.040735287364997
 20
0.1919117643749999
 10
8.040735287364997
 20
0.4377941171149999
  0
LWPOLYLINE
  5
C4
330
B3
100
AcDbEntity
  8
TTLBLK
100
AcDbPolyline
 90
        2
 70
     0
 43
0.015
 10
8.765441169124999
 20
0.1919117643749999
 10
8.765441169124999
 20
0.4377941171149999
  0
LWPOLYLINE
  5
C5
330
B3
100
AcDbEntity
  8
TTLBLK
100
AcDbPolyline
 90
        2
 70
     0
 43
0.015
 10
7.794852934625
 20
0.1919117643749999
 10
10.544852932375
 20
0.1919117643749999
  0
LWPOLYLINE
  5
C6
330
B3
100
AcDbEntity
  8
TTLBLK
100
AcDbPolyline
 90
        2
 70
     0
 43
0.015
 10
7.794852934625
 20
0.030147058625
 10
7.794852934625
 20
1.162499998874999
  0
LWPOLYLINE
  5
C7
330
B3
100
AcDbEntity
  8
TTLBLK
100
AcDbPolyline
 90
        2
 70
     0
 43
0.015
 10
7.794852934625
 20
0.4377941171149999
 10
10.544852932375
 20
0.4377941171149999
  0
LWPOLYLINE
  5
C8
330
B3
100
AcDbEntity
  8
TTLBLK
100
AcDbPolyline
 90
        2
 70
     0
 43
0.015
 10
7.794852934625
 20
0.8389705873749997
 10
10.544852932375
 20
0.8389705873749997
  0
LWPOLYLINE
  5
C9
330
B3
100
AcDbEntity
  8
TTLBLK
100
AcDbPolyline
 90
        2
 70
     0
 43
0.015
 10
6.500735288624999
 20
1.162499998875
 10
10.544852932375
 20
1.162499998874999
  0
LWPOLYLINE
  5
CA
330
B3
100
AcDbEntity
  8
TTLBLK
100
AcDbPolyline
 90
        6
 70
     1
 43
0.015
 10
10.544852932375
 20
0.030147058625
 10
10.544852932375
 20
6.662499994374998
 10
10.544852932375
 20
8.04485293418516
 10
0.030147058625
 20
8.04485293418516
 10
0.030147058625
 20
6.662499994374998
 10
0.030147058625
 20
0.030147058625
  0
ATTDEF
  5
CB
330
B3
100
AcDbEntity
  8
TTLBLK
100
AcDbText
 10
4.15284936274677
 20
0.0736693943180099
 30
0.0
 40
0.03882352938
  1
--
  7
BOLD
100
AcDbAttributeDefinition
  3
DISPOSITION OF MATERIAL
  2
DISP
 70
     0
  0
ATTDEF
  5
CC
330
B3
100
AcDbEntity
  8
TTLBLK
100
AcDbText
 10
4.197501608166997
 20
0.1885680564826323
 30
0.0
 40
0.03882352938
  1
--
  7
BOLD
100
AcDbAttributeDefinition
  3
RESON FOR CHANGE
  2
REASON
 70
     0
  0
ATTDEF
  5
CD
330
B3
100
AcDbEntity
  8
TTLBLK
100
AcDbText
 10
3.299495561683705
 20
0.3034667186472547
 30
0.0
 40
0.03882352938
  1
--
  7
BOLD
100
AcDbAttributeDefinition
  3
DESC OF DWG LINE 4
  2
DESC4
 70
     0
  0
ATTDEF
  5
CE
330
B3
100
AcDbEntity
  8
TTLBLK
100
AcDbText
 10
3.299495561683705
 20
0.4183653808118772
 30
0.0
 40
0.03882352938
  1
--
  7
BOLD
100
AcDbAttributeDefinition
  3
DESC OF DWG LINE 3
  2
DESC3
 70
     0
  0
ATTDEF
  5
CF
330
B3
100
AcDbEntity
  8
TTLBLK
100
AcDbText
 10
3.299495561683705
 20
0.5332640429764996
 30
0.0
 40
0.03882352938
  1
--
  7
BOLD
100
AcDbAttributeDefinition
  3
DESC OF DWG LINE 2
  2
DESC2
 70
     0
  0
ATTDEF
  5
D0
330
B3
100
AcDbEntity
  8
TTLBLK
100
AcDbText
 10
3.299495561683705
 20
0.648162705141122
 30
0.0
 40
0.03882352938
  1
--
  7
BOLD
100
AcDbAttributeDefinition
  3
DESC OF DWG LINE 1
  2
DESC1
 70
     0
  0
ATTDEF
  5
D1
330
B3
100
AcDbEntity
  8
TTLBLK
100
AcDbText
 10
5.810539210758332
 20
1.034502118700097
 30
0.0
 40
0.05176470584
  1
--
  7
BOLD
 72
     4
 11
5.853676465624999
 21
1.060384471620097
 31
0.0
100
AcDbAttributeDefinition
  3
RESP ENG
  2
RESP
 70
     0
  0
ATTDEF
  5
D2
330
B3
100
AcDbEntity
  8
TTLBLK
100
AcDbText
 10
4.759068623383332
 20
1.034502118700097
 30
0.0
 40
0.05176470584
  1
--
  7
BOLD
 72
     4
 11
4.802205878249999
 21
1.060384471620097
 31
0.0
100
AcDbAttributeDefinition
  3
CHG BY
  2
CHG
 70
     0
  0
ATTDEF
  5
D3
330
B3
100
AcDbEntity
  8
TTLBLK
100
AcDbText
 10
4.031127447508332
 20
1.034502118700097
 30
0.0
 40
0.05176470584
  1
--
  7
BOLD
 72
     4
 11
4.074264702374999
 21
1.060384471620097
 31
0.0
100
AcDbAttributeDefinition
  3
REV DATE
  2
DATE
 70
     0
  0
ATTDEF
  5
D4
330
B3
100
AcDbEntity
  8
TTLBLK
100
AcDbText
 10
3.464950977383333
 20
1.034502118700097
 30
0.0
 40
0.05176470584
  1
--
  7
BOLD
 72
     4
 11
3.508088232249999
 21
1.060384471620097
 31
0.0
100
AcDbAttributeDefinition
  3
EC #
  2
EC
 70
     0
  0
TEXT
  5
D5
330
B3
100
AcDbEntity
  8
TTLBLK
100
AcDbText
 10
4.655539211703333
 20
0.8907352932149999
 30
0.0
 40
0.05176470584
  1
CHG BY
  7
MONOTXT
 72
     1
 11
4.802205878249999
 21
0.8907352932149999
 31
0.0
100
AcDbText
  0
TEXT
  5
D6
330
B3
100
AcDbEntity
  8
TTLBLK
100
AcDbText
 10
5.655245093238332
 20
0.8907352932149999
 30
0.0
 40
0.05176470584
  1
RESP ENG
  7
MONOTXT
 72
     1
 11
5.853676465624999
 21
0.8907352932149999
 31
0.0
100
AcDbText
  0
TEXT
  5
D7
330
B3
100
AcDbEntity
  8
TTLBLK
100
AcDbText
 10
3.979362741668332
 20
0.8907352932149999
 30
0.0
 40
0.05176470584
  1
DATE
  7
MONOTXT
 72
     1
 11
4.074264702374999
 21
0.8907352932149999
 31
0.0
100
AcDbText
  0
TEXT
  5
D8
330
B3
100
AcDbEntity
  8
TTLBLK
100
AcDbText
 10
3.413186271543333
 20
0.8907352932149999
 30
0.0
 40
0.05176470584
  1
EC #
  7
MONOTXT
 72
     1
 11
3.508088232249999
 21
0.8907352932149999
 31
0.0
100
AcDbText
  0
TEXT
  5
D9
330
B3
100
AcDbEntity
  8
TTLBLK
100
AcDbText
 10
3.299495561683705
 20
0.1885680564826323
 30
0.0
 40
0.03882352938
  1
REASON (S) FOR CHANGE: 
  7
MONOTXT
100
AcDbText
  0
TEXT
  5
DA
330
B3
100
AcDbEntity
  8
TTLBLK
100
AcDbText
 10
3.299495561683705
 20
0.0736693943180099
 30
0.0
 40
0.03882352938
  1
DISPOSITION OF MAT'L: 
  7
MONOTXT
100
AcDbText
  0
TEXT
  5
DB
330
B3
100
AcDbEntity
  8
TTLBLK
100
AcDbText
 10
3.299495561683705
 20
0.737528362301522
 30
0.0
 40
0.03882352938
  1
DESC OF DWG: 
  7
MONOTXT
100
AcDbText
  0
TEXT
  5
DC
330
B3
100
AcDbEntity
  8
TTLBLK
100
AcDbText
 10
6.516952950641788
 20
0.8777521417024495
 30
0.0
 40
0.0379136029101563
  1
.X  %%P  .060 FRAC %%P1/16  ANGLES %%P2%%D
100
AcDbText
  0
TEXT
  5
DD
330
B3
100
AcDbEntity
  8
TTLBLK
100
AcDbText
 10
6.516952950641788
 20
0.8261896417446369
 30
0.0
 40
0.0379136029101563
  1
.XX %%P  .030 ADD DRAFT (UNLESS NOTED)
100
AcDbText
  0
TEXT
  5
DE
330
B3
100
AcDbEntity
  8
TTLBLK
100
AcDbText
 10
6.516952950641788
 20
0.7746271417868244
 30
0.0
 40
0.0379136029101563
  1
.XXX %%P  .005 CASTING 3%%D FORGINGS 7%%D
100
AcDbText
  0
MTEXT
  5
DF
330
B3
100
AcDbEntity
  8
TTLBLK
100
AcDbMText
 10
6.148140656689393
 20
0.0859498009497102
 30
0.0
 40
0.0404411764375
 41
0.0492411764303
 71
     7
 72
     5
  1
_
 73
     1
 44
1.0
1001
ACAD
1000
MTEXTBEGIN
1070
    73
1070
     1
1070
    44
1040
1.0
1070
    74
1070
     0
1000
MTEXTEND
  0
MTEXT
  5
E0
330
B3
100
AcDbEntity
  8
TTLBLK
100
AcDbMText
 10
6.148140656689393
 20
0.1526712818197565
 30
0.0
 40
0.0404411764375
 41
0.0492411764303
 71
     7
 72
     5
  1
_
 73
     1
 44
1.0
1001
ACAD
1000
MTEXTBEGIN
1070
    73
1070
     1
1070
    44
1040
1.0
1070
    74
1070
     0
1000
MTEXTEND
  0
MTEXT
  5
E1
330
B3
100
AcDbEntity
  8
TTLBLK
100
AcDbMText
 10
6.148140656689393
 20
0.2193927626898029
 30
0.0
 40
0.0404411764375
 41
0.0492411764303
 71
     7
 72
     5
  1
_
 73
     1
 44
1.0
1001
ACAD
1000
MTEXTBEGIN
1070
    73
1070
     1
1070
    44
1040
1.0
1070
    74
1070
     0
1000
MTEXTEND
  0
MTEXT
  5
E2
330
B3
100
AcDbEntity
  8
TTLBLK
100
AcDbMText
 10
6.148140656689393
 20
0.2861142435598492
 30
0.0
 40
0.0404411764375
 41
0.0492411764303
 71
     7
 72
     5
  1
_
 73
     1
 44
1.0
1001
ACAD
1000
MTEXTBEGIN
1070
    73
1070
     1
1070
    44
1040
1.0
1070
    74
1070
     0
1000
MTEXTEND
  0
MTEXT
  5
E3
330
B3
100
AcDbEntity
  8
TTLBLK
100
AcDbMText
 10
6.148140656689393
 20
0.3528357244299048
 30
0.0
 40
0.0404411764375
 41
0.0492411764303
 71
     7
 72
     5
  1
_
 73
     1
 44
1.0
1001
ACAD
1000
MTEXTBEGIN
1070
    73
1070
     1
1070
    44
1040
1.0
1070
    74
1070
     0
1000
MTEXTEND
  0
MTEXT
  5
E4
330
B3
100
AcDbEntity
  8
TTLBLK
100
AcDbMText
 10
6.148140656689393
 20
0.4195572052999513
 30
0.0
 40
0.0404411764375
 41
0.0492411764303
 71
     7
 72
     5
  1
_
 73
     1
 44
1.0
1001
ACAD
1000
MTEXTBEGIN
1070
    73
1070
     1
1070
    44
1040
1.0
1070
    74
1070
     0
1000
MTEXTEND
  0
MTEXT
  5
E5
330
B3
100
AcDbEntity
  8
TTLBLK
100
AcDbMText
 10
6.148140656689393
 20
0.4862786861699976
 30
0.0
 40
0.0404411764375
 41
0.0492411764303
 71
     7
 72
     5
  1
_
 73
     1
 44
1.0
1001
ACAD
1000
MTEXTBEGIN
1070
    73
1070
     1
1070
    44
1040
1.0
1070
    74
1070
     0
1000
MTEXTEND
  0
MTEXT
  5
E6
330
B3
100
AcDbEntity
  8
TTLBLK
100
AcDbMText
 10
6.351930998007383
 20
0.0859498009497102
 30
0.0
 40
0.0404411764375
 41
0.0505655549158617
 71
     7
 72
     5
  1
{\Fsimplex.shx|c0;X}
 73
     1
 44
1.0
1001
ACAD
1000
MTEXTBEGIN
1070
    73
1070
     1
1070
    44
1040
1.0
1070
    74
1070
     0
1000
MTEXTEND
  0
MTEXT
  5
E7
330
B3
100
AcDbEntity
  8
TTLBLK
100
AcDbMText
 10
6.351930998007383
 20
0.1526712818197565
 30
0.0
 40
0.0404411764375
 41
0.0505655549158617
 71
     7
 72
     5
  1
{\Fsimplex.shx|c0;X}
 73
     1
 44
1.0
1001
ACAD
1000
MTEXTBEGIN
1070
    73
1070
     1
1070
    44
1040
1.0
1070
    74
1070
     0
1000
MTEXTEND
  0
MTEXT
  5
E8
330
B3
100
AcDbEntity
  8
TTLBLK
100
AcDbMText
 10
6.351930998007383
 20
0.2193927626898029
 30
0.0
 40
0.0404411764375
 41
0.0505655549158617
 71
     7
 72
     5
  1
{\Fsimplex.shx|c0;X}
 73
     1
 44
1.0
1001
ACAD
1000
MTEXTBEGIN
1070
    73
1070
     1
1070
    44
1040
1.0
1070
    74
1070
     0
1000
MTEXTEND
  0
MTEXT
  5
E9
330
B3
100
AcDbEntity
  8
TTLBLK
100
AcDbMText
 10
6.351930998007383
 20
0.2861142435598492
 30
0.0
 40
0.0404411764375
 41
0.0505655549158617
 71
     7
 72
     5
  1
{\Fsimplex.shx|c0;X}
 73
     1
 44
1.0
1001
ACAD
1000
MTEXTBEGIN
1070
    73
1070
     1
1070
    44
1040
1.0
1070
    74
1070
     0
1000
MTEXTEND
  0
MTEXT
  5
EA
330
B3
100
AcDbEntity
  8
TTLBLK
100
AcDbMText
 10
6.351930998007383
 20
0.3528357244299048
 30
0.0
 40
0.0404411764375
 41
0.0505655549158617
 71
     7
 72
     5
  1
{\Fsimplex.shx|c0;X}
 73
     1
 44
1.0
1001
ACAD
1000
MTEXTBEGIN
1070
    73
1070
     1
1070
    44
1040
1.0
1070
    74
1070
     0
1000
MTEXTEND
  0
MTEXT
  5
EB
330
B3
100
AcDbEntity
  8
TTLBLK
100
AcDbMText
 10
6.351930998007383
 20
0.4195572052999513
 30
0.0
 40
0.0404411764375
 41
0.0505655549158617
 71
     7
 72
     5
  1
{\Fsimplex.shx|c0;X}
 73
     1
 44
1.0
1001
ACAD
1000
MTEXTBEGIN
1070
    73
1070
     1
1070
    44
1040
1.0
1070
    74
1070
     0
1000
MTEXTEND
  0
MTEXT
  5
EC
330
B3
100
AcDbEntity
  8
TTLBLK
100
AcDbMText
 10
6.351930998007383
 20
0.4862786861699976
 30
0.0
 40
0.0404411764375
 41
0.0505655549158617
 71
     7
 72
     5
  1
{\Fsimplex.shx|c0;X}
 73
     1
 44
1.0
1001
ACAD
1000
MTEXTBEGIN
1070
    73
1070
     1
1070
    44
1040
1.0
1070
    74
1070
     0
1000
MTEXTEND
  0
MTEXT
  5
ED
330
B3
100
AcDbEntity
  8
TTLBLK
100
AcDbMText
 10
6.351930998007383
 20
0.5530001670400439
 30
0.0
 40
0.0404411764375
 41
0.0505655549158617
 71
     7
 72
     5
  1
{\Fsimplex.shx|c0;X}
 73
     1
 44
1.0
1001
ACAD
1000
MTEXTBEGIN
1070
    73
1070
     1
1070
    44
1040
1.0
1070
    74
1070
     0
1000
MTEXTEND
  0
MTEXT
  5
EE
330
B3
100
AcDbEntity
  8
TTLBLK
100
AcDbMText
 10
6.148140656689393
 20
0.5530001670400439
 30
0.0
 40
0.0404411764375
 41
0.0492411764303
 71
     7
 72
     5
  1
_
 73
     1
 44
1.0
1001
ACAD
1000
MTEXTBEGIN
1070
    73
1070
     1
1070
    44
1040
1.0
1070
    74
1070
     0
1000
MTEXTEND
  0
TEXT
  5
EF
330
B3
100
AcDbEntity
  8
TTLBLK
100
AcDbText
 10
5.72052583615642
 20
0.5536500682578344
 30
0.0
 40
0.0404411764375
  1
S.P.C.
  7
ADESK1
100
AcDbText
  0
TEXT
  5
F0
330
B3
100
AcDbEntity
  8
TTLBLK
100
AcDbText
 10
5.72052583615642
 20
0.4869285873877881
 30
0.0
 40
0.0404411764375
  1
F.A.I.
  7
ADESK1
100
AcDbText
  0
TEXT
  5
F1
330
B3
100
AcDbEntity
  8
TTLBLK
100
AcDbText
 10
5.72052583615642
 20
0.3534856256476954
 30
0.0
 40
0.0404411764375
  1
SUPPLIER
  7
ADESK1
100
AcDbText
  0
TEXT
  5
F2
330
B3
100
AcDbEntity
  8
TTLBLK
100
AcDbText
 10
5.72052583615642
 20
0.2867641447776398
 30
0.0
 40
0.0404411764375
  1
GAUGES
  7
ADESK1
100
AcDbText
  0
TEXT
  5
F3
330
B3
100
AcDbEntity
  8
TTLBLK
100
AcDbText
 10
5.72052583615642
 20
0.0865997021675007
 30
0.0
 40
0.0404411764375
  1
INSP/TEST
  7
ADESK1
100
AcDbText
  0
TEXT
  5
F4
330
B3
100
AcDbEntity
  8
TTLBLK
100
AcDbText
 10
5.72052583615642
 20
0.153321183037547
 30
0.0
 40
0.0404411764375
  1
PKG/LABEL
  7
ADESK1
100
AcDbText
  0
TEXT
  5
F5
330
B3
100
AcDbEntity
  8
TTLBLK
100
AcDbText
 10
5.72052583615642
 20
0.2200426639075934
 30
0.0
 40
0.0404411764375
  1
PRCS PROC
  7
ADESK1
100
AcDbText
  0
TEXT
  5
F6
330
B3
100
AcDbEntity
  8
TTLBLK
100
AcDbText
 10
5.72052583615642
 20
0.4202071065177417
 30
0.0
 40
0.0404411764375
  1
TOOL/EQUIP
  7
ADESK1
100
AcDbText
  0
TEXT
  5
F7
330
B3
100
AcDbEntity
  8
TTLBLK
100
AcDbText
 10
6.145607524883955
 20
0.61593420267539
 30
0.0
 40
0.0404411764375
  1
Y    N
  7
ADESK1
 72
     4
 11
6.262116628430085
 21
0.63615479089414
 31
0.0
100
AcDbText
  0
TEXT
  5
F8
330
B3
100
AcDbEntity
  8
TTLBLK
100
AcDbText
 10
5.876785709303574
 20
0.6826556835454455
 30
0.0
 40
0.0404411764375
  1
BY LATEST EC
  7
ADESK1
 72
     4
 11
6.096323524250002
 21
0.7028762717641956
 31
0.0
100
AcDbText
  0
TEXT
  5
F9
330
B3
100
AcDbEntity
  8
TTLBLK
100
AcDbText
 10
5.841158958632442
 20
0.749377164415492
 30
0.0
 40
0.0404411764375
  1
AREAS AFFECTED
  7
ADESK1
 72
     4
 11
6.096323524250002
 21
0.7695977526342421
 31
0.0
100
AcDbText
  0
TEXT
  5
FA
330
B3
100
AcDbEntity
  8
TTLBLK
 62
     7
100
AcDbText
 10
6.698924376262545
 20
0.9429726364172477
 30
0.0
 40
0.06066176465625
  1
TOLERANCE CHART
 72
     1
 11
7.143777317075045
 21
0.9429726364172477
 31
0.0
100
AcDbText
  0
TEXT
  5
FB
330
B3
100
AcDbEntity
  8
TTLBLK
100
AcDbText
 10
7.513281730368451
 20
1.135248025777218
 30
0.0
 40
0.0090637206957092
  1
R
 72
     4
 11
7.516302970600354
 21
1.139779886125072
 31
0.0
100
AcDbText
  0
CIRCLE
  5
FC
330
B3
100
AcDbEntity
  8
TTLBLK
100
AcDbCircle
 10
7.516302970600354
 20
1.139779886125072
 30
0.0
 40
0.0099529477957362
  0
TEXT
  5
FD
330
B3
100
AcDbEntity
  8
TTLBLK
100
AcDbText
 10
6.804044111906248
 20
1.020876984419763
 30
0.0
 40
0.1213235293125
  1
CHANCE
  7
BOLD
 72
     1
 11
7.147794111624999
 21
1.020876984419763
 31
0.0
100
AcDbText
  0
TEXT
  5
FE
330
B3
100
AcDbEntity
  8
TTLBLK
100
AcDbText
 10
6.698924376262545
 20
0.9429726364172477
 30
0.0
 40
0.06066176465625
  1
TOLERANCE CHART
 72
     1
 11
7.143777317075045
 21
0.9429726364172477
 31
0.0
100
AcDbText
  0
TEXT
  5
FF
330
B3
100
AcDbEntity
  8
TTLBLK
 62
     7
100
AcDbText
 10
6.698924376262545
 20
0.9429726364172477
 30
0.0
 40
0.06066176465625
  1
TOLERANCE CHART
 72
     1
 11
7.143777317075045
 21
0.9429726364172477
 31
0.0
100
AcDbText
  0
TEXT
  5
100
330
B3
100
AcDbEntity
  8
TTLBLK
 62
     7
100
AcDbText
 10
6.698924376262545
 20
0.9429726364172477
 30
0.0
 40
0.06066176465625
  1
TOLERANCE CHART
 72
     1
 11
7.143777317075045
 21
0.9429726364172477
 31
0.0
100
AcDbText
  0
TEXT
  5
101
330
B3
100
AcDbEntity
  8
TTLBLK
 62
     7
100
AcDbText
 10
6.698924376262545
 20
0.9429726364172477
 30
0.0
 40
0.06066176465625
  1
TOLERANCE CHART
 72
     1
 11
7.143777317075045
 21
0.9429726364172477
 31
0.0
100
AcDbText
  0
TEXT
  5
102
330
B3
100
AcDbEntity
  8
TTLBLK
100
AcDbText
 10
9.058320423441182
 20
1.102319320961726
 30
0.0
 40
0.0181274413914185
  1
R
 72
     4
 11
9.064362903904989
 21
1.111383041657435
 31
0.0
100
AcDbText
  0
CIRCLE
  5
103
330
B3
100
AcDbEntity
  8
TTLBLK
100
AcDbCircle
 10
9.064362903904989
 20
1.111383041657435
 30
0.0
 40
0.0199058955914725
  0
ATTDEF
  5
104
330
B3
100
AcDbEntity
  8
TTLBLK
100
AcDbText
 10
10.09196588081727
 20
0.0794577429804492
 30
0.0
 40
0.06066176465625
  1
--
 41
0.75
  7
ROMANS
100
AcDbAttributeDefinition
  3
Sht x OF x
  2
SHT
 70
     0
  0
ATTDEF
  5
105
330
B3
100
AcDbEntity
  8
TTLBLK
100
AcDbText
 10
9.307069058005714
 20
0.0794577429804492
 30
0.0
 40
0.06066176465625
  1
--
 41
0.75
  7
ROMANS
100
AcDbAttributeDefinition
  3
Drawn Date
  2
DATE
 70
     0
  0
ATTDEF
  5
106
330
B3
100
AcDbEntity
  8
TTLBLK
100
AcDbText
 10
8.780682647768077
 20
0.0794577429804492
 30
0.0
 40
0.06066176465625
  1
--
 41
0.75
  7
ROMANS
100
AcDbAttributeDefinition
  3
Drawn By
  2
DFT
 70
     0
  0
ATTDEF
  5
107
330
B3
100
AcDbEntity
  8
TTLBLK
100
AcDbText
 10
7.878382137402521
 20
0.2284088935354477
 30
0.0
 40
0.080882352875
  1
A
 41
0.75
  7
ROMANS
100
AcDbAttributeDefinition
  3
Dwg Size
  2
X
 70
     0
  0
ATTDEF
  5
108
330
B3
100
AcDbEntity
  8
TTLBLK
100
AcDbText
 10
10.38877522627618
 20
0.2284088935354477
 30
0.0
 40
0.080882352875
  1
-
 41
0.75
  7
ROMANS
100
AcDbAttributeDefinition
  3
Rev #
  2
RV
 70
     0
  0
ATTDEF
  5
109
330
B3
100
AcDbEntity
  8
TTLBLK
100
AcDbText
 10
8.871180036478143
 20
0.2284088935354477
 30
0.0
 40
0.080882352875
  1
--
 41
0.75
  7
ROMANS
100
AcDbAttributeDefinition
  3
Cat/Part/Assy #
  2
CAT/PART/ASSY
 70
     0
  0
ATTDEF
  5
10A
330
B3
100
AcDbEntity
  8
TTLBLK
100
AcDbText
 10
8.08711053115571
 20
0.2284088935354477
 30
0.0
 40
0.080882352875
  1
--
 41
0.75
  7
ROMANS
100
AcDbAttributeDefinition
  3
Dwg #
  2
DWG
 70
     0
  0
ATTDEF
  5
10B
330
B3
100
AcDbEntity
  8
TTLBLK
100
AcDbText
 10
9.073718479797141
 20
0.4847058817824998
 30
0.0
 40
0.1294117646
  1
--
 41
0.6
  7
ROMANS
 72
     4
 11
9.169852933499999
 21
0.5401680666110713
 31
0.0
100
AcDbAttributeDefinition
  3
Title line 2
  2
TITLE2
 70
     0
  0
ATTDEF
  5
10C
330
B3
100
AcDbEntity
  8
TTLBLK
100
AcDbText
 10
9.073718479797141
 20
0.6714277958335563
 30
0.0
 40
0.1294117646
  1
--
 41
0.6
  7
ROMANS
 72
     4
 11
9.169852933499999
 21
0.7268899806621278
 31
0.0
100
AcDbAttributeDefinition
  3
Title line 1
  2
TITLE1
 70
     0
  0
TEXT
  5
10D
330
B3
100
AcDbEntity
  8
TTLBLK
100
AcDbText
 10
10.3510588148865
 20
0.3639647054106999
 30
0.0
 40
0.042058823495
  1
REV
  7
ADESK1
100
AcDbText
  0
TEXT
  5
10E
330
B3
100
AcDbEntity
  8
TTLBLK
100
AcDbText
 10
9.851076462354393
 20
0.0899999997525
 30
0.0
 40
0.042058823495
  1
SHEET
  7
ADESK1
100
AcDbText
  0
CIRCLE
  5
10F
330
B3
100
AcDbEntity
  8
TTLBLK
100
AcDbCircle
 10
8.314464217322473
 20
1.111383041657435
 30
0.0
 40
0.0199058955914725
  0
TEXT
  5
110
330
B3
100
AcDbEntity
  8
TTLBLK
100
AcDbText
 10
8.308421736858667
 20
1.102319320961726
 30
0.0
 40
0.0181274413914185
  1
R
 72
     4
 11
8.314464217322473
 21
1.111383041657435
 31
0.0
100
AcDbText
  0
ARC
  5
111
330
B3
100
AcDbEntity
  8
TTLBLK
100
AcDbCircle
 10
8.267820991614254
 20
1.08498833620607
 30
0.0
 40
0.0246842943105607
100
AcDbArc
 50
0.0
 51
90.0
  0
ARC
  5
112
330
B3
100
AcDbEntity
  8
TTLBLK
100
AcDbCircle
 10
8.267820991614254
 20
0.9399924026967926
 30
0.0
 40
0.0246842943105607
100
AcDbArc
 50
270.0
 51
0.0
  0
LINE
  5
113
330
B3
100
AcDbEntity
  8
TTLBLK
100
AcDbLine
 10
8.292505285924814
 20
0.9399924026967926
 30
0.0
 11
8.292505285924814
 21
1.08498833620607
 31
0.0
  0
ARC
  5
114
330
B3
100
AcDbEntity
  8
TTLBLK
100
AcDbCircle
 10
7.879869405441978
 20
1.08498833620607
 30
0.0
 40
0.0246842943105607
100
AcDbArc
 50
90.0
 51
180.0
  0
ARC
  5
115
330
B3
100
AcDbEntity
  8
TTLBLK
100
AcDbCircle
 10
7.879869405441978
 20
0.9399924026967926
 30
0.0
 40
0.0246842943105607
100
AcDbArc
 50
180.0
 51
270.0
  0
LINE
  5
116
330
B3
100
AcDbEntity
  8
TTLBLK
100
AcDbLine
 10
7.855185111131417
 20
1.08498833620607
 30
0.0
 11
7.855185111131417
 21
0.9399924026967926
 31
0.0
  0
LWPOLYLINE
  5
117
330
B3
100
AcDbEntity
  8
TTLBLK
100
AcDbPolyline
 90
        7
 70
     0
 43
0.0
 10
7.931030913705152
 20
0.9956801396434128
 42
0.1282147354386514
 10
7.970767844812748
 20
0.9608831092367083
 42
0.06501535798579
 10
8.01489342302386
 20
0.9455551145928716
 42
0.0511655343633074
 10
8.073845198528115
 20
0.9395066821388519
 42
0.0511655343633075
 10
8.13279697403237
 20
0.9455551145928716
 42
0.0650153579857905
 10
8.176922552243482
 20
0.9608831092367083
 42
0.1282147354385501
 10
8.216659483351023
 20
0.9956801396434128
 42
0.0036203377787545
  0
LWPOLYLINE
  5
118
330
B3
100
AcDbEntity
  8
TTLBLK
100
AcDbPolyline
 90
        7
 70
     0
 43
0.0
 10
8.216659483351056
 20
1.02930059925945
 42
0.1282147354386156
 10
8.176922552243482
 20
1.064097629666155
 42
0.0650153579857901
 10
8.13279697403237
 20
1.079425624309991
 42
0.0511655343633079
 10
8.073845198528115
 20
1.085474056764011
 42
0.0511655343633077
 10
8.01489342302386
 20
1.079425624309991
 42
0.0650153579857905
 10
7.970767844812748
 20
1.064097629666155
 42
0.1282147354385519
 10
7.931030913705201
 20
1.02930059925945
 42
0.0036203377787454
  0
LINE
  5
119
330
B3
100
AcDbEntity
  8
TTLBLK
100
AcDbLine
 10
7.879869405441978
 20
0.9153081083862318
 30
0.0
 11
8.267820991614254
 21
0.9153081083862318
 31
0.0
  0
LINE
  5
11A
330
B3
100
AcDbEntity
  8
TTLBLK
100
AcDbLine
 10
8.267820991614254
 20
1.10967263051663
 30
0.0
 11
7.879869405441978
 21
1.10967263051663
 31
0.0
  0
LWPOLYLINE
  5
11B
330
B3
100
AcDbEntity
  8
TTLBLK
100
AcDbPolyline
 90
       16
 70
     1
 43
0.0
 10
7.879480676397717
 20
1.01249036945143
 42
0.2116762310771139
 10
7.889731982337435
 20
0.9893607591967857
 42
0.0945814604124489
 10
7.936408726907627
 20
0.9608837106463074
 42
0.0512712502809105
 10
7.994451072081673
 20
0.9456449185731607
 42
0.038593814542383
 10
8.073845198528116
 20
0.9395075326604628
 42
0.0385938145423827
 10
8.15323932497456
 20
0.9456449185731607
 42
0.0512712502809104
 10
8.211281670148604
 20
0.9608837106463074
 42
0.0945814604124508
 10
8.257958414718798
 20
0.9893607591967857
 42
0.2116762310771179
 10
8.268209720658514
 20
1.01249036945143
 42
0.2116762310771123
 10
8.257958414718798
 20
1.035619979706075
 42
0.0945814604124511
 10
8.211281670148604
 20
1.064097028256555
 42
0.0512712502809101
 10
8.15323932497456
 20
1.079335820329701
 42
0.0385938145423829
 10
8.073845198528116
 20
1.085473206242399
 42
0.0385938145423827
 10
7.994451072081673
 20
1.079335820329701
 42
0.0512712502809104
 10
7.936408726907627
 20
1.064097028256555
 42
0.0945814604124495
 10
7.889731982337435
 20
1.035619979706075
 42
0.2116762310771117
  0
TEXT
  5
11C
330
B3
100
AcDbEntity
  8
TTLBLK
100
AcDbText
 10
7.86530826332571
 20
0.8644903629016907
 30
0.0
 40
0.0242955652662999
  1
POWER SYSTEMS, INC
  7
BOLD
 72
     1
 11
8.073845198528116
 21
0.8644903629016907
 31
0.0
100
AcDbText
  0
TEXT
  5
11D
330
B3
100
AcDbEntity
  8
TTLBLK
100
AcDbText
 10
7.898040537226461
 20
0.9995819093876535
 30
0.0
 40
0.0271777627973331
  1
HUBBELL
 41
2.0
  7
BOLD
 72
     1
 11
8.079225622542015
 21
0.9995819093876535
 31
0.0
100
AcDbText
  0
LWPOLYLINE
  5
11E
330
B3
100
AcDbEntity
  8
TTLBLK
100
AcDbPolyline
 90
        9
 70
     0
 43
0.0
 10
8.110166871057659
 20
1.02930059925945
 42
0.0225820644691674
 10
8.108074827511822
 20
1.041977428181987
 42
0.0660836885971898
 10
8.100233001079249
 20
1.064097629666155
 42
0.104698185142336
 10
8.086549524665137
 20
1.080973909168264
 42
0.1718785820284493
 10
8.073845198528115
 20
1.085474056764011
 42
0.1718785820284537
 10
8.06114087239109
 20
1.080973909168264
 42
0.1046981851423423
 10
8.047457395976978
 20
1.064097629666155
 42
0.0660836885971916
 10
8.039615569544405
 20
1.041977428181987
 42
0.0225820644691689
 10
8.037523525998562
 20
1.02930059925945
 42
0.0522252130559454
  0
LWPOLYLINE
  5
11F
330
B3
100
AcDbEntity
  8
TTLBLK
100
AcDbPolyline
 90
        9
 70
     0
 43
0.0
 10
8.145339539463
 20
1.02930059925945
 42
0.0402956125278113
 10
8.141729898555224
 20
1.040396916193002
 42
0.0987354107076135
 10
8.125796184800661
 20
1.064097629666155
 42
0.0982446268369806
 10
8.101983958206467
 20
1.07991114837932
 42
0.0979003842804643
 10
8.073845198528115
 20
1.085474056764011
 42
0.0979003842804646
 10
8.04570643884976
 20
1.07991114837932
 42
0.0982446268369785
 10
8.021894212255569
 20
1.064097629666155
 42
0.0987354107076195
 10
8.005960498501005
 20
1.040396916193002
 42
0.0402956125279488
 10
8.002350857593093
 20
1.02930059925945
 42
0.0990852718276084
  0
LWPOLYLINE
  5
120
330
B3
100
AcDbEntity
  8
TTLBLK
100
AcDbPolyline
 90
        7
 70
     0
 43
0.0
 10
8.181025735951569
 20
1.02930059925945
 42
0.139613483674188
 10
8.15135936852207
 20
1.064097629666155
 42
0.079743723868598
 10
8.117466171039533
 20
1.079569488004087
 42
0.067373177709196
 10
8.073845198528115
 20
1.085474056764011
 42
0.0673731777091967
 10
8.030224226016695
 20
1.079569488004086
 42
0.0797437238685967
 10
7.996331028534156
 20
1.064097629666155
 42
0.1396134836742667
 10
7.966664661104625
 20
1.02930059925945
 42
0.0112575158592377
  0
LWPOLYLINE
  5
121
330
B3
100
AcDbEntity
  8
TTLBLK
100
AcDbPolyline
 90
        9
 70
     0
 43
0.0
 10
8.002350857592809
 20
0.9956801396434128
 42
0.0402956125282552
 10
8.005960498501005
 20
0.984583822709861
 42
0.0987354107076148
 10
8.021894212255569
 20
0.9608831092367083
 42
0.0982446268369764
 10
8.04570643884976
 20
0.9450695905235409
 42
0.0979003842804642
 10
8.073845198528115
 20
0.9395066821388519
 42
0.0979003842804643
 10
8.101983958206467
 20
0.9450695905235409
 42
0.0982446268369812
 10
8.125796184800661
 20
0.9608831092367083
 42
0.0987354107076173
 10
8.141729898555224
 20
0.984583822709861
 42
0.0402956125280495
 10
8.145339539463225
 20
0.9956801396434128
 42
0.0990852718276076
  0
LWPOLYLINE
  5
122
330
B3
100
AcDbEntity
  8
TTLBLK
100
AcDbPolyline
 90
        7
 70
     0
 43
0.0
 10
7.966664661104616
 20
0.9956801396434128
 42
0.1396134836742874
 10
7.996331028534156
 20
0.9608831092367083
 42
0.0797437238685962
 10
8.030224226016695
 20
0.9454112508987758
 42
0.0673731777091956
 10
8.073845198528115
 20
0.9395066821388519
 42
0.0673731777091966
 10
8.117466171039533
 20
0.9454112508987758
 42
0.0797437238685986
 10
8.15135936852207
 20
0.9608831092367083
 42
0.1396134836742535
 10
8.181025735951598
 20
0.9956801396434128
 42
0.0112575158592222
  0
LWPOLYLINE
  5
123
330
B3
100
AcDbEntity
  8
TTLBLK
100
AcDbPolyline
 90
        9
 70
     0
 43
0.0
 10
8.03752352599854
 20
0.9956801396434128
 42
0.0225820644691772
 10
8.039615569544405
 20
0.9830033107208752
 42
0.0660836885971876
 10
8.047457395976978
 20
0.9608831092367083
 42
0.1046981851423404
 10
8.06114087239109
 20
0.9440068297346002
 42
0.1718785820284506
 10
8.073845198528115
 20
0.9395066821388519
 42
0.1718785820284522
 10
8.086549524665137
 20
0.9440068297346002
 42
0.104698185142341
 10
8.100233001079249
 20
0.9608831092367083
 42
0.0660836885971958
 10
8.108074827511822
 20
0.9830033107208752
 42
0.0225820644691894
 10
8.110166871057719
 20
0.9956801396434128
 42
0.0522252130559461
  0
TEXT
  5
124
330
B3
100
AcDbEntity
  8
TTLBLK
100
AcDbText
 10
9.126652613802024
 20
0.0899999997525
 30
0.0
 40
0.042058823495
  1
DATE
  7
ADESK1
100
AcDbText
  0
TEXT
  5
125
330
B3
100
AcDbEntity
  8
TTLBLK
100
AcDbText
 10
8.479593790802024
 20
0.0899999997525
 30
0.0
 40
0.042058823495
  1
DRN BY
  7
ADESK1
100
AcDbText
  0
TEXT
  5
126
330
B3
100
AcDbEntity
  8
TTLBLK
100
AcDbText
 10
7.851729405166693
 20
0.3639647054106999
 30
0.0
 40
0.042058823495
  1
SIZE
  7
ADESK1
100
AcDbText
  0
TEXT
  5
127
330
B3
100
AcDbEntity
  8
TTLBLK
100
AcDbText
 10
7.8286941110679
 20
0.1284255829349773
 30
0.0
 40
0.042058823495
  1
DO NOT SCALE
  7
ADESK1
100
AcDbText
  0
TEXT
  5
128
330
B3
100
AcDbEntity
  8
TTLBLK
100
AcDbText
 10
7.8286941110679
 20
0.0617458851853726
 30
0.0
 40
0.042058823495
  1
THIS DRAWING
  7
ADESK1
100
AcDbText
  0
TEXT
  5
129
330
B3
100
AcDbEntity
  8
TTLBLK
100
AcDbText
 10
8.085317640269705
 20
0.3639647054106999
 30
0.0
 40
0.042058823495
  1
DWG NO.
  7
ADESK1
100
AcDbText
  0
TEXT
  5
12A
330
B3
100
AcDbEntity
  8
TTLBLK
100
AcDbText
 10
8.811382345557998
 20
0.3639647054106999
 30
0.0
 40
0.042058823495
  1
CAT / PART / ASSY NO.
  7
ADESK1
100
AcDbText
  0
TEXT
  5
12B
330
B3
100
AcDbEntity
  8
TTLBLK
100
AcDbText
 10
8.355004584071364
 20
0.868929300307227
 30
0.0
 40
0.265714727921617
  1
HUBBELL POWER SYSTEMS
 41
0.4032456425231655
  7
ADESK1
 72
     5
 11
10.50817530843316
 21
0.868929300307227
 31
0.0
100
AcDbText
  0
TEXT
  5
12C
330
B3
100
AcDbEntity
  8
TTLBLK
100
AcDbText
 10
6.518074931070546
 20
0.0721819305237841
 30
0.0
 40
0.0404411764375
  1
COPYRIGHT LAWS.
  7
ADESK1
100
AcDbText
  0
TEXT
  5
12D
330
B3
100
AcDbEntity
  8
TTLBLK
100
AcDbText
 10
6.518074931070546
 20
0.6614676443273561
 30
0.0
 40
0.0404411764375
  1
CONFIDENTIAL: THIS DRAWING AND ITS
  7
ADESK1
100
AcDbText
  0
TEXT
  5
12E
330
B3
100
AcDbEntity
  8
TTLBLK
100
AcDbText
 10
6.518074931070546
 20
0.595991453904737
 30
0.0
 40
0.0404411764375
  1
CONTENTS ARE CONFIDENTIAL AND THE
  7
ADESK1
100
AcDbText
  0
TEXT
  5
12F
330
B3
100
AcDbEntity
  8
TTLBLK
100
AcDbText
 10
6.518074931070546
 20
0.5305152634821179
 30
0.0
 40
0.0404411764375
  1
EXCLUSIVE PROPERTY OF HUBBELL
  7
ADESK1
100
AcDbText
  0
TEXT
  5
130
330
B3
100
AcDbEntity
  8
TTLBLK
100
AcDbText
 10
6.518074931070546
 20
0.4650390730594988
 30
0.0
 40
0.0404411764375
  1
POWER SYSTEMS, INC. NO PUBLICATION,
  7
ADESK1
100
AcDbText
  0
TEXT
  5
131
330
B3
100
AcDbEntity
  8
TTLBLK
100
AcDbText
 10
6.518074931070546
 20
0.3995628826368795
 30
0.0
 40
0.0404411764375
  1
DISTRIBUTION OR COPIES MAY BE MADE
  7
ADESK1
100
AcDbText
  0
TEXT
  5
132
330
B3
100
AcDbEntity
  8
TTLBLK
100
AcDbText
 10
6.518074931070546
 20
0.3340866922142603
 30
0.0
 40
0.0404411764375
  1
WITHOUT THE PRIOR WRITTEN CONSENT
  7
ADESK1
100
AcDbText
  0
TEXT
  5
133
330
B3
100
AcDbEntity
  8
TTLBLK
100
AcDbText
 10
6.518074931070546
 20
0.2686105017916414
 30
0.0
 40
0.0404411764375
  1
OF HUBBELL POWER SYSTEMS, INC.
  7
ADESK1
100
AcDbText
  0
TEXT
  5
134
330
B3
100
AcDbEntity
  8
TTLBLK
100
AcDbText
 10
6.518074931070546
 20
0.2031343113690222
 30
0.0
 40
0.0404411764375
  1
HUBBELL POWER SYSTEMS UNPUBLISHED
  7
ADESK1
100
AcDbText
  0
TEXT
  5
135
330
B3
100
AcDbEntity
  8
TTLBLK
100
AcDbText
 10
6.518074931070546
 20
0.1376581209464031
 30
0.0
 40
0.0404411764375
  1
ALL RIGHTS RESERVED UNDER THE
  7
ADESK1
100
AcDbText
  0
ENDBLK
  5
136
330
B3
100
AcDbEntity
  8
0
100
AcDbBlockEnd
  0
BLOCK
  5
59A
330
599
100
AcDbEntity
  8
0
100
AcDbBlockBegin
  2
TITLE
 70
     2
 10
0.0
 20
0.0
 30
0.0
  3
TITLE
  1

  0
LWPOLYLINE
  5
59C
330
599
100
AcDbEntity
  8
TTLBLK
100
AcDbPolyline
 90
        2
 70
     0
 43
0.015
 10
6.482950184204622
 20
0.0054505832218853
 10
6.482950184204622
 20
1.137803523471885
  0
LWPOLYLINE
  5
59D
330
599
100
AcDbEntity
  8
TTLBLK
100
AcDbPolyline
 90
        2
 70
     0
 43
0.015
 10
6.482950184204622
 20
0.733391759096885
 10
7.777067830204623
 20
0.7333917590968852
  0
LWPOLYLINE
  5
59E
330
599
100
AcDbEntity
  8
TTLBLK
100
AcDbPolyline
 90
        2
 70
     0
 43
0.015
 10
8.424126653204622
 20
0.0054505832218853
 10
8.424126653204622
 20
0.1672152889718852
  0
LWPOLYLINE
  5
59F
330
599
100
AcDbEntity
  8
TTLBLK
100
AcDbPolyline
 90
        2
 70
     0
 43
0.015
 10
9.071185476204622
 20
0.0054505832218853
 10
9.071185476204622
 20
0.1672152889718852
  0
LWPOLYLINE
  5
5A0
330
599
100
AcDbEntity
  8
TTLBLK
100
AcDbPolyline
 90
        2
 70
     0
 43
0.015
 10
9.799126652079623
 20
0.0054505832218853
 10
9.799126652079623
 20
0.1672152889718852
  0
LWPOLYLINE
  5
5A1
330
599
100
AcDbEntity
  8
TTLBLK
100
AcDbPolyline
 90
        2
 70
     0
 43
0.015
 10
10.28118547521462
 20
0.1672152889718852
 10
10.28118547521462
 20
0.4130976417118852
  0
LWPOLYLINE
  5
5A2
330
599
100
AcDbEntity
  8
TTLBLK
100
AcDbPolyline
 90
        2
 70
     0
 43
0.015
 10
8.022950182944621
 20
0.1672152889718852
 10
8.022950182944621
 20
0.4130976417118852
  0
LWPOLYLINE
  5
5A3
330
599
100
AcDbEntity
  8
TTLBLK
100
AcDbPolyline
 90
        2
 70
     0
 43
0.015
 10
7.777067830204623
 20
0.1672152889718852
 10
10.52706782795462
 20
0.1672152889718852
  0
LWPOLYLINE
  5
5A4
330
599
100
AcDbEntity
  8
TTLBLK
100
AcDbPolyline
 90
        2
 70
     0
 43
0.015
 10
7.777067830204623
 20
0.0054505832218853
 10
7.777067830204623
 20
1.137803523471885
  0
LWPOLYLINE
  5
5A5
330
599
100
AcDbEntity
  8
TTLBLK
100
AcDbPolyline
 90
        2
 70
     0
 43
0.015
 10
7.777067830204623
 20
0.4130976417118852
 10
10.52706782795462
 20
0.4130976417118852
  0
LWPOLYLINE
  5
5A6
330
599
100
AcDbEntity
  8
TTLBLK
100
AcDbPolyline
 90
        2
 70
     0
 43
0.015
 10
7.777067830204623
 20
0.814274111971885
 10
10.52706782795462
 20
0.814274111971885
  0
LWPOLYLINE
  5
5A7
330
599
100
AcDbEntity
  8
TTLBLK
100
AcDbPolyline
 90
        2
 70
     0
 43
0.015
 10
6.482950184204622
 20
1.137803523471885
 10
10.52706782795462
 20
1.137803523471885
  0
LWPOLYLINE
  5
5A8
330
599
100
AcDbEntity
  8
TTLBLK
100
AcDbPolyline
 90
        6
 70
     1
 43
0.015
 10
10.52706782795462
 20
0.0054505832218853
 10
10.52706782795462
 20
6.637803518971884
 10
10.52706782795462
 20
8.020156458782045
 10
0.0123619542046237
 20
8.020156458782045
 10
0.0123619542046237
 20
6.637803518971884
 10
0.0123619542046237
 20
0.0054505832218853
  0
TEXT
  5
5A9
330
599
100
AcDbEntity
  8
TTLBLK
100
AcDbText
 10
7.49108545231768
 20
1.094017867047827
 30
0.0
 40
0.0090637206957092
  1
R
 72
     4
 11
7.494106692549583
 21
1.098549727395681
 31
0.0
100
AcDbText
  0
CIRCLE
  5
5AA
330
599
100
AcDbEntity
  8
TTLBLK
100
AcDbCircle
 10
7.494106692549583
 20
1.098549727395681
 30
0.0
 40
0.0099529477957362
  0
TEXT
  5
5AB
330
599
100
AcDbEntity
  8
TTLBLK
100
AcDbText
 10
6.784111213440324
 20
0.968273365043894
 30
0.0
 40
0.1213235293125
  1
CHANCE
  7
BOLD
 72
     1
 11
7.127861213159074
 21
0.968273365043894
 31
0.0
100
AcDbText
  0
TEXT
  5
5AC
330
599
100
AcDbEntity
  8
TTLBLK
100
AcDbText
 10
9.040535319020806
 20
1.077622845558611
 30
0.0
 40
0.0181274413914185
  1
R
 72
     4
 11
9.046577799484612
 21
1.08668656625432
 31
0.0
100
AcDbText
  0
CIRCLE
  5
5AD
330
599
100
AcDbEntity
  8
TTLBLK
100
AcDbCircle
 10
9.046577799484612
 20
1.08668656625432
 30
0.0
 40
0.0199058955914725
  0
TEXT
  5
5AE
330
599
100
AcDbEntity
  8
TTLBLK
100
AcDbText
 10
10.33327371046612
 20
0.3392682300075852
 30
0.0
 40
0.042058823495
  1
REV
  7
ADESK1
100
AcDbText
  0
TEXT
  5
5AF
330
599
100
AcDbEntity
  8
TTLBLK
100
AcDbText
 10
9.833291357934017
 20
0.0653035243493853
 30
0.0
 40
0.042058823495
  1
SHEET
  7
ADESK1
100
AcDbText
  0
CIRCLE
  5
5B0
330
599
100
AcDbEntity
  8
TTLBLK
100
AcDbCircle
 10
8.296679112902097
 20
1.08668656625432
 30
0.0
 40
0.0199058955914725
  0
TEXT
  5
5B1
330
599
100
AcDbEntity
  8
TTLBLK
100
AcDbText
 10
8.290636632438291
 20
1.077622845558611
 30
0.0
 40
0.0181274413914185
  1
R
 72
     4
 11
8.296679112902097
 21
1.08668656625432
 31
0.0
100
AcDbText
  0
ARC
  5
5B2
330
599
100
AcDbEntity
  8
TTLBLK
100
AcDbCircle
 10
8.250035887193877
 20
1.060291860802956
 30
0.0
 40
0.0246842943105607
100
AcDbArc
 50
0.0
 51
90.0
  0
ARC
  5
5B3
330
599
100
AcDbEntity
  8
TTLBLK
100
AcDbCircle
 10
8.250035887193877
 20
0.9152959272936779
 30
0.0
 40
0.0246842943105607
100
AcDbArc
 50
270.0
 51
0.0
  0
LINE
  5
5B4
330
599
100
AcDbEntity
  8
TTLBLK
100
AcDbLine
 10
8.274720181504438
 20
0.9152959272936779
 30
0.0
 11
8.274720181504438
 21
1.060291860802956
 31
0.0
  0
ARC
  5
5B5
330
599
100
AcDbEntity
  8
TTLBLK
100
AcDbCircle
 10
7.862084301021601
 20
1.060291860802956
 30
0.0
 40
0.0246842943105607
100
AcDbArc
 50
90.0
 51
180.0
  0
ARC
  5
5B6
330
599
100
AcDbEntity
  8
TTLBLK
100
AcDbCircle
 10
7.862084301021601
 20
0.9152959272936779
 30
0.0
 40
0.0246842943105607
100
AcDbArc
 50
180.0
 51
270.0
  0
LINE
  5
5B7
330
599
100
AcDbEntity
  8
TTLBLK
100
AcDbLine
 10
7.837400006711041
 20
1.060291860802956
 30
0.0
 11
7.837400006711041
 21
0.9152959272936779
 31
0.0
  0
LWPOLYLINE
  5
5B8
330
599
100
AcDbEntity
  8
TTLBLK
100
AcDbPolyline
 90
        7
 70
     0
 43
0.0
 10
7.913245809284775
 20
0.9709836642402981
 42
0.1282147354386514
 10
7.952982740392371
 20
0.9361866338335936
 42
0.06501535798579
 10
7.997108318603483
 20
0.9208586391897569
 42
0.0511655343633074
 10
8.056060094107738
 20
0.9148102067357372
 42
0.0511655343633075
 10
8.115011869611993
 20
0.9208586391897569
 42
0.0650153579857905
 10
8.159137447823106
 20
0.9361866338335936
 42
0.1282147354385501
 10
8.198874378930646
 20
0.9709836642402981
 42
0.0036203377787545
  0
LWPOLYLINE
  5
5B9
330
599
100
AcDbEntity
  8
TTLBLK
100
AcDbPolyline
 90
        7
 70
     0
 43
0.0
 10
8.19887437893068
 20
1.004604123856335
 42
0.1282147354386156
 10
8.159137447823106
 20
1.03940115426304
 42
0.0650153579857901
 10
8.115011869611993
 20
1.054729148906876
 42
0.0511655343633079
 10
8.056060094107738
 20
1.060777581360896
 42
0.0511655343633077
 10
7.997108318603483
 20
1.054729148906876
 42
0.0650153579857905
 10
7.952982740392371
 20
1.03940115426304
 42
0.1282147354385519
 10
7.913245809284825
 20
1.004604123856335
 42
0.0036203377787454
  0
LINE
  5
5BA
330
599
100
AcDbEntity
  8
TTLBLK
100
AcDbLine
 10
7.862084301021601
 20
0.8906116329831171
 30
0.0
 11
8.250035887193877
 21
0.8906116329831171
 31
0.0
  0
LINE
  5
5BB
330
599
100
AcDbEntity
  8
TTLBLK
100
AcDbLine
 10
8.250035887193877
 20
1.084976155113516
 30
0.0
 11
7.862084301021601
 21
1.084976155113516
 31
0.0
  0
LWPOLYLINE
  5
5BC
330
599
100
AcDbEntity
  8
TTLBLK
100
AcDbPolyline
 90
       16
 70
     1
 43
0.0
 10
7.861695571977341
 20
0.9877938940483161
 42
0.2116762310771139
 10
7.871946877917059
 20
0.964664283793671
 42
0.0945814604124489
 10
7.918623622487251
 20
0.9361872352431927
 42
0.0512712502809105
 10
7.976665967661297
 20
0.920948443170046
 42
0.038593814542383
 10
8.05606009410774
 20
0.9148110572573481
 42
0.0385938145423827
 10
8.135454220554183
 20
0.920948443170046
 42
0.0512712502809104
 10
8.193496565728228
 20
0.9361872352431927
 42
0.0945814604124508
 10
8.240173310298422
 20
0.964664283793671
 42
0.2116762310771179
 10
8.250424616238138
 20
0.9877938940483161
 42
0.2116762310771123
 10
8.240173310298422
 20
1.010923504302961
 42
0.0945814604124511
 10
8.193496565728228
 20
1.03940055285344
 42
0.0512712502809101
 10
8.135454220554183
 20
1.054639344926586
 42
0.0385938145423829
 10
8.05606009410774
 20
1.060776730839284
 42
0.0385938145423827
 10
7.976665967661297
 20
1.054639344926586
 42
0.0512712502809104
 10
7.918623622487251
 20
1.03940055285344
 42
0.0945814604124495
 10
7.871946877917059
 20
1.010923504302961
 42
0.2116762310771117
  0
TEXT
  5
5BD
330
599
100
AcDbEntity
  8
TTLBLK
100
AcDbText
 10
7.847523158905334
 20
0.839793887498576
 30
0.0
 40
0.0242955652662999
  1
POWER SYSTEMS, INC
  7
BOLD
 72
     1
 11
8.05606009410774
 21
0.839793887498576
 31
0.0
100
AcDbText
  0
TEXT
  5
5BE
330
599
100
AcDbEntity
  8
TTLBLK
100
AcDbText
 10
7.880255432806085
 20
0.9748854339845388
 30
0.0
 40
0.0271777627973331
  1
HUBBELL
 41
2.0
  7
BOLD
 72
     1
 11
8.061440518121639
 21
0.9748854339845388
 31
0.0
100
AcDbText
  0
LWPOLYLINE
  5
5BF
330
599
100
AcDbEntity
  8
TTLBLK
100
AcDbPolyline
 90
        9
 70
     0
 43
0.0
 10
8.092381766637283
 20
1.004604123856335
 42
0.0225820644691674
 10
8.090289723091446
 20
1.017280952778872
 42
0.0660836885971898
 10
8.082447896658873
 20
1.03940115426304
 42
0.104698185142336
 10
8.068764420244761
 20
1.056277433765149
 42
0.1718785820284493
 10
8.056060094107738
 20
1.060777581360896
 42
0.1718785820284537
 10
8.043355767970714
 20
1.056277433765149
 42
0.1046981851423423
 10
8.029672291556602
 20
1.03940115426304
 42
0.0660836885971916
 10
8.021830465124029
 20
1.017280952778872
 42
0.0225820644691689
 10
8.019738421578185
 20
1.004604123856335
 42
0.0522252130559454
  0
LWPOLYLINE
  5
5C0
330
599
100
AcDbEntity
  8
TTLBLK
100
AcDbPolyline
 90
        9
 70
     0
 43
0.0
 10
8.127554435042624
 20
1.004604123856335
 42
0.0402956125278113
 10
8.123944794134848
 20
1.015700440789887
 42
0.0987354107076135
 10
8.108011080380284
 20
1.03940115426304
 42
0.0982446268369806
 10
8.084198853786091
 20
1.055214672976205
 42
0.0979003842804643
 10
8.056060094107738
 20
1.060777581360896
 42
0.0979003842804646
 10
8.027921334429384
 20
1.055214672976205
 42
0.0982446268369785
 10
8.004109107835192
 20
1.03940115426304
 42
0.0987354107076195
 10
7.988175394080629
 20
1.015700440789887
 42
0.0402956125279488
 10
7.984565753172716
 20
1.004604123856335
 42
0.0990852718276084
  0
LWPOLYLINE
  5
5C1
330
599
100
AcDbEntity
  8
TTLBLK
100
AcDbPolyline
 90
        7
 70
     0
 43
0.0
 10
8.163240631531193
 20
1.004604123856335
 42
0.139613483674188
 10
8.133574264101694
 20
1.03940115426304
 42
0.079743723868598
 10
8.099681066619156
 20
1.054873012600972
 42
0.067373177709196
 10
8.056060094107738
 20
1.060777581360896
 42
0.0673731777091967
 10
8.012439121596319
 20
1.054873012600971
 42
0.0797437238685967
 10
7.978545924113779
 20
1.03940115426304
 42
0.1396134836742667
 10
7.948879556684248
 20
1.004604123856335
 42
0.0112575158592377
  0
LWPOLYLINE
  5
5C2
330
599
100
AcDbEntity
  8
TTLBLK
100
AcDbPolyline
 90
        9
 70
     0
 43
0.0
 10
7.984565753172432
 20
0.9709836642402981
 42
0.0402956125282552
 10
7.988175394080629
 20
0.9598873473067463
 42
0.0987354107076148
 10
8.004109107835192
 20
0.9361866338335936
 42
0.0982446268369764
 10
8.027921334429384
 20
0.9203731151204262
 42
0.0979003842804642
 10
8.056060094107738
 20
0.9148102067357372
 42
0.0979003842804643
 10
8.084198853786091
 20
0.9203731151204262
 42
0.0982446268369812
 10
8.108011080380284
 20
0.9361866338335936
 42
0.0987354107076173
 10
8.123944794134848
 20
0.9598873473067463
 42
0.0402956125280495
 10
8.127554435042849
 20
0.9709836642402981
 42
0.0990852718276076
  0
LWPOLYLINE
  5
5C3
330
599
100
AcDbEntity
  8
TTLBLK
100
AcDbPolyline
 90
        7
 70
     0
 43
0.0
 10
7.948879556684239
 20
0.9709836642402981
 42
0.1396134836742874
 10
7.978545924113779
 20
0.9361866338335936
 42
0.0797437238685962
 10
8.012439121596319
 20
0.9207147754956611
 42
0.0673731777091956
 10
8.056060094107738
 20
0.9148102067357372
 42
0.0673731777091966
 10
8.099681066619156
 20
0.9207147754956611
 42
0.0797437238685986
 10
8.133574264101694
 20
0.9361866338335936
 42
0.1396134836742535
 10
8.163240631531222
 20
0.9709836642402981
 42
0.0112575158592222
  0
LWPOLYLINE
  5
5C4
330
599
100
AcDbEntity
  8
TTLBLK
100
AcDbPolyline
 90
        9
 70
     0
 43
0.0
 10
8.019738421578164
 20
0.9709836642402981
 42
0.0225820644691772
 10
8.021830465124029
 20
0.9583068353177605
 42
0.0660836885971876
 10
8.029672291556602
 20
0.9361866338335936
 42
0.1046981851423404
 10
8.043355767970714
 20
0.9193103543314855
 42
0.1718785820284506
 10
8.056060094107738
 20
0.9148102067357372
 42
0.1718785820284522
 10
8.068764420244761
 20
0.9193103543314855
 42
0.104698185142341
 10
8.082447896658873
 20
0.9361866338335936
 42
0.0660836885971958
 10
8.090289723091446
 20
0.9583068353177605
 42
0.0225820644691894
 10
8.092381766637343
 20
0.9709836642402981
 42
0.0522252130559461
  0
TEXT
  5
5C5
330
599
100
AcDbEntity
  8
TTLBLK
100
AcDbText
 10
9.108867509381648
 20
0.0653035243493853
 30
0.0
 40
0.042058823495
  1
DATE
  7
ADESK1
100
AcDbText
  0
TEXT
  5
5C6
330
599
100
AcDbEntity
  8
TTLBLK
100
AcDbText
 10
8.461808686381647
 20
0.0653035243493853
 30
0.0
 40
0.042058823495
  1
DRN BY
  7
ADESK1
100
AcDbText
  0
TEXT
  5
5C7
330
599
100
AcDbEntity
  8
TTLBLK
100
AcDbText
 10
7.833944300746317
 20
0.3392682300075852
 30
0.0
 40
0.042058823495
  1
SIZE
  7
ADESK1
100
AcDbText
  0
TEXT
  5
5C8
330
599
100
AcDbEntity
  8
TTLBLK
100
AcDbText
 10
7.810909006647523
 20
0.1037291075318626
 30
0.0
 40
0.042058823495
  1
DO NOT SCALE
  7
ADESK1
100
AcDbText
  0
TEXT
  5
5C9
330
599
100
AcDbEntity
  8
TTLBLK
100
AcDbText
 10
7.810909006647523
 20
0.0370494097822579
 30
0.0
 40
0.042058823495
  1
THIS DRAWING
  7
ADESK1
100
AcDbText
  0
TEXT
  5
5CA
330
599
100
AcDbEntity
  8
TTLBLK
100
AcDbText
 10
8.067532535849329
 20
0.3392682300075852
 30
0.0
 40
0.042058823495
  1
DWG NO.
  7
ADESK1
100
AcDbText
  0
TEXT
  5
5CB
330
599
100
AcDbEntity
  8
TTLBLK
100
AcDbText
 10
8.337219479650988
 20
0.8442328249041123
 30
0.0
 40
0.265714727921617
  1
HUBBELL POWER SYSTEMS
 41
0.4032456425231655
  7
ADESK1
 72
     5
 11
10.49039020401279
 21
0.8442328249041123
 31
0.0
100
AcDbText
  0
TEXT
  5
5CC
330
599
100
AcDbEntity
  8
TTLBLK
100
AcDbText
 10
6.50028982665017
 20
0.0474854551206694
 30
0.0
 40
0.0404411764375
  1
COPYRIGHT LAWS.
  7
ADESK1
100
AcDbText
  0
TEXT
  5
5CD
330
599
100
AcDbEntity
  8
TTLBLK
100
AcDbText
 10
6.50028982665017
 20
0.6367711689242414
 30
0.0
 40
0.0404411764375
  1
CONFIDENTIAL: THIS DRAWING AND ITS
  7
ADESK1
100
AcDbText
  0
TEXT
  5
5CE
330
599
100
AcDbEntity
  8
TTLBLK
100
AcDbText
 10
6.50028982665017
 20
0.5712949785016223
 30
0.0
 40
0.0404411764375
  1
CONTENTS ARE CONFIDENTIAL AND THE
  7
ADESK1
100
AcDbText
  0
TEXT
  5
5CF
330
599
100
AcDbEntity
  8
TTLBLK
100
AcDbText
 10
6.50028982665017
 20
0.5058187880790032
 30
0.0
 40
0.0404411764375
  1
EXCLUSIVE PROPERTY OF HUBBELL
  7
ADESK1
100
AcDbText
  0
TEXT
  5
5D0
330
599
100
AcDbEntity
  8
TTLBLK
100
AcDbText
 10
6.50028982665017
 20
0.4403425976563841
 30
0.0
 40
0.0404411764375
  1
POWER SYSTEMS, INC. NO PUBLICATION,
  7
ADESK1
100
AcDbText
  0
TEXT
  5
5D1
330
599
100
AcDbEntity
  8
TTLBLK
100
AcDbText
 10
6.50028982665017
 20
0.3748664072337648
 30
0.0
 40
0.0404411764375
  1
DISTRIBUTION OR COPIES MAY BE MADE
  7
ADESK1
100
AcDbText
  0
TEXT
  5
5D2
330
599
100
AcDbEntity
  8
TTLBLK
100
AcDbText
 10
6.50028982665017
 20
0.3093902168111456
 30
0.0
 40
0.0404411764375
  1
WITHOUT THE PRIOR WRITTEN CONSENT
  7
ADESK1
100
AcDbText
  0
TEXT
  5
5D3
330
599
100
AcDbEntity
  8
TTLBLK
100
AcDbText
 10
6.50028982665017
 20
0.2439140263885267
 30
0.0
 40
0.0404411764375
  1
OF HUBBELL POWER SYSTEMS, INC.
  7
ADESK1
100
AcDbText
  0
TEXT
  5
5D4
330
599
100
AcDbEntity
  8
TTLBLK
100
AcDbText
 10
6.50028982665017
 20
0.1784378359659075
 30
0.0
 40
0.0404411764375
  1
HUBBELL POWER SYSTEMS UNPUBLISHED
  7
ADESK1
100
AcDbText
  0
TEXT
  5
5D5
330
599
100
AcDbEntity
  8
TTLBLK
100
AcDbText
 10
6.50028982665017
 20
0.1129616455432884
 30
0.0
 40
0.0404411764375
  1
ALL RIGHTS RESERVED UNDER THE
  7
ADESK1
100
AcDbText
  0
TEXT
  5
5D6
330
599
100
AcDbEntity
  8
TTLBLK
100
AcDbText
 10
6.758855404266157
 20
0.7972170521232514
 30
0.0
 40
0.1213235293125
  1
HELICAL
  7
BOLD
 72
     1
 11
7.143046580422407
 21
0.7972170521232514
 31
0.0
100
AcDbText
  0
ATTDEF
  5
5D7
330
599
100
AcDbEntity
  8
TTLBLK
100
AcDbText
 10
9.055933375376765
 20
0.6467313204304416
 30
0.0
 40
0.1294117646
  1
--
 41
0.6
  7
ROMANS
 72
     4
 11
9.152067829079623
 21
0.7021935052590131
 31
0.0
100
AcDbAttributeDefinition
  3
Title line 1
  2
TITLE1
 70
     0
  0
ATTDEF
  5
5D8
330
599
100
AcDbEntity
  8
TTLBLK
100
AcDbText
 10
9.055933375376765
 20
0.4600094063793851
 30
0.0
 40
0.1294117646
  1
--
 41
0.6
  7
ROMANS
 72
     4
 11
9.152067829079623
 21
0.5154715912079566
 31
0.0
100
AcDbAttributeDefinition
  3
Title line 2
  2
TITLE2
 70
     0
  0
ATTDEF
  5
5D9
330
599
100
AcDbEntity
  8
TTLBLK
100
AcDbText
 10
8.069325426735334
 20
0.203712418132333
 30
0.0
 40
0.080882352875
  1
--
 41
0.75
  7
ROMANS
100
AcDbAttributeDefinition
  3
Dwg #
  2
DWG
 70
     0
  0
ATTDEF
  5
5DA
330
599
100
AcDbEntity
  8
TTLBLK
100
AcDbText
 10
10.3709901218558
 20
0.203712418132333
 30
0.0
 40
0.080882352875
  1
-
 41
0.75
  7
ROMANS
100
AcDbAttributeDefinition
  3
Rev #
  2
RV
 70
     0
  0
ATTDEF
  5
5DB
330
599
100
AcDbEntity
  8
TTLBLK
100
AcDbText
 10
7.860597032982145
 20
0.203712418132333
 30
0.0
 40
0.080882352875
  1
A
 41
0.75
  7
ROMANS
100
AcDbAttributeDefinition
  3
Dwg Size
  2
X
 70
     0
  0
ATTDEF
  5
5DC
330
599
100
AcDbEntity
  8
TTLBLK
100
AcDbText
 10
8.762897543347701
 20
0.0547612675773345
 30
0.0
 40
0.06066176465625
  1
--
 41
0.75
  7
ROMANS
100
AcDbAttributeDefinition
  3
Drawn By
  2
DFT
 70
     0
  0
ATTDEF
  5
5DD
330
599
100
AcDbEntity
  8
TTLBLK
100
AcDbText
 10
9.289283953585337
 20
0.0547612675773345
 30
0.0
 40
0.06066176465625
  1
--
 41
0.75
  7
ROMANS
100
AcDbAttributeDefinition
  3
Drawn Date
  2
DATE
 70
     0
  0
ATTDEF
  5
5DE
330
599
100
AcDbEntity
  8
TTLBLK
100
AcDbText
 10
10.07418077639689
 20
0.0547612675773345
 30
0.0
 40
0.06066176465625
  1
--
 41
0.75
  7
ROMANS
100
AcDbAttributeDefinition
  3
Sht x OF x
  2
SHT
 70
     0
  0
ENDBLK
  5
59B
330
599
100
AcDbEntity
  8
0
100
AcDbBlockEnd
  0
BLOCK
  5
871
330
866
100
AcDbEntity
  8
0
100
AcDbBlockBegin
  2
*D3
 70
     1
 10
0.0
 20
0.0
 30
0.0
  3
*D3
  1

  0
LINE
  5
873
330
866
100
AcDbEntity
  8
0
  6
Continuous
 62
     0
370
    -2
100
AcDbLine
 10
54.24619643449344
 20
47.79681205157507
 30
0.0
 11
44.12755381185443
 21
47.79681205157508
 31
0.0
  0
LINE
  5
874
330
866
100
AcDbEntity
  8
0
  6
Continuous
 62
     0
370
    -2
100
AcDbLine
 10
54.28169453449251
 20
82.77466155548273
 30
0.0
 11
44.12755381185444
 21
82.77466155548273
 31
0.0
  0
LINE
  5
875
330
866
100
AcDbEntity
  8
0
  6
Continuous
 62
     0
370
    -2
100
AcDbLine
 10
45.47755381185444
 20
49.14681205157509
 30
0.0
 11
45.47755381185444
 21
63.93573680352891
 31
0.0
  0
LINE
  5
876
330
866
100
AcDbEntity
  8
0
  6
Continuous
 62
     0
370
    -2
100
AcDbLine
 10
45.47755381185445
 20
81.42466155548273
 30
0.0
 11
45.47755381185444
 21
66.63573680352889
 31
0.0
  0
SOLID
  5
877
330
866
100
AcDbEntity
  8
0
  6
Continuous
 62
     0
100
AcDbTrace
 10
45.25255381185444
 20
49.14681205157509
 30
0.0
 11
45.70255381185444
 21
49.14681205157509
 31
0.0
 12
45.47755381185443
 22
47.79681205157508
 32
0.0
 13
45.47755381185443
 23
47.79681205157508
 33
0.0
  0
SOLID
  5
878
330
866
100
AcDbEntity
  8
0
  6
Continuous
 62
     0
100
AcDbTrace
 10
45.25255381185444
 20
81.42466155548273
 30
0.0
 11
45.70255381185445
 21
81.42466155548273
 31
0.0
 12
45.47755381185445
 22
82.77466155548273
 32
0.0
 13
45.47755381185445
 23
82.77466155548273
 33
0.0
  0
MTEXT
  5
879
330
866
100
AcDbEntity
  8
0
  6
Continuous
 62
     0
100
AcDbMText
 10
45.47755381185443
 20
65.28573680352891
 30
0.0
 40
1.349999999999999
 41
0.0
 71
     5
 72
     1
  1
\A1;35"
 73
     1
 44
1.0
1001
ACAD
1000
MTEXTBEGIN
1070
    73
1070
     1
1070
    44
1040
1.0
1070
    74
1070
     0
1000
MTEXTEND
  0
POINT
  5
87A
330
866
100
AcDbEntity
  8
DEFPOINTS
  6
Continuous
 62
     0
100
AcDbPoint
 10
54.71494643449344
 20
47.79681205157507
 30
0.0
  0
POINT
  5
87B
330
866
100
AcDbEntity
  8
DEFPOINTS
  6
Continuous
 62
     0
100
AcDbPoint
 10
54.75044453449251
 20
82.77466155548273
 30
0.0
  0
POINT
  5
87C
330
866
100
AcDbEntity
  8
DEFPOINTS
  6
Continuous
 62
     0
100
AcDbPoint
 10
45.47755381185445
 20
82.77466155548273
 30
0.0
  0
ENDBLK
  5
872
330
866
100
AcDbEntity
  8
0
100
AcDbBlockEnd
  0
ENDSEC
  0
SECTION
  2
ENTITIES
  0
DIMENSION
  5
761
330
1F
100
AcDbEntity
  8
0
  6
Continuous
100
AcDbDimension
  2
*D3
 10
45.47755381185445
 20
82.77466155548273
 30
0.0
 11
45.47755381185443
 21
65.28573680352891
 31
0.0
 70
    32
  1
35"
 71
     5
 42
34.97784950390764
  3
Standard
100
AcDbAlignedDimension
 13
54.71494643449344
 23
47.79681205157507
 33
0.0
 14
54.75044453449251
 24
82.77466155548273
 34
0.0
 50
90.0
100
AcDbRotatedDimension
1001
ACAD
1000
DSTYLE
1002
{
1070
    40
1040
7.5
1002
}
  0
ARC
  5
762
330
1F
100
AcDbEntity
  8
0
100
AcDbCircle
 10
54.43050264440038
 20
47.79681205157507
 30
0.0
 40
0.8344437900921093
100
AcDbArc
 50
337.0957167739633
 51
22.90428322603694
  0
ARC
  5
763
330
1F
100
AcDbEntity
  8
0
100
AcDbCircle
 10
55.03166400275453
 20
48.28395134120624
 30
0.0
 40
0.2332824317474266
100
AcDbArc
 50
315.8878458305161
 51
44.11215416948386
  0
ARC
  5
764
330
1F
100
AcDbEntity
  8
0
100
AcDbCircle
 10
55.03166400275453
 20
47.30967276194392
 30
0.0
 40
0.2332824317474266
100
AcDbArc
 50
315.8878458305161
 51
44.11215416948386
  0
LINE
  5
765
330
1F
100
AcDbEntity
  8
0
100
AcDbLine
 10
55.26494643449635
 20
48.28395134120624
 30
0.0
 11
55.26494643449635
 21
47.30967276194392
 31
0.0
  0
ARC
  5
766
330
1F
100
AcDbEntity
  8
0
100
AcDbCircle
 10
54.94822886624982
 20
48.28395134120624
 30
0.0
 40
0.2332824317474266
100
AcDbArc
 50
135.8878458305161
 51
224.1121541694838
  0
ARC
  5
767
330
1F
100
AcDbEntity
  8
0
100
AcDbCircle
 10
55.54939022458942
 20
47.79681205157507
 30
0.0
 40
0.8344437900921093
100
AcDbArc
 50
157.095716773963
 51
202.9042832260366
  0
LINE
  5
768
330
1F
100
AcDbEntity
  8
0
100
AcDbLine
 10
54.71494643449344
 20
48.28395134120624
 30
0.0
 11
54.71494643449344
 21
47.30967276194392
 31
0.0
  0
ARC
  5
769
330
1F
100
AcDbEntity
  8
0
100
AcDbCircle
 10
54.94822886624982
 20
47.30967276194392
 30
0.0
 40
0.2332824317474266
100
AcDbArc
 50
135.8878458305161
 51
224.1121541694838
  0
ARC
  5
76A
330
1F
100
AcDbEntity
  8
0
100
AcDbCircle
 10
58.5093939245846
 20
47.79681205157507
 30
0.0
 40
0.8344437900921093
100
AcDbArc
 50
157.095716773963
 51
202.9042832260366
  0
ARC
  5
76B
330
1F
100
AcDbEntity
  8
0
100
AcDbCircle
 10
57.908232566245
 20
48.28395134120624
 30
0.0
 40
0.2332824317474266
100
AcDbArc
 50
135.8878458305161
 51
224.1121541694838
  0
ARC
  5
76C
330
1F
100
AcDbEntity
  8
0
100
AcDbCircle
 10
57.908232566245
 20
47.30967276194392
 30
0.0
 40
0.2332824317474266
100
AcDbArc
 50
135.8878458305161
 51
224.1121541694838
  0
LINE
  5
76D
330
1F
100
AcDbEntity
  8
0
100
AcDbLine
 10
57.67495013448862
 20
48.28395134120624
 30
0.0
 11
57.67495013448862
 21
47.30967276194392
 31
0.0
  0
ARC
  5
76E
330
1F
100
AcDbEntity
  8
0
100
AcDbCircle
 10
57.83966770274784
 20
47.30967276194392
 30
0.0
 40
0.2332824317474266
100
AcDbArc
 50
315.8878458305161
 51
44.11215416948386
  0
ARC
  5
76F
330
1F
100
AcDbEntity
  8
0
100
AcDbCircle
 10
57.83966770274784
 20
48.28395134120624
 30
0.0
 40
0.2332824317474266
100
AcDbArc
 50
315.8878458305161
 51
44.11215416948386
  0
ARC
  5
770
330
1F
100
AcDbEntity
  8
0
100
AcDbCircle
 10
57.2385063443937
 20
47.79681205157507
 30
0.0
 40
0.8344437900921093
100
AcDbArc
 50
337.0957167739633
 51
22.90428322603694
  0
LINE
  5
771
330
1F
100
AcDbEntity
  8
0
100
AcDbLine
 10
58.07295013448968
 20
48.17181205157508
 30
0.0
 11
58.17495013448862
 21
48.06981205157613
 31
0.0
  0
LINE
  5
772
330
1F
100
AcDbEntity
  8
0
100
AcDbLine
 10
58.07295013448968
 20
47.42181205157508
 30
0.0
 11
58.17495013448862
 21
47.52381205157403
 31
0.0
  0
LINE
  5
773
330
1F
100
AcDbEntity
  8
0
100
AcDbLine
 10
55.19915580990576
 20
47.14729299873838
 30
0.0
 11
54.78073705909858
 21
47.14729299873838
 31
0.0
  0
LINE
  5
774
330
1F
100
AcDbEntity
  8
0
100
AcDbLine
 10
55.19915580990576
 20
47.47205252514945
 30
0.0
 11
54.78073705909858
 21
47.47205252514945
 31
0.0
  0
LINE
  5
775
330
1F
100
AcDbEntity
  8
0
100
AcDbLine
 10
55.19915580990576
 20
48.12157157798615
 30
0.0
 11
54.78073705909858
 21
48.12157157798615
 31
0.0
  0
LINE
  5
776
330
1F
100
AcDbEntity
  8
0
100
AcDbLine
 10
58.00715950989908
 20
47.14729299873838
 30
0.0
 11
57.74074075909377
 21
47.14729299873838
 31
0.0
  0
LINE
  5
777
330
1F
100
AcDbEntity
  8
0
100
AcDbLine
 10
58.00715950989908
 20
47.47205252514945
 30
0.0
 11
57.74074075909377
 21
47.47205252514945
 31
0.0
  0
LINE
  5
778
330
1F
100
AcDbEntity
  8
0
100
AcDbLine
 10
58.00715950989908
 20
48.12157157798615
 30
0.0
 11
57.74074075909377
 21
48.12157157798615
 31
0.0
  0
LINE
  5
779
330
1F
100
AcDbEntity
  8
0
100
AcDbLine
 10
55.19915580990576
 20
48.44633110441177
 30
0.0
 11
54.78073705909858
 21
48.44633110441177
 31
0.0
  0
LINE
  5
77A
330
1F
100
AcDbEntity
  8
0
100
AcDbLine
 10
58.00715950989908
 20
48.44633110441177
 30
0.0
 11
57.74074075909377
 21
48.44633110441177
 31
0.0
  0
LINE
  5
77B
330
1F
100
AcDbEntity
  8
0
100
AcDbLine
 10
58.17495013448862
 20
48.06981205157613
 30
0.0
 11
58.17495013448862
 21
47.52381205157403
 31
0.0
  0
LINE
  5
77C
330
1F
100
AcDbEntity
  8
0
100
AcDbLine
 10
58.07295013448968
 20
48.28395134120624
 30
0.0
 11
58.07295013448968
 21
47.30967276194392
 31
0.0
  0
LINE
  5
77D
330
1F
100
AcDbEntity
  8
0
  6
HIDDEN
100
AcDbLine
 10
57.21994828449249
 20
46.29680685157508
 30
0.0
 11
55.71994828449248
 21
46.29680685157508
 31
0.0
  0
LINE
  5
77E
330
1F
100
AcDbEntity
  8
0
  6
Continuous
100
AcDbLine
 10
57.21994828449249
 20
38.7968068515752
 30
0.0
 11
55.71994828449248
 21
38.7968068515752
 31
0.0
  0
LINE
  5
77F
330
1F
100
AcDbEntity
  8
0
  6
HIDDEN
100
AcDbLine
 10
57.21994828449249
 20
40.29680685157519
 30
0.0
 11
55.71994828449248
 21
40.29680685157519
 31
0.0
  0
LINE
  5
780
330
1F
100
AcDbEntity
  8
0
  6
HIDDEN
100
AcDbLine
 10
57.21994828449249
 20
40.29680685157508
 30
0.0
 11
55.71994828449248
 21
40.29680685157514
 31
0.0
  0
LINE
  5
781
330
1F
100
AcDbEntity
  8
0
  6
Continuous
100
AcDbLine
 10
55.71994828449248
 20
38.79680685157514
 30
0.0
 11
57.21994828449249
 21
38.79680685157514
 31
0.0
  0
LINE
  5
782
330
1F
100
AcDbEntity
  8
0
  6
HIDDEN
100
AcDbLine
 10
55.71994828449248
 20
41.79680685157514
 30
0.0
 11
57.21994828449249
 21
41.79680685157514
 31
0.0
  0
LINE
  5
783
330
1F
100
AcDbEntity
  8
0
  6
HIDDEN
100
AcDbLine
 10
57.21994828449249
 20
41.79680685157514
 30
0.0
 11
55.71994828449248
 21
41.79680685157514
 31
0.0
  0
LINE
  5
784
330
1F
100
AcDbEntity
  8
0
  6
HIDDEN
100
AcDbLine
 10
55.71994828449248
 20
41.79680685157514
 30
0.0
 11
57.21994828449249
 21
41.79680685157514
 31
0.0
  0
LINE
  5
785
330
1F
100
AcDbEntity
  8
0
  6
Continuous
100
AcDbLine
 10
57.21994828449249
 20
40.29680685157514
 30
0.0
 11
55.71994828449248
 21
40.29680685157514
 31
0.0
  0
LINE
  5
786
330
1F
100
AcDbEntity
  8
0
  6
HIDDEN
100
AcDbLine
 10
55.71994828449248
 20
40.57964956404972
 30
0.0
 11
56.93710557201791
 21
41.79680685157514
 31
0.0
  0
LINE
  5
787
330
1F
100
AcDbEntity
  8
0
  6
HIDDEN
100
AcDbLine
 10
55.86136964072977
 20
40.29680685157514
 30
0.0
 11
57.21994828449249
 21
41.65538549533785
 31
0.0
  0
LINE
  5
788
330
1F
100
AcDbEntity
  8
0
  6
HIDDEN
100
AcDbLine
 10
56.28563370944141
 20
40.29680685157514
 30
0.0
 11
57.21994828449249
 21
41.23112142662598
 31
0.0
  0
LINE
  5
789
330
1F
100
AcDbEntity
  8
0
  6
Continuous
100
AcDbLine
 10
57.21994828449249
 20
38.7968068515752
 30
0.0
 11
55.71994828449248
 21
38.7968068515752
 31
0.0
  0
LINE
  5
78A
330
1F
100
AcDbEntity
  8
0
  6
Continuous
100
AcDbLine
 10
55.71994828449248
 20
38.7968068515752
 30
0.0
 11
57.21994828449249
 21
38.7968068515752
 31
0.0
  0
LINE
  5
78B
330
1F
100
AcDbEntity
  8
0
  6
HIDDEN
100
AcDbLine
 10
55.71994828449248
 20
41.00391363276169
 30
0.0
 11
56.51284150330582
 21
41.79680685157514
 31
0.0
  0
LINE
  5
78C
330
1F
100
AcDbEntity
  8
0
  6
Continuous
100
AcDbLine
 10
55.71994828449248
 20
40.29680685157514
 30
0.0
 11
55.71994828449248
 21
46.29680685157508
 31
0.0
  0
LINE
  5
78D
330
1F
100
AcDbEntity
  8
0
  6
HIDDEN
100
AcDbLine
 10
55.71994828449248
 20
41.42817770147367
 30
0.0
 11
56.08857743459395
 21
41.79680685157514
 31
0.0
  0
LINE
  5
78E
330
1F
100
AcDbEntity
  8
0
  6
Continuous
100
AcDbLine
 10
57.21994828449249
 20
40.29680685157514
 30
0.0
 11
57.21994828449249
 21
46.29680685157508
 31
0.0
  0
LINE
  5
78F
330
1F
100
AcDbEntity
  8
0
  6
HIDDEN
100
AcDbLine
 10
57.13416184686536
 20
40.29680685157514
 30
0.0
 11
57.21994828449249
 21
40.38259328920214
 31
0.0
  0
LINE
  5
790
330
1F
100
AcDbEntity
  8
0
  6
HIDDEN
100
AcDbLine
 10
56.7098977781535
 20
40.29680685157514
 30
0.0
 11
57.21994828449249
 21
40.80685735791412
 31
0.0
  0
LINE
  5
791
330
1F
100
AcDbEntity
  8
0
  6
HIDDEN
100
AcDbLine
 10
61.46994828449249
 20
34.29680685157509
 30
0.0
 11
61.46994828449249
 21
33.92180685157509
 31
0.0
  0
LINE
  5
792
330
1F
100
AcDbEntity
  8
0
  6
HIDDEN
100
AcDbLine
 10
61.46994828449249
 20
31.29680685157508
 30
0.0
 11
61.46994828449249
 21
30.92180685157508
 31
0.0
  0
LINE
  5
793
330
1F
100
AcDbEntity
  8
0
  6
Continuous
100
AcDbLine
 10
60.46994828449249
 20
22.29680685157509
 30
0.0
 11
60.46994828449249
 21
21.92180685157508
 31
0.0
  0
LINE
  5
794
330
1F
100
AcDbEntity
  8
0
  6
Continuous
100
AcDbLine
 10
60.46994828449249
 20
19.29680685157508
 30
0.0
 11
60.46994828449249
 21
18.92180685157508
 31
0.0
  0
LINE
  5
795
330
1F
100
AcDbEntity
  8
0
  6
HIDDEN
100
AcDbLine
 10
55.71994828449248
 20
26.89214956404966
 30
0.0
 11
56.93710557201791
 21
28.10930685157508
 31
0.0
  0
LINE
  5
796
330
1F
100
AcDbEntity
  8
0
  6
HIDDEN
100
AcDbLine
 10
55.71994828449248
 20
28.10930685157508
 30
0.0
 11
57.21994828449249
 21
28.10930685157508
 31
0.0
  0
LINE
  5
797
330
1F
100
AcDbEntity
  8
0
  6
HIDDEN
100
AcDbLine
 10
57.21994828449249
 20
28.10930685157508
 30
0.0
 11
55.71994828449248
 21
28.10930685157508
 31
0.0
  0
LINE
  5
798
330
1F
100
AcDbEntity
  8
0
  6
HIDDEN
100
AcDbLine
 10
55.71994828449248
 20
28.10930685157508
 30
0.0
 11
57.21994828449249
 21
28.10930685157508
 31
0.0
  0
LINE
  5
799
330
1F
100
AcDbEntity
  8
0
  6
HIDDEN
100
AcDbLine
 10
57.21994828449249
 20
26.60930685157508
 30
0.0
 11
55.71994828449248
 21
26.60930685157508
 31
0.0
  0
LINE
  5
79A
330
1F
100
AcDbEntity
  8
0
  6
HIDDEN
100
AcDbLine
 10
57.21994828449249
 20
26.60930685157503
 30
0.0
 11
55.71994828449248
 21
26.60930685157508
 31
0.0
  0
LINE
  5
79B
330
1F
100
AcDbEntity
  8
0
  6
HIDDEN
100
AcDbLine
 10
56.28563370944141
 20
26.60930685157508
 30
0.0
 11
57.21994828449249
 21
27.54362142662593
 31
0.0
  0
LINE
  5
79C
330
1F
100
AcDbEntity
  8
0
  6
HIDDEN
100
AcDbLine
 10
55.86136964072977
 20
26.60930685157508
 30
0.0
 11
57.21994828449249
 21
27.9678854953378
 31
0.0
  0
LWPOLYLINE
  5
79D
330
1F
100
AcDbEntity
  8
0
  6
Continuous
100
AcDbPolyline
 90
        3
 70
     0
 43
0.0
 10
56.46994828449249
 20
33.54680694757509
 10
57.21994828449249
 20
33.92180689957509
 10
57.21994828449249
 20
34.67180677957511
  0
LINE
  5
79E
330
1F
100
AcDbEntity
  8
0
  6
Continuous
100
AcDbLine
 10
55.71994828449248
 20
26.60930685157508
 30
0.0
 11
55.71994828449248
 21
32.79680655157513
 31
0.0
  0
LINE
  5
79F
330
1F
100
AcDbEntity
  8
0
  6
HIDDEN
100
AcDbLine
 10
55.71994828449248
 20
27.74067770147361
 30
0.0
 11
56.08857743459395
 21
28.10930685157508
 31
0.0
  0
LINE
  5
7A0
330
1F
100
AcDbEntity
  8
0
  6
HIDDEN
100
AcDbLine
 10
55.71994828449248
 20
27.31641363276164
 30
0.0
 11
56.51284150330582
 21
28.10930685157508
 31
0.0
  0
LWPOLYLINE
  5
7A1
330
1F
100
AcDbEntity
  8
0
  6
Continuous
100
AcDbPolyline
 90
        4
 70
     0
 43
0.0
 10
55.71994828449248
 20
32.04680667157511
 10
55.71994828449248
 20
32.04680667157511
 10
55.71994828449248
 20
32.79680655157513
 10
56.46994828449249
 20
33.17180695957508
  0
LWPOLYLINE
  5
7A2
330
1F
100
AcDbEntity
  8
0
  6
HIDDEN
100
AcDbPolyline
 90
        3
 70
     0
 43
0.0
 10
55.71994828449248
 20
32.42180667157511
 10
55.71994828449248
 20
32.42180667157511
 10
55.71994828449248
 20
32.79680655157513
  0
LINE
  5
7A3
330
1F
100
AcDbEntity
  8
0
  6
HIDDEN
100
AcDbLine
 10
51.46994828449249
 20
32.79680709157505
 30
0.0
 11
51.46994828449249
 21
32.42180709157505
 31
0.0
  0
LWPOLYLINE
  5
7A4
330
1F
100
AcDbEntity
  8
0
  6
Continuous
100
AcDbPolyline
 90
       19
 70
     0
 43
0.0
 10
56.46994828449249
 20
33.54680697157507
 10
56.03416957075421
 20
33.50514031157509
 10
55.60170739615784
 20
33.46347365157506
 10
55.1758530589799
 20
33.42180699157508
 10
54.75984756786414
 20
33.38014033157505
 10
54.35685697578901
 20
33.33847367157507
 10
53.96994828449249
 20
33.2968070115751
 10
53.60206610273724
 20
33.25514035157507
 10
53.2560102360598
 20
33.21347369157509
 10
52.93441437855972
 20
33.17180703157506
 10
52.63972606889763
 20
33.13014037157508
 10
52.37418806304754
 20
33.08847371157505
 10
52.13982126557027
 20
33.04680705157507
 10
51.93840934930927
 20
33.0051403915751
 10
51.77148518056293
 20
32.96347373157507
 10
51.64031915304713
 20
32.92180707157509
 10
51.54590951943146
 20
32.88014041157506
 10
51.48897479403377
 20
32.83847375157508
 10
51.46994828449249
 20
32.79680709157505
  0
LWPOLYLINE
  5
7A5
330
1F
100
AcDbEntity
  8
0
  6
Continuous
100
AcDbPolyline
 90
       36
 70
     0
 43
0.0
 10
56.46994828449249
 20
33.17180697157507
 10
56.03416957075421
 20
33.13014031157509
 10
55.60170739615784
 20
33.08847365157506
 10
55.1758530589799
 20
33.04680699157508
 10
54.75984756786414
 20
33.00514033157505
 10
54.35685697578901
 20
32.96347367157507
 10
53.96994828449249
 20
32.9218070115751
 10
53.60206610273724
 20
32.88014035157507
 10
53.2560102360598
 20
32.83847369157509
 10
52.93441437855972
 20
32.79680703157506
 10
52.63972606889763
 20
32.75514037157508
 10
52.37418806304754
 20
32.71347371157505
 10
52.13982126557027
 20
32.67180705157507
 10
51.93840934930927
 20
32.6301403915751
 10
51.77148518056293
 20
32.58847373157506
 10
51.64031915304713
 20
32.54680707157509
 10
51.54590951943146
 20
32.50514041157506
 10
51.48897479403377
 20
32.46347375157508
 10
51.46994828449249
 20
32.42180709157505
 10
51.48897479403377
 20
32.38014043157507
 10
51.54590951943146
 20
32.33847377157504
 10
51.64031915304713
 20
32.29680711157506
 10
51.77148518056293
 20
32.25514045157509
 10
51.93840934930927
 20
32.21347379157506
 10
52.13982126557027
 20
32.17180713157508
 10
52.37418806304754
 20
32.13014047157505
 10
52.63972606889763
 20
32.08847381157507
 10
52.93441437855972
 20
32.04680715157504
 10
53.2560102360598
 20
32.00514049157507
 10
53.60206610273724
 20
31.96347383157503
 10
53.96994828449249
 20
31.92180717157505
 10
54.35685697578901
 20
31.88014051157508
 10
54.75984756786414
 20
31.83847385157505
 10
55.1758530589799
 20
31.79680719157507
 10
55.60170739615784
 20
31.75514053157504
 10
55.71994828449248
 20
31.74374831303853
  0
LINE
  5
7A6
330
1F
100
AcDbEntity
  8
0
  6
Continuous
100
AcDbLine
 10
57.21994828449249
 20
26.60930685157508
 30
0.0
 11
57.21994828449249
 21
30.92180685157508
 31
0.0
  0
LINE
  5
7A7
330
1F
100
AcDbEntity
  8
0
  6
HIDDEN
100
AcDbLine
 10
56.7098977781535
 20
26.60930685157508
 30
0.0
 11
57.21994828449249
 21
27.11935735791407
 31
0.0
  0
LINE
  5
7A8
330
1F
100
AcDbEntity
  8
0
  6
HIDDEN
100
AcDbLine
 10
57.13416184686536
 20
26.60930685157508
 30
0.0
 11
57.21994828449249
 21
26.69509328920209
 31
0.0
  0
LWPOLYLINE
  5
7A9
330
1F
100
AcDbEntity
  8
0
  6
HIDDEN
100
AcDbPolyline
 90
        2
 70
     0
 43
0.0
 10
57.21994828449249
 20
33.92180689957509
 10
57.21994828449249
 20
34.29680677957511
  0
LINE
  5
7AA
330
1F
100
AcDbEntity
  8
0
  6
Continuous
100
AcDbLine
 10
57.21994828449249
 20
30.92180685157508
 30
0.0
 11
57.21994828449249
 21
33.24374807467906
 31
0.0
  0
LINE
  5
7AB
330
1F
100
AcDbEntity
  8
0
  6
HIDDEN
100
AcDbLine
 10
57.21994828449249
 20
33.92180689957509
 30
0.0
 11
57.21994828449249
 21
35.79680685157509
 31
0.0
  0
LINE
  5
7AC
330
1F
100
AcDbEntity
  8
0
  6
HIDDEN
100
AcDbLine
 10
55.71994828449248
 20
25.10930685157514
 30
0.0
 11
57.21994828449249
 21
25.10930685157514
 31
0.0
  0
LINE
  5
7AD
330
1F
100
AcDbEntity
  8
0
  6
HIDDEN
100
AcDbLine
 10
57.21994828449249
 20
25.10930685157514
 30
0.0
 11
55.71994828449248
 21
25.10930685157514
 31
0.0
  0
LINE
  5
7AE
330
1F
100
AcDbEntity
  8
0
  6
Continuous
100
AcDbLine
 10
55.71994828449248
 20
25.10930685157509
 30
0.0
 11
57.21994828449249
 21
25.10930685157509
 31
0.0
  0
LWPOLYLINE
  5
7AF
330
1F
100
AcDbEntity
  8
0
  6
Continuous
100
AcDbPolyline
 90
        3
 70
     0
 43
0.0
 10
56.46994828449249
 20
21.54680325157502
 10
57.21994828449249
 20
21.92180265157499
 10
57.21994828449249
 20
23.79680685157509
  0
LINE
  5
7B0
330
1F
100
AcDbEntity
  8
0
  6
Continuous
100
AcDbLine
 10
55.71994828449248
 20
17.42180685157508
 30
0.0
 11
55.71994828449248
 21
20.79680385157503
 31
0.0
  0
LINE
  5
7B1
330
1F
100
AcDbEntity
  8
0
  6
Continuous
100
AcDbLine
 10
55.71994828449248
 20
25.10930685157509
 30
0.0
 11
55.71994828449248
 21
23.79680685157508
 31
0.0
  0
LINE
  5
7B2
330
1F
100
AcDbEntity
  8
0
  6
Continuous
100
AcDbLine
 10
55.71994828449248
 20
21.45669357555922
 30
0.0
 11
55.71994828449248
 21
23.79680685157508
 31
0.0
  0
LWPOLYLINE
  5
7B3
330
1F
100
AcDbEntity
  8
0
  6
Continuous
100
AcDbPolyline
 90
        3
 70
     0
 43
0.0
 10
55.71994828449248
 20
20.04680505157502
 10
55.71994828449248
 20
20.79680385157504
 10
56.46994828449249
 20
21.17180325157502
  0
LWPOLYLINE
  5
7B4
330
1F
100
AcDbEntity
  8
0
  6
HIDDEN
100
AcDbPolyline
 90
        2
 70
     0
 43
0.0
 10
55.71994828449248
 20
20.42180505157503
 10
55.71994828449248
 20
20.79680385157504
  0
LINE
  5
7B5
330
1F
100
AcDbEntity
  8
0
  6
HIDDEN
100
AcDbLine
 10
52.46994828449249
 20
20.79680445157506
 30
0.0
 11
52.46994828449249
 21
20.42180445157506
 31
0.0
  0
LINE
  5
7B6
330
1F
100
AcDbEntity
  8
0
  6
Continuous
100
AcDbLine
 10
57.21994828449249
 20
17.42180685157508
 30
0.0
 11
57.21994828449249
 21
21.26191292759087
 31
0.0
  0
LINE
  5
7B7
330
1F
100
AcDbEntity
  8
0
  6
Continuous
100
AcDbLine
 10
57.21994828449249
 20
16.10930685157508
 30
0.0
 11
57.21994828449249
 21
17.42180685157508
 31
0.0
  0
LINE
  5
7B8
330
1F
100
AcDbEntity
  8
0
  6
Continuous
100
AcDbLine
 10
57.21994828449249
 20
21.92180265157505
 30
0.0
 11
57.21994828449249
 21
23.79680685157508
 31
0.0
  0
LWPOLYLINE
  5
7B9
330
1F
100
AcDbEntity
  8
0
  6
HIDDEN
100
AcDbPolyline
 90
        2
 70
     0
 43
0.0
 10
57.21994828449249
 20
21.92180265157499
 10
57.21994828449249
 20
21.92180685157509
  0
LINE
  5
7BA
330
1F
100
AcDbEntity
  8
0
  6
HIDDEN
100
AcDbLine
 10
57.21994828449249
 20
21.92180265157505
 30
0.0
 11
57.21994828449249
 21
22.29680685157509
 31
0.0
  0
LINE
  5
7BB
330
1F
100
AcDbEntity
  8
0
  6
HIDDEN
100
AcDbLine
 10
57.21994828449249
 20
19.29680685157508
 30
0.0
 11
57.21994828449249
 21
21.26191292759087
 31
0.0
  0
LINE
  5
7BC
330
1F
100
AcDbEntity
  8
0
  6
Continuous
100
AcDbLine
 10
57.21994828449249
 20
23.79680685157508
 30
0.0
 11
57.21994828449249
 21
25.10930685157509
 31
0.0
  0
LWPOLYLINE
  5
7BD
330
1F
100
AcDbEntity
  8
0
  6
Continuous
100
AcDbPolyline
 90
       19
 70
     0
 43
0.0
 10
61.46994828449249
 20
34.29680685157509
 10
61.45092177495121
 20
34.25514019157511
 10
61.39398704955351
 20
34.21347353157508
 10
61.29957741593784
 20
34.1718068715751
 10
61.16841138842199
 20
34.13014021157507
 10
61.0014872196757
 20
34.08847355157509
 10
60.8000753034147
 20
34.04680689157506
 10
60.56570850593743
 20
34.00514023157509
 10
60.30017050008734
 20
33.96347357157511
 10
60.00548219042525
 20
33.92180691157508
 10
59.68388633292517
 20
33.8801402515751
 10
59.33783046624774
 20
33.83847359157507
 10
58.96994828449249
 20
33.79680693157509
 10
58.58303959319596
 20
33.75514027157506
 10
58.18004900112083
 20
33.71347361157508
 10
57.76404351000508
 20
33.67180695157505
 10
57.33818917282713
 20
33.63014029157508
 10
56.90572699823076
 20
33.5884736315751
 10
56.46994828449249
 20
33.54680697157507
  0
LWPOLYLINE
  5
7BE
330
1F
100
AcDbEntity
  8
0
  6
Continuous
100
AcDbPolyline
 90
       19
 70
     0
 43
0.0
 10
61.46994828449249
 20
33.92180685157509
 10
61.45092177495121
 20
33.88014019157511
 10
61.39398704955351
 20
33.83847353157508
 10
61.29957741593784
 20
33.7968068715751
 10
61.16841138842199
 20
33.75514021157507
 10
61.0014872196757
 20
33.71347355157509
 10
60.8000753034147
 20
33.67180689157506
 10
60.56570850593743
 20
33.63014023157508
 10
60.30017050008734
 20
33.58847357157511
 10
60.00548219042525
 20
33.54680691157508
 10
59.68388633292517
 20
33.5051402515751
 10
59.33783046624774
 20
33.46347359157507
 10
58.96994828449249
 20
33.42180693157509
 10
58.58303959319596
 20
33.38014027157506
 10
58.18004900112083
 20
33.33847361157508
 10
57.76404351000508
 20
33.29680695157505
 10
57.33818917282713
 20
33.25514029157508
 10
56.90572699823076
 20
33.2134736315751
 10
56.46994828449249
 20
33.17180697157507
  0
LWPOLYLINE
  5
7BF
330
1F
100
AcDbEntity
  8
0
  6
HIDDEN
100
AcDbPolyline
 90
       37
 70
     0
 43
0.0
 10
52.46994828449249
 20
20.79680445157506
 10
52.48516949212552
 20
20.83847105157504
 10
52.53071727244367
 20
20.88013765157503
 10
52.60624497933623
 20
20.92180425157502
 10
52.71117780134886
 20
20.96347085157506
 10
52.84471713634587
 20
21.00513745157504
 10
53.0058466693547
 20
21.04680405157503
 10
53.19334010733655
 20
21.08847065157501
 10
53.4057705120166
 20
21.13013725157506
 10
53.64152115974627
 20
21.17180385157504
 10
53.89879784574635
 20
21.21347045157502
 10
54.1756425390883
 20
21.25513705157507
 10
54.46994828449248
 20
21.29680365157505
 10
54.77947523752971
 20
21.33847025157503
 10
55.10186771118981
 20
21.38013685157502
 10
55.43467210408244
 20
21.421803451575
 10
55.77535557382475
 20
21.46347005157505
 10
56.12132531350187
 20
21.50513665157503
 10
56.46994828449249
 20
21.54680325157502
 10
56.81857125548311
 20
21.58846985157506
 10
57.16454099516022
 20
21.63013645157505
 10
57.50522446490254
 20
21.67180305157503
 10
57.83802885779516
 20
21.71346965157502
 10
58.16042133145526
 20
21.755136251575
 10
58.46994828449249
 20
21.79680285157504
 10
58.76425402989667
 20
21.83846945157503
 10
59.04109872323863
 20
21.88013605157501
 10
59.2983754092387
 20
21.92180265157499
 10
59.53412605696837
 20
21.96346925157504
 10
59.74655646164842
 20
22.00513585157502
 10
59.93404989963028
 20
22.04680245157501
 10
60.0951794326391
 20
22.08846905157499
 10
60.22871876763611
 20
22.13013565157504
 10
60.33365158964875
 20
22.17180225157502
 10
60.40917929654131
 20
22.21346885157501
 10
60.45472707685945
 20
22.25513545157499
 10
60.46994828449249
 20
22.29680685157509
  0
LWPOLYLINE
  5
7C0
330
1F
100
AcDbEntity
  8
0
  6
HIDDEN
100
AcDbPolyline
 90
       53
 70
     0
 43
0.0
 10
55.71994828449248
 20
19.76191532759084
 10
55.43467210408244
 20
19.79680545157506
 10
55.10186771118981
 20
19.83847205157504
 10
54.77947523752971
 20
19.88013865157503
 10
54.46994828449248
 20
19.92180525157507
 10
54.1756425390883
 20
19.96347185157505
 10
53.89879784574635
 20
20.00513845157504
 10
53.64152115974627
 20
20.04680505157502
 10
53.4057705120166
 20
20.08847165157507
 10
53.19334010733655
 20
20.13013825157505
 10
53.0058466693547
 20
20.17180485157504
 10
52.84471713634587
 20
20.21347145157502
 10
52.71117780134886
 20
20.25513805157507
 10
52.60624497933623
 20
20.29680465157505
 10
52.53071727244367
 20
20.33847125157503
 10
52.48516949212552
 20
20.38013785157508
 10
52.46994828449249
 20
20.42180445157506
 10
52.48516949212552
 20
20.46347105157504
 10
52.53071727244367
 20
20.50513765157503
 10
52.60624497933623
 20
20.54680425157501
 10
52.71117780134886
 20
20.58847085157506
 10
52.84471713634587
 20
20.63013745157504
 10
53.0058466693547
 20
20.67180405157503
 10
53.19334010733655
 20
20.71347065157501
 10
53.4057705120166
 20
20.75513725157505
 10
53.64152115974627
 20
20.79680385157504
 10
53.89879784574635
 20
20.83847045157503
 10
54.1756425390883
 20
20.88013705157507
 10
54.46994828449248
 20
20.92180365157505
 10
54.77947523752971
 20
20.96347025157504
 10
55.10186771118981
 20
21.00513685157502
 10
55.43467210408244
 20
21.046803451575
 10
55.77535557382475
 20
21.08847005157505
 10
56.12132531350187
 20
21.13013665157503
 10
56.46994828449249
 20
21.17180325157502
 10
56.81857125548311
 20
21.21346985157506
 10
57.16454099516022
 20
21.25513645157504
 10
57.50522446490254
 20
21.29680305157503
 10
57.83802885779516
 20
21.33846965157502
 10
58.16042133145526
 20
21.380136251575
 10
58.46994828449249
 20
21.42180285157504
 10
58.76425402989667
 20
21.46346945157503
 10
59.04109872323863
 20
21.50513605157501
 10
59.2983754092387
 20
21.546802651575
 10
59.53412605696837
 20
21.58846925157504
 10
59.74655646164842
 20
21.63013585157502
 10
59.93404989963028
 20
21.67180245157501
 10
60.0951794326391
 20
21.71346905157499
 10
60.22871876763611
 20
21.75513565157503
 10
60.33365158964875
 20
21.79680225157502
 10
60.40917929654131
 20
21.83846885157501
 10
60.45472707685945
 20
21.88013545157499
 10
60.46994828449249
 20
21.92180685157509
  0
LINE
  5
7C1
330
1F
100
AcDbEntity
  8
0
  6
Continuous
100
AcDbLine
 10
60.46994828449249
 20
22.29680685157509
 30
0.0
 11
57.21994828449249
 21
22.29680685157509
 31
0.0
  0
LINE
  5
7C2
330
1F
100
AcDbEntity
  8
0
  6
Continuous
100
AcDbLine
 10
60.46994828449249
 20
18.92180685157508
 30
0.0
 11
57.21994828449249
 21
18.92180685157508
 31
0.0
  0
LWPOLYLINE
  5
7C3
330
1F
100
AcDbEntity
  8
0
  6
HIDDEN
100
AcDbPolyline
 90
       18
 70
     0
 43
0.0
 10
60.46994828449249
 20
19.29680685157508
 10
60.45472707685945
 20
19.33847345157507
 10
60.40917929654131
 20
19.38014005157506
 10
60.33365158964875
 20
19.42180665157504
 10
60.22871876763611
 20
19.46347325157508
 10
60.0951794326391
 20
19.50513985157507
 10
59.93404989963028
 20
19.54680645157505
 10
59.74655646164842
 20
19.58847305157504
 10
59.74655646164842
 20
19.58847305157504
 10
59.53412605696837
 20
19.63013965157508
 10
59.2983754092387
 20
19.67180625157507
 10
59.04109872323863
 20
19.71347285157505
 10
58.76425402989667
 20
19.75513945157503
 10
58.46994828449249
 20
19.79680605157508
 10
58.16042133145526
 20
19.83847265157506
 10
57.83802885779516
 20
19.88013925157505
 10
57.50522446490254
 20
19.92180585157503
 10
57.21994828449249
 20
19.95669597555924
  0
LINE
  5
7C4
330
1F
100
AcDbEntity
  8
0
  6
Continuous
100
AcDbLine
 10
60.46994828449249
 20
19.29680685157508
 30
0.0
 11
57.21994828449249
 21
19.29680685157508
 31
0.0
  0
LWPOLYLINE
  5
7C5
330
1F
100
AcDbEntity
  8
0
  6
Continuous
100
AcDbPolyline
 90
       18
 70
     0
 43
0.0
 10
57.21994828449249
 20
31.97486562847116
 10
57.33818917282713
 20
31.9634734115751
 10
57.76404351000508
 20
31.92180675157512
 10
58.18004900112083
 20
31.88014009157509
 10
58.58303959319596
 20
31.83847343157511
 10
58.96994828449249
 20
31.79680677157508
 10
59.33783046624774
 20
31.7551401115751
 10
59.68388633292517
 20
31.71347345157507
 10
60.00548219042525
 20
31.67180679157509
 10
60.30017050008734
 20
31.63014013157512
 10
60.56570850593743
 20
31.58847347157509
 10
60.8000753034147
 20
31.54680681157511
 10
61.0014872196757
 20
31.50514015157508
 10
61.16841138842204
 20
31.4634734915751
 10
61.29957741593784
 20
31.42180683157507
 10
61.39398704955351
 20
31.38014017157509
 10
61.45092177495121
 20
31.33847351157512
 10
61.46994828449249
 20
31.29680685157508
  0
LINE
  5
7C6
330
1F
100
AcDbEntity
  8
0
  6
Continuous
100
AcDbLine
 10
61.46994828449249
 20
31.29680685157508
 30
0.0
 11
57.21994828449249
 21
31.29680685157508
 31
0.0
  0
LINE
  5
7C7
330
1F
100
AcDbEntity
  8
0
  6
Continuous
100
AcDbLine
 10
61.46994828449249
 20
30.92180685157508
 30
0.0
 11
57.21994828449249
 21
30.92180685157508
 31
0.0
  0
LINE
  5
7C8
330
1F
100
AcDbEntity
  8
0
  6
Continuous
100
AcDbLine
 10
61.46994828449249
 20
34.29680685157509
 30
0.0
 11
57.21994828449249
 21
34.29680685157509
 31
0.0
  0
LINE
  5
7C9
330
1F
100
AcDbEntity
  8
0
  6
Continuous
100
AcDbLine
 10
55.71994828449248
 20
14.60930685157508
 30
0.0
 11
55.71994828449248
 21
17.42180685157508
 31
0.0
  0
LINE
  5
7CA
330
1F
100
AcDbEntity
  8
0
  6
Continuous
100
AcDbLine
 10
55.71994828449248
 20
38.7968068515752
 30
0.0
 11
55.71994828449248
 21
33.47486586847113
 31
0.0
  0
LINE
  5
7CB
330
1F
100
AcDbEntity
  8
0
  6
Continuous
100
AcDbLine
 10
57.21994828449249
 20
33.92180689957509
 30
0.0
 11
57.21994828449249
 21
38.7968068515752
 31
0.0
  0
ARC
  5
7CC
330
1F
100
AcDbEntity
  8
0
  6
Continuous
100
AcDbCircle
 10
57.18869215263118
 20
88.05599117974843
 30
0.0
 40
1.382276918106595
100
AcDbArc
 50
58.66899639944384
 51
121.3301972494535
  0
ARC
  5
7CD
330
1F
100
AcDbEntity
  8
0
  6
Continuous
100
AcDbCircle
 10
55.75120117120931
 20
88.05599583737615
 30
0.0
 40
1.382276918106595
100
AcDbArc
 50
58.66943146134341
 51
121.3306323113531
  0
ARC
  5
7CE
330
1F
100
AcDbEntity
  8
0
  6
Continuous
100
AcDbCircle
 10
55.75119985702213
 20
90.41742587358934
 30
0.0
 40
1.382276918106595
100
AcDbArc
 50
238.6694314613438
 51
301.3306323113531
  0
ARC
  5
7CF
330
1F
100
AcDbEntity
  8
0
  6
Continuous
100
AcDbCircle
 10
55.75120620216231
 20
91.88911083122581
 30
0.0
 40
1.382276918106595
100
AcDbArc
 50
238.6690601721611
 51
301.3302610221714
  0
ARC
  5
7D0
330
1F
100
AcDbEntity
  8
0
  6
Continuous
100
AcDbCircle
 10
57.18869981196417
 20
91.88910617358933
 30
0.0
 40
1.382276918106595
100
AcDbArc
 50
238.6693676886469
 51
301.3305685386562
  0
ARC
  5
7D1
330
1F
100
AcDbEntity
  8
0
  6
Continuous
100
AcDbCircle
 10
57.18869849777698
 20
89.52767613737615
 30
0.0
 40
1.382276918106595
100
AcDbArc
 50
58.6693676886469
 51
121.3305685386562
  0
ARC
  5
7D2
330
1F
100
AcDbEntity
  8
PV
  6
Continuous
 62
     0
380
     1
100
AcDbCircle
 10
58.63332729989204
 20
84.7096655054827
 30
0.0
 40
0.221126115
100
AcDbArc
 50
303.2143429999997
 51
359.9999829999999
  0
ARC
  5
7D3
330
1F
100
AcDbEntity
  8
PV
  6
Continuous
 62
     0
380
     1
100
AcDbCircle
 10
58.63332729989204
 20
84.7096655054827
 30
0.0
 40
0.221126115
100
AcDbArc
 50
0.0
 51
56.78565659999975
  0
LINE
  5
7D4
330
1F
100
AcDbEntity
  8
PV
  6
Continuous
 62
     0
380
     1
100
AcDbLine
 10
58.8590397000014
 20
84.65867548037333
 30
0.0
 11
59.00046099989203
 21
84.51725418048271
 31
0.0
  0
LINE
  5
7D5
330
1F
100
AcDbEntity
  8
0
  6
Continuous
100
AcDbLine
 10
58.8590397000014
 20
84.65867548037333
 30
0.0
 11
58.85445259989203
 21
84.65867548037333
 31
0.0
  0
ARC
  5
7D6
330
1F
100
AcDbEntity
  8
PV
  6
HIDDEN
 62
     0
380
     1
100
AcDbCircle
 10
58.41057759989204
 20
84.7096655054827
 30
0.0
 40
0.22112234
100
AcDbArc
 50
123.2128419999998
 51
236.7871410000006
  0
LINE
  5
7D7
330
1F
100
AcDbEntity
  8
PV
  6
Continuous
 62
     0
380
     1
100
AcDbLine
 10
58.28945449989203
 20
84.5246654054827
 30
0.0
 11
58.75445349989203
 21
84.5246654054827
 31
0.0
  0
LINE
  5
7D8
330
1F
100
AcDbEntity
  8
PV
  6
Continuous
 62
     0
380
     1
100
AcDbLine
 10
58.28945449989203
 20
84.89466570548271
 30
0.0
 11
58.75445349989203
 21
84.89466570548271
 31
0.0
  0
ARC
  5
7D9
330
1F
100
AcDbEntity
  8
PV
  6
Continuous
 62
     0
380
     1
100
AcDbCircle
 10
58.49194819989202
 20
84.27466280548271
 30
0.0
 40
0.362504778
100
AcDbArc
 50
316.3980329999996
 51
359.9999829999999
  0
ARC
  5
7DA
330
1F
100
AcDbEntity
  8
PV
  6
Continuous
 62
     0
380
     1
100
AcDbCircle
 10
58.63332729989204
 20
83.83966330548272
 30
0.0
 40
0.221126115
100
AcDbArc
 50
0.0
 51
56.78565659999975
  0
LINE
  5
7DB
330
1F
100
AcDbEntity
  8
PV
  6
Continuous
 62
     0
380
     1
100
AcDbLine
 10
58.85903659999129
 20
83.89067578058497
 30
0.0
 11
59.00046099989203
 21
84.03210008048272
 31
0.0
  0
LINE
  5
7DC
330
1F
100
AcDbEntity
  8
0
  6
Continuous
100
AcDbLine
 10
58.85903659999129
 20
83.89067578058497
 30
0.0
 11
58.85445259989203
 21
83.89067578058497
 31
0.0
  0
LINE
  5
7DD
330
1F
100
AcDbEntity
  8
PV
  6
Continuous
 62
     0
380
     1
100
AcDbLine
 10
58.28945449989203
 20
84.0246634054827
 30
0.0
 11
58.75445349989203
 21
84.0246634054827
 31
0.0
  0
ARC
  5
7DE
330
1F
100
AcDbEntity
  8
PV
  6
HIDDEN
 62
     0
380
     1
100
AcDbCircle
 10
58.55195029989201
 20
84.27466280548271
 30
0.0
 40
0.362496434
100
AcDbArc
 50
136.3960360000002
 51
223.6031809999997
  0
ARC
  5
7DF
330
1F
100
AcDbEntity
  8
PV
  6
Continuous
 62
     0
380
     1
100
AcDbCircle
 10
58.49194819989202
 20
84.27466280548271
 30
0.0
 40
0.362504778
100
AcDbArc
 50
0.0
 51
43.60266070000019
  0
LINE
  5
7E0
330
1F
100
AcDbEntity
  8
PV
  6
Continuous
 62
     0
380
     1
100
AcDbLine
 10
58.85445259989203
 20
84.7096655054827
 30
0.0
 11
58.85445259989203
 21
83.83966330548272
 31
0.0
  0
LINE
  5
7E1
330
1F
100
AcDbEntity
  8
PV
  6
Continuous
 62
     0
380
     1
100
AcDbLine
 10
59.00044479989202
 20
84.51723938048271
 30
0.0
 11
59.00044479989202
 21
84.03208298048271
 31
0.0
  0
LINE
  5
7E2
330
1F
100
AcDbEntity
  8
PV
  6
Continuous
 62
     0
380
     1
100
AcDbLine
 10
58.85903659999129
 20
83.89067578058497
 30
0.0
 11
58.8590397000014
 21
84.65867548037333
 31
0.0
  0
LINE
  5
7E3
330
1F
100
AcDbEntity
  8
PV
  6
Continuous
 62
     0
380
     1
100
AcDbLine
 10
58.28945769989203
 20
83.65466310548271
 30
0.0
 11
58.75445349989203
 21
83.65466310548271
 31
0.0
  0
ARC
  5
7E4
330
1F
100
AcDbEntity
  8
PV
  6
Continuous
 62
     0
380
     1
100
AcDbCircle
 10
58.63332729989204
 20
83.83966330548272
 30
0.0
 40
0.221126115
100
AcDbArc
 50
303.2143429999997
 51
359.9999829999999
  0
ARC
  5
7E5
330
1F
100
AcDbEntity
  8
PV
  6
HIDDEN
 62
     0
380
     1
100
AcDbCircle
 10
58.41057759989204
 20
83.83966330548272
 30
0.0
 40
0.22112234
100
AcDbArc
 50
123.2128419999998
 51
236.7861569999995
  0
LINE
  5
7E6
330
1F
100
AcDbEntity
  8
0
  6
Continuous
100
AcDbLine
 10
58.85903943460189
 20
81.65867623037335
 30
0.0
 11
58.85445233449252
 21
81.65867623037335
 31
0.0
  0
LINE
  5
7E7
330
1F
100
AcDbEntity
  8
0
  6
Continuous
100
AcDbLine
 10
58.85903633459182
 20
80.89067653058499
 30
0.0
 11
58.85445233449252
 21
80.89067653058499
 31
0.0
  0
LINE
  5
7E8
330
1F
100
AcDbEntity
  8
PV
  6
Continuous
 62
     0
380
     1
100
AcDbLine
 10
56.46994878740784
 20
86.02466815548273
 30
0.0
 11
55.25044444032315
 21
86.02466837125335
 31
0.0
  0
LINE
  5
7E9
330
1F
100
AcDbEntity
  8
PV
  6
Continuous
 62
     0
380
     1
100
AcDbLine
 10
56.46994883164129
 20
86.52467015548273
 30
0.0
 11
55.50244342879003
 21
86.52467032666642
 31
0.0
  0
LINE
  5
7EA
330
1F
100
AcDbEntity
  8
PV
  6
Continuous
 62
     0
380
     1
100
AcDbLine
 10
54.75044453449251
 20
86.02466815548273
 30
0.0
 11
54.75044453449251
 21
79.77467345548274
 31
0.0
  0
LINE
  5
7EB
330
1F
100
AcDbEntity
  8
PV
  6
Continuous
 62
     0
380
     1
100
AcDbLine
 10
58.18945193449252
 20
86.02466815548273
 30
0.0
 11
58.18945193449252
 21
79.77467345548274
 31
0.0
  0
LINE
  5
7EC
330
1F
100
AcDbEntity
  8
PV
  6
Continuous
 62
     0
380
     1
100
AcDbLine
 10
54.75044453449251
 20
79.77467345548274
 30
0.0
 11
58.18945193449252
 21
79.77467345548274
 31
0.0
  0
LINE
  5
7ED
330
1F
100
AcDbEntity
  8
PV
  6
Continuous
 62
     0
380
     1
100
AcDbLine
 10
55.03244923449253
 20
97.86061065548274
 30
0.0
 11
55.03244923449253
 21
90.70839235548273
 31
0.0
  0
LINE
  5
7EE
330
1F
100
AcDbEntity
  8
PV
  6
Continuous
 62
     0
380
     1
100
AcDbLine
 10
57.90745043449252
 20
97.86061065548274
 30
0.0
 11
57.90745043449252
 21
90.70839235548273
 31
0.0
  0
LINE
  5
7EF
330
1F
100
AcDbEntity
  8
PV
  6
Continuous
 62
     0
380
     1
100
AcDbLine
 10
55.03244923449253
 20
97.86061065548274
 30
0.0
 11
57.90745043449252
 21
97.86061065548274
 31
0.0
  0
LINE
  5
7F0
330
1F
100
AcDbEntity
  8
PV
  6
Continuous
 62
     0
380
     1
100
AcDbLine
 10
55.03244923449253
 20
89.23301345548273
 30
0.0
 11
55.03244923449253
 21
86.72071375548274
 31
0.0
  0
LINE
  5
7F1
330
1F
100
AcDbEntity
  8
PV
  6
Continuous
 62
     0
380
     1
100
AcDbLine
 10
57.90745043449252
 20
89.23671045548273
 30
0.0
 11
57.90745043449252
 21
86.72071065548273
 31
0.0
  0
LINE
  5
7F2
330
1F
100
AcDbEntity
  8
PV
  6
Continuous
 62
     0
380
     1
100
AcDbLine
 10
56.46994883164126
 20
86.52467015548273
 30
0.0
 11
57.43745423449252
 21
86.52467015548273
 31
0.0
  0
ARC
  5
7F3
330
1F
100
AcDbEntity
  8
PV
  6
Continuous
 62
     0
380
     1
100
AcDbCircle
 10
55.25044653449251
 20
86.02466815548273
 30
0.0
 40
0.5
100
AcDbArc
 50
135.8892909999999
 51
179.9999639999999
  0
ARC
  5
7F4
330
1F
100
AcDbEntity
  8
PV
  6
Continuous
 62
     0
380
     1
100
AcDbCircle
 10
57.68945313449254
 20
86.02466815548273
 30
0.0
 40
0.5
100
AcDbArc
 50
0.0
 51
44.1103999000002
  0
ARC
  5
7F5
330
1F
100
AcDbEntity
  8
PV
  6
Continuous
 62
     0
380
     1
100
AcDbCircle
 10
54.53245043449252
 20
86.72071375548274
 30
0.0
 40
0.5
100
AcDbArc
 50
315.889221
 51
359.99983
  0
ARC
  5
7F6
330
1F
100
AcDbEntity
  8
PV
  6
Continuous
 62
     0
380
     1
100
AcDbCircle
 10
58.40745243449251
 20
86.72071065548273
 30
0.0
 40
0.5
100
AcDbArc
 50
180.0001999999999
 51
224.1105450000004
  0
LINE
  5
7F7
330
1F
100
AcDbEntity
  8
PV
  6
Continuous
 62
     0
380
     1
100
AcDbLine
 10
56.46994878740784
 20
86.02466815548273
 30
0.0
 11
57.68945313449254
 21
86.02466815548273
 31
0.0
  0
LINE
  5
7F8
330
1F
100
AcDbEntity
  8
PV
  6
Continuous
 62
     0
380
     1
100
AcDbLine
 10
54.22644493449252
 20
84.70966545548273
 30
0.0
 11
54.22644493449252
 21
83.83966325548273
 31
0.0
  0
LINE
  5
7F9
330
1F
100
AcDbEntity
  8
PV
  6
Continuous
 62
     0
380
     1
100
AcDbLine
 10
54.32644723449252
 20
84.89466565548275
 30
0.0
 11
54.75044453449251
 21
84.89466565548275
 31
0.0
  0
LINE
  5
7FA
330
1F
100
AcDbEntity
  8
PV
  6
Continuous
 62
     0
380
     1
100
AcDbLine
 10
54.32644723449252
 20
83.65466305548274
 30
0.0
 11
54.75044453449251
 21
83.65466305548274
 31
0.0
  0
LINE
  5
7FB
330
1F
100
AcDbEntity
  8
PV
  6
Continuous
 62
     0
380
     1
100
AcDbLine
 10
54.32644723449252
 20
84.52466535548273
 30
0.0
 11
54.75044453449251
 21
84.52466535548273
 31
0.0
  0
LINE
  5
7FC
330
1F
100
AcDbEntity
  8
PV
  6
Continuous
 62
     0
380
     1
100
AcDbLine
 10
54.32644723449252
 20
84.02466335548274
 30
0.0
 11
54.75044453449251
 21
84.02466335548274
 31
0.0
  0
ARC
  5
7FD
330
1F
100
AcDbEntity
  8
PV
  6
Continuous
 62
     0
380
     1
100
AcDbCircle
 10
54.44757023449253
 20
83.83966325548273
 30
0.0
 40
0.22112234
100
AcDbArc
 50
123.2137709999995
 51
236.7861569999995
  0
ARC
  5
7FE
330
1F
100
AcDbEntity
  8
PV
  6
Continuous
 62
     0
380
     1
100
AcDbCircle
 10
54.58894293449251
 20
84.27466275548274
 30
0.0
 40
0.362496434
100
AcDbArc
 50
136.3967469999997
 51
223.6031809999997
  0
ARC
  5
7FF
330
1F
100
AcDbEntity
  8
PV
  6
Continuous
 62
     0
380
     1
100
AcDbCircle
 10
54.44757023449253
 20
84.70966545548273
 30
0.0
 40
0.22112234
100
AcDbArc
 50
123.2134979999999
 51
236.7861569999995
  0
LINE
  5
800
330
1F
100
AcDbEntity
  8
PV
  6
Continuous
 62
     0
380
     1
100
AcDbLine
 10
58.85445233449252
 20
81.70966625548272
 30
0.0
 11
58.85445233449252
 21
80.83966405548274
 31
0.0
  0
LINE
  5
801
330
1F
100
AcDbEntity
  8
PV
  6
Continuous
 62
     0
380
     1
100
AcDbLine
 10
58.28945423449252
 20
81.89466645548273
 30
0.0
 11
58.75445323449253
 21
81.89466645548273
 31
0.0
  0
LINE
  5
802
330
1F
100
AcDbEntity
  8
PV
  6
HIDDEN
 62
     0
380
     1
100
AcDbLine
 10
58.28945743449253
 20
80.65466385548274
 30
0.0
 11
58.75445323449253
 21
80.65466385548274
 31
0.0
  0
LINE
  5
803
330
1F
100
AcDbEntity
  8
PV
  6
Continuous
 62
     0
380
     1
100
AcDbLine
 10
58.28945423449252
 20
81.52466615548274
 30
0.0
 11
58.75445323449253
 21
81.52466615548274
 31
0.0
  0
LINE
  5
804
330
1F
100
AcDbEntity
  8
PV
  6
Continuous
 62
     0
380
     1
100
AcDbLine
 10
58.28945423449252
 20
81.02466415548274
 30
0.0
 11
58.75445323449253
 21
81.02466415548274
 31
0.0
  0
ARC
  5
805
330
1F
100
AcDbEntity
  8
PV
  6
Continuous
 62
     0
380
     1
100
AcDbCircle
 10
58.63332703449251
 20
80.83966405548274
 30
0.0
 40
0.221126115
100
AcDbArc
 50
0.0
 51
56.78565659999975
  0
ARC
  5
806
330
1F
100
AcDbEntity
  8
PV
  6
Continuous
 62
     0
380
     1
100
AcDbCircle
 10
58.49194793449251
 20
81.27466355548275
 30
0.0
 40
0.362504778
100
AcDbArc
 50
0.0
 51
43.60266070000019
  0
ARC
  5
807
330
1F
100
AcDbEntity
  8
PV
  6
Continuous
 62
     0
380
     1
100
AcDbCircle
 10
58.63332703449251
 20
81.70966625548272
 30
0.0
 40
0.221126115
100
AcDbArc
 50
0.0
 51
56.78565659999975
  0
ARC
  5
808
330
1F
100
AcDbEntity
  8
PV
  6
HIDDEN
 62
     0
380
     1
100
AcDbCircle
 10
58.41057733449253
 20
80.83966405548274
 30
0.0
 40
0.22112234
100
AcDbArc
 50
123.2128419999998
 51
236.7861569999995
  0
ARC
  5
809
330
1F
100
AcDbEntity
  8
PV
  6
Continuous
 62
     0
380
     1
100
AcDbCircle
 10
58.63332703449251
 20
80.83966405548274
 30
0.0
 40
0.221126115
100
AcDbArc
 50
303.2143429999997
 51
359.9999829999999
  0
ARC
  5
80A
330
1F
100
AcDbEntity
  8
PV
  6
Continuous
 62
     0
380
     1
100
AcDbCircle
 10
58.49194793449251
 20
81.27466355548275
 30
0.0
 40
0.362504778
100
AcDbArc
 50
316.3980329999996
 51
359.9999829999999
  0
ARC
  5
80B
330
1F
100
AcDbEntity
  8
PV
  6
HIDDEN
 62
     0
380
     1
100
AcDbCircle
 10
58.55195003449253
 20
81.27466355548275
 30
0.0
 40
0.362496434
100
AcDbArc
 50
136.3960360000002
 51
223.6031809999997
  0
ARC
  5
80C
330
1F
100
AcDbEntity
  8
PV
  6
HIDDEN
 62
     0
380
     1
100
AcDbCircle
 10
58.41057733449253
 20
81.70966625548272
 30
0.0
 40
0.22112234
100
AcDbArc
 50
123.2128419999998
 51
236.7871410000006
  0
ARC
  5
80D
330
1F
100
AcDbEntity
  8
PV
  6
Continuous
 62
     0
380
     1
100
AcDbCircle
 10
58.63332703449251
 20
81.70966625548272
 30
0.0
 40
0.221126115
100
AcDbArc
 50
303.2143429999997
 51
359.9999829999999
  0
LINE
  5
80E
330
1F
100
AcDbEntity
  8
PV
  6
Continuous
 62
     0
380
     1
100
AcDbLine
 10
54.22644493449252
 20
81.70966625548272
 30
0.0
 11
54.22644493449252
 21
80.83966405548274
 31
0.0
  0
LINE
  5
80F
330
1F
100
AcDbEntity
  8
PV
  6
Continuous
 62
     0
380
     1
100
AcDbLine
 10
54.32644723449252
 20
81.89466645548273
 30
0.0
 11
54.75044453449251
 21
81.89466645548273
 31
0.0
  0
LINE
  5
810
330
1F
100
AcDbEntity
  8
PV
  6
Continuous
 62
     0
380
     1
100
AcDbLine
 10
54.32644723449252
 20
80.65466385548274
 30
0.0
 11
54.75044453449251
 21
80.65466385548274
 31
0.0
  0
LINE
  5
811
330
1F
100
AcDbEntity
  8
PV
  6
Continuous
 62
     0
380
     1
100
AcDbLine
 10
54.32644723449252
 20
81.52466615548274
 30
0.0
 11
54.75044453449251
 21
81.52466615548274
 31
0.0
  0
LINE
  5
812
330
1F
100
AcDbEntity
  8
PV
  6
Continuous
 62
     0
380
     1
100
AcDbLine
 10
54.32644723449252
 20
81.02466415548274
 30
0.0
 11
54.75044453449251
 21
81.02466415548274
 31
0.0
  0
ARC
  5
813
330
1F
100
AcDbEntity
  8
PV
  6
Continuous
 62
     0
380
     1
100
AcDbCircle
 10
54.44757023449253
 20
80.83966405548274
 30
0.0
 40
0.22112234
100
AcDbArc
 50
123.2137709999995
 51
236.7861569999995
  0
ARC
  5
814
330
1F
100
AcDbEntity
  8
PV
  6
Continuous
 62
     0
380
     1
100
AcDbCircle
 10
54.58894293449251
 20
81.27466355548275
 30
0.0
 40
0.362496434
100
AcDbArc
 50
136.3967469999997
 51
223.6031809999997
  0
ARC
  5
815
330
1F
100
AcDbEntity
  8
PV
  6
Continuous
 62
     0
380
     1
100
AcDbCircle
 10
54.44757023449253
 20
81.70966625548272
 30
0.0
 40
0.22112234
100
AcDbArc
 50
123.2134979999999
 51
236.7861569999995
  0
LINE
  5
816
330
1F
100
AcDbEntity
  8
PV
  6
Continuous
 62
     0
380
     1
100
AcDbLine
 10
59.00044453449251
 20
81.51724013048273
 30
0.0
 11
59.00044453449251
 21
81.03208373048273
 31
0.0
  0
LINE
  5
817
330
1F
100
AcDbEntity
  8
PV
  6
Continuous
 62
     0
380
     1
100
AcDbLine
 10
58.85903943460189
 20
81.65867623037335
 30
0.0
 11
59.00046073449252
 21
81.51725493048273
 31
0.0
  0
LINE
  5
818
330
1F
100
AcDbEntity
  8
PV
  6
Continuous
 62
     0
380
     1
100
AcDbLine
 10
58.85903633459182
 20
80.89067653058499
 30
0.0
 11
59.00046073449252
 21
81.03210083048274
 31
0.0
  0
LINE
  5
819
330
1F
100
AcDbEntity
  8
PV
  6
Continuous
 62
     0
380
     1
100
AcDbLine
 10
58.85903633459182
 20
80.89067653058499
 30
0.0
 11
58.85903943460189
 21
81.65867623037335
 31
0.0
  0
ARC
  5
81A
330
1F
100
AcDbEntity
  8
0
 62
     7
100
AcDbCircle
 10
55.76494633449247
 20
49.10681205157509
 30
0.0
 40
0.5
100
AcDbArc
 50
123.0245650000004
 51
180.0000359999996
  0
LINE
  5
81B
330
1F
100
AcDbEntity
  8
0
 62
     7
100
AcDbLine
 10
58.15994823449248
 20
49.77466193048273
 30
0.0
 11
54.77994823449248
 21
49.77466193048273
 31
0.0
  0
LINE
  5
81C
330
1F
100
AcDbEntity
  8
0
  6
Continuous
100
AcDbLine
 10
55.03244823449247
 20
50.27466193048274
 30
0.0
 11
55.23544823449245
 21
50.27466193048274
 31
0.0
  0
LINE
  5
81D
330
1F
100
AcDbEntity
  8
0
  6
Continuous
100
AcDbLine
 10
55.23544823449245
 20
50.27466193048273
 30
0.0
 11
55.03244823449247
 21
50.27466193048274
 31
0.0
  0
LINE
  5
81E
330
1F
100
AcDbEntity
  8
0
 62
     7
100
AcDbLine
 10
58.15994823449248
 20
50.27466193048273
 30
0.0
 11
54.77994823449248
 21
50.27466193048274
 31
0.0
  0
LINE
  5
81F
330
1F
100
AcDbEntity
  8
0
  6
Continuous
 62
     7
100
AcDbLine
 10
54.77994823449248
 20
49.77466193048273
 30
0.0
 11
54.77994823449248
 21
50.27466193048274
 31
0.0
  0
LINE
  5
820
330
1F
100
AcDbEntity
  8
0
  6
Continuous
 62
     7
100
AcDbLine
 10
58.15994823449248
 20
49.77466193048273
 30
0.0
 11
58.15994823449248
 21
50.27466193048273
 31
0.0
  0
LINE
  5
821
330
1F
100
AcDbEntity
  8
0
 62
     7
100
AcDbLine
 10
58.15994823449248
 20
49.77466193048273
 30
0.0
 11
54.77994823449248
 21
49.77466193048273
 31
0.0
  0
LINE
  5
822
330
1F
100
AcDbEntity
  8
0
 62
     7
100
AcDbLine
 10
57.67495013449249
 20
50.27466193048273
 30
0.0
 11
55.26494643449249
 21
50.27466193048273
 31
0.0
  0
LINE
  5
823
330
1F
100
AcDbEntity
  8
0
100
AcDbLine
 10
55.03244823449254
 20
85.77466193048273
 30
0.0
 11
57.90744823449253
 21
85.77466193048273
 31
0.0
  0
POINT
  5
824
330
1F
100
AcDbEntity
  8
0
  6
ByBlock
 62
     0
380
     1
100
AcDbPoint
 10
55.03244823449254
 20
85.77466193048273
 30
0.0
  0
POINT
  5
825
330
1F
100
AcDbEntity
  8
0
  6
ByBlock
 62
     0
380
     1
100
AcDbPoint
 10
57.7044482344925
 20
85.77466193048273
 30
0.0
  0
POINT
  5
826
330
1F
100
AcDbEntity
  8
0
  6
ByBlock
 62
     0
380
     1
100
AcDbPoint
 10
55.03244823449254
 20
85.77466193048273
 30
0.0
  0
POINT
  5
827
330
1F
100
AcDbEntity
  8
0
  6
ByBlock
 62
     0
380
     1
100
AcDbPoint
 10
55.03244823449254
 20
85.77466193048273
 30
0.0
  0
POINT
  5
828
330
1F
100
AcDbEntity
  8
0
  6
ByBlock
 62
     0
380
     1
100
AcDbPoint
 10
57.90744823449253
 20
85.77466193048273
 30
0.0
  0
POINT
  5
829
330
1F
100
AcDbEntity
  8
0
  6
ByBlock
 62
     0
380
     1
100
AcDbPoint
 10
57.90744823449253
 20
85.77466193048273
 30
0.0
  0
POINT
  5
82A
330
1F
100
AcDbEntity
  8
0
  6
ByBlock
 62
     0
380
     1
100
AcDbPoint
 10
57.90744823449253
 20
85.77466193048273
 30
0.0
  0
LINE
  5
82B
330
1F
100
AcDbEntity
  8
0
100
AcDbLine
 10
55.03244823449247
 20
85.77466193048273
 30
0.0
 11
55.03244823449247
 21
50.27466193048273
 31
0.0
  0
LINE
  5
82C
330
1F
100
AcDbEntity
  8
0
100
AcDbLine
 10
57.90744823449248
 20
85.77466193048273
 30
0.0
 11
57.90744823449248
 21
50.27466193048273
 31
0.0
  0
LINE
  5
82D
330
1F
100
AcDbEntity
  8
0
100
AcDbLine
 10
55.03244823449242
 20
50.27466193048273
 30
0.0
 11
57.90744823449248
 21
50.27466193048273
 31
0.0
  0
POINT
  5
82E
330
1F
100
AcDbEntity
  8
0
  6
ByBlock
 62
     0
380
     1
100
AcDbPoint
 10
55.03244823449247
 20
50.27466193048273
 30
0.0
  0
LINE
  5
82F
330
1F
100
AcDbEntity
  8
0
 62
     7
100
AcDbLine
 10
57.67495013449249
 20
46.29680685157508
 30
0.0
 11
55.26494643449249
 21
46.29680685157508
 31
0.0
  0
ARC
  5
830
330
1F
100
AcDbEntity
  8
0
 62
     7
100
AcDbCircle
 10
57.17495013449249
 20
49.10681205157509
 30
0.0
 40
0.5
100
AcDbArc
 50
359.999964
 51
56.97543499999955
  0
ARC
  5
831
330
1F
100
AcDbEntity
  8
0
 62
     7
100
AcDbCircle
 10
57.71994823449247
 20
49.94524915157508
 30
0.0
 40
0.5
100
AcDbArc
 50
199.948443588805
 51
236.9755051000005
  0
ARC
  5
832
330
1F
100
AcDbEntity
  8
0
 62
     7
100
AcDbCircle
 10
55.21994823449247
 20
49.94524725157508
 30
0.0
 40
0.5
100
AcDbArc
 50
303.0247120000008
 51
340.0517880322618
  0
LINE
  5
833
330
1F
100
AcDbEntity
  8
0
 62
     7
100
AcDbLine
 10
57.67495013449249
 20
46.29680685157508
 30
0.0
 11
57.67495013449249
 21
49.10681205157509
 31
0.0
  0
LINE
  5
834
330
1F
100
AcDbEntity
  8
0
 62
     7
100
AcDbLine
 10
55.26494643449249
 20
46.29680685157508
 30
0.0
 11
55.26494643449249
 21
49.10681205157509
 31
0.0
  0
MTEXT
  5
835
330
1F
100
AcDbEntity
  8
title
100
AcDbMText
 10
93.77176511303856
 20
111.2213866865324
 30
0.0
 40
2.0
 41
63.46885917022331
 71
     1
 72
     5
  1
RS2875.276 TRANSITION
 73
     1
 44
1.0
1001
ACAD
1000
ACAD_MTEXT_DEFINED_HEIGHT_BEGIN
1070
    46
1040
0.0
1000
ACAD_MTEXT_DEFINED_HEIGHT_END
1000
MTEXTBEGIN
1070
    73
1070
     1
1070
    44
1040
1.0
1070
    74
1070
     0
1000
MTEXTEND
  0
LEADER
  5
836
330
1F
100
AcDbEntity
  8
title
100
AcDbLeader
  3
Standard
 73
     0
 40
4.333333333333333
 41
6.333333333333333
 76
     3
 10
57.22751559260283
 20
36.50835809709507
 30
0.0
 10
66.16833882751885
 20
44.80504935012997
 30
0.0
 10
67.58751719854673
 20
44.80504935012997
 30
0.0
340
837
213
0.0
223
-0.375
233
0.0
1001
ACAD
1000
DSTYLE
1002
{
1070
   147
1040
0.09
1070
    77
1070
     0
1070
    40
1040
6.0
1070
    41
1040
0.125
1070
    44
1040
0.125
1070
   140
1040
0.125
1070
   141
1040
-0.09
1070
   271
1070
     3
1002
}
  0
MTEXT
  5
837
102
{ACAD_REACTORS
330
836
102
}
330
1F
100
AcDbEntity
  8
title
100
AcDbMText
 10
68.12751719854674
 20
45.18004935012998
 30
0.0
 40
1.0
 41
0.6
 71
     1
 72
     1
  1
\A1;1-1/2" LEAD\PSECTION
 73
     1
 44
1.0
1001
ACAD
1000
MTEXTBEGIN
1070
    73
1070
     1
1070
    44
1040
1.0
1070
    74
1070
     0
1000
MTEXTEND
  0
LEADER
  5
838
330
1F
100
AcDbEntity
  8
title
100
AcDbLeader
  3
Standard
 73
     0
 40
2.666666666666666
 41
8.33333333333333
 76
     3
 10
57.99395798981558
 20
94.15644253613804
 30
0.0
 10
64.33950636385768
 20
97.96124854456358
 30
0.0
 10
66.51512271729298
 20
97.96124854456358
 30
0.0
340
839
213
0.0
223
-0.375
233
0.0
1001
ACAD
1000
DSTYLE
1002
{
1070
   147
1040
0.09
1070
    77
1070
     0
1070
    40
1040
6.0
1070
    41
1040
0.125
1070
    44
1040
0.125
1070
   140
1040
0.125
1070
   141
1040
-0.09
1070
   271
1070
     3
1002
}
  0
MTEXT
  5
839
102
{ACAD_REACTORS
330
838
102
}
330
1F
100
AcDbEntity
  8
title
100
AcDbMText
 10
67.05512271729299
 20
98.3362485445636
 30
0.0
 40
1.0
 41
0.6
 71
     1
 72
     1
  1
\A1;2-7/8" EXTENSION
 73
     1
 44
1.0
1001
ACAD
1000
MTEXTBEGIN
1070
    73
1070
     1
1070
    44
1040
1.0
1070
    74
1070
     0
1000
MTEXTEND
  0
LEADER
  5
83A
330
1F
100
AcDbEntity
  8
title
100
AcDbLeader
  3
Standard
 73
     0
 40
6.0
 41
8.999999999999998
 76
     3
 10
57.8829286626167
 20
65.40838307153158
 30
0.0
 10
65.56503847936458
 20
70.52639575271216
 30
0.0
 10
67.75992683275639
 20
70.52639575271216
 30
0.0
340
83B
213
0.0
223
-0.375
233
0.0
1001
ACAD
1000
DSTYLE
1002
{
1070
   147
1040
0.09
1070
    77
1070
     0
1070
    40
1040
6.0
1070
    41
1040
0.125
1070
    44
1040
0.125
1070
   140
1040
0.125
1070
   141
1040
-0.09
1070
   271
1070
     3
1002
}
  0
MTEXT
  5
83B
102
{ACAD_REACTORS
330
83A
102
}
330
1F
100
AcDbEntity
  8
title
100
AcDbMText
 10
68.2999268327564
 20
70.90139575271216
 30
0.0
 40
1.0
 41
0.6
 71
     1
 72
     1
  1
\A1;1-1/2" TO 2-7/8"\PTRANSITION
 73
     1
 44
1.0
1001
ACAD
1000
MTEXTBEGIN
1070
    73
1070
     1
1070
    44
1040
1.0
1070
    74
1070
     0
1000
MTEXTEND
  0
LINE
  5
83C
330
1F
100
AcDbEntity
  8
title
100
AcDbLine
 10
89.79258233583808
 20
31.61693741273604
 30
0.0
 11
89.79258233583808
 21
21.71470371874509
 31
0.0
  0
LINE
  5
83D
330
1F
100
AcDbEntity
  8
title
100
AcDbLine
 10
94.68738450513106
 20
31.61693741273604
 30
0.0
 11
94.68738450513106
 21
21.71470371874509
 31
0.0
  0
LINE
  5
83E
330
1F
100
AcDbEntity
  8
title
100
AcDbLine
 10
89.79258233583808
 20
31.61693741273604
 30
0.0
 11
94.68738450513106
 21
31.61693741273603
 31
0.0
  0
ARC
  5
83F
330
1F
100
AcDbEntity
  8
0
100
AcDbCircle
 10
93.4636839628078
 20
19.2604972902453
 30
0.0
 40
2.742366170111425
100
AcDbArc
 50
63.49853494657288
 51
116.5014650534271
  0
ARC
  5
840
330
1F
100
AcDbEntity
  8
0
100
AcDbCircle
 10
93.4636839628078
 20
24.16891014724483
 30
0.0
 40
2.742366170111425
100
AcDbArc
 50
243.4985349465729
 51
296.5014650534271
  0
ARC
  5
841
330
1F
100
AcDbEntity
  8
0
100
AcDbCircle
 10
91.01628287816131
 20
24.16891014724483
 30
0.0
 40
2.742366170111425
100
AcDbArc
 50
243.4985349465724
 51
296.5014650534271
  0
CIRCLE
  5
842
330
1F
100
AcDbEntity
  8
title
100
AcDbCircle
 10
92.23998342048457
 20
29.06312758527884
 30
0.0
 40
0.6384524568642999
  0
CIRCLE
  5
843
330
1F
100
AcDbEntity
  8
title
100
AcDbCircle
 10
92.23998342048457
 20
23.95550793036443
 30
0.0
 40
0.6384524568642999
  0
LINE
  5
844
330
1F
100
AcDbEntity
  8
title
100
AcDbLine
 10
91.9207571920524
 20
29.06312758527884
 30
0.0
 11
87.58677226096812
 21
29.06312758527884
 31
0.0
  0
LINE
  5
845
330
1F
100
AcDbEntity
  8
title
100
AcDbLine
 10
88.22522471783242
 20
29.06312758527884
 30
0.0
 11
88.22522471783242
 21
28.42467512841454
 31
0.0
  0
LINE
  5
846
330
1F
100
AcDbEntity
  8
title
100
AcDbLine
 10
91.9207571920524
 20
23.95550793036443
 30
0.0
 11
87.58677226096812
 21
23.95550793036443
 31
0.0
  0
LINE
  5
847
330
1F
100
AcDbEntity
  8
title
100
AcDbLine
 10
88.22522471783242
 20
28.42467512841454
 30
0.0
 11
88.22522471783242
 21
27.28822975519608
 31
0.0
  0
LINE
  5
848
330
1F
100
AcDbEntity
  8
title
100
AcDbLine
 10
88.22522471783242
 20
24.59396038722874
 30
0.0
 11
88.22522471783242
 21
25.73040576044719
 31
0.0
  0
SOLID
  5
849
330
1F
100
AcDbEntity
  8
title
100
AcDbTrace
 10
88.1188159750217
 20
28.42467512841454
 30
0.0
 11
88.33163346064313
 21
28.42467512841454
 31
0.0
 12
88.22522471783242
 22
29.06312758527884
 32
0.0
 13
88.22522471783242
 23
29.06312758527884
 33
0.0
  0
SOLID
  5
84A
330
1F
100
AcDbEntity
  8
title
100
AcDbTrace
 10
88.1188159750217
 20
24.59396038722874
 30
0.0
 11
88.33163346064313
 21
24.59396038722874
 31
0.0
 12
88.22522471783242
 22
23.95550793036443
 32
0.0
 13
88.22522471783242
 23
23.95550793036443
 33
0.0
  0
MTEXT
  5
84B
330
1F
100
AcDbEntity
  8
title
100
AcDbMText
 10
88.22522471783242
 20
26.50931775782164
 30
0.0
 40
0.9363969367343065
 41
0.0
 71
     5
 72
     1
  1
\A1;3.0"
 73
     1
 44
1.0
1001
ACAD
1000
MTEXTBEGIN
1070
    73
1070
     1
1070
    44
1040
1.0
1070
    74
1070
     0
1000
MTEXTEND
  0
LINE
  5
84C
330
1F
100
AcDbEntity
  8
title
100
AcDbLine
 10
91.9207571920524
 20
29.06312758527884
 30
0.0
 11
87.58677226096812
 21
29.06312758527884
 31
0.0
  0
LINE
  5
84D
330
1F
100
AcDbEntity
  8
title
100
AcDbLine
 10
89.47335610740593
 20
31.61693741273604
 30
0.0
 11
87.58677226096812
 21
31.61693741273604
 31
0.0
  0
LINE
  5
84E
330
1F
100
AcDbEntity
  8
title
100
AcDbLine
 10
88.22522471783242
 20
29.70158004214314
 30
0.0
 11
88.22522471783242
 21
30.97848495587174
 31
0.0
  0
LINE
  5
84F
330
1F
100
AcDbEntity
  8
title
100
AcDbLine
 10
88.22522471783242
 20
31.61693741273604
 30
0.0
 11
88.22522471783242
 21
32.25538986960034
 31
0.0
  0
LINE
  5
850
330
1F
100
AcDbEntity
  8
title
100
AcDbLine
 10
87.58677226096812
 20
32.25538986960034
 30
0.0
 11
88.22522471783242
 21
32.25538986960034
 31
0.0
  0
SOLID
  5
851
330
1F
100
AcDbEntity
  8
title
100
AcDbTrace
 10
88.1188159750217
 20
29.70158004214314
 30
0.0
 11
88.33163346064313
 21
29.70158004214314
 31
0.0
 12
88.22522471783242
 22
29.06312758527884
 32
0.0
 13
88.22522471783242
 23
29.06312758527884
 33
0.0
  0
SOLID
  5
852
330
1F
100
AcDbEntity
  8
title
100
AcDbTrace
 10
88.1188159750217
 20
30.97848495587174
 30
0.0
 11
88.33163346064313
 21
30.97848495587174
 31
0.0
 12
88.22522471783242
 22
31.61693741273604
 32
0.0
 13
88.22522471783242
 23
31.61693741273604
 33
0.0
  0
MTEXT
  5
853
330
1F
100
AcDbEntity
  8
title
100
AcDbMText
 10
86.8100283951542
 20
32.294242158323
 30
0.0
 40
0.9363969367343065
 41
0.0
 71
     5
 72
     1
  1
\A1;1.5"
 73
     1
 44
1.0
1001
ACAD
1000
MTEXTBEGIN
1070
    73
1070
     1
1070
    44
1040
1.0
1070
    74
1070
     0
1000
MTEXTEND
  0
MTEXT
  5
854
330
1F
100
AcDbEntity
  8
title
100
AcDbMText
 10
86.65070417944855
 20
19.8874280673546
 30
0.0
 40
0.9363969367343065
 41
18.41599202939391
 71
     1
 72
     5
  1
COUPLING BOLT\P HOLE DETAIL
 73
     1
 44
1.0
1001
ACAD
1000
MTEXTBEGIN
1070
    73
1070
     1
1070
    44
1040
1.0
1070
    74
1070
     0
1000
MTEXTEND
  0
LINE
  5
855
330
1F
100
AcDbEntity
  8
title
100
AcDbLine
 10
85.54690657380355
 20
16.92656630158082
 30
0.0
 11
98.90866747888013
 21
16.92656630158082
 31
0.0
  0
LINE
  5
856
330
1F
100
AcDbEntity
  8
title
100
AcDbLine
 10
89.79258233583808
 20
31.93616364116819
 30
0.0
 11
89.79258233583808
 21
35.29304670818003
 31
0.0
  0
LINE
  5
857
330
1F
100
AcDbEntity
  8
title
100
AcDbLine
 10
94.68738450513106
 20
31.93616364116818
 30
0.0
 11
94.68738450513106
 21
35.29304670818003
 31
0.0
  0
LINE
  5
858
330
1F
100
AcDbEntity
  8
title
100
AcDbLine
 10
94.04893204826676
 20
34.65459425131573
 30
0.0
 11
93.41047959140245
 21
34.65459425131573
 31
0.0
  0
LINE
  5
859
330
1F
100
AcDbEntity
  8
title
100
AcDbLine
 10
90.43103479270234
 20
34.65459425131573
 30
0.0
 11
91.06948724956666
 21
34.65459425131573
 31
0.0
  0
SOLID
  5
85A
330
1F
100
AcDbEntity
  8
title
100
AcDbTrace
 10
94.04893204826676
 20
34.76100299412645
 30
0.0
 11
94.04893204826676
 21
34.54818550850502
 31
0.0
 12
94.68738450513106
 22
34.65459425131573
 32
0.0
 13
94.68738450513106
 23
34.65459425131573
 33
0.0
  0
SOLID
  5
85B
330
1F
100
AcDbEntity
  8
title
100
AcDbTrace
 10
90.43103479270234
 20
34.76100299412645
 30
0.0
 11
90.43103479270234
 21
34.54818550850502
 31
0.0
 12
89.79258233583806
 22
34.65459425131573
 32
0.0
 13
89.79258233583806
 23
34.65459425131573
 33
0.0
  0
LINE
  5
85C
330
1F
100
AcDbEntity
  8
title
100
AcDbLine
 10
91.06948724956666
 20
34.65459425131573
 30
0.0
 11
93.41047959140245
 21
34.65459425131573
 31
0.0
  0
MTEXT
  5
85D
330
1F
100
AcDbEntity
  8
title
100
AcDbMText
 10
84.66759244440103
 20
38.20586237168581
 30
0.0
 40
0.9363969367343065
 41
15.812255723835
 71
     1
 72
     5
  1
2-7/8" O.D. SCH. 80\P   (.276" WALL)
 73
     1
 44
1.0
1001
ACAD
1000
ACAD_MTEXT_DEFINED_HEIGHT_BEGIN
1070
    46
1040
0.0
1000
ACAD_MTEXT_DEFINED_HEIGHT_END
1000
MTEXTBEGIN
1070
    73
1070
     1
1070
    44
1040
1.0
1070
    74
1070
     0
1000
MTEXTEND
  0
LEADER
  5
85E
330
1F
100
AcDbEntity
  8
title
100
AcDbLeader
  3
Standard
 73
     0
 40
2.49705849795815
 41
13.73382173876983
 76
     3
 10
92.86138745994504
 20
29.20968323825146
 30
0.0
 10
97.90781932975846
 20
31.76183276161709
 30
0.0
 10
98.87574951986628
 20
31.76183276161709
 30
0.0
340
85F
213
0.0
223
-0.3192262284321499
233
0.0
1001
ACAD
1000
DSTYLE
1002
{
1070
   147
1040
0.09
1070
    77
1070
     0
1070
    40
1040
3.0
1070
    41
1040
0.125
1070
    44
1040
0.125
1070
   140
1040
0.125
1070
   141
1040
-0.09
1070
   271
1070
     3
1002
}
  0
MTEXT
  5
85F
102
{ACAD_REACTORS
330
85E
102
}
330
1F
100
AcDbEntity
  8
title
100
AcDbMText
 10
99.14574951986629
 20
32.08105899004924
 30
0.0
 40
0.9363969367343065
 41
0.0
 71
     1
 72
     1
  1
\A1;HOLES TO ACCEPT\P3/4" DIA. BOLTS
 73
     1
 44
1.0
1001
ACAD
1000
MTEXTBEGIN
1070
    73
1070
     1
1070
    44
1040
1.0
1070
    74
1070
     0
1000
MTEXTEND
  0
MTEXT
  5
860
330
1F
100
AcDbEntity
  8
title
100
AcDbMText
 10
41.58633324804739
 20
104.577533495201
 30
0.0
 40
1.276789913638288
 41
79.55465153561235
 71
     1
 72
     5
  1
TORQUE STRENGTH RATING-7,000 FT-LB\PULTIMATE TENSION & COMPRESSION STRENGTH-70 KIP
 73
     1
 44
1.0
1001
ACAD
1000
ACAD_MTEXT_DEFINED_HEIGHT_BEGIN
1070
    46
1040
0.0
1000
ACAD_MTEXT_DEFINED_HEIGHT_END
1000
MTEXTBEGIN
1070
    73
1070
     1
1070
    44
1040
1.0
1070
    74
1070
     0
1000
MTEXTEND
  0
LEADER
  5
861
330
1F
100
AcDbEntity
  8
title
100
AcDbLeader
  3
Standard
 73
     0
 40
6.0
 41
16.33333333333333
 76
     3
 10
57.68086570504855
 20
48.65725795393571
 30
0.0
 10
63.70228516060016
 20
54.10138645307409
 30
0.0
 10
65.25884292658874
 20
54.10138645307409
 30
0.0
340
862
213
0.0
223
-0.375
233
0.0
1001
ACAD
1000
DSTYLE
1002
{
1070
   147
1040
0.09
1070
    77
1070
     0
1070
    40
1040
6.0
1070
    41
1040
0.125
1070
    44
1040
0.125
1070
   140
1040
0.125
1070
   141
1040
-0.09
1070
   271
1070
     3
1002
}
  0
MTEXT
  5
862
102
{ACAD_REACTORS
330
861
102
}
330
1F
100
AcDbEntity
  8
title
100
AcDbMText
 10
65.79884292658874
 20
54.47638645307408
 30
0.0
 40
1.0
 41
18.6
 71
     1
 72
     1
  1
SS150\PSQUARE SHAFT\PFORGED INTEGRAL\PCOUPLING AND BOLT
 73
     1
 44
1.0
1001
ACAD
1000
ACAD_MTEXT_DEFINED_HEIGHT_BEGIN
1070
    46
1040
0.0
1000
ACAD_MTEXT_DEFINED_HEIGHT_END
1000
MTEXTBEGIN
1070
    73
1070
     1
1070
    44
1040
1.0
1070
    74
1070
     0
1000
MTEXTEND
  0
LINE
  5
863
330
1F
100
AcDbEntity
  8
title
  6
CENTER
100
AcDbLine
 10
92.23998342048457
 20
20.58807149856058
 30
0.0
 11
92.23998342048457
 21
32.4918244266601
 31
0.0
  0
LINE
  5
864
330
1F
100
AcDbEntity
  8
title
  6
CENTER
100
AcDbLine
 10
94.32691307456568
 20
29.06312758527884
 30
0.0
 11
90.25303906166826
 21
29.06312758527884
 31
0.0
  0
LINE
  5
865
330
1F
100
AcDbEntity
  8
title
  6
CENTER
100
AcDbLine
 10
94.37320697419862
 20
23.95550793036443
 30
0.0
 11
90.20674516203532
 21
23.95550793036443
 31
0.0
  0
LINE
  5
883
330
1F
100
AcDbEntity
  8
0
100
AcDbLine
 10
55.71994828449248
 20
14.60930685157508
 30
0.0
 11
57.21994828449249
 21
16.10930685157508
 31
0.0
  0
VIEWPORT
  5
9C
102
{ACAD_XDICTIONARY
360
940
102
}
330
58
100
AcDbEntity
 67
     1
  8
0
100
AcDbViewport
 10
5.249999639556164
 20
4.560188400585262
 30
0.0
 40
14.20837139391256
 41
9.68976454680172
 68
     1
 69
     1
 12
5.249999639556164
 22
4.560188400585262
 13
0.0
 23
0.0
 14
0.5
 24
0.5
 15
0.5
 25
0.5
 16
0.0
 26
0.0
 36
1.0
 17
0.0
 27
0.0
 37
0.0
 42
50.0
 43
0.0
 44
0.0
 45
9.68976454680172
 50
0.0
 51
0.0
 72
  1000
341
1A0
 90
    32800
  1

281
     0
 71
     1
 74
     0
110
0.0
120
0.0
130
0.0
111
1.0
121
0.0
131
0.0
112
0.0
122
1.0
132
0.0
 79
     0
146
0.0
  0
VIEWPORT
  5
9F
102
{ACAD_XDICTIONARY
360
942
102
}
330
58
100
AcDbEntity
 67
     1
  8
VP
100
AcDbViewport
 10
5.252373034494972
 20
3.997433322945079
 30
0.0
 40
10.49502212841948
 41
7.998965476172973
 68
     2
 69
     2
 12
103.4560966915036
 22
62.19685133991759
 13
0.0
 23
0.0
 14
0.5
 24
0.5
 15
0.5
 25
0.5
 16
0.0
 26
0.0
 36
1.0
 17
0.0
 27
0.0
 37
0.0
 42
50.0
 43
0.0
 44
0.0
 45
105.4844095105741
 50
0.0
 51
0.0
 72
  1000
 90
    32864
  1

281
     0
 71
     1
 74
     0
110
0.0
120
0.0
130
0.0
111
1.0
121
0.0
131
0.0
112
0.0
122
1.0
132
0.0
 79
     0
146
0.0
  0
INSERT
  5
5DF
330
58
100
AcDbEntity
 67
     1
  8
0
100
AcDbBlockReference
 66
     1
  2
TITLE
 10
0.0
 20
0.0
 30
0.0
  0
ATTRIB
  5
5E1
330
5DF
100
AcDbEntity
 67
     1
  8
TTLBLK
100
AcDbText
 10
8.54568127495391
 20
0.6467313204304416
 30
0.0
 40
0.1294117646
  1
1-1/2" TO 2-7/8"
 41
0.6
  7
ROMANS
 72
     4
 11
9.152067829079623
 21
0.7021935052590131
 31
0.0
100
AcDbAttribute
  2
TITLE1
 70
     0
  0
ATTRIB
  5
5E2
330
5DF
100
AcDbEntity
 67
     1
  8
TTLBLK
100
AcDbText
 10
8.837782115051052
 20
0.4507657089079565
 30
0.0
 40
0.1294117646
  1
TRANSITION
 41
0.6
  7
ROMANS
 72
     4
 11
9.152067829079623
 21
0.5154715912079566
 31
0.0
100
AcDbAttribute
  2
TITLE2
 70
     0
  0
ATTRIB
  5
5E3
330
5DF
100
AcDbEntity
 67
     1
  8
TTLBLK
100
AcDbText
 10
8.069325426735334
 20
0.203712418132333
 30
0.0
 40
0.080882352875
  1
SA2780004
 41
0.75
  7
ROMANS
100
AcDbAttribute
  2
DWG
 70
     0
  0
ATTRIB
  5
5E4
330
5DF
100
AcDbEntity
 67
     1
  8
TTLBLK
100
AcDbText
 10
10.3709901218558
 20
0.203712418132333
 30
0.0
 40
0.080882352875
  1
-
 41
0.75
  7
ROMANS
100
AcDbAttribute
  2
RV
 70
     0
  0
ATTRIB
  5
5E5
330
5DF
100
AcDbEntity
 67
     1
  8
TTLBLK
100
AcDbText
 10
7.860597032982145
 20
0.203712418132333
 30
0.0
 40
0.080882352875
  1
A
 41
0.75
  7
ROMANS
100
AcDbAttribute
  2
X
 70
     0
  0
ATTRIB
  5
5E6
330
5DF
100
AcDbEntity
 67
     1
  8
TTLBLK
100
AcDbText
 10
8.762897543347701
 20
0.0547612675773345
 30
0.0
 40
0.06066176465625
  1
LMM
 41
0.75
  7
ROMANS
100
AcDbAttribute
  2
DFT
 70
     0
  0
ATTRIB
  5
5E7
330
5DF
100
AcDbEntity
 67
     1
  8
TTLBLK
100
AcDbText
 10
9.289283953585337
 20
0.0547612675773345
 30
0.0
 40
0.06066176465625
  1
07/03/08
 41
0.75
  7
ROMANS
100
AcDbAttribute
  2
DATE
 70
     0
  0
ATTRIB
  5
5E8
330
5DF
100
AcDbEntity
 67
     1
  8
TTLBLK
100
AcDbText
 10
10.07418077639689
 20
0.0547612675773345
 30
0.0
 40
0.06066176465625
  1
1OF1
 41
0.75
  7
ROMANS
100
AcDbAttribute
  2
SHT
 70
     0
  0
SEQEND
  5
5E0
330
5DF
100
AcDbEntity
 67
     1
  8
0
  0
LINE
  5
8B6
330
58
100
AcDbEntity
 67
     1
  8
99
 62
     0
380
     1
100
AcDbLine
 10
9.080291794785161
 20
3.194281904956246
 30
0.0
 11
9.080291794785161
 21
2.847781613896247
 31
0.0
  0
LINE
  5
8B7
330
58
100
AcDbEntity
 67
     1
  8
99
 62
     0
380
     1
100
AcDbLine
 10
9.080291794785161
 20
3.561571925746247
 30
0.0
 11
9.080291794785161
 21
3.215071884166247
 31
0.0
  0
LINE
  5
8B8
330
58
100
AcDbEntity
 67
     1
  8
99
 62
     0
380
     1
100
AcDbLine
 10
5.397238899605035
 20
2.847781613896247
 30
0.0
 11
9.080291794785161
 21
2.847781613896247
 31
0.0
  0
TEXT
  5
8BA
330
58
100
AcDbEntity
 67
     1
  8
99
 62
     0
380
     1
100
AcDbText
 10
6.795614008505037
 20
3.064344404956247
 30
0.0
 40
0.086625
  1
RS2875.203 TRANSITION, GALV.
 41
0.85
  7
MONOTXT
100
AcDbText
  0
TEXT
  5
8BC
330
58
100
AcDbEntity
 67
     1
  8
99
 62
     0
380
     1
100
AcDbText
 10
5.540949309389198
 20
3.064344404956247
 30
0.0
 40
0.086625
  1
C2780004
  7
MONOTXT
100
AcDbText
  0
LINE
  5
8BD
330
58
100
AcDbEntity
 67
     1
  8
99
 62
     0
380
     1
100
AcDbLine
 10
6.609988712495034
 20
3.194281904956247
 30
0.0
 11
6.609988712495034
 21
2.847781613896247
 31
0.0
  0
LINE
  5
8BE
330
58
100
AcDbEntity
 67
     1
  8
99
 62
     0
380
     1
100
AcDbLine
 10
5.397238899605035
 20
3.194281904956247
 30
0.0
 11
5.397238899605035
 21
2.847781613896247
 31
0.0
  0
TEXT
  5
8BF
330
58
100
AcDbEntity
 67
     1
  8
99
 62
     0
380
     1
100
AcDbText
 10
7.19476764523084
 20
3.331474227916247
 30
0.0
 40
0.1136953125
  1
DESCRIPTION
 41
1.00000073
 51
30.0000008
  7
MONOTXT
100
AcDbText
  0
TEXT
  5
8C0
330
58
100
AcDbEntity
 67
     1
  8
99
 62
     0
380
     1
100
AcDbText
 10
5.565074352005034
 20
3.331474227916247
 30
0.0
 40
0.1136953125
  1
CAT. NO.
 41
1.00000073
 51
30.0000008
  7
MONOTXT
100
AcDbText
  0
LINE
  5
8C1
330
58
100
AcDbEntity
 67
     1
  8
99
 62
     0
380
     1
100
AcDbLine
 10
6.609988712495034
 20
3.561571925746247
 30
0.0
 11
6.609988712495034
 21
3.215071884166247
 31
0.0
  0
LINE
  5
8C2
330
58
100
AcDbEntity
 67
     1
  8
99
 62
     0
380
     1
100
AcDbLine
 10
5.397238899605035
 20
3.561571925746247
 30
0.0
 11
5.397238899605035
 21
3.215071884166247
 31
0.0
  0
LINE
  5
8C3
330
58
100
AcDbEntity
 67
     1
  8
99
 62
     0
380
     1
100
AcDbLine
 10
5.397238899605035
 20
3.021031904956247
 30
0.0
 11
9.080291794785161
 21
3.021031904956247
 31
0.0
  0
LINE
  5
8C4
330
58
100
AcDbEntity
 67
     1
  8
99
 62
     0
380
     1
100
AcDbLine
 10
5.397238899605035
 20
3.194281904956247
 30
0.0
 11
9.080291794785161
 21
3.194281904956246
 31
0.0
  0
LINE
  5
8C5
330
58
100
AcDbEntity
 67
     1
  8
99
 62
     0
380
     1
100
AcDbLine
 10
5.397238899605035
 20
3.215071884166247
 30
0.0
 11
9.080291794785161
 21
3.215071884166247
 31
0.0
  0
LINE
  5
8C6
330
58
100
AcDbEntity
 67
     1
  8
99
 62
     0
380
     1
100
AcDbLine
 10
5.397238899605035
 20
3.561571925746247
 30
0.0
 11
9.080291794785161
 21
3.561571925746247
 31
0.0
  0
LINE
  5
8C7
330
58
100
AcDbEntity
 67
     1
  8
99
 62
     0
380
     1
100
AcDbLine
 10
5.376448899605037
 20
3.582361904956248
 30
0.0
 11
5.376448899605037
 21
2.826991613896248
 31
0.0
  0
LINE
  5
8C8
330
58
100
AcDbEntity
 67
     1
  8
99
 62
     0
380
     1
100
AcDbLine
 10
5.376448899605037
 20
3.582361904956248
 30
0.0
 11
9.101081794785162
 21
3.582361904956248
 31
0.0
  0
LINE
  5
8C9
330
58
100
AcDbEntity
 67
     1
  8
99
 62
     0
380
     1
100
AcDbLine
 10
9.101081794785162
 20
3.582361904956248
 30
0.0
 11
9.101081794785162
 21
2.826991613896248
 31
0.0
  0
LINE
  5
8CA
330
58
100
AcDbEntity
 67
     1
  8
99
 62
     0
380
     1
100
AcDbLine
 10
5.376448899605037
 20
2.826991613896248
 30
0.0
 11
9.101081794785162
 21
2.826991613896248
 31
0.0
  0
TEXT
  5
8CB
330
58
100
AcDbEntity
 67
     1
  8
99
 62
     7
100
AcDbText
 10
5.91541549482504
 20
6.553595572489396
 30
0.0
 40
0.1989073045178043
  1
-NOTES-
  7
MONOTXT
100
AcDbText
  0
TEXT
  5
8CC
330
58
100
AcDbEntity
 67
     1
  8
99
 62
     7
100
AcDbText
 10
4.285653441953606
 20
6.299705251533308
 30
0.0
 40
0.1010322816194242
  1
1. HOT DIP GALVANIZED PER ASTM A153-(LATEST REVISION)
  7
MONOTXT
100
AcDbText
  0
TEXT
  5
8CE
330
58
100
AcDbEntity
 67
     1
  8
99
 62
     7
100
AcDbText
 10
4.285653441953606
 20
5.177336702529256
 30
0.0
 40
0.1010322816194242
  1
   SECTION 5 OF THE AWS CODE D1.1.
  7
MONOTXT
100
AcDbText
  0
TEXT
  5
8CF
330
58
100
AcDbEntity
 67
     1
  8
99
 62
     7
100
AcDbText
 10
4.285653441953606
 20
5.338988967461268
 30
0.0
 40
0.1010322816194242
  1
4. ALL WELDING TO BE DONE BY WELDERS CERTIFIED UNDER
  7
MONOTXT
100
AcDbText
  0
TEXT
  5
8D0
330
58
100
AcDbEntity
 67
     1
  8
99
 62
     7
100
AcDbText
 10
4.285653441953606
 20
5.50064123239327
 30
0.0
 40
0.1010322816194242
  1
   MANUFACTURING PROCESSES.
  7
MONOTXT
100
AcDbText
  0
TEXT
  5
8D1
330
58
100
AcDbEntity
 67
     1
  8
99
 62
     7
100
AcDbText
 10
4.285653441953606
 20
5.662293497325272
 30
0.0
 40
0.1010322816194242
  1
   WRITTEN QUALITY CONTROL FOR ALL MATERIALS AND 
  7
MONOTXT
100
AcDbText
  0
TEXT
  5
8D2
330
58
100
AcDbEntity
 67
     1
  8
99
 62
     7
100
AcDbText
 10
4.285653441953606
 20
5.823945762257292
 30
0.0
 40
0.1010322816194242
  1
3. MANUFACTURER TO HAVE IN EFFECT INDUSTRY RECOGNIZED
  7
MONOTXT
100
AcDbText
  0
TEXT
  5
8D3
330
58
100
AcDbEntity
 67
     1
  8
99
 62
     7
100
AcDbText
 10
4.285653441953606
 20
5.985598027189299
 30
0.0
 40
0.1010322816194242
  1
   THICKNESS PER ASTM A500 GRADE B.
  7
MONOTXT
100
AcDbText
  0
TEXT
  5
8D4
330
58
100
AcDbEntity
 67
     1
  8
99
 62
     7
100
AcDbText
 10
4.285653441953606
 20
6.147250292121311
 30
0.0
 40
0.1010322816194242
  1
2. PIPE SHAFT MATERIAL 2.5" NOMINAL, SCHEDULE 80 WALL 
  7
MONOTXT
100
AcDbText
  0
TEXT
  5
8D5
330
58
100
AcDbEntity
 67
     1
  8
99
 62
     7
100
AcDbText
 10
4.285653441953606
 20
4.854032160541353
 30
0.0
 40
0.1010322816194242
  1
   REFER TO SA150-0001 OR SA150-10013 FOR 1-1/2" LEAD 
  7
MONOTXT
100
AcDbText
  0
TEXT
  5
8D6
330
58
100
AcDbEntity
 67
     1
  8
99
 62
     7
100
AcDbText
 10
4.285653441953606
 20
5.015684437597242
 30
0.0
 40
0.1010322816194242
  1
5. REFER TO SA2788500 FOR 2-7/8" EXTENSIONS.
  7
MONOTXT
100
AcDbText
  0
TEXT
  5
8D7
330
58
100
AcDbEntity
 67
     1
  8
99
 62
     7
100
AcDbText
 10
4.285653441953606
 20
4.692379883485463
 30
0.0
 40
0.1010322816194242
  1
6. COUPLING BOLTS: 3/4" DIAMETER X 3" LONG HEX HEAD 
  7
MONOTXT
100
AcDbText
  0
TEXT
  5
8D8
330
58
100
AcDbEntity
 67
     1
  8
99
 62
     7
100
AcDbText
 10
4.285653441953606
 20
4.530727606429574
 30
0.0
 40
0.1010322816194242
  1
   PER ASTM A320 GRADE L7.
  7
MONOTXT
100
AcDbText
  0
TEXT
  5
8D9
330
58
100
AcDbEntity
 67
     1
  8
99
 62
     7
100
AcDbText
 10
4.285653441953606
 20
4.369075329373684
 30
0.0
 40
0.1010322816194242
  1
7. TRANSITION SECTION LENGTH IS NOMINAL.
  7
MONOTXT
100
AcDbText
  0
ENDSEC
  0
SECTION
  2
OBJECTS
  0
DICTIONARY
  5
C
330
0
100
AcDbDictionary
281
     1
  3
ACAD_COLOR
350
73
  3
ACAD_GROUP
350
D
  3
ACAD_LAYOUT
350
1A
  3
ACAD_MATERIAL
350
72
  3
ACAD_MLINESTYLE
350
17
  3
ACAD_PLOTSETTINGS
350
19
  3
ACAD_PLOTSTYLENAME
350
E
  3
ACAD_TABLESTYLE
350
86
  3
ACDBHEADERROUNDTRIPXREC
350
93C
  3
AcDbVariableDictionary
350
66
  0
DICTIONARY
  5
93
330
2
100
AcDbDictionary
280
     1
281
     1
  3
ACAD_LAYERFILTERS
360
1A2
  3
ACAD_LAYERSTATES
360
13F
  3
ACLYDICTIONARY
360
1A1
  0
DICTIONARY
  5
57B
330
58
100
AcDbDictionary
280
     1
281
     1
  3
ACAD_SORTENTS
360
57C
  0
DICTIONARY
  5
940
330
9C
100
AcDbDictionary
280
     1
281
     1
  3
ACAD_XREC_ROUNDTRIP
360
941
  0
DICTIONARY
  5
942
330
9F
100
AcDbDictionary
280
     1
281
     1
  3
ACAD_XREC_ROUNDTRIP
360
943
  0
DICTIONARY
  5
73
102
{ACAD_REACTORS
330
C
102
}
330
C
100
AcDbDictionary
281
     1
  0
DICTIONARY
  5
D
102
{ACAD_REACTORS
330
C
102
}
330
C
100
AcDbDictionary
281
     1
  0
DICTIONARY
  5
1A
102
{ACAD_REACTORS
330
C
102
}
330
C
100
AcDbDictionary
281
     1
  3
Layout1
350
59
  3
Model
350
22
  0
DICTIONARY
  5
72
102
{ACAD_REACTORS
330
C
102
}
330
C
100
AcDbDictionary
281
     1
  0
DICTIONARY
  5
17
102
{ACAD_REACTORS
330
C
102
}
330
C
100
AcDbDictionary
281
     1
  3
Standard
350
18
  0
DICTIONARY
  5
19
102
{ACAD_REACTORS
330
C
102
}
330
C
100
AcDbDictionary
281
     1
  0
ACDBDICTIONARYWDFLT
  5
E
102
{ACAD_REACTORS
330
C
102
}
330
C
100
AcDbDictionary
281
     1
  3
Normal
350
F
100
AcDbDictionaryWithDefault
340
F
  0
DICTIONARY
  5
86
102
{ACAD_REACTORS
330
C
102
}
330
C
100
AcDbDictionary
281
     1
  3
Standard
350
87
  0
DICTIONARY
  5
93C
102
{ACAD_REACTORS
330
C
102
}
330
C
100
AcDbDictionary
281
     1
  0
DICTIONARY
  5
66
102
{ACAD_REACTORS
330
C
102
}
330
C
100
AcDbDictionary
281
     1
  3
CTABLESTYLE
350
17F
  3
DIMASSOC
350
67
  3
HIDETEXT
350
6B
  3
PROJECTNAME
350
1BC
  0
DICTIONARY
  5
1A2
102
{ACAD_REACTORS
330
93
102
}
330
93
100
AcDbDictionary
281
     1
  0
DICTIONARY
  5
13F
102
{ACAD_REACTORS
330
93
102
}
330
93
100
AcDbDictionary
281
     1
  0
DICTIONARY
  5
1A1
102
{ACAD_REACTORS
330
93
102
}
330
93
100
AcDbDictionary
281
     1
1001
ACAD
1000
<All
  0
SORTENTSTABLE
  5
57C
102
{ACAD_REACTORS
330
57B
102
}
330
57B
100
AcDbSortentsTable
330
58
331
9C
  5
9C
331
9F
  5
9F
  0
XRECORD
  5
941
102
{ACAD_REACTORS
330
940
102
}
330
940
100
AcDbXrecord
280
     1
102
SHADEPLOT
 70
     0
  0
XRECORD
  5
943
102
{ACAD_REACTORS
330
942
102
}
330
942
100
AcDbXrecord
280
     1
102
SHADEPLOT
 70
     0
  0
LAYOUT
  5
59
102
{ACAD_XDICTIONARY
360
184
102
}
102
{ACAD_REACTORS
330
1A
102
}
330
1A
100
AcDbPlotSettings
  1

  2
none_device
  4
Letter_(8.50_x_11.00_Inches)
  6

 40
6.349999904632568
 41
6.349999904632568
 42
6.350006103515625
 43
6.350006103515625
 44
215.8999938964844
 45
279.3999938964844
 46
0.0
 47
0.0
 48
0.0
 49
0.0
140
0.0
141
0.0
142
1.0
143
1.0
 70
   688
 72
     0
 73
     1
 74
     5
  7

 75
    16
147
1.0
148
0.0
149
0.0
100
AcDbLayout
  1
Layout1
 70
     1
 71
     1
 10
-0.2500002402958907
 20
-0.2499999962453767
 11
10.74999951940821
 21
8.249999763458731
 12
0.0
 22
0.0
 32
0.0
 14
0.0047910398117885
 24
-0.0025329421469742
 34
-0.0000000349181948
 15
10.53465225943411
 25
8.027824191127088
 35
0.0000000814935746
146
0.0
 13
0.0
 23
0.0
 33
0.0
 16
1.0
 26
0.0
 36
0.0
 17
0.0
 27
1.0
 37
0.0
 76
     0
330
58
331
9C
1001
ACAD_PSEXT
1000
None
1000
None
1000
Not applicable
1000
The layout will not be plotted unless a new plotter configuration name is selected.
1070
     0
  0
LAYOUT
  5
22
102
{ACAD_XDICTIONARY
360
93D
102
}
102
{ACAD_REACTORS
330
1A
102
}
330
1A
100
AcDbPlotSettings
  1

  2
none_device
  4
ANSI_A_(8.50_x_11.00_Inches)
  6

 40
6.349999904632568
 41
19.04999923706055
 42
6.350006103515625
 43
19.04998779296875
 44
215.8999938964844
 45
279.3999938964844
 46
0.0
 47
0.0
 48
0.0
 49
0.0
140
0.0
141
0.0
142
1.0
143
2.584895464708373
 70
 11952
 72
     0
 73
     1
 74
     0
  7

 75
     0
147
0.3868628397755418
148
0.0
149
0.0
100
AcDbLayout
  1
Model
 70
     1
 71
     0
 10
0.0
 20
0.0
 11
12.0
 21
9.0
 12
0.0
 22
0.0
 32
0.0
 14
0.0
 24
0.0
 34
0.0
 15
0.0
 25
0.0
 35
0.0
146
0.0
 13
0.0
 23
0.0
 33
0.0
 16
1.0
 26
0.0
 36
0.0
 17
0.0
 27
1.0
 37
0.0
 76
     0
330
1F
  0
MLINESTYLE
  5
18
102
{ACAD_REACTORS
330
17
102
}
330
17
100
AcDbMlineStyle
  2
STANDARD
 70
     0
  3

 62
   256
 51
90.0
 52
90.0
 71
     2
 49
0.5
 62
   256
  6
BYLAYER
 49
-0.5
 62
   256
  6
BYLAYER
  0
ACDBPLACEHOLDER
  5
F
102
{ACAD_REACTORS
330
E
102
}
330
E
  0
TABLESTYLE
  5
87
102
{ACAD_REACTORS
330
86
102
}
330
86
100
AcDbTableStyle
  3
Standard
 70
     0
 71
     0
 40
0.06
 41
0.06
280
     0
281
     0
  7
Standard
140
0.18
170
     2
 62
     0
 63
     7
283
     0
274
    -2
284
     1
 64
     0
275
    -2
285
     1
 65
     0
276
    -2
286
     1
 66
     0
277
    -2
287
     1
 67
     0
278
    -2
288
     1
 68
     0
279
    -2
289
     1
 69
     0
  7
Standard
140
0.25
170
     5
 62
     0
 63
     7
283
     0
274
    -2
284
     1
 64
     0
275
    -2
285
     1
 65
     0
276
    -2
286
     1
 66
     0
277
    -2
287
     1
 67
     0
278
    -2
288
     1
 68
     0
279
    -2
289
     1
 69
     0
  7
Standard
140
0.18
170
     5
 62
     0
 63
     7
283
     0
274
    -2
284
     1
 64
     0
275
    -2
285
     1
 65
     0
276
    -2
286
     1
 66
     0
277
    -2
287
     1
 67
     0
278
    -2
288
     1
 68
     0
279
    -2
289
     1
 69
     0
  0
DICTIONARYVAR
  5
17F
102
{ACAD_REACTORS
330
66
102
}
330
66
100
DictionaryVariables
280
     0
  1
STANDARD
  0
DICTIONARYVAR
  5
67
102
{ACAD_REACTORS
330
66
102
}
330
66
100
DictionaryVariables
280
     0
  1
2
  0
DICTIONARYVAR
  5
6B
102
{ACAD_REACTORS
330
66
102
}
330
66
100
DictionaryVariables
280
     0
  1
1
  0
DICTIONARYVAR
  5
1BC
102
{ACAD_REACTORS
330
66
102
}
330
66
100
DictionaryVariables
280
     0
  1

  0
DICTIONARY
  5
184
330
59
100
AcDbDictionary
280
     1
281
     1
  3
ACAD_XREC_ROUNDTRIP
360
93F
  3
ADSK_XREC_LAYOUTTHUMBNAIL
360
185
  0
DICTIONARY
  5
93D
330
22
100
AcDbDictionary
280
     1
281
     1
  3
ACAD_XREC_ROUNDTRIP
360
93E
  0
XRECORD
  5
93F
102
{ACAD_REACTORS
330
184
102
}
330
184
100
AcDbXrecord
280
     1
102
SHADEPLOT
 70
     0
102
SHADEPLOTRESLEVEL
 70
     2
102
SHADEPLOTCUSTOMDPI
 70
   300
  0
XRECORD
  5
185
102
{ACAD_REACTORS
330
184
102
}
330
184
100
AcDbXrecord
280
     1
310
28000000B40000008B0000000100080000000000BC61000000000000000000000001000000000000FFFFFF0000000000FFFFFF000000000000000000000000000000000000000000000000000000000000000000330000006600000099000000CC000000FF00000000330000333300006633000099330000CC330000FF3300
310
0000660000336600006666000099660000CC660000FF66000000990000339900006699000099990000CC990000FF99000000CC000033CC000066CC000099CC0000CCCC0000FFCC000000FF000033FF000066FF000099FF0000CCFF0000FFFF000000003300330033006600330099003300CC003300FF003300003333003333
310
33006633330099333300CC333300FF33330000663300336633006666330099663300CC663300FF66330000993300339933006699330099993300CC993300FF99330000CC330033CC330066CC330099CC3300CCCC3300FFCC330000FF330033FF330066FF330099FF3300CCFF3300FFFF330000006600330066006600660099
310
006600CC006600FF00660000336600333366006633660099336600CC336600FF33660000666600336666006666660099666600CC666600FF66660000996600339966006699660099996600CC996600FF99660000CC660033CC660066CC660099CC6600CCCC6600FFCC660000FF660033FF660066FF660099FF6600CCFF6600
310
FFFF660000009900330099006600990099009900CC009900FF00990000339900333399006633990099339900CC339900FF33990000669900336699006666990099669900CC669900FF66990000999900339999006699990099999900CC999900FF99990000CC990033CC990066CC990099CC9900CCCC9900FFCC990000FF99
310
0033FF990066FF990099FF9900CCFF9900FFFF99000000CC003300CC006600CC009900CC00CC00CC00FF00CC000033CC003333CC006633CC009933CC00CC33CC00FF33CC000066CC003366CC006666CC009966CC00CC66CC00FF66CC000099CC003399CC006699CC009999CC00CC99CC00FF99CC0000CCCC0033CCCC0066CC
310
CC0099CCCC00CCCCCC00FFCCCC0000FFCC0033FFCC0066FFCC0099FFCC00CCFFCC00FFFFCC000000FF003300FF006600FF009900FF00CC00FF00FF00FF000033FF003333FF006633FF009933FF00CC33FF00FF33FF000066FF003366FF006666FF009966FF00CC66FF00FF66FF000099FF003399FF006699FF009999FF00CC
310
99FF00FF99FF0000CCFF0033CCFF0066CCFF0099CCFF00CCCCFF00FFCCFF0000FFFF0033FFFF0066FFFF0099FFFF00CCFFFF00FFFFFF00000000000D0D0D001A1A1A00282828003535350043434300505050005D5D5D006B6B6B00787878008686860093939300A1A1A100AEAEAE00BBBBBB00C9C9C900D6D6D600E4E4E400
310
F1F1F100FFFFFF0000000000000000000000000000000000000000000000000000000000000000000000000000000000EFE2E2E2E2E2E2E2E2E2E2E2E2E2E2E2E2E2E2E2E2E2E2E2E2E2E2E2E2E2E2E2E2E2E2E2E2E2E2E2E2E2E2E2E2E2E2E2E2E2E2E2E2E2E2E2E2E2E2E2E2E2E2E2E2E2E2E2E2E2E2E2E2E2E2E2E2E2E2
310
E2E2E2E2E2E2E2E2E2E2E2E2E2E2E2E2E2E2E2E2E2E2E2E2E2E2E2E2E2E2E2E2E2E2E2E2E2E2E2E2E2E2E2E2E2E2E2E2E2E2E2E2E2E2E2E2E2E2E2E2E2E2E2E2E2E2E2E2E2E2E2E2E2E2E2E2E2E2E2E2E2E2E2E2E2E2E2E2E2E2E2E2E2E2E2E2E2E2E2E2E2EFE2F5F5F5F5F5F5F5F5F5F5F5F5F5F5F5F5F5F5F5F5F5F5F5F5
310
F5F5F5F5F5F5F5F5F5F5F5F5F5F5F5F5F5F5F5F5F5F5F5F5F5F5F5F5F5F5F5F5F5F5F5F5F5F5F5F5F5F5F5F5F5F5F5F5F5F5F5F5F5F5F5F5F5F5F5F5F5F5F5F5F5F5F5F5F5F5F5F5F5F5F5F5F5F5F5F5F5F5F5F5F5F5F5F5F5F5F5F5F5F5F5F5F5F5F5F5F5F5F5F5F5F5F5F5F5F5F5F5F5F5F5F5F5F5F5F5F5F5F5F5F5F5F5
310
F5F5F5F5F5F5F5F5F5F5F5F5F5F5F5F5F5F5F5F5F5F5F5F5F5E2E2EFE2F5F5F5F5F5F5F5F5F5F5F5F5F5F5F5F5F5F5F5F5F5F5F5F5F5F5F5F5F5F5F5F5F5F5F5F5F5F5F5F5F5F5F5F5F5F5F5F5F5F5F5F5F5F5F5F5F5F5F5F5F5F5F5F5F5F5F5F5F5F5F5F5F5F5F5F5F5F5F5F5F5F5F5F5F5F5F5F5F5F5F5F5F5F5F5F5F5F5
310
F5F5F5F5F5F5F5F5F5F5F5F5F5F5F5F5F5F5F5F5F5F5F5F5F5F5F5F5F5F5F5F5F5F5F5F5F5F5F5F5F5F5F5F5F5F5F5F5F5F5F5F5F5F5F5F5F5F5F5F5F5F5F5F5F5F5F5F5F5F5F5F5F5F5F5F5F5F5E2E2EFE2F5F5F5F5F5F5F5F5F5F5F5F5F5F5F5F5F5F5F5F5F5F5F5F5F5F5F5F5F5F5F5F5F5F5F5F5F5F5F5F5F5F5F5F5F5
310
F5F5F5F5F5F5F5F5F5F5F5F5F5F5F5F5F5F5F5F5F5F5F5F5F5F5F5F5F5F5F5F5F5F5F5F5F5F5F5F5F5F5F5F5F5F5F5F5F5F5F5F5F5F5F5F5F5F5F5F5F5F5F5F5F5F5F5F5F5F5F5F5F5F5F5F5F5F5F5F5F5F5F5F5F5F5F5F5F5F5F5F5F5F5F5F5F5F5F5F5F5F5F5F5F5F5F5F5F5F5F5F5F5F5F5F5F5F5F5F5F5F5F5F5F5F5F5
310
F5F5F5F5E2E2EFE2F5F5F5E2E2E2E2E2E2E2E2E2E2E2E2E2E2E2E2E2E2E2E2E2E2E2E2E2E2E2E2E2E2E2E2E2E2E2E2E2E2E2E2E2E2E2E2E2E2E2E2E2E2E2E2E2E2E2E2E2E2E2E2E2E2E2E2E2E2E2E2E2E2E2E2E2E2E2E2E2E2E2E2E2E2E2E2E2E2E2E2E2E2E2E2E2E2E2E2E2E2E2E2E2E2E2E2E2E2E2E2E2E2E2E2E2E2E2E2
310
E2E2E2E2E2E2E2E2E2E2E2E2E2E2E2E2E2E2E2E2E2E2E2E2E2E2E2E2E2E2E2E2E2E2E2E2E2E2E2E2E2E2E2E2E2E2E2E2E2E2E2E2E2E2E2F5F5E2E2EFE2F5F5F5E2E2E2E2E2E2E2E2E2E2E2E2E2E2E2E2E2E2E2E2E2E2E2E2E2E2E2E2E2E2E2E2E2E2E2E2E2E2E2E2E2E2E2E2E2E2E2E2E2E2E2E2E2E2E2E2E2E2E2E2E2E2E2
310
E2E2E2E2E2E2E2E2E2E2E2E2E2E2E2E2E2E2E2E2E2E2E2E2E2E2E2E2E2E2E2E2E2E2E2E2E2E2E2E2E2E2E2E2E2E2E2E2E2E2E2E2E2E2E2E2E2E2E2E2E2E2E2E2E2E2E2E2E2E2E2E2E2E2E2E2E2E2E2E2E2E2E2E2E2E2E2E2E2E2E2E2E2E2E2E2E2E2E2E2E2E2E2E2E2E2E2E2F5F5E2E2EFE2F5F5F5E2F5F5F5F5F5F5F5F5F5
310
F5F5F5F5F5F5F5F5F5F5F5F5F5F5F5F5F5F5F5F5F5F5F5F5F5F5F5F5F5F5F5F5F5F5F5F5F5F5F5F5F5F5F5F5F5F5F5F5F5F5F5F5F5F5F5F5F5F5F5F5F5F5F5F5F5F5F5F5F5F5F5F5F5F5F5F5F5F5F5F5F5F5F5F5F5F5F5F5F5F5F5F5F5F5E2E2E2E2E2E2E2E2E2E2E2E2E2E2E2E2E2E2E2F5F5E2E2E2E2E2E2E2E2E2E2F5E2
310
E2E2E2E2E2E2E2F5F5E2E2E2E2E2E2E2E2E2E2F5F5E2E2E2E2E2E2E2E2F5F5F5E2E2F5F5E2E2EFE2F5F5F5E2F5F5F5F5F5F5F5F5F5F5F5F5F5F5F5F5F5F5F5F5F5F5F5F5F5F5F5F5F5F5F5F5F5F5F5F5F5F5F5F5F5F5F5F5F5F5F5F5F5F5F5F5F5F5F5F5F5F5F5F5F5F5F5F5F5F5F5F5F5F5F5F5F5F5F5F5F5F5F5F5F5F5F5
310
F5F5F5F5F5F5F5F5F5F5F5F5F5F5F5F5F5F5F5F5E2E2E2E2E2E2E2E2E2E2E2E2E2E2E2E2E2E2E2E2E2E2E2E2E2E2E2E2E2E2E2E2E2E2E2E2E2E2E2E2E2E2E2E2E2E2E2E2E2E2E2E2E2E2E2E2E2E2E2E2E2E2E2E2E2E2E2F5F5E2E2EFE2F5F5F5E2F5F5F5F5F5F5F5F5F5F5F5F5F5F5F5F5F5F5F5F5F5F5F5F5F5F5F5F5F5F5
310
F5F5F5F5F5F5F5F5F5F5F5F5F5F5F5F5F5F5F5F5F5F5F5F5F5F5F5F5F5F5F5F5F5F5F5F5F5F5F5F5F5F5F5F5F5F5F5F5F5F5F5F5F5F5F5F5F5F5F5F5F5F5F5F5F5F5F5F5F5F5F5F5F5E2E2E2E2E2E2E2E2E2E2E2E2E2E2E2E2E2E2E2E2E2E2F5E2F5E2E2E2E2E2E2E2E2E2E2F5F5F5F5F5F5F5F5F5F5F5F5F5F5F5F5F5F5F5
310
F5F5F5F5F5F5F5F5E2E2E2E2E2F5F5E2E2EFE2F5F5F5E2F5F5F5F5F5F5F5F5F5F5F5F5F5F5F5F5F5F5F5F5F5F5F5F5F5F5F5F5F5F5F5F5F5F5F5F5F5F5F5F5F5F5F5F5F5F5F5F5F5F5F5F5F5F5F5F5F5F5F5F5F5F5F5F5F5F5F5F5F5F5F5F5F5F5F5F5F5F5F5F5F5F5F5F5F5F5F5F5F5F5F5F5F5F5F5F5F5F5F5F5F5F5F5E2
310
E2E2E2E2E2E2E2E2E2E2E2E2E2E2E2E2E2E2E2E2E2F5E2F5E2E2E2E2E2E2E2E2E2E2F5F5F5F5F5F5F5F5F5F5F5F5F5F5F5F5F5F5F5F5F5F5F5F5F5F5F5E2F5F5E2E2F5F5E2E2EFE2F5F5F5E2F5F5F5F5F5F5F5F5F5F5F5F5F5F5F5F5F5F5F5F5F5F5F5F5F5F5F5F5F5F5F5F5F5F5F5F5F5F5F5F5F5F5F5F5F5F5F5F5F5F5F5
310
F5F5F5F5F5F5F5F5F5F5F5F5F5F5F5F5F5F5F5F5F5F5F5F5F5F5F5F5F5F5F5F5F5F5F5F5F5F5F5F5F5F5F5F5F5F5F5F5F5F5F5F5E2E2E2E2E2E2E2E2E2E2E2E2E2E2E2E2E2E2E2E2E2E2E2E2E2E2E2E2E2E2E2F5F5F5F5F5F5F5F5F5F5F5F5F5F5F5F5F5F5F5F5F5F5F5F5F5F5F5F5F5F5F5E2E2E2E2E2F5F5E2E2EFE2F5F5
310
F5E2F5F5F5F5F5F5F5F5F5F5F5F5F5F5F5F5F5F5F5F5F5F5F5F5F5E2F5F5F5F5F5F5F5F5F5F5F5F5F5F5F5F5F5F5F5F5F5F5F5F5F5F5F5F5F5F5F5F5F5F5F5F5F5F5F5F5F5F5F5F5F5F5F5F5F5F5F5F5F5F5F5F5F5F5F5F5F5F5F5F5F5F5F5F5F5F5F5F5F5F5F5F5F5E2E2E2E2E2E2E2E2E2E2E2E2E2E2E2E2E2E2E2E2E2E2
310
E2E2E2E2E2E2E2E2E2E2E2E2E2E2E2E2E2E2E2E2E2E2E2E2E2E2E2E2E2E2E2E2E2E2E2E2E2E2E2E2E2E2E2E2E2F5F5E2E2EFE2F5F5F5E2F5F5F5F5F5F5F5F5F5F5F5F5F5F5F5F5F5F5F5F5F5F5F5F5F5E2E2F5F5F5F5F5F5F5F5F5F5F5F5F5F5F5F5F5F5F5F5F5F5F5F5F5F5F5F5F5F5F5F5F5F5F5F5F5F5F5F5F5F5F5F5F5
310
F5F5F5F5F5F5F5F5F5F5F5F5F5F5F5F5F5F5F5F5F5F5F5F5F5F5F5F5F5F5F5E2E2E2E2E2E2E2E2E2E2E2E2E2E2E2E2E2E2E2E2E2E2F5F5F5F5F5F5F5F5F5F5F5F5F5F5F5F5F5E2E2E2E2E2E2E2E2E2E2E2F5F5F5F5F5F5F5F5F5F5F5F5F5F5F5E2E2F5F5E2E2EFE2F5F5F5E2F5F5F5F5F5F5F5F5F5F5F5F5F5F5F5F5F5F5F5
310
F5F5F5F5F5F5E2F5E2F5F5F5F5F5F5F5F5F5F5F5F5F5F5F5F5F5F5F5F5F5F5F5F5F5F5F5F5F5F5F5F5F5F5F5F5F5F5F5F5F5F5F5F5F5F5F5F5F5F5F5F5F5F5F5F5F5F5F5F5F5F5F5F5F5F5F5F5F5F5F5F5F5F5F5E2E2E2E2E2E2E2E2E2E2E2E2E2E2E2E2E2E2E2F5F5E2F5F5F5F5F5F5F5F5F5F5F5F5F5F5F5F5F5E2E2E2E2
310
E2E2E2E2E2E2E2F5F5F5F5F5F5F5F5F5F5F5F5F5F5F5F5E2F5F5E2E2EFE2F5F5F5E2F5F5F5F5F5F5F5F5F5F5F5F5F5F5F5F5F5F5F5F5F5F5F5F5F5E2F5E2F5F5F5F5F5F5F5F5F5F5F5F5F5F5F5F5F5F5F5F5F5F5F5F5F5F5F5F5F5F5F5F5F5F5E2E2E2E2E2E2E2E2E2E2E2E2E2E2E2E2E2F5F5F5F5F5F5F5F5F5F5F5F5F5F5
310
F5F5F5F5F5F5F5F5F5F5E2E2E2E2E2E2E2E2E2E2E2E2E2E2E2E2E2E2E2E2E2E2F5F5F5F5F5F5F5F5F5F5F5F5F5F5F5F5E2E2E2E2E2E2E2E2E2E2E2E2E2F5F5F5F5F5F5F5F5F5F5F5F5F5F5F5E2F5F5E2E2EFE2F5F5F5E2F5F5F5F5F5F5F5F5F5F5F5F5F5F5F5F5F5F5F5F5F5F5F5F5F5E2F5E2F5F5F5F5F5F5F5F5F5F5F5F5
310
F5F5F5F5F5F5F5F5F5F5F5F5F5F5F5F5F5F5F5F5F5F5F5F5E2E2E2F5E2F5E2E2E2E2E2E2F5F5F5F5F5F5F5F5F5F5F5F5F5F5F5F5F5F5F5F5F5F5F5F5F5F5F5E2E2E2E2E2E2E2E2E2E2E2E2E2E2E2E2E2E2E2E2E2E2F5F5F5F5F5F5F5F5F5F5F5F5E2F5F5E2E2E2E2F5F5E2E2F5E2E2F5E2E2E2E2F5F5F5F5F5F5F5F5F5F5F5
310
F5F5E2F5F5E2E2EFE2F5F5F5E2F5F5F5F5F5F5F5F5F5F5F5F5F5F5F5F5F5F5F5F5F5F5F5F5F5E2F5E2E2E2E2E2F5F5F5F5F5F5F5F5F5F5F5F5F5F5F5F5F5F5F5F5F5F5F5F5F5F5F5F5F5F5F5E2E2E2E2F5E2E2E2E2E2E2E2E2E2E2F5F5F5F5F5F5F5F5F5F5F5F5F5F5F5F5F5F5F5F5F5F5F5F5F5E2E2E2E2E2E2E2E2E2E2E2
310
E2E2E2E2E2E2E2E2E2E2E2F5F5F5F5F5F5F5F5F5F5F5F5E2E2E2E2F5E2E2F5F5E2E2F5E2E2E2F5E2E2E2F5F5F5F5F5F5F5F5F5F5F5F5F5E2F5F5E2E2EFE2F5F5F5E2F5F5F5F5F5F5F5F5F5F5F5F5F5F5F5F5F5F5F5F5F5F5F5F5E2E2F5E2E2E2E2E2F5F5F5F5F5F5F5F5F5F5F5F5F5F5F5F5F5F5F5F5F5F5F5F5F5F5F5F5F5
310
F5F5E2E2E2E2E2E2E2E2E2F5E2E2E2F5E2F5F5F5F5F5F5F5F5F5F5F5F5F5F5F5F5F5F5F5F5F5F5F5F5F5E2E2F5F5F5E2E2E2E2E2E2E2E2E2E2E2E2E2F5F5F5E2E2E2E2E2E2E2E2E2E2E2E2E2E2E2E2E2E2E2E2E2E2E2E2E2E2E2E2E2E2E2E2E2E2E2E2E2E2E2E2E2E2E2E2E2E2F5F5E2E2EFE2F5F5F5E2F5F5F5F5F5F5F5F5
310
F5F5F5F5F5F5F5F5F5F5F5F5F5E2E2E2E2E2F5E2F5F5F5F5F5F5F5F5F5F5F5F5F5F5F5F5F5F5F5F5F5F5F5F5F5F5F5F5F5F5F5F5F5F5F5E2E2E2E2E2E2E2E2E2F5E2E2E2E2E2F5F5F5F5F5F5F5F5F5F5F5F5F5F5F5F5F5F5F5F5F5F5F5F5F5E2E2F5F5F5E2E2E2F5E2F5E2E2E2E2E2E2F5F5F5F5E2E2E2E2E2E2E2E2E2E2E2
310
E2E2E2E2E2E2E2E2E2E2E2E2E2E2E2E2E2E2E2E2E2E2E2E2E2E2E2E2E2E2E2E2E2E2E2F5F5E2E2EFE2F5F5F5E2F5F5F5F5F5F5F5F5F5F5F5F5F5F5F5F5F5F5F5F5F5E2E2E2E2E2E2E2E2E2F5F5F5F5F5F5F5F5F5F5F5F5F5F5F5F5F5F5F5F5F5F5F5F5F5F5F5F5F5F5F5F5F5F5F5F5F5F5E2E2E2E2E2F5F5F5F5F5F5F5F5F5
310
F5F5F5F5F5F5F5F5F5F5F5F5F5F5F5F5F5F5F5F5F5E2E2F5F5F5E2E2E2E2E2F5E2E2E2F5E2E2F5F5F5F5E2E2E2E2E2E2E2E2E2F5E2E2E2E2E2E2E2E2E2F5E2F5F5E2F5E2E2E2E2F5E2E2F5E2E2E2E2F5E2E2E2E2E2E2E2E2F5F5E2E2EFE2F5F5F5E2F5F5F5F5F5F5F5F5F5F5F5F5F5F5F5F5F5F5F5F5F5F5F5F5F5E2E2E2E2
310
E2E2E2F5F5F5F5F5F5F5F5F5F5F5F5F5F5F5F5F5F5F5F5F5F5F5F5F5F5F5F5F5F5F5F5F5F5F5E2F5E2E2E2E2E2F5F5F5F5F5F5F5F5F5F5F5F5F5F5F5F5F5F5F5F5F5F5F5F5F5F5F5F5F5E2E2F5F5F5E2E2E2F5E2F5E2E2E2E2E2E2F5F5F5F5E2E2E2E2E2E2E2E2E2F5E2E2E2E2E2E2E2E2E2F5E2F5F5E2E2E2E2E2E2E2E2E2
310
F5F5E2E2F5E2E2E2E2E2E2F5E2E2F5F5E2E2EFE2F5F5F5E2F5F5F5F5F5F5F5F5F5F5F5F5F5F5F5F5F5F5F5F5F5F5F5F5F5E2F5E2F5F5F5F5F5F5F5F5F5F5F5F5F5F5F5F5F5F5F5F5F5F5F5F5F5F5F5F5F5F5F5F5F5F5F5F5F5F5F5E2F5F5E2F5F5E2F5F5F5F5F5F5F5F5F5F5F5F5F5F5F5F5F5F5F5F5F5F5F5F5F5F5F5F5F5
310
E2E2F5F5F5E2F5E2E2E2E2E2E2E2F5E2E2F5F5F5F5E2E2E2E2E2E2E2E2E2F5E2E2E2E2E2E2E2E2E2F5E2F5F5E2E2E2E2E2E2F5E2E2F5E2E2E2E2E2F5E2E2E2E2E2F5E2F5F5E2E2EFE2F5F5F5E2F5F5F5F5F5F5F5F5F5F5F5F5F5F5F5F5F5F5F5F5F5F5F5F5F5E2F5E2F5F5F5F5F5F5F5F5F5F5F5F5F5F5F5F5F5F5F5F5F5F5
310
F5F5F5F5F5F5F5F5F5F5F5F5F5F5E2E2E2E2E2E2E2E2E2E2F5F5F5F5F5F5F5F5F5F5F5F5F5F5F5F5F5F5F5F5F5F5F5F5F5F5F5F5F5E2E2F5F5F5E2E2E2F5E2E2E2E2E2E2E2E2E2F5F5F5E2E2E2E2E2E2E2E2E2E2E2E2E2E2E2E2E2E2E2F5E2E2F5E2E2E2E2E2E2E2E2E2F5E2E2E2E2E2E2E2E2E2E2E2E2E2F5F5E2E2EFE2F5
310
F5F5E2F5F5F5F5F5F5F5F5F5F5F5F5F5F5F5F5F5F5F5F5F5F5F5F5F5E2F5E2F5F5F5F5F5F5F5F5F5F5F5F5F5F5F5F5F5F5F5F5F5F5F5F5F5F5F5F5F5F5F5F5F5F5F5F5F5E2F5E2F5E2E2E2F5E2F5F5F5F5F5F5F5F5F5F5F5F5F5F5F5F5F5F5F5F5F5F5F5F5F5F5F5F5F5E2E2E2E2E2E2E2E2E2E2E2E2E2E2E2E2E2E2E2E2E2
310
E2E2E2E2E2E2E2E2E2E2E2E2E2E2E2E2E2E2E2E2E2E2E2E2E2E2E2E2E2E2E2E2E2E2E2E2E2E2E2E2E2E2E2E2E2E2F5F5E2E2EFE2F5F5F5E2F5F5F5F5F5F5F5F5F5F5F5F5F5F5F5F5F5F5F5F5F5F5F5F5F5E2E2E2F5F5F5F5F5F5F5F5F5F5F5F5F5F5F5F5F5F5F5F5F5F5F5F5F5F5F5F5F5F5F5F5F5F5F5F5F5E2F5E2F5F5E2
310
F5F5E2F5F5F5F5F5F5F5F5F5F5F5F5F5F5F5F5F5F5F5F5F5F5F5F5F5F5F5F5F5F5F5F5F5F5F5F5F5F5F5F5F5F5F5F5F5F5F5F5F5F5F5F5F5F5F5F5F5F5F5F5F5F5F5F5F5F5F5F5F5F5F5F5F5F5F5F5F5F5F5F5F5F5F5F5F5F5F5F5F5F5F5F5F5F5E2E2F5F5E2E2EFE2F5F5F5E2F5F5F5F5F5F5F5F5F5F5F5F5F5F5F5F5F5F5
310
F5F5F5F5F5F5F5F5F5F5F5F5F5F5F5F5F5F5F5F5F5F5F5F5F5F5F5F5F5F5F5F5F5F5F5F5F5F5F5F5F5F5F5F5F5E2E2E2E2E2F5F5E2F5F5E2F5F5F5F5F5F5F5F5F5F5F5F5F5F5F5F5F5F5F5F5F5F5F5F5F5F5F5F5F5F5F5F5F5F5F5F5F5F5F5F5F5F5F5F5F5F5F5F5F5F5F5F5F5F5F5F5F5F5F5F5F5F5F5F5F5F5F5F5F5F5F5
310
F5F5F5F5F5F5F5F5F5F5F5F5F5F5F5F5F5F5F5F5F5F5F5E2E2F5F5E2E2EFE2F5F5F5E2F5F5F5F5F5F5F5F5F5F5F5F5F5F5F5F5F5F5F5F5F5F5F5F5F5E2E2E2F5F5F5F5F5F5F5F5F5F5F5F5F5F5F5F5F5F5F5F5F5F5F5F5F5F5F5F5F5F5F5F5F5F5F5E2E2E2E2E2F5F5E2F5F5E2F5F5F5F5F5F5F5F5F5F5F5F5F5F5F5F5F5F5
310
F5F5F5F5F5F5F5F5F5F5F5F5F5F5F5F5F5F5F5F5F5F5F5F5F5F5F5F5F5F5F5F5F5F5F5F5F5F5F5F5F5F5F5F5F5F5F5F5F5F5F5F5F5F5F5F5F5F5F5F5F5F5F5F5F5F5F5F5F5F5F5F5F5F5F5F5E2E2F5F5E2E2EFE2F5F5F5E2F5F5F5F5F5F5F5F5F5F5F5F5F5F5F5F5F5F5F5F5F5F5F5F5F5E2E2E2F5F5F5F5F5F5F5F5F5F5F5
310
F5F5F5F5F5F5F5F5F5F5F5F5F5F5F5F5F5F5F5F5F5F5F5F5F5F5E2F5E2F5F5E2F5F5E2F5F5F5F5F5F5F5F5F5F5F5F5F5F5F5F5F5F5F5F5F5F5F5F5F5F5F5F5F5F5F5F5F5F5F5F5F5F5F5F5F5F5F5F5F5F5F5F5F5F5F5F5F5F5F5F5F5F5F5F5F5F5F5F5F5F5F5F5F5F5F5F5F5F5F5F5F5F5F5F5F5F5F5F5F5F5F5F5F5F5F5F5
310
F5F5E2E2F5F5E2E2EFE2F5F5F5E2F5F5F5F5F5F5F5F5F5F5F5F5F5F5F5F5F5F5F5F5F5F5F5F5F5E2E2E2F5F5F5F5F5F5F5F5F5F5F5F5F5F5F5F5F5F5F5F5F5F5F5F5F5F5F5F5F5F5F5F5F5F5F5F5F5E2F5E2F5E2E2E2F5E2F5F5F5F5F5F5F5F5F5F5F5F5F5F5F5F5F5F5F5F5F5F5F5F5F5F5F5F5F5F5F5F5F5F5F5F5F5F5F5
310
F5F5F5F5F5F5F5F5F5F5F5F5F5F5F5F5F5F5F5F5F5F5F5F5F5F5F5F5F5F5F5F5F5F5F5F5F5F5F5F5F5F5F5F5F5F5F5F5F5F5F5F5F5F5F5E2E2F5F5E2E2EFE2F5F5F5E2F5F5F5F5F5F5F5F5F5F5F5F5F5F5F5F5F5F5F5F5F5F5F5F5F5E2F5E2F5F5F5F5F5F5F5F5F5F5F5F5F5F5F5F5F5F5F5F5F5F5F5F5F5F5F5F5F5F5F5F5
310
F5F5F5F5E2E2E2E2E2E2E2E2E2E2F5F5F5F5E2E2F5E2F5F5E2E2E2E2E2E2E2E2E2E2E2F5F5F5F5F5F5F5F5F5F5F5F5F5F5F5F5F5F5F5F5F5F5F5F5F5F5F5F5F5F5F5F5F5F5F5F5F5F5F5F5F5F5F5F5F5F5F5F5F5F5F5F5F5F5F5F5F5F5F5F5F5F5F5F5F5F5F5F5F5F5F5F5F5E2E2F5F5E2E2EFE2F5F5F5E2F5F5F5F5F5F5F5
310
F5F5F5F5F5F5F5F5F5F5F5F5F5F5F5F5F5F5E2F5E2F5F5F5F5F5F5F5F5F5F5F5F5F5F5F5F5F5F5F5F5F5F5F5F5F5F5F5F5F5F5F5F5F5F5F5F5F5E2F5E2F5F5E2F5E2E2F5F5F5F5E2E2E2E2E2F5E2E2E2F5E2E2E2F5E2E2E2F5F5F5F5F5F5F5F5F5F5F5F5F5F5F5F5F5F5F5F5F5F5F5F5F5F5F5F5F5F5F5F5F5F5F5F5F5F5F5
310
F5F5F5F5F5F5F5F5F5F5F5F5F5F5F5F5F5F5F5F5F5F5F5F5F5F5F5F5F5F5F5F5F5F5E2E2F5F5E2E2EFE2F5F5F5E2F5F5F5F5F5F5F5F5F5F5F5F5F5F5F5F5F5F5F5F5F5F5F5F5F5E2F5E2E2E2E2E2E2F5F5F5F5F5F5F5F5F5F5F5F5F5F5F5F5F5F5F5F5F5F5F5F5F5F5F5F5F5F5F5F5E2F5E2F5F5E2F5F5E2E2E2F5F5E2E2E2
310
E2E2E2E2E2E2E2F5E2E2E2E2E2F5E2F5F5F5F5F5F5F5F5F5F5F5F5F5F5F5F5F5F5F5F5F5F5F5F5F5F5F5F5F5F5F5F5F5F5F5F5F5F5F5F5F5F5F5F5F5F5F5F5F5F5F5F5F5F5F5F5F5F5F5F5F5F5F5F5F5F5F5F5F5F5F5F5E2E2F5F5E2E2EFE2F5F5F5E2F5F5F5F5F5F5F5F5F5F5F5F5F5F5F5F5F5F5F5F5F5E2E2E2E2E2F5E2
310
E2E2E2E2E2F5F5F5F5F5F5F5F5F5F5F5F5F5F5F5F5F5F5F5F5F5F5F5F5F5F5F5F5F5E2E2E2E2E2E2E2E2E2E2E2E2F5F5E2E2E2E2E2E2E2E2E2E2E2E2F5E2E2E2E2E2E2E2F5F5F5F5F5F5F5F5F5F5F5F5F5F5F5F5F5F5F5F5F5F5F5F5F5F5F5F5F5F5F5F5F5F5F5F5F5F5F5F5F5F5F5F5F5F5F5F5F5F5F5F5F5F5F5F5F5F5F5
310
F5F5F5F5F5F5F5F5F5F5F5F5F5E2E2F5F5E2E2EFE2F5F5F5E2F5F5F5F5F5F5F5F5F5F5F5F5F5F5F5F5F5F5F5F5E2E2E2E2E2E2F5E2F5F5F5F5F5F5F5F5F5F5F5F5F5F5F5F5F5F5F5F5F5F5F5F5F5F5F5F5F5F5F5F5F5F5E2E2E2E2F5E2F5F5E2F5F5E2F5F5F5F5F5F5F5F5F5F5F5F5F5F5F5F5F5F5F5F5F5F5F5F5F5F5F5F5
310
F5F5F5F5F5F5F5F5F5F5F5F5F5F5F5F5F5F5F5F5F5F5F5F5F5F5F5F5F5F5F5F5F5F5F5F5F5F5F5F5F5F5F5F5F5F5F5F5F5F5F5F5F5F5F5F5F5F5F5F5F5F5F5F5F5F5E2E2F5F5E2E2EFE2F5F5F5E2F5F5F5F5F5F5F5F5F5F5F5F5F5F5F5F5F5F5F5F5F5E2E2E2E2E2E2E2E2E2E2E2E2F5F5F5F5F5F5F5F5F5F5F5F5F5F5F5F5
310
F5F5F5F5F5F5F5F5F5F5F5F5F5F5F5F5F5F5E2F5F5F5F5F5E2F5F5F5F5F5F5F5F5F5F5F5F5F5F5F5F5F5F5F5F5F5F5F5F5F5F5F5F5F5F5F5F5F5F5F5F5F5F5F5F5F5F5F5F5F5F5F5F5F5F5F5F5F5F5F5F5F5F5F5F5F5F5F5F5F5F5F5F5F5F5F5F5F5F5F5F5F5F5F5F5F5F5F5F5F5F5F5F5F5F5F5F5F5F5E2E2F5F5E2E2EFE2
310
F5F5F5E2F5F5F5F5F5F5F5F5F5F5F5F5F5F5F5F5F5F5F5F5F5F5F5F5F5E2F5E2E2E2E2E2E2F5F5F5F5F5F5F5F5F5F5F5F5F5F5F5F5F5F5F5F5F5F5F5F5F5F5F5F5F5F5F5F5F5F5E2E2E2E2E2E2E2F5F5F5F5F5F5F5F5F5F5F5F5F5F5F5F5F5F5F5F5F5F5F5F5F5F5F5F5F5F5F5F5F5F5F5F5F5F5F5F5F5F5F5F5F5F5F5F5F5
310
F5F5F5F5F5F5F5F5F5F5F5F5F5F5F5F5F5F5F5F5F5F5F5F5F5F5F5F5F5F5F5F5F5F5F5F5F5F5F5F5F5F5F5F5F5E2E2F5F5E2E2EFE2F5F5F5E2F5F5F5F5F5F5F5F5F5F5F5F5F5F5F5F5F5F5F5F5F5F5F5F5F5E2F5E2F5F5F5F5F5F5F5F5F5F5F5F5F5F5F5F5F5F5F5F5F5F5F5F5F5F5F5F5F5F5F5F5F5F5F5F5F5F5F5E2E2F5
310
F5F5E2E2F5F5F5F5F5F5F5F5F5F5F5F5F5F5F5F5F5F5F5F5F5F5F5F5F5F5F5F5F5F5F5F5F5F5F5F5F5F5F5F5F5F5F5F5F5F5F5F5F5F5F5F5F5F5F5F5F5F5F5F5F5F5F5F5F5F5F5F5F5F5F5F5F5F5F5F5F5F5F5F5F5F5F5F5F5F5F5F5F5F5F5F5F5F5E2E2F5F5E2E2EFE2F5F5F5E2F5F5F5F5F5F5F5F5F5F5F5F5F5F5F5F5F5
310
F5F5F5F5F5F5F5F5E2F5E2F5F5F5F5F5F5F5F5F5F5F5F5F5F5F5F5F5F5F5F5F5F5F5F5F5F5F5F5F5F5F5F5F5F5F5F5E2E2E2E2E2F5F5E2E2E2E2E2E2F5F5F5F5F5F5F5F5F5F5F5F5F5F5F5F5F5F5F5F5F5F5F5F5F5F5F5F5F5F5F5F5F5F5F5F5F5F5F5F5F5F5F5F5F5F5F5F5F5F5F5F5F5F5F5F5F5F5F5F5F5F5F5F5F5F5F5
310
F5F5F5F5F5F5F5F5F5F5F5F5F5F5F5F5F5F5F5F5F5F5F5F5E2E2F5F5E2E2EFE2F5F5F5E2F5F5F5F5F5F5F5F5F5F5F5F5F5F5F5F5F5F5F5F5F5F5F5F5F5E2F5E2E2F5F5F5F5F5F5F5F5F5F5F5F5F5F5F5F5F5F5F5F5F5F5F5F5F5F5F5F5F5F5F5F5F5F5F5E2E2E2E2E2E2E2F5E2E2E2E2E2F5F5F5F5F5F5F5F5F5F5F5F5F5F5
310
F5F5F5F5F5F5F5F5F5F5F5F5F5F5F5F5F5F5F5F5F5F5F5F5F5F5F5F5F5F5F5F5F5F5F5F5F5F5F5F5F5F5F5F5F5F5F5F5F5F5F5F5F5F5F5F5F5F5F5F5F5F5F5F5F5F5F5F5F5F5F5F5F5F5F5F5F5E2E2F5F5E2E2EFE2F5F5F5E2F5F5F5F5F5F5F5F5F5F5F5F5F5F5F5F5F5F5F5F5F5F5F5F5F5E2F5E2F5E2F5F5F5F5F5F5F5F5
310
F5F5F5F5F5F5F5F5F5F5F5F5F5F5F5F5F5F5F5F5F5F5F5E2E2E2E2E2E2F5E2E2E2E2E2E2E2E2E2E2E2E2F5F5F5F5F5F5F5F5F5F5F5F5F5F5F5F5F5F5F5F5F5F5F5F5F5F5F5F5F5F5F5F5F5F5F5F5F5F5F5F5F5F5F5F5F5F5F5F5F5F5F5F5F5F5F5F5F5F5F5F5F5F5F5F5F5F5F5F5F5F5F5F5F5F5F5F5F5F5F5F5F5F5F5F5F5
310
F5F5F5F5E2F5F5E2E2EFE2F5F5F5E2F5F5F5F5F5F5F5F5F5F5F5F5F5F5F5F5F5F5F5F5F5F5F5F5F5E2F5E2F5F5E2F5F5F5F5F5F5F5F5F5F5F5F5F5F5F5F5F5F5F5F5F5F5F5F5F5F5F5F5F5F5E2F5E2E2E2E2E2E2E2E2F5E2E2E2E2F5E2E2E2F5F5F5F5F5F5F5F5F5F5F5F5F5F5F5F5F5F5F5F5F5F5F5F5F5F5F5F5F5F5F5F5
310
F5F5F5F5F5F5F5F5F5F5F5F5F5F5F5F5F5F5F5F5F5F5F5F5F5F5F5F5F5F5F5F5F5F5F5F5F5F5F5F5F5F5F5F5F5F5F5F5F5F5F5F5F5F5F5F5F5E2F5F5E2E2EFE2F5F5F5E2F5F5F5F5F5F5F5F5F5F5F5F5F5F5F5F5F5F5F5F5F5F5F5F5F5E2E2E2F5F5F5E2F5F5F5F5F5F5F5F5F5F5F5F5F5F5F5F5F5F5F5F5F5F5F5F5F5F5F5
310
F5F5F5F5F5F5F5F5F5F5F5F5F5F5F5F5F5F5F5F5F5F5F5F5F5F5F5F5F5F5F5F5F5F5F5F5F5F5F5F5F5F5F5F5F5F5F5F5F5F5F5F5F5F5F5F5F5F5F5F5F5F5F5F5F5F5F5F5F5F5F5F5F5F5F5F5F5F5F5F5F5F5F5F5F5F5F5F5F5F5F5F5F5F5F5F5F5F5F5F5F5F5F5F5F5F5F5F5F5F5E2F5F5E2E2EFE2F5F5F5E2F5F5F5F5F5F5
310
F5F5F5F5F5F5F5F5F5F5F5F5F5F5F5F5F5F5F5E2E2E2F5F5F5F5E2F5F5F5F5F5F5F5F5F5F5F5F5F5F5F5F5F5F5F5F5F5F5F5F5F5F5F5F5F5F5F5F5F5F5F5F5F5F5F5F5F5F5F5F5F5F5F5F5F5F5F5F5F5F5F5F5F5F5F5F5F5F5F5F5F5F5F5F5F5F5F5F5F5F5F5F5F5F5F5F5F5F5F5F5F5F5F5F5F5F5F5F5F5F5F5F5F5F5F5F5
310
F5F5F5F5F5F5F5F5F5F5F5F5F5F5F5F5F5F5F5F5F5F5F5F5F5F5F5F5F5F5F5F5F5F5F5F5E2F5F5E2E2EFE2F5F5F5E2F5F5F5F5F5F5F5F5F5F5F5F5F5F5F5F5F5F5F5F5F5F5F5F5F5E2E2E2F5F5F5F5F5E2F5F5F5F5F5F5E2E2E2E2E2E2E2E2E2F5F5F5F5F5F5F5F5F5F5F5F5F5F5F5F5F5F5F5F5F5F5F5F5F5F5F5F5F5F5F5
310
F5F5F5F5F5F5F5F5F5F5F5F5F5F5F5F5F5F5F5F5F5F5F5F5F5F5F5F5F5F5F5F5F5F5F5F5F5F5F5F5F5F5F5F5F5F5F5F5F5F5F5F5F5F5F5F5F5F5F5F5F5F5F5F5F5F5F5F5F5F5F5F5F5F5F5F5F5F5F5F5F5F5F5F5F5F5F5F5F5E2F5F5E2E2EFE2F5F5F5E2F5F5F5F5F5F5F5F5F5F5F5F5F5F5F5F5F5F5F5F5F5F5F5F5F5E2E2
310
E2F5F5F5F5F5F5E2F5F5F5F5F5E2E2E2E2E2E2E2E2E2F5F5F5F5F5F5F5F5F5F5F5F5F5F5F5F5F5F5F5F5F5F5F5F5F5F5F5F5F5F5F5F5F5F5F5F5F5F5F5F5F5F5F5F5F5F5F5F5F5F5F5F5F5F5F5F5F5F5F5F5F5F5F5F5F5F5F5F5F5F5F5F5F5F5F5F5F5F5F5F5F5F5F5F5F5F5F5F5F5F5F5F5F5F5F5F5F5F5F5F5F5F5F5F5F5
310
F5F5F5F5F5F5F5F5F5F5F5F5F5F5F5E2F5F5E2E2EFE2F5F5F5E2F5F5F5F5F5F5F5F5F5F5F5F5F5F5F5F5F5F5F5F5F5F5F5F5F5E2F5E2F5F5F5F5F5F5F5E2F5F5F5F5E2E2E2E2E2E2F5F5F5F5F5F5F5F5F5F5F5F5F5F5F5F5F5F5F5F5F5F5F5F5F5F5F5F5F5F5F5F5F5F5F5F5F5F5F5F5F5F5F5F5F5F5F5F5F5F5F5F5F5F5F5
310
F5F5F5F5F5F5F5F5F5F5F5F5F5F5F5F5F5F5F5F5F5F5F5F5F5F5F5F5F5F5F5F5F5F5F5F5F5F5F5F5F5F5F5F5F5F5F5F5F5F5F5F5F5F5F5F5F5F5F5F5F5F5F5F5F5F5F5F5E2F5F5E2E2EFE2F5F5F5E2F5F5F5F5F5F5F5F5F5F5F5F5F5F5F5F5F5F5F5F5F5F5F5F5F5E2F5E2F5F5F5F5F5F5F5F5E2F5F5F5E2E2E2E2E2E2F5F5
310
F5F5F5F5F5F5F5F5F5F5F5F5F5F5F5F5F5F5F5F5F5F5F5F5F5F5F5F5F5F5F5F5F5F5F5F5F5F5F5F5F5F5F5F5F5F5F5F5F5F5F5F5F5F5F5F5F5F5F5F5F5F5F5F5F5F5F5F5F5F5F5F5F5F5F5F5F5F5F5F5F5F5F5F5F5F5F5F5F5F5F5F5F5F5F5F5F5F5F5F5F5F5F5F5F5F5F5F5F5F5F5F5F5F5F5F5F5F5F5F5F5E2F5F5E2E2EF
310
E2F5F5F5E2F5F5F5F5F5F5F5F5F5F5F5F5F5F5F5F5F5F5F5F5F5F5F5F5F5E2F5E2F5F5F5F5F5F5F5F5F5E2F5F5E2E2E2E2E2E2F5F5F5F5F5F5F5F5F5F5F5F5F5F5F5F5F5F5F5F5F5F5F5F5F5F5F5F5F5F5F5F5F5F5F5F5F5F5F5F5F5F5F5F5F5F5F5F5F5F5F5F5F5F5F5F5F5F5F5F5F5F5F5F5F5F5F5F5F5F5F5F5F5F5F5F5
310
F5F5F5F5F5F5F5F5F5F5F5F5F5F5F5F5F5F5F5F5F5F5F5F5F5F5F5F5F5F5F5F5F5F5F5F5F5F5F5F5F5F5F5F5F5F5F5E2F5F5E2E2EFE2F5F5F5E2F5F5F5F5F5F5F5F5F5F5F5F5F5F5F5F5F5F5F5F5F5F5F5F5F5E2F5E2F5F5F5F5F5F5F5F5F5F5E2E2E2E2E2E2E2E2E2F5F5F5F5F5F5F5F5F5F5F5F5F5F5F5F5F5F5F5F5F5F5
310
F5F5F5F5F5F5F5F5F5F5F5F5F5F5F5F5F5F5F5F5F5F5F5F5F5F5F5F5F5F5F5F5F5F5F5F5F5F5F5F5F5F5F5F5F5F5F5F5F5F5F5F5F5F5F5F5F5F5F5F5F5F5F5F5F5F5F5F5F5F5F5F5F5F5F5F5F5F5F5F5F5F5F5F5F5F5F5F5F5F5F5F5F5F5F5F5F5F5F5E2E2F5F5E2E2EFE2F5F5F5E2F5F5F5F5F5F5F5F5F5F5F5F5F5F5F5F5
310
F5F5F5F5F5F5F5F5F5E2F5E2F5F5F5F5F5F5F5F5F5F5F5F5F5F5F5F5F5F5F5F5F5F5F5F5F5F5F5F5F5F5F5F5F5F5F5F5F5F5F5F5F5F5F5F5F5F5F5F5F5F5F5F5F5F5F5F5F5F5F5F5F5F5F5F5F5F5F5F5F5F5F5F5F5F5F5F5F5F5F5F5F5F5F5F5F5F5F5F5F5F5F5F5F5F5F5F5F5F5F5F5F5F5F5F5F5F5F5F5F5F5F5F5F5F5F5
310
F5F5F5F5F5F5F5F5F5F5F5F5F5F5F5F5F5F5F5F5F5F5F5F5F5E2E2F5F5E2E2EFE2F5F5F5E2F5F5F5F5F5F5F5F5F5F5F5F5F5F5F5F5F5F5F5F5F5F5F5F5F5E2E2E2F5F5F5F5F5F5F5F5F5F5F5F5F5F5F5F5F5F5F5F5F5F5F5F5F5F5F5F5F5F5F5F5F5F5F5F5F5F5F5F5F5F5F5F5F5F5F5F5F5F5F5F5F5F5F5F5F5F5E2E2E2E2
310
E2E2E2E2E2E2E2E2E2E2E2E2E2E2E2E2E2E2E2E2E2E2E2E2E2E2E2E2E2E2E2E2E2E2E2E2E2E2E2E2E2E2E2E2E2E2E2E2E2E2E2E2E2E2E2E2E2F5F5F5F5F5F5F5F5F5F5F5F5F5F5F5F5F5F5F5F5F5E2E2F5F5E2E2EFE2F5F5F5E2F5F5F5F5F5F5F5F5F5F5F5E2E2E2E2E2E2E2E2E2E2E2E2E2E2E2F5E2E2F5F5F5F5F5F5F5F5
310
F5F5F5F5F5F5F5F5F5F5F5F5F5F5F5F5F5F5F5F5F5F5F5F5F5F5F5F5F5F5F5F5F5F5F5F5F5F5F5F5F5F5F5F5F5F5F5F5F5E2F5F5F5F5F5F5F5F5F5F5F5F5F5F5F5F5F5F5E2F5F5F5F5F5F5F5F5F5F5F5F5F5F5F5F5F5F5F5F5F5F5F5F5F5F5F5F5F5F5F5F5F5F5F5F5F5F5F5E2E2F5F5F5F5F5F5F5F5F5F5F5F5F5F5F5F5F5
310
F5F5F5F5E2E2F5F5E2E2EFE2F5F5F5E2F5F5F5F5F5F5F5F5F5F5F5F5F5E2F5F5F5F5F5F5F5F5F5F5E2E2F5E2E2F5F5F5F5F5F5F5F5F5E2E2E2E2E2E2E2E2E2F5E2E2E2E2F5E2E2E2E2E2F5F5F5F5F5F5F5F5F5F5F5F5F5F5F5F5F5F5F5F5F5F5F5F5F5F5F5F5E2F5F5F5F5F5F5F5F5F5F5F5F5F5F5F5F5F5F5E2F5F5F5F5F5
310
F5F5F5F5F5F5F5F5F5F5F5F5F5F5F5F5F5F5F5F5F5F5F5F5F5F5F5F5F5F5F5F5F5F5E2E2F5F5F5F5F5F5F5F5F5F5F5F5F5F5F5F5F5F5F5F5F5E2E2F5F5E2E2EFE2F5F5F5E2F5F5F5F5F5F5F5F5F5F5F5F5E2E2F5F5F5F5F5F5F5F5F5F5F5E2F5E2E2F5F5F5F5F5F5F5F5E2E2E2E2E2E2F5E2E2E2F5E2E2E2E2F5E2E2E2F5E2
310
F5F5F5F5F5F5F5F5F5F5F5F5F5F5F5F5F5F5F5F5F5F5F5F5F5F5F5F5E2E2E2E2E2E2E2E2E2E2E2E2E2E2E2E2E2E2E2E2E2E2E2E2E2E2E2E2E2E2E2E2E2E2E2E2E2E2E2E2E2E2E2E2E2E2E2E2E2E2E2E2E2E2E2E2E2E2E2E2E2F5F5F5F5F5F5F5F5F5F5F5F5F5F5F5F5F5F5F5F5F5E2E2F5F5E2E2EFE2F5F5F5E2F5F5F5F5F5
310
F5F5F5F5F5F5F5F5E2F5F5F5F5F5F5F5F5F5F5E2E2E2E2E2E2F5F5F5F5F5F5F5E2E2E2E2E2E2E2E2E2E2E2E2E2E2E2E2E2E2E2F5E2F5F5F5F5F5F5F5F5F5F5F5F5F5F5F5F5F5F5F5F5F5F5F5F5F5F5F5F5E2F5E2E2E2E2E2E2E2E2E2E2E2E2F5F5F5F5F5E2F5F5E2E2E2E2E2E2E2E2E2E2E2E2E2F5E2E2E2E2E2E2E2E2E2E2
310
E2E2E2F5E2E2E2E2E2E2F5F5F5E2E2F5F5F5F5F5F5F5F5F5F5F5F5F5F5F5F5F5F5F5F5F5E2E2F5F5E2E2EFE2F5F5F5E2F5F5F5F5F5F5F5F5F5F5F5F5F5E2F5F5F5F5F5F5F5F5F5F5E2F5F5F5E2F5E2F5F5F5F5F5F5E2E2E2E2E2E2E2E2F5E2E2E2E2E2E2E2E2E2F5F5F5F5F5F5F5F5F5F5F5F5F5F5F5F5F5F5F5F5F5F5F5F5
310
F5F5F5F5F5F5F5E2F5E2E2E2E2E2E2E2E2E2E2E2E2F5F5F5F5F5E2F5F5E2E2E2E2E2E2E2E2F5E2E2E2E2F5E2E2E2E2E2E2E2E2E2E2E2E2F5F5E2E2E2E2E2F5F5F5F5E2E2F5F5F5F5F5F5F5F5F5F5F5F5F5F5F5F5F5F5F5F5F5E2E2F5F5E2E2EFE2F5F5F5E2F5F5F5F5F5F5F5F5F5F5F5F5F5E2F5F5F5F5F5F5F5F5F5F5E2F5
310
F5F5E2F5F5E2E2F5F5F5F5E2E2E2E2E2E2E2E2F5E2E2E2E2E2E2E2E2E2F5F5F5F5F5F5F5F5F5F5F5F5F5F5F5F5F5F5F5F5F5F5F5F5F5F5F5F5F5F5F5E2E2E2E2E2E2E2E2E2E2E2E2E2E2E2E2E2E2E2E2E2E2E2E2E2E2E2E2E2E2E2E2E2E2E2E2E2E2E2E2E2E2E2E2E2E2E2E2E2E2E2E2E2E2E2E2E2E2E2E2E2F5F5F5F5F5F5
310
F5F5F5F5F5F5F5F5F5F5F5F5F5F5F5E2E2F5F5E2E2EFE2F5F5F5E2F5F5F5F5F5F5F5F5F5F5F5F5F5E2F5F5F5F5F5F5F5F5F5F5E2F5F5F5E2F5F5F5F5E2F5F5F5E2E2E2E2E2E2E2E2F5E2E2E2E2E2E2F5F5F5F5F5F5F5F5F5F5F5F5F5F5F5F5F5F5F5F5F5F5F5F5F5F5F5F5F5F5F5F5F5F5E2F5F5F5F5F5F5F5F5F5F5F5F5F5
310
F5F5F5F5F5E2F5F5F5F5F5F5F5F5F5F5F5F5F5F5F5F5F5F5F5F5F5F5F5F5F5F5F5F5F5F5F5F5F5F5F5F5F5F5F5E2E2F5F5F5F5F5F5F5F5F5F5F5F5F5F5F5F5F5F5F5F5F5E2E2F5F5E2E2EFE2F5F5F5E2F5F5F5F5F5F5F5F5F5F5F5F5F5E2F5F5F5F5F5F5F5F5F5F5E2F5F5F5E2F5F5F5F5F5E2F5F5F5E2E2E2E2E2E2E2F5E2
310
E2E2E2E2E2E2F5F5F5F5F5F5F5F5F5F5F5F5F5F5F5F5F5F5F5F5F5F5F5F5F5F5F5F5F5F5F5F5F5E2F5F5E2E2F5E2E2E2F5F5F5E2E2E2E2F5F5F5E2F5F5F5F5F5F5F5F5F5E2E2E2E2E2E2E2E2E2E2E2E2F5E2F5E2E2E2E2E2F5F5F5F5F5F5F5F5F5F5E2E2F5F5F5F5F5F5F5F5F5F5F5F5F5F5F5F5F5F5F5F5F5E2E2F5F5E2E2
310
EFE2F5F5F5E2F5F5F5F5F5F5F5F5F5F5F5F5F5E2F5F5F5F5F5F5F5F5F5F5E2F5F5F5E2F5F5F5F5F5F5E2E2E2E2E2E2E2E2E2F5F5F5F5F5F5F5F5F5F5F5F5F5F5F5F5F5F5F5F5F5F5F5F5F5F5F5F5F5F5F5F5F5F5F5F5F5F5F5F5F5F5E2F5F5E2E2E2E2F5E2F5F5F5F5E2E2E2E2F5F5E2F5F5F5F5F5F5F5F5F5F5E2E2E2E2E2
310
E2E2E2E2F5E2E2E2E2F5E2E2F5E2E2F5F5F5F5F5F5F5F5F5E2E2F5F5F5F5F5F5F5F5F5F5F5F5F5F5F5F5F5F5F5F5F5E2E2F5F5E2E2EFE2F5F5F5E2F5F5F5F5F5F5F5F5F5F5F5F5F5E2F5F5F5F5F5F5F5F5F5F5E2F5F5F5E2F5F5F5F5F5F5F5F5F5E2E2E2E2E2F5F5F5F5F5F5F5F5F5F5F5F5F5F5F5F5F5F5F5F5F5F5F5F5F5
310
F5F5F5F5F5F5F5F5F5F5F5F5F5F5F5F5F5F5E2F5F5E2E2E2E2E2E2E2F5F5F5E2E2E2E2F5F5E2F5F5F5F5F5F5F5F5F5F5E2E2E2E2E2E2E2E2E2E2E2E2E2E2E2E2E2E2E2F5E2F5F5F5F5F5F5F5F5E2E2F5F5F5F5F5F5F5F5F5F5F5F5F5F5F5F5F5F5F5F5F5E2E2F5F5E2E2EFE2F5F5F5E2F5F5F5F5F5F5F5F5F5F5F5F5F5E2F5
310
F5F5F5F5F5F5F5F5F5E2F5F5F5E2F5F5F5F5F5F5F5F5F5F5F5F5F5F5F5F5F5F5F5F5F5F5F5F5F5F5F5F5F5F5F5F5F5F5F5F5F5F5F5F5F5F5F5F5F5F5F5F5F5F5F5F5F5F5F5F5F5E2F5F5F5F5F5F5F5F5F5F5F5F5F5F5F5F5F5F5E2F5F5F5F5F5F5F5F5F5F5F5F5F5F5F5F5F5F5F5F5F5F5F5F5F5F5F5F5F5F5F5F5F5F5F5F5
310
F5F5F5E2E2F5F5F5F5F5F5F5F5F5F5F5F5F5F5F5F5F5F5F5F5F5E2E2F5F5E2E2EFE2F5F5F5E2F5F5F5F5F5F5F5F5F5F5F5F5F5E2F5F5F5F5F5F5F5F5F5F5E2F5F5F5E2F5F5F5F5F5F5F5F5F5F5F5F5F5F5F5F5F5F5F5F5F5F5F5F5F5F5F5F5F5F5F5F5F5F5F5F5F5F5F5F5F5F5F5F5F5F5F5F5F5F5F5F5F5F5F5F5F5E2E2E2
310
E2E2E2E2E2E2E2E2E2E2E2E2E2E2E2E2E2E2E2E2E2E2E2E2E2E2E2E2E2E2E2E2E2E2E2E2E2E2E2E2E2E2E2E2E2E2E2E2E2E2E2E2E2E2E2E2E2E2F5F5F5F5F5F5F5F5F5F5F5F5F5F5F5F5F5F5F5F5F5E2E2F5F5E2E2EFE2F5F5F5E2F5F5F5F5F5F5F5F5F5F5F5F5F5E2F5F5F5F5F5F5F5F5F5F5E2F5F5F5E2F5F5F5F5F5F5F5
310
F5F5F5F5F5F5F5F5F5F5F5F5F5F5F5F5F5F5F5F5F5F5F5F5F5F5F5F5F5F5F5F5F5F5F5F5F5F5F5F5F5F5F5F5F5F5F5F5F5F5F5F5F5F5F5F5F5F5F5F5F5F5F5F5F5F5F5F5F5F5F5F5F5F5F5F5F5F5F5F5F5F5F5F5F5F5F5F5F5F5F5F5F5F5F5F5F5F5F5F5F5F5F5F5F5F5F5F5F5F5F5F5F5F5F5F5F5F5F5F5F5F5F5F5F5F5F5
310
F5F5F5F5F5E2E2F5F5E2E2EFE2F5F5F5E2F5F5F5F5F5F5F5F5F5F5F5F5F5E2F5F5F5F5F5F5F5F5F5F5E2F5F5F5E2F5F5F5F5F5F5F5F5F5F5F5F5F5F5F5F5F5F5F5F5F5F5F5F5F5F5F5F5F5F5F5F5F5F5F5F5F5F5F5F5F5F5F5F5F5F5F5F5F5F5F5F5F5F5F5F5F5F5F5F5F5F5F5F5F5F5F5F5F5F5F5F5F5F5F5F5F5F5F5F5F5
310
F5F5F5F5F5F5F5F5F5F5F5F5F5F5F5F5F5F5F5F5F5F5F5F5F5F5F5F5F5F5F5F5F5F5F5F5F5F5F5F5F5F5F5F5F5F5F5F5F5F5F5F5F5F5F5F5F5F5E2E2F5F5E2E2EFE2F5F5F5E2F5F5F5F5F5F5F5F5F5F5F5F5F5E2F5F5F5F5F5F5F5F5F5F5E2F5F5F5E2F5F5F5F5F5F5F5F5F5F5F5F5F5F5F5F5F5F5F5F5F5F5F5F5F5F5F5F5
310
F5F5F5F5F5F5F5F5F5F5F5F5F5F5F5F5F5F5F5F5F5F5F5F5F5F5F5F5F5F5F5F5F5F5F5F5F5F5F5F5F5F5F5F5F5F5F5F5F5F5F5F5F5F5F5F5F5F5F5F5F5F5F5F5F5F5F5F5F5F5F5F5F5F5F5F5F5F5F5F5F5F5F5F5F5F5F5F5F5F5F5F5F5F5F5F5F5F5F5F5F5F5F5F5F5F5F5F5F5F5F5F5E2F5F5E2E2EFE2F5F5F5E2F5F5F5F5
310
F5F5F5F5F5F5F5F5F5E2F5F5F5F5F5F5F5F5F5F5E2F5F5F5E2F5F5F5F5F5F5F5F5F5F5F5F5F5F5F5F5F5F5F5F5F5F5F5F5F5F5F5F5F5F5F5F5F5F5F5F5F5F5F5F5F5F5F5F5F5F5F5F5F5F5F5F5F5F5F5F5F5F5F5F5F5F5F5F5F5F5F5F5F5F5F5F5F5F5F5F5F5F5F5F5F5F5F5F5F5F5F5F5F5F5F5F5F5F5F5F5F5F5F5F5F5F5
310
F5F5F5F5F5F5F5F5F5F5F5F5F5F5F5F5F5F5F5F5F5F5F5F5F5F5F5F5F5F5F5F5F5F5F5F5F5F5E2F5F5E2E2EFE2F5F5F5E2F5F5F5F5F5F5F5F5F5F5F5F5F5E2F5F5F5F5F5F5F5F5F5F5E2F5F5F5E2F5F5F5F5F5F5F5F5F5F5F5F5F5F5F5F5F5F5F5F5F5F5F5F5F5F5F5F5F5F5F5F5F5F5F5F5F5F5F5F5F5F5F5F5F5F5F5F5F5
310
F5F5F5F5F5F5F5F5F5F5F5F5F5F5F5F5F5F5F5F5F5F5F5F5F5F5F5F5F5F5F5F5F5F5F5F5F5F5F5F5F5F5F5F5F5F5F5F5F5F5F5F5F5F5F5F5F5F5F5F5F5F5F5F5F5F5F5F5F5F5F5F5F5F5F5F5F5F5F5F5F5F5F5F5F5F5F5F5F5F5F5E2F5F5E2E2EFE2F5F5F5E2F5F5F5F5F5F5F5F5F5F5F5F5F5E2F5F5F5F5F5F5F5F5F5F5E2
310
F5F5F5E2F5F5F5F5F5F5F5F5F5F5F5F5F5F5F5F5F5F5F5F5F5F5F5F5F5F5F5F5F5F5F5F5F5F5F5F5F5F5F5F5F5F5F5F5F5F5F5F5F5F5F5F5F5F5F5F5F5F5F5F5F5F5F5F5F5F5F5F5F5F5F5F5F5F5F5F5F5F5F5F5F5F5F5F5F5F5F5F5F5F5F5F5F5F5F5F5F5F5F5F5F5F5F5F5F5F5F5F5F5F5F5F5F5F5F5F5F5F5F5F5F5F5F5
310
F5F5F5F5F5F5F5F5F5F5F5F5F5F5F5F5F5E2F5F5E2E2EFE2F5F5F5E2F5F5F5F5F5F5F5F5F5F5F5F5F5E2F5F5F5F5F5F5F5F5F5F5E2F5F5F5E2F5F5F5F5F5F5F5F5F5F5F5F5F5F5F5F5F5F5F5F5F5F5F5F5F5F5F5F5F5F5F5F5F5F5F5F5F5F5F5F5F5F5F5F5F5F5F5F5F5F5F5F5F5F5F5F5F5F5F5F5F5F5F5F5F5F5F5F5F5F5
310
F5F5F5F5F5F5F5F5F5F5F5F5F5F5F5F5F5F5F5F5F5F5F5F5F5F5F5F5F5F5F5F5F5F5F5F5F5F5F5F5F5F5F5F5F5F5F5F5F5F5F5F5F5F5F5F5F5F5F5F5F5F5F5F5F5F5F5F5F5F5E2F5F5E2E2EFE2F5F5F5E2F5F5F5F5F5F5F5F5F5F5F5F5F5E2F5F5F5F5F5F5F5F5F5F5E2F5F5F5E2F5F5F5F5F5F5F5F5F5F5F5F5F5F5F5F5F5
310
F5F5F5F5F5F5F5F5F5F5F5F5F5F5F5F5F5F5F5F5F5F5F5F5F5F5F5F5F5F5F5F5F5F5F5F5F5F5F5F5F5F5F5F5F5F5F5F5F5F5F5F5F5F5F5F5F5F5F5F5F5F5F5F5F5F5F5F5F5F5F5F5F5F5F5F5F5F5F5F5F5F5F5F5F5F5F5F5F5F5F5F5F5F5F5F5F5F5F5F5F5F5F5F5F5F5F5F5F5F5F5F5F5F5F5F5F5F5F5F5F5F5F5E2F5F5E2
310
E2EFE2F5F5F5E2F5F5F5F5F5F5F5F5F5F5F5F5F5E2F5F5F5F5F5F5F5F5F5F5E2F5F5F5E2F5F5F5F5F5F5F5F5F5F5F5F5F5F5F5F5F5F5F5F5F5F5F5F5F5F5F5F5F5F5F5F5F5F5F5F5F5F5F5F5F5F5F5F5F5F5F5F5F5F5F5F5F5F5F5F5F5F5F5F5F5F5F5F5F5F5F5F5F5F5F5F5F5F5F5F5F5F5F5F5F5F5F5F5F5F5F5F5F5F5F5
310
F5F5F5F5F5F5F5F5F5F5F5F5F5F5F5F5F5F5F5F5F5F5F5F5F5F5F5F5F5F5F5F5F5F5F5F5F5F5F5F5F5F5F5F5F5F5F5F5F5E2F5F5E2E2EFE2F5F5F5E2F5F5F5F5F5F5F5F5F5F5F5E2E2E2F5F5F5F5F5F5F5F5F5F5E2F5F5F5E2F5F5F5F5F5F5F5F5F5F5F5F5E2E2E2E2E2E2E2E2E2E2E2F5F5F5F5F5F5F5F5F5F5F5F5F5F5F5
310
F5F5F5F5F5F5F5F5F5F5F5F5F5F5F5F5F5F5F5F5F5F5F5F5F5F5F5F5F5F5F5F5F5F5F5F5F5F5F5F5F5F5F5F5F5F5F5F5F5F5F5F5F5F5F5F5F5F5F5F5F5F5F5F5F5F5F5F5F5F5F5F5F5F5F5F5F5F5F5F5F5F5F5F5F5F5F5F5F5F5F5F5F5F5F5F5F5F5F5F5F5F5E2F5F5E2E2EFE2F5F5F5E2F5F5F5F5F5F5F5F5F5F5F5E2E2E2
310
E2F5F5F5F5F5F5F5F5F5E2F5F5F5E2E2F5F5F5F5F5F5F5F5F5F5F5E2E2E2E2E2E2E2E2E2E2E2F5F5F5F5F5F5F5F5F5F5F5F5F5F5F5F5F5F5F5F5F5F5F5F5F5F5F5F5F5F5F5F5F5F5F5F5F5F5F5F5F5F5F5F5F5F5F5F5F5F5F5F5F5F5F5F5F5F5F5F5F5F5F5F5F5F5F5F5F5F5F5F5F5F5F5F5F5F5F5F5F5F5F5F5F5F5F5F5F5
310
F5F5F5F5F5F5F5F5F5F5F5F5F5F5F5F5F5F5F5F5F5F5F5F5F5F5F5F5E2F5F5E2E2EFE2F5F5F5E2F5F5F5F5F5F5F5F5F5F5F5E2E2E2E2F5F5F5F5F5F5F5F5F5E2F5F5F5E2E2E2F5F5F5F5F5F5F5F5F5E2E2E2E2E2E2E2E2E2E2E2E2F5F5F5F5F5F5F5F5F5F5F5F5F5F5F5F5F5F5F5F5F5F5F5F5F5F5F5F5F5F5F5F5F5F5F5F5
310
F5F5F5F5F5F5F5F5F5F5F5F5F5F5F5F5F5F5F5F5F5F5F5F5F5F5F5F5F5F5F5F5F5F5F5F5F5F5F5F5F5F5F5F5F5F5F5F5F5F5F5F5F5F5F5F5F5F5F5F5F5F5F5F5F5F5F5F5F5F5F5F5F5F5F5F5F5F5F5F5E2E2F5F5E2E2EFE2F5F5F5E2F5F5F5F5F5F5F5F5F5F5F5F5F5E2F5F5F5F5F5F5F5F5F5F5E2F5F5F5E2F5F5E2F5F5F5
310
F5F5F5F5F5E2E2E2E2E2E2E2E2F5F5F5F5F5F5F5F5F5F5F5F5F5F5F5F5F5F5F5F5E2F5E2F5F5E2E2F5E2E2E2E2E2E2E2E2F5E2E2E2E2E2F5E2E2E2E2E2E2F5E2E2E2E2E2F5E2E2E2E2E2E2E2E2E2E2F5F5E2E2E2F5E2E2E2E2E2E2E2E2E2E2E2E2E2F5F5F5F5F5F5F5F5F5F5F5F5F5F5F5F5F5F5F5F5F5F5F5F5F5F5F5F5F5
310
F5F5F5F5F5F5E2E2F5F5E2E2EFE2F5F5F5E2F5F5F5F5F5F5F5F5F5F5F5F5F5E2F5F5F5F5F5F5F5F5F5F5E2F5F5F5E2F5F5F5E2E2F5F5F5F5F5F5F5E2E2E2E2E2E2E2F5F5F5F5F5F5F5F5F5F5F5F5F5F5F5F5F5F5F5F5F5E2F5F5F5E2E2E2E2E2E2E2E2F5E2E2F5E2E2E2E2E2F5E2E2E2E2E2E2F5E2E2E2E2E2F5E2E2E2E2E2
310
E2E2E2E2E2F5F5E2E2E2F5E2E2E2E2E2F5E2E2E2E2E2F5F5F5F5F5F5F5F5F5F5F5F5F5F5F5F5F5F5F5F5F5F5F5F5F5F5F5F5F5F5F5F5F5F5F5F5F5E2E2F5F5E2E2EFE2F5F5F5E2F5F5F5F5F5F5F5F5F5F5F5F5F5E2F5F5F5F5F5F5F5F5F5F5E2F5F5F5E2F5F5F5F5F5E2F5F5F5F5F5F5E2E2E2F5F5F5F5F5F5F5F5F5F5F5F5
310
F5F5F5F5F5F5F5F5F5F5F5F5E2E2F5F5F5E2E2E2F5E2E2E2E2E2E2E2E2E2E2E2E2E2F5E2E2E2E2E2E2E2E2E2E2E2E2F5E2E2E2E2E2E2E2E2E2E2F5F5E2E2E2F5E2E2E2E2E2E2E2E2E2E2E2F5F5F5F5F5F5F5F5F5F5F5F5F5F5F5F5F5F5F5F5F5F5F5F5F5F5F5F5F5F5F5F5F5F5F5F5F5E2E2F5F5E2E2EFE2F5F5F5E2F5F5F5
310
F5F5F5F5F5F5F5F5F5F5E2F5F5F5F5F5F5F5F5F5F5E2F5F5F5E2F5F5F5F5F5F5E2E2F5F5F5E2E2E2E2F5E2F5F5F5F5F5F5F5F5F5F5F5F5F5F5F5F5F5F5F5F5F5F5F5F5F5F5F5E2E2E2E2E2F5E2E2E2E2E2E2E2F5F5E2E2E2E2E2E2F5F5E2E2E2E2E2E2E2E2F5E2E2E2F5E2F5F5F5F5F5F5F5F5F5F5F5F5F5F5F5F5F5F5F5F5
310
F5F5F5F5F5F5F5F5F5F5F5F5F5F5F5F5F5F5F5F5F5F5F5F5F5F5F5F5F5F5F5F5F5F5F5F5F5F5E2E2F5F5E2E2EFE2F5F5F5E2F5F5F5F5F5F5F5F5F5F5F5F5F5E2F5F5F5F5F5F5F5F5F5F5E2F5F5F5E2F5F5F5F5F5F5F5F5E2E2E2E2E2E2E2E2E2E2F5F5F5F5F5F5F5F5F5F5F5F5F5F5F5F5F5F5F5F5F5F5F5F5F5F5E2E2E2E2
310
E2F5F5E2E2E2E2E2E2F5F5E2E2E2E2E2E2F5F5E2E2E2E2F5E2E2E2F5E2F5E2E2F5F5F5F5F5F5F5F5F5F5F5F5F5F5F5F5F5F5F5F5F5F5F5F5F5F5F5F5F5F5F5F5F5F5F5F5F5F5F5F5F5F5F5F5F5F5F5F5F5F5F5F5F5F5F5F5F5F5F5E2E2F5F5E2E2EFE2F5F5F5E2F5F5F5F5F5F5F5F5F5F5F5F5F5E2F5F5F5F5F5F5F5F5F5F5
310
E2F5F5F5E2F5F5F5F5F5F5F5F5F5F5F5F5E2F5E2E2E2E2F5F5F5F5F5F5F5F5F5F5F5F5F5F5F5F5F5F5F5F5F5E2E2E2F5F5E2E2E2E2E2E2E2E2E2E2E2E2E2F5F5E2E2E2E2E2E2E2E2E2F5F5E2E2E2F5E2F5F5F5E2E2E2E2E2E2E2E2E2E2E2E2E2E2F5E2E2F5E2E2F5F5F5E2E2E2E2E2E2E2F5E2E2E2E2E2F5F5E2E2E2E2E2E2
310
E2F5F5F5F5F5F5F5F5F5F5F5F5F5F5F5F5E2E2F5F5E2E2EFE2F5F5F5E2F5F5F5F5F5F5F5F5F5F5F5F5F5E2F5F5F5F5F5F5F5F5F5F5E2F5F5F5E2F5F5F5F5F5F5F5F5F5F5F5F5F5F5F5F5F5F5F5F5F5F5F5F5F5F5F5F5F5F5F5F5F5F5F5F5F5F5F5E2E2F5F5F5E2E2F5E2E2E2E2F5F5E2E2E2E2F5F5E2E2E2E2F5E2F5E2E2F5
310
F5E2E2F5E2E2E2F5F5E2E2E2E2E2E2E2E2F5E2E2F5E2E2F5F5E2F5F5E2E2F5F5E2F5E2E2E2E2E2F5E2E2E2F5E2F5F5E2E2E2E2E2E2E2F5F5F5F5F5F5F5F5F5F5F5F5F5F5F5F5E2E2F5F5E2E2EFE2F5F5F5E2F5F5F5F5F5F5F5F5F5F5F5F5F5E2F5F5F5F5F5F5F5F5F5F5E2F5F5F5E2F5F5F5F5F5F5F5F5F5F5F5F5F5F5F5F5
310
F5F5F5F5F5F5F5F5F5F5F5F5F5F5F5F5F5F5F5F5F5F5F5E2E2F5F5F5E2E2E2E2E2E2E2F5E2E2E2E2E2F5F5E2E2E2E2E2E2E2E2F5F5F5E2E2F5E2E2E2F5F5E2E2E2E2E2E2E2E2E2E2E2E2E2E2F5E2E2F5E2E2E2F5F5E2F5E2E2E2E2E2F5E2E2E2E2E2F5F5E2E2E2E2F5E2E2F5F5F5F5F5F5F5F5F5F5F5F5F5F5F5F5E2E2F5F5
310
E2E2EFE2F5F5F5E2F5F5F5F5F5F5F5F5F5F5F5F5F5E2F5F5F5F5F5F5F5F5F5F5E2F5F5F5E2F5F5F5F5F5F5F5F5F5F5F5F5F5F5F5F5F5F5F5F5F5F5F5F5F5F5F5F5F5F5F5F5F5F5F5F5F5F5F5F5F5F5F5F5E2E2E2E2F5E2E2E2F5F5E2E2E2F5F5E2E2E2E2E2E2E2E2F5E2E2E2E2E2E2E2F5E2E2E2E2F5E2E2E2E2E2E2E2E2E2
310
F5E2E2E2E2E2E2E2E2E2F5E2F5E2E2E2F5F5E2F5F5E2E2F5E2E2F5F5F5E2E2E2E2E2E2E2F5F5F5F5F5F5F5F5F5F5F5F5F5E2E2F5F5E2E2EFE2F5F5F5E2F5F5F5F5F5F5F5F5F5F5F5F5F5E2F5F5F5F5F5F5F5F5F5F5E2F5F5F5E2F5F5F5F5F5F5F5F5F5F5F5F5F5F5F5F5F5F5F5F5F5F5F5F5F5F5F5F5F5F5F5F5F5F5F5F5F5
310
F5F5F5F5F5F5F5E2E2E2E2E2E2E2E2F5F5E2E2E2F5F5E2E2E2E2E2E2E2E2E2E2E2E2E2E2E2E2F5E2E2E2E2F5E2E2F5E2E2E2E2E2E2E2E2E2E2E2E2E2E2E2E2F5E2E2E2E2E2F5F5E2E2E2E2F5E2E2E2E2F5F5E2F5E2E2E2E2E2F5F5F5F5F5F5F5F5F5F5F5F5F5E2E2F5F5E2E2EFE2F5F5F5E2F5F5F5F5F5F5F5F5F5F5F5F5F5
310
E2F5F5F5F5F5F5F5F5F5F5E2F5F5F5E2F5F5F5F5F5F5F5F5F5F5F5F5F5F5F5F5F5F5F5F5F5F5F5F5F5F5F5F5F5F5F5F5F5F5F5F5F5F5F5E2E2E2F5F5E2E2E2E2F5E2E2E2F5F5E2E2E2F5F5E2E2E2E2E2E2E2E2E2F5E2E2E2E2F5F5E2E2E2E2E2F5E2E2F5F5E2E2F5E2E2F5F5F5E2E2E2F5E2E2E2E2E2E2E2E2E2E2E2E2E2F5
310
F5F5F5F5F5F5F5F5F5F5F5F5F5F5F5F5F5F5F5F5F5F5F5F5F5F5F5F5E2E2F5F5E2E2EFE2F5F5F5E2F5F5F5F5F5F5F5F5F5F5F5F5F5E2F5F5F5F5F5F5F5F5F5F5E2F5F5F5E2F5F5F5F5F5F5F5F5F5F5F5F5F5F5F5F5F5F5F5F5F5F5F5F5F5F5F5F5F5F5F5F5F5F5F5F5F5F5F5E2E2E2F5F5E2E2E2E2E2E2E2E2F5F5E2E2E2F5
310
F5E2E2E2E2E2E2E2E2E2E2E2E2E2E2E2F5E2E2F5E2E2F5E2E2E2E2F5E2E2E2E2E2F5F5E2F5E2F5E2E2E2E2E2E2E2E2E2E2E2F5E2F5F5F5F5F5F5F5F5F5F5F5F5F5F5F5F5F5F5F5F5F5F5F5F5F5F5F5F5F5E2E2F5F5E2E2EFE2F5F5F5E2F5F5F5F5F5F5F5F5F5F5F5F5F5E2F5F5F5F5F5F5F5F5F5F5E2F5F5F5E2F5F5F5F5F5
310
F5F5F5F5F5F5F5F5F5F5F5F5F5F5F5F5F5F5F5F5F5F5F5F5F5F5F5F5F5F5F5F5F5F5E2E2F5F5F5E2E2E2E2E2E2E2E2F5F5E2E2E2F5F5E2E2E2E2E2E2E2E2E2E2E2E2E2E2E2F5E2E2E2E2E2F5E2E2F5F5E2E2E2E2E2E2F5F5E2E2E2E2E2E2E2E2E2E2E2E2E2E2E2E2E2F5F5F5F5F5F5F5F5F5F5F5F5F5F5F5F5F5F5F5F5F5F5
310
F5F5F5F5F5F5F5E2E2F5F5E2E2EFE2F5F5F5E2F5F5F5F5F5F5F5F5F5F5F5F5F5E2F5F5F5F5F5F5F5F5F5F5E2F5F5F5E2F5F5F5F5F5F5F5F5F5F5F5F5F5F5F5F5F5F5F5F5F5F5F5F5F5F5F5F5F5F5F5F5F5F5F5F5F5F5F5F5F5F5F5F5E2E2E2E2E2E2F5E2E2E2E2E2F5E2E2F5E2E2E2F5F5F5E2E2E2E2F5F5E2E2E2E2E2F5E2
310
E2E2E2E2E2E2F5E2E2E2E2E2E2E2E2F5F5F5F5F5F5F5F5F5F5F5F5F5F5F5F5F5F5F5F5F5F5F5F5F5F5F5F5F5F5F5F5F5F5F5F5F5F5F5F5F5F5F5F5F5E2E2F5F5E2E2EFE2F5F5F5E2F5F5F5F5F5F5F5F5F5F5F5F5F5E2F5F5F5F5F5F5F5F5F5F5E2F5F5F5E2F5F5F5F5F5F5F5F5F5F5F5F5F5F5F5F5F5F5F5F5F5F5F5F5F5F5
310
F5F5F5F5F5F5F5F5F5F5F5F5F5F5F5F5F5F5E2E2E2E2E2E2F5E2E2E2E2E2F5E2E2F5E2E2E2F5F5F5E2E2E2E2F5F5E2E2E2E2E2F5E2E2E2E2E2E2E2F5F5E2E2F5F5E2E2F5F5F5F5F5F5F5F5F5F5F5F5F5F5F5F5F5F5F5F5F5F5F5F5F5F5F5F5F5F5F5F5F5F5F5F5F5F5F5F5F5F5F5F5F5F5E2E2F5F5E2E2EFE2F5F5F5E2F5F5
310
F5F5F5F5F5F5F5F5F5F5F5E2F5F5F5F5F5F5F5F5F5F5E2E2E2E2E2F5F5F5F5F5F5F5F5F5F5F5F5F5F5F5F5F5F5F5F5F5F5F5F5F5F5F5F5F5F5F5F5F5F5F5F5F5F5F5F5F5F5F5F5E2E2E2E2E2E2E2E2E2E2E2E2F5E2E2F5E2E2E2E2F5E2E2E2E2E2F5F5E2E2E2E2E2F5E2E2E2E2E2E2E2F5E2E2E2F5F5F5E2F5F5F5F5F5F5F5
310
F5F5F5F5F5F5F5F5F5F5F5F5F5F5F5F5F5F5F5F5F5F5F5F5F5F5F5F5F5F5F5F5F5F5F5F5F5F5F5E2E2F5F5E2E2EFE2F5F5F5E2F5F5F5F5F5F5F5F5F5F5F5F5F5E2F5F5F5F5F5F5F5F5F5E2E2F5F5F5E2E2F5F5F5F5F5F5F5F5F5F5F5F5F5F5F5F5F5F5F5F5F5F5F5F5F5F5F5F5F5F5F5F5F5F5F5F5F5F5E2E2E2F5F5E2E2E2
310
E2E2F5F5E2E2E2E2E2E2E2E2E2E2E2F5F5E2E2E2F5E2E2E2E2F5E2E2E2E2F5E2E2F5E2E2F5E2F5F5E2E2E2E2E2E2E2E2E2E2E2F5E2E2E2E2E2E2E2E2E2E2E2E2E2E2E2F5F5E2E2E2E2E2E2E2E2F5F5F5F5F5F5F5F5F5F5F5F5F5F5F5F5E2F5F5E2E2EFE2F5F5F5E2F5F5F5F5F5F5F5F5F5F5F5F5E2E2F5F5F5F5F5F5F5F5F5
310
E2E2F5F5F5E2E2F5F5F5F5F5F5F5F5F5F5F5F5F5F5F5F5F5F5F5F5F5F5F5F5F5F5F5F5F5F5F5F5F5F5F5F5F5F5F5E2F5F5F5E2E2F5E2F5F5E2E2E2E2E2E2E2E2E2E2E2E2F5E2E2E2E2F5E2E2E2E2F5E2E2E2E2E2E2E2F5E2E2E2E2F5E2E2E2E2E2E2E2E2E2E2E2E2F5E2E2E2E2E2E2E2E2E2E2E2E2E2E2E2F5F5E2E2E2E2E2
310
E2E2E2F5F5F5F5F5F5F5F5F5F5F5F5F5F5F5F5E2F5F5E2E2EFE2F5F5F5E2F5F5F5F5F5F5F5F5F5F5F5F5F5E2F5F5F5F5F5F5F5F5F5E2E2F5F5F5E2E2F5F5F5F5F5F5F5F5F5F5F5F5F5F5F5F5F5F5F5F5F5F5F5F5F5F5F5F5F5F5F5F5F5F5F5F5F5F5F5F5F5F5F5E2E2F5E2E2E2E2F5E2E2E2E2E2E2E2E2E2E2E2E2E2F5F5E2
310
E2E2E2E2E2E2E2E2E2E2E2E2E2E2F5F5F5F5F5F5F5F5F5F5F5F5F5F5F5F5F5F5F5F5F5F5F5F5F5F5F5F5F5F5F5F5F5F5F5F5F5F5F5F5F5F5F5F5F5F5F5F5F5F5F5F5F5F5F5F5F5F5E2F5F5E2E2EFE2F5F5F5E2F5F5F5F5F5F5F5F5F5F5F5E2E2E2E2E2E2E2E2E2E2E2E2E2E2F5F5F5E2F5F5F5F5F5F5F5F5F5F5F5F5F5F5F5
310
F5F5F5F5F5F5F5F5F5F5F5F5F5F5F5F5F5F5F5F5F5F5F5F5F5F5F5F5F5E2E2E2E2E2E2E2E2E2E2E2F5E2E2E2E2E2E2E2E2E2F5F5E2E2E2E2E2E2E2E2F5E2E2E2E2F5E2F5F5F5F5F5F5F5F5F5F5F5F5F5F5F5F5F5F5F5F5F5F5F5F5F5F5F5F5F5F5F5F5F5F5F5F5F5F5F5F5F5F5F5F5F5F5F5F5F5F5F5F5F5F5F5F5F5F5E2F5
310
F5E2E2EFE2F5F5F5E2F5F5F5F5F5F5F5F5F5F5F5F5F5F5F5F5F5F5F5F5F5F5F5E2E2F5F5F5E2E2F5F5F5F5F5F5F5F5F5F5F5F5F5F5F5F5F5F5F5F5F5F5F5F5F5F5F5F5F5F5F5F5F5F5F5F5F5F5F5F5F5F5F5E2E2E2E2E2E2E2E2F5E2E2E2E2E2E2E2E2E2E2E2E2F5F5E2E2E2E2E2E2E2E2E2E2E2E2E2E2E2F5F5F5F5F5F5F5
310
F5F5F5F5F5F5F5F5F5F5F5F5F5F5F5F5F5F5F5F5F5F5F5F5F5F5F5F5F5F5F5F5F5F5F5F5F5F5F5F5F5F5F5F5F5F5F5F5F5F5F5E2F5F5E2E2EFE2F5F5F5E2F5F5F5F5F5F5F5F5F5F5F5F5F5F5F5F5F5F5F5F5F5F5F5E2E2F5F5F5E2E2F5F5F5F5F5F5F5F5F5F5F5F5F5F5F5F5F5F5F5F5F5F5F5F5F5F5F5F5F5F5F5F5F5F5F5
310
F5F5F5F5F5F5F5F5E2E2F5E2E2E2F5E2E2E2E2E2F5E2E2E2E2E2E2E2E2F5E2E2F5F5E2E2E2E2E2E2E2F5E2E2E2E2F5E2F5E2E2E2F5F5E2E2E2E2E2F5E2E2E2E2E2E2E2E2E2E2E2E2E2E2E2F5E2E2E2E2E2E2F5F5F5F5F5F5F5F5F5F5F5F5F5F5F5F5F5F5F5F5F5F5E2F5F5E2E2EFE2F5F5F5E2F5F5F5F5F5F5F5F5F5F5F5F5
310
F5F5F5F5F5F5F5F5F5F5F5E2E2F5F5F5E2E2F5F5F5F5F5F5F5F5F5F5F5F5F5F5F5F5F5F5F5F5F5F5F5F5F5F5F5F5F5F5F5F5F5F5F5F5F5F5F5F5F5F5F5E2E2E2E2E2E2E2E2E2E2E2E2F5E2E2E2E2E2E2F5E2E2E2E2E2F5E2E2E2E2E2E2E2E2E2E2E2F5F5E2E2E2E2E2F5F5E2E2F5E2F5F5E2E2E2E2E2E2E2E2E2E2E2E2F5E2
310
E2F5F5E2E2E2E2E2F5F5F5F5F5F5F5F5F5F5F5F5F5F5F5F5F5F5F5F5F5F5E2F5F5E2E2EFE2F5F5F5E2F5F5F5F5F5F5F5F5F5F5F5F5F5F5F5F5F5F5F5F5F5F5F5F5E2E2E2E2E2F5F5F5F5F5F5F5F5F5F5F5F5F5F5F5F5F5F5F5F5F5F5F5F5F5F5F5F5F5F5F5F5F5F5F5F5F5F5F5E2E2E2F5F5E2E2F5E2E2E2E2F5E2E2E2F5E2
310
E2E2E2E2E2E2E2F5F5E2E2E2F5E2E2E2E2E2E2E2F5E2E2E2E2F5E2E2E2E2F5E2E2E2F5E2F5F5E2E2E2E2F5E2E2E2E2E2E2E2F5F5E2E2E2E2E2E2E2E2E2E2E2E2E2E2E2E2E2F5F5F5F5F5F5F5F5F5F5F5F5F5F5E2F5F5E2E2EFE2F5F5F5E2F5F5F5F5F5F5F5F5F5F5F5F5F5F5F5F5F5F5F5F5F5F5F5F5E2E2E2E2E2F5F5F5F5
310
F5F5F5F5F5F5F5F5F5F5F5F5F5F5F5F5F5F5F5F5F5F5F5F5F5F5F5F5F5F5F5F5F5F5F5E2E2E2F5F5E2E2E2E2E2E2E2E2E2E2E2E2E2E2E2E2E2E2E2E2F5F5E2E2E2F5E2E2E2E2E2E2F5F5F5E2E2E2F5E2E2E2E2E2E2F5E2E2E2F5F5E2E2E2E2E2E2E2E2E2E2E2E2F5F5E2E2E2E2E2E2E2E2E2E2E2F5F5E2E2E2E2F5F5F5F5F5
310
F5F5F5F5F5F5F5F5F5E2F5F5E2E2EFE2F5F5F5E2F5F5F5F5F5F5F5F5F5F5F5F5F5F5F5F5F5F5F5F5F5F5F5F5E2F5F5F5E2F5F5F5F5F5F5F5F5F5F5F5F5F5F5F5F5F5F5F5F5F5F5F5F5F5F5F5F5F5F5F5F5F5F5F5F5F5F5F5E2E2F5F5F5E2E2E2E2E2E2E2E2F5E2E2E2E2E2E2E2E2E2E2E2F5E2E2E2E2F5E2E2E2E2E2E2E2F5
310
E2E2E2E2F5E2E2E2E2E2E2E2E2E2E2F5F5E2E2E2E2E2E2E2E2E2E2E2E2E2F5E2E2E2E2E2E2E2E2E2E2E2E2E2E2E2E2E2F5F5F5F5F5F5F5F5F5F5F5F5F5E2E2F5F5E2E2EFE2F5F5F5E2F5F5F5F5F5F5F5F5F5F5F5F5F5F5F5F5F5F5F5F5F5F5F5F5E2F5F5F5E2F5F5F5F5F5F5F5F5F5F5F5F5F5F5F5F5F5F5F5F5F5F5F5F5F5
310
F5F5F5F5F5F5F5F5F5F5F5F5F5F5F5F5F5F5F5E2E2F5E2E2E2E2E2E2E2E2E2E2E2E2F5E2F5E2E2E2F5F5E2E2E2E2F5E2E2F5E2E2E2E2E2E2E2F5E2E2E2E2E2E2E2E2E2F5E2E2F5F5F5F5F5F5F5F5F5F5F5F5F5F5F5F5F5F5F5F5F5F5F5F5F5F5F5F5F5F5F5F5F5F5F5F5F5F5F5F5F5F5F5F5E2E2F5F5E2E2EFE2F5F5F5E2F5
310
F5F5F5F5F5F5F5F5F5F5F5F5F5F5F5F5F5F5F5F5F5F5F5E2E2E2E2E2F5F5F5F5F5F5F5F5F5F5F5F5F5F5F5F5F5F5F5F5F5F5F5F5F5F5F5F5F5F5F5F5F5F5F5F5F5F5F5F5F5F5F5F5E2E2E2E2E2E2E2E2E2E2E2E2E2E2E2F5E2E2E2E2E2F5F5E2E2E2E2F5E2E2F5E2E2E2E2E2E2E2F5E2E2E2E2E2E2E2E2F5F5E2E2F5F5F5F5
310
F5F5F5F5F5F5F5F5F5F5F5F5F5F5F5F5F5F5F5F5F5F5F5F5F5F5F5F5F5F5F5F5F5F5F5F5F5F5F5F5E2E2F5F5E2E2EFE2F5F5F5E2F5F5F5F5F5F5F5F5F5F5F5F5F5F5F5F5F5F5F5F5F5F5F5F5F5E2F5E2F5F5F5F5F5F5F5F5F5F5F5F5F5F5F5F5F5F5F5F5F5F5F5F5F5F5F5F5F5F5F5F5F5F5F5F5F5F5F5F5F5F5F5F5F5E2E2
310
F5E2E2E2E2E2E2E2E2E2E2E2E2F5E2E2E2E2E2F5F5E2F5E2E2E2E2E2F5E2E2E2E2E2E2E2F5E2E2E2F5E2E2E2E2E2F5E2E2F5E2F5F5F5F5F5F5F5F5F5F5F5F5F5F5F5F5F5F5F5F5F5F5F5F5F5F5F5F5F5F5F5F5F5F5F5F5F5F5F5F5F5F5E2E2F5F5E2E2EFE2F5F5F5E2F5F5F5F5F5F5F5F5F5F5F5F5F5F5F5F5F5F5F5F5F5F5
310
F5F5E2E2E2E2E2F5F5F5F5F5F5F5F5F5F5F5F5F5F5F5F5F5F5F5F5F5F5F5F5F5F5F5F5F5F5F5F5F5F5F5F5F5F5F5E2E2E2F5F5E2E2E2E2E2E2E2F5E2E2E2E2E2E2F5E2F5F5E2E2E2F5E2E2E2E2E2E2E2E2E2F5E2E2E2F5E2E2F5F5F5E2E2E2E2E2E2E2E2E2E2E2E2F5F5E2E2E2E2E2E2E2E2E2E2E2E2E2E2F5E2E2E2E2F5E2
310
E2E2E2E2E2E2F5F5F5F5F5F5F5F5F5F5F5F5F5E2E2F5F5E2E2EFE2F5F5F5E2F5F5F5F5F5F5F5F5F5F5F5F5F5F5F5F5F5F5F5F5F5F5F5F5E2F5F5F5E2F5F5F5F5F5F5F5F5F5F5F5F5F5F5F5F5F5F5F5F5F5F5F5F5F5F5F5F5F5F5F5F5F5F5F5F5F5F5F5E2E2F5F5F5E2E2E2E2E2E2E2F5E2E2E2E2E2E2E2E2E2F5E2E2E2E2E2
310
E2E2E2E2E2E2E2F5F5E2E2E2F5E2E2E2F5F5E2E2E2E2E2E2E2E2E2E2F5F5F5F5E2E2E2E2E2E2E2E2E2F5E2F5E2E2F5E2E2E2E2F5E2E2E2E2F5E2F5F5F5F5F5F5F5F5F5F5F5F5F5F5E2E2F5F5E2E2EFE2F5F5F5E2F5F5F5F5F5F5F5F5F5F5F5F5F5F5F5F5F5F5F5F5F5F5F5F5E2F5F5F5E2F5F5F5F5F5F5F5F5F5F5F5F5F5F5
310
F5F5F5F5F5F5F5F5F5F5F5F5F5F5F5F5F5F5F5F5F5F5F5F5F5E2E2E2F5F5E2E2E2E2E2F5E2E2E2E2E2F5F5E2E2E2E2E2E2E2E2E2E2E2E2E2E2E2E2E2F5E2E2E2E2E2F5E2E2E2E2E2E2E2F5F5E2E2E2E2E2E2F5F5E2E2E2E2E2E2E2E2E2E2E2F5F5E2E2E2F5E2E2E2E2E2E2E2E2E2E2F5F5F5F5F5F5F5F5F5F5F5F5F5F5E2E2
310
F5F5E2E2EFE2F5F5F5E2F5F5F5F5F5F5F5F5F5F5F5F5F5F5F5F5F5F5F5F5F5F5F5F5E2F5F5F5E2F5F5F5F5F5F5F5F5F5F5F5F5F5F5F5F5F5F5F5F5F5F5F5F5F5F5F5F5F5F5F5F5F5F5F5F5F5F5F5E2F5F5F5F5E2E2F5E2E2F5F5E2F5E2E2E2F5E2E2E2E2F5E2E2E2E2E2E2F5E2E2F5E2E2F5E2E2E2E2E2F5E2E2E2E2E2E2E2
310
F5F5E2E2E2E2E2E2E2E2E2E2F5E2E2E2E2E2E2E2E2F5F5E2E2E2F5E2E2E2E2E2F5E2E2E2E2F5F5F5F5F5F5F5F5F5F5F5F5F5F5E2E2F5F5E2E2EFE2F5F5F5E2F5F5F5F5F5F5F5F5F5F5F5F5F5F5F5F5F5F5F5F5F5F5F5F5E2F5F5F5E2E2F5F5F5F5F5F5F5F5F5F5F5F5F5F5F5F5F5F5F5F5F5F5F5F5F5F5F5F5F5F5F5F5F5F5
310
F5F5F5F5E2F5F5F5F5E2E2E2E2E2F5E2E2E2E2E2F5F5E2E2E2E2F5E2E2E2E2E2E2E2E2E2E2E2F5F5E2E2E2E2E2F5F5E2E2E2E2E2E2F5F5E2F5E2E2E2E2F5F5E2E2F5E2F5E2E2E2E2E2E2E2F5E2E2E2E2E2E2F5E2E2E2E2E2E2E2F5F5F5F5F5F5F5F5F5F5F5F5F5F5E2E2F5F5E2E2EFE2F5F5F5E2F5F5F5F5F5F5F5F5F5F5F5
310
F5F5F5F5F5F5F5F5F5F5F5F5F5E2F5F5F5E2F5E2E2F5F5F5F5F5F5F5F5F5F5F5F5F5F5F5F5F5F5F5F5F5F5F5F5F5F5F5F5F5F5F5F5F5F5F5F5F5F5F5F5F5F5F5F5F5F5F5F5F5F5F5F5F5F5F5F5F5F5F5F5F5F5F5F5F5F5F5F5F5F5F5F5F5F5F5F5F5F5F5F5F5F5F5F5F5F5F5F5F5F5F5F5F5F5F5F5F5F5F5F5F5F5F5F5F5F5
310
F5F5F5F5F5F5F5F5F5F5F5F5F5F5F5F5F5F5F5F5F5F5F5F5F5F5F5F5F5F5E2E2F5F5E2E2EFE2F5F5F5E2F5F5F5F5F5F5F5F5F5F5F5F5F5F5F5F5F5F5F5F5F5F5F5F5E2F5F5F5E2F5F5F5E2F5F5F5F5F5F5E2E2E2E2E2E2E2E2E2E2E2F5F5F5F5F5F5F5F5F5F5F5F5F5F5F5F5F5F5F5F5F5F5F5F5F5F5F5F5F5F5F5F5F5F5F5
310
F5F5F5F5F5F5F5F5F5F5F5F5E2F5F5E2E2E2E2F5E2F5E2E2E2F5E2E2F5F5F5F5F5F5F5F5F5F5F5F5F5F5F5F5F5F5F5F5F5F5F5F5F5F5F5F5F5F5F5F5F5F5F5F5F5F5F5F5F5F5F5F5F5F5F5F5F5F5F5F5F5F5F5E2E2F5F5E2E2EFE2F5F5F5E2F5F5F5F5F5F5F5F5F5F5F5F5F5F5F5F5F5F5F5F5F5F5F5F5E2F5F5F5E2F5F5F5
310
F5E2F5F5F5F5F5E2E2E2E2E2E2E2E2E2E2E2F5F5F5F5F5F5F5F5F5F5F5F5F5F5F5F5F5F5F5F5F5F5F5F5F5F5F5F5F5F5F5F5F5F5F5F5F5F5F5F5F5F5F5F5F5F5F5E2F5E2E2E2F5E2F5E2F5E2F5F5E2F5E2F5F5F5F5F5F5F5F5F5F5F5F5F5F5F5F5F5F5F5F5F5F5F5F5F5F5F5F5F5F5F5F5F5F5F5F5F5F5F5F5F5F5F5F5F5F5
310
F5F5F5F5F5F5F5F5F5E2E2F5F5E2E2EFE2F5F5F5E2F5F5F5F5F5F5F5F5F5F5F5F5F5F5F5F5F5F5F5F5F5F5F5F5E2E2E2E2E2F5F5F5F5F5E2E2F5F5F5E2E2E2E2E2E2E2F5F5F5F5F5F5F5F5F5F5F5F5F5F5F5F5F5F5F5F5F5F5F5F5F5F5F5F5F5F5F5F5F5F5F5F5F5F5F5F5F5F5F5F5F5F5F5F5E2E2E2E2E2F5E2E2F5E2F5E2
310
F5E2E2F5F5E2F5F5E2E2E2F5F5F5F5F5F5F5F5F5F5F5F5F5F5F5F5F5F5F5F5F5F5F5F5F5F5F5F5F5F5F5F5F5F5F5F5F5F5F5F5F5F5F5F5F5F5F5F5F5F5F5E2E2F5F5E2E2EFE2F5F5F5E2F5F5F5F5F5F5F5F5F5F5F5F5F5F5F5F5F5F5F5F5F5F5F5F5F5F5F5F5F5F5F5F5F5F5F5F5E2E2E2E2E2E2E2E2E2E2F5F5F5F5F5F5F5
310
F5F5F5F5F5F5F5F5F5F5F5F5F5F5F5F5F5F5F5F5F5F5F5F5F5F5F5F5F5F5F5F5F5F5F5F5F5F5F5F5F5F5F5F5E2F5F5E2E2E2E2E2E2E2E2E2E2E2E2E2F5F5F5F5F5F5F5F5F5F5F5F5F5F5F5F5F5F5F5F5F5F5F5F5F5F5F5F5F5F5F5F5F5F5F5F5F5F5F5F5F5F5F5F5F5F5F5F5F5F5F5F5F5F5F5E2E2F5F5E2E2EFE2F5F5F5E2
310
F5F5F5F5F5F5F5F5F5F5F5F5F5F5F5F5F5F5F5F5F5F5F5F5F5F5F5F5F5F5F5F5F5F5F5F5F5F5F5F5F5F5F5F5F5F5F5F5F5F5F5F5F5F5F5F5F5F5F5F5F5F5F5F5F5F5F5F5F5F5F5F5F5F5F5F5F5F5F5F5F5F5F5F5F5F5F5F5F5F5F5F5F5F5F5F5F5F5F5F5F5F5F5F5F5F5F5F5F5F5F5F5F5F5F5F5F5F5F5F5F5F5F5F5F5F5F5
310
F5F5F5F5F5F5F5F5F5F5F5F5F5F5F5F5F5F5F5F5F5F5F5F5F5F5F5F5F5F5F5F5F5F5F5F5F5F5F5F5F5E2E2F5F5E2E2EFE2F5F5F5E2F5F5F5F5F5F5F5F5F5F5F5F5F5F5F5F5F5F5F5F5F5F5F5F5F5F5F5F5F5F5F5F5F5F5F5F5F5F5F5F5F5F5F5F5F5F5F5F5F5F5F5F5F5F5F5F5F5F5F5F5F5F5F5F5F5F5F5F5F5F5F5F5F5F5
310
F5F5F5F5F5F5F5F5F5F5F5F5F5F5F5F5F5F5F5F5F5F5F5F5F5F5F5F5F5F5F5F5F5F5F5F5F5F5F5F5F5F5F5F5F5F5F5F5F5F5F5F5F5F5F5F5F5F5F5F5F5F5F5F5F5F5F5F5F5F5F5F5F5F5F5F5F5F5F5F5F5F5F5F5F5F5F5F5F5F5F5F5F5F5E2E2F5F5E2E2EFE2F5F5F5E2F5F5F5F5F5F5F5F5E2E2E2E2E2E2E2E2E2E2E2E2F5
310
F5E2E2E2E2E2E2E2E2E2E2F5F5E2F5F5E2E2E2E2E2F5E2E2E2E2E2E2E2E2E2E2E2F5E2F5E2E2E2E2E2E2E2E2E2E2E2F5E2E2E2F5E2E2E2E2F5F5F5F5F5F5F5F5F5F5F5F5F5F5F5F5F5F5F5F5F5F5F5F5F5F5F5F5F5F5F5F5F5F5F5F5F5F5F5F5F5F5F5F5F5F5F5F5F5F5F5F5F5F5F5F5F5F5F5F5F5F5F5F5F5F5F5F5F5F5F5
310
F5F5F5F5F5F5F5F5F5F5F5F5F5F5F5F5F5F5F5F5E2E2F5F5E2E2EFE2F5F5F5E2F5F5F5F5F5F5F5F5E2E2F5E2F5E2E2E2E2E2E2E2F5F5E2E2E2E2E2E2E2E2E2E2F5E2E2F5E2E2E2E2E2E2E2E2E2E2E2E2E2E2E2E2E2E2F5E2E2E2E2E2E2E2E2E2E2E2E2E2E2E2E2E2F5E2E2E2E2E2F5F5F5F5F5F5F5F5F5F5F5F5F5F5F5F5F5
310
F5F5F5F5F5F5F5F5F5F5F5F5F5F5F5F5F5F5F5F5F5F5F5F5F5F5F5F5F5F5F5F5F5F5F5F5F5F5F5F5F5F5F5F5F5F5F5F5F5F5F5F5F5F5F5F5F5F5F5F5F5F5F5F5F5F5F5F5F5F5F5F5F5F5E2F5F5E2E2EFE2F5F5F5E2F5F5F5F5F5F5F5F5E2E2F5E2E2E2E2E2E2E2E2E2F5E2E2E2E2E2E2E2E2E2E2E2F5E2E2F5E2E2E2E2E2E2
310
E2E2E2E2E2E2E2E2E2E2E2E2F5E2E2E2E2E2E2E2E2E2E2E2E2E2F5E2E2E2F5E2E2E2E2E2F5F5F5F5F5F5F5F5F5F5F5F5F5F5F5F5F5F5F5F5F5F5F5F5F5F5F5F5F5F5F5F5F5F5F5F5F5F5F5F5F5F5F5F5F5F5F5F5F5F5F5F5F5F5F5F5F5F5F5F5F5F5F5F5F5F5F5F5F5F5F5F5F5F5F5F5F5F5F5F5F5F5F5F5F5F5F5F5F5F5F5
310
E2F5F5E2E2EFE2F5F5F5E2F5F5F5F5F5F5F5F5E2E2E2E2E2E2E2E2E2E2F5E2E2E2E2E2E2E2E2E2E2E2E2E2F5E2E2E2E2E2E2E2E2E2F5E2F5E2E2E2E2E2F5E2F5E2F5F5E2E2E2F5F5F5F5F5F5F5F5F5F5F5F5F5F5F5F5F5F5F5F5F5F5F5F5F5F5F5F5F5F5F5F5F5F5F5F5F5F5F5F5F5F5F5F5F5F5F5F5F5F5F5F5F5F5F5F5F5
310
F5F5F5F5F5F5F5F5F5F5F5F5F5F5F5F5F5F5F5F5F5F5F5F5F5F5F5F5F5F5F5F5F5F5F5F5F5F5F5F5F5F5F5F5F5F5F5F5F5F5F5F5F5E2F5F5E2E2EFE2F5F5F5E2F5F5F5F5F5F5F5F5E2E2E2E2E2E2E2E2E2F5F5E2E2E2E2E2E2E2E2E2E2E2E2E2F5E2E2E2E2F5E2E2E2E2E2E2E2F5E2E2E2E2F5E2E2E2E2E2E2F5E2F5F5F5F5
310
F5F5F5F5F5F5F5F5F5F5F5F5F5F5F5F5F5F5F5F5F5F5F5F5F5F5F5F5F5F5F5F5F5F5F5F5F5F5F5F5F5F5F5F5F5F5F5F5F5F5F5F5F5F5F5F5F5F5F5F5F5F5F5F5F5F5F5F5F5F5F5F5F5F5F5F5F5F5F5F5F5F5F5F5F5F5F5F5F5F5F5F5F5F5F5F5F5F5F5F5F5F5F5F5F5F5E2F5F5E2E2EFE2F5F5F5E2F5F5F5F5F5F5F5F5E2E2
310
E2E2E2E2E2E2E2E2F5E2E2E2E2E2E2E2E2E2E2E2E2E2F5E2E2E2E2E2E2E2E2E2F5E2E2F5E2E2E2E2F5E2E2E2E2F5E2E2E2F5F5F5F5F5F5F5F5F5F5F5F5F5F5F5F5F5F5F5F5F5F5F5F5F5F5F5F5F5F5F5F5F5F5F5F5F5F5F5F5F5F5F5F5F5F5F5F5F5F5F5F5F5F5F5F5F5F5F5F5F5F5F5F5F5F5F5F5F5F5F5F5F5F5F5F5F5F5
310
F5F5F5F5F5F5F5F5F5F5F5F5F5F5F5F5F5F5F5F5F5F5F5F5F5F5F5F5F5F5F5F5E2F5F5E2E2EFE2F5F5F5E2F5F5F5F5F5F5F5F5F5F5F5F5F5F5F5F5F5F5F5F5F5F5F5F5F5F5F5F5F5F5F5F5F5F5F5F5F5F5F5F5F5F5F5F5F5F5F5F5F5F5F5F5F5F5F5F5F5F5F5F5F5F5F5F5F5F5F5F5F5F5F5F5F5F5F5F5F5F5F5F5F5F5F5F5
310
F5F5F5F5F5F5F5F5F5F5F5F5F5F5F5F5F5F5F5F5F5F5F5F5F5F5F5F5F5F5F5F5F5F5F5F5F5F5F5F5F5F5F5F5F5F5F5F5F5F5F5F5F5F5F5F5F5F5F5F5F5F5F5F5F5F5F5F5F5F5F5F5F5F5F5F5F5F5F5F5F5F5F5F5F5E2F5F5E2E2EFE2F5F5F5E2F5F5F5F5F5F5F5F5F5F5F5F5F5F5F5F5F5F5F5F5F5F5F5F5F5F5F5F5F5F5F5
310
F5F5F5F5F5F5F5F5F5F5F5F5F5F5F5F5F5F5F5F5F5F5F5F5F5F5F5F5F5F5F5F5F5F5F5F5F5F5F5F5F5F5F5F5F5F5F5F5F5F5F5F5F5F5F5F5F5F5F5F5F5F5F5F5F5F5F5F5F5F5F5F5F5F5F5F5F5F5F5F5F5F5F5F5F5F5F5F5F5F5F5F5F5F5F5F5F5F5F5F5F5F5F5F5F5F5F5F5F5F5F5F5F5F5F5F5F5F5F5F5F5F5F5F5F5F5F5
310
F5F5F5F5F5F5F5F5F5F5F5E2F5F5E2E2EFE2F5F5F5E2F5F5F5F5F5F5F5F5F5F5F5F5F5F5F5F5F5F5F5F5F5F5F5F5F5F5F5F5F5F5F5F5F5F5F5F5F5F5F5F5F5F5F5F5F5F5F5F5F5F5F5F5F5F5F5F5F5F5F5F5F5F5F5F5F5F5F5F5F5F5F5F5F5F5F5F5F5F5F5F5F5F5F5F5F5F5F5F5F5F5F5F5F5F5F5F5F5F5F5F5F5F5F5F5F5
310
F5F5F5F5F5F5F5F5F5F5F5F5F5F5F5F5F5F5F5F5F5F5F5F5F5F5F5F5F5F5F5F5F5F5F5F5F5F5F5F5F5F5F5F5F5F5F5F5F5F5F5F5F5F5F5F5F5F5F5F5F5F5F5F5E2F5F5E2E2EFE2F5F5F5E2F5F5F5F5F5F5F5F5F5F5F5F5F5F5F5F5F5F5F5F5F5F5F5F5F5F5F5F5F5F5F5F5F5F5F5F5F5F5F5F5F5F5F5F5F5F5F5F5F5F5F5F5
310
F5F5F5F5F5F5F5F5F5F5F5F5F5F5F5F5F5F5F5F5F5F5F5F5F5F5F5F5F5F5F5F5F5F5F5F5F5F5F5F5F5F5F5F5F5F5F5F5F5F5F5F5F5F5F5F5F5F5F5F5F5F5F5F5F5F5F5F5F5F5F5F5F5F5F5F5F5F5F5F5F5F5F5F5F5F5F5F5F5F5F5F5F5F5F5F5F5F5F5F5F5F5F5F5F5F5F5F5F5F5F5F5F5F5F5F5F5E2F5F5E2E2EFE2F5F5F5
310
E2F5F5F5F5F5F5F5F5F5F5F5F5F5F5F5F5F5F5F5F5F5F5F5F5F5F5F5F5F5F5F5F5F5F5F5F5F5F5F5F5F5F5F5F5F5F5F5F5F5F5F5F5F5F5F5F5F5F5F5F5F5F5F5F5F5F5F5F5F5F5F5F5E2E2F5E2F5E2E2E2E2F5E2F5E2E2E2E2E2E2E2F5E2E2F5F5F5F5E2E2F5E2E2E2E2F5E2E2E2E2E2F5E2E2E2E2E2E2F5E2F5F5F5F5F5F5
310
F5F5F5F5F5F5F5F5F5F5F5F5F5F5F5F5F5F5F5F5F5F5F5F5F5F5F5F5F5F5F5F5F5F5F5F5F5F5F5F5F5F5E2E2F5F5E2E2EFE2F5F5F5E2F5F5F5F5F5F5F5F5F5F5F5F5F5F5F5F5F5F5F5F5F5F5F5F5F5F5F5F5F5F5F5F5F5F5F5F5F5F5F5F5F5F5F5F5F5F5F5F5F5F5F5F5F5F5F5F5F5F5F5F5F5F5F5F5F5F5F5F5F5F5F5F5E2
310
E2E2F5E2E2E2E2E2E2E2F5E2F5E2E2E2F5E2F5E2E2E2F5F5F5E2E2E2E2E2E2E2E2E2E2E2F5E2F5E2F5E2E2F5E2E2E2F5F5F5F5F5F5F5F5F5F5F5F5F5F5F5F5F5F5F5F5F5F5F5F5F5F5F5F5F5F5F5F5F5F5F5F5F5F5F5F5F5F5F5F5F5F5F5F5E2E2F5F5E2E2EFE2F5F5F5E2F5F5F5F5F5F5F5F5F5F5F5F5F5F5F5F5F5F5F5F5
310
F5F5F5F5F5F5F5F5F5F5F5F5F5F5F5F5F5F5F5F5F5F5F5F5F5F5F5F5F5F5F5F5F5F5F5F5F5F5F5F5F5F5F5F5F5F5F5F5F5F5F5F5E2E2E2E2E2E2E2E2F5E2F5E2E2E2F5E2F5E2F5E2E2F5F5F5F5F5E2E2F5E2F5E2E2E2E2E2E2F5E2F5E2F5E2E2F5E2E2E2F5F5F5F5F5F5F5F5F5F5F5F5F5F5F5F5F5F5F5F5F5F5F5F5F5F5F5
310
F5F5F5F5F5F5F5F5F5F5F5F5F5F5F5F5F5F5F5F5F5E2E2F5F5E2E2EFE2F5F5F5E2F5F5F5F5F5F5F5F5F5F5F5F5F5F5F5F5F5F5F5F5F5F5F5F5F5F5F5F5F5F5F5F5F5F5F5F5F5F5F5F5F5F5F5F5F5F5F5F5F5F5F5F5F5F5F5F5F5F5F5F5F5F5F5F5F5F5F5F5F5F5F5F5E2E2F5E2F5E2E2E2E2E2E2E2E2E2E2F5E2F5E2E2F5E2
310
F5F5F5E2E2E2E2E2F5E2E2F5E2E2E2E2E2E2E2E2E2E2E2E2F5E2F5F5F5F5F5F5F5F5F5F5F5F5F5F5F5F5F5F5F5F5F5F5F5F5F5F5F5F5F5F5F5F5F5F5F5F5F5F5F5F5F5F5F5F5F5F5F5F5E2E2F5F5E2E2EFE2F5F5F5E2F5F5F5F5F5F5F5F5F5F5F5F5F5F5F5F5F5F5F5F5F5F5F5F5F5F5F5F5F5F5F5F5F5F5F5F5F5F5F5F5F5
310
F5F5F5F5F5F5F5F5F5F5F5F5F5F5F5F5F5F5F5F5F5F5F5F5F5F5F5F5F5F5F5F5F5F5F5F5F5F5F5F5F5F5F5F5F5F5F5F5F5F5F5F5F5F5F5F5F5F5F5F5F5F5F5F5F5F5F5F5F5F5F5F5F5F5F5F5F5F5F5F5F5F5F5F5F5F5F5F5F5F5F5F5F5F5F5F5F5F5F5F5F5F5F5F5F5F5F5F5F5F5F5F5F5F5F5F5F5F5F5F5F5F5F5F5F5F5F5
310
E2E2F5F5E2E2EFE2F5F5F5E2F5F5F5F5F5F5F5F5F5F5F5F5F5F5F5F5F5F5F5F5F5F5F5F5F5F5F5F5F5F5F5F5F5F5F5F5F5F5F5F5F5F5F5F5F5F5F5F5F5F5F5F5F5F5F5F5F5F5F5F5F5F5F5F5F5F5F5F5F5F5F5F5F5F5F5F5F5F5F5F5F5F5F5F5F5F5F5F5F5F5F5F5F5F5F5F5F5F5F5F5F5F5F5F5F5F5F5F5F5F5F5F5F5F5F5
310
F5F5F5F5F5F5F5F5F5F5F5F5F5F5F5F5F5F5F5F5F5F5F5F5F5F5F5F5F5F5F5F5F5F5F5F5F5F5F5F5F5F5F5F5F5F5F5F5F5F5F5F5F5E2E2F5F5E2E2EFE2F5F5F5E2F5F5F5F5F5F5F5F5F5F5F5F5F5F5F5F5F5F5F5F5F5F5F5F5F5F5F5F5F5F5F5F5F5F5F5F5F5F5F5F5F5F5F5F5F5F5F5F5F5F5F5F5F5F5F5F5F5F5F5F5F5F5
310
F5F5F5F5F5F5F5F5F5F5F5F5F5F5F5F5F5F5F5F5F5F5F5F5F5F5F5F5F5F5F5F5F5F5F5F5F5F5F5F5F5F5F5F5F5F5F5F5F5F5F5F5F5F5F5F5F5F5F5F5F5F5F5F5F5F5F5F5F5F5F5F5F5F5F5F5F5F5F5F5F5F5F5F5F5F5F5F5F5F5F5F5F5F5F5F5F5F5F5F5F5F5F5F5F5F5E2E2F5F5E2E2EFE2F5F5F5E2F5F5F5F5F5F5F5F5F5
310
F5F5F5F5F5F5F5F5F5F5F5F5F5F5F5F5F5F5F5F5F5F5F5F5F5F5F5F5F5F5F5F5F5F5F5F5F5F5F5F5F5F5F5F5F5F5F5F5F5F5F5F5F5F5F5F5F5F5F5F5F5F5F5F5F5F5F5F5F5F5F5F5F5F5F5F5F5F5F5F5F5F5F5F5F5F5F5F5F5F5F5F5F5F5F5F5F5F5F5F5F5F5F5F5F5F5F5F5F5F5F5F5F5F5F5F5F5F5F5F5F5F5F5F5F5F5F5
310
F5F5F5F5F5F5F5F5F5F5F5F5F5F5F5F5F5F5F5F5F5F5F5F5F5F5F5F5F5F5F5F5E2E2F5F5E2E2EFE2F5F5F5E2E2E2E2E2E2E2E2E2E2E2E2E2E2E2E2E2E2E2E2E2E2E2E2E2E2E2E2E2E2E2E2E2E2E2E2E2E2E2E2E2E2E2E2E2E2E2E2E2E2E2E2E2E2E2E2E2E2E2E2E2E2E2E2E2E2E2E2E2E2E2E2E2E2E2E2E2E2E2E2E2E2E2E2
310
E2E2E2E2E2E2E2E2E2E2E2E2E2E2E2E2E2E2E2E2E2E2E2E2E2E2E2E2E2E2E2E2E2E2E2E2E2E2E2E2E2E2E2E2E2E2E2E2E2E2E2E2E2E2E2E2E2E2E2E2E2E2E2E2E2E2E2E2E2E2E2E2E2E2E2E2E2E2E2E2E2E2E2E2E2E2E2F5F5E2E2EFE2F5F5F5F5F5F5F5F5F5F5F5F5F5F5F5F5F5F5F5F5F5F5F5F5F5F5F5F5F5F5F5F5F5F5
310
F5F5F5F5F5F5F5F5F5F5F5F5F5F5F5F5F5F5F5F5F5F5F5F5F5F5F5F5F5F5F5F5F5F5F5F5F5F5F5F5F5F5F5F5F5F5F5F5F5F5F5F5F5F5F5F5F5F5F5F5F5F5F5F5F5F5F5F5F5F5F5F5F5F5F5F5F5F5F5F5F5F5F5F5F5F5F5F5F5F5F5F5F5F5F5F5F5F5F5F5F5F5F5F5F5F5F5F5F5F5F5F5F5F5F5F5F5F5F5F5F5F5F5F5F5F5F5
310
F5F5F5F5F5F5F5F5F5F5F5F5F5F5F5E2E2EFE2F5F5F5F5F5F5F5F5F5F5F5F5F5F5F5F5F5F5F5F5F5F5F5F5F5F5F5F5F5F5F5F5F5F5F5F5F5F5F5F5F5F5F5F5F5F5F5F5F5F5F5F5F5F5F5F5F5F5F5F5F5F5F5F5F5F5F5F5F5F5F5F5F5F5F5F5F5F5F5F5F5F5F5F5F5F5F5F5F5F5F5F5F5F5F5F5F5F5F5F5F5F5F5F5F5F5F5F5
310
F5F5F5F5F5F5F5F5F5F5F5F5F5F5F5F5F5F5F5F5F5F5F5F5F5F5F5F5F5F5F5F5F5F5F5F5F5F5F5F5F5F5F5F5F5F5F5F5F5F5F5F5F5F5F5F5F5F5F5F5F5F5F5F5F5F5F5F5E2EFEFE2F5F5F5F5F5F5F5F5F5F5F5F5F5F5F5F5F5F5F5F5F5F5F5F5F5F5F5F5F5F5F5F5F5F5F5F5F5F5F5F5F5F5F5F5F5F5F5F5F5F5F5F5F5F5F5
310
F5F5F5F5F5F5F5F5F5F5F5F5F5F5F5F5F5F5F5F5F5F5F5F5F5F5F5F5F5F5F5F5F5F5F5F5F5F5F5F5F5F5F5F5F5F5F5F5F5F5F5F5F5F5F5F5F5F5F5F5F5F5F5F5F5F5F5F5F5F5F5F5F5F5F5F5F5F5F5F5F5F5F5F5F5F5F5F5F5F5F5F5F5F5F5F5F5F5F5F5F5F5F5F5F5F5F5F5F5F5F5F5F5F5F5F5F5F5F5F5F5E2EFEFE2E2E2
310
E2E2E2E2E2E2E2E2E2E2E2E2E2E2E2E2E2E2E2E2E2E2E2E2E2E2E2E2E2E2E2E2E2E2E2E2E2E2E2E2E2E2E2E2E2E2E2E2E2E2E2E2E2E2E2E2E2E2E2E2E2E2E2E2E2E2E2E2E2E2E2E2E2E2E2E2E2E2E2E2E2E2E2E2E2E2E2E2E2E2E2E2E2E2E2E2E2E2E2E2E2E2E2E2E2E2E2E2E2E2E2E2E2E2E2E2E2E2E2E2E2E2E2E2E2E2E2
310
E2E2E2E2E2E2E2E2E2E2E2E2E2E2E2E2E2E2E2E2E2E2E2E2E2E2E2E2E2E2E2E2E2E2E2E2E2E2E2E2E2E2E2E2E2E2E2E2EF
  0
XRECORD
  5
93E
102
{ACAD_REACTORS
330
93D
102
}
330
93D
100
AcDbXrecord
280
     1
102
SHADEPLOT
 70
     0
102
SHADEPLOTRESLEVEL
 70
     2
102
SHADEPLOTCUSTOMDPI
 70
   300
  0
ENDSEC
  0
EOF
